osu file format v14

[General]
AudioFilename: audio.mp3
AudioLeadIn: 0
PreviewTime: 5741
Countdown: 0
SampleSet: Soft
StackLeniency: 0.4
Mode: 0
LetterboxInBreaks: 0
WidescreenStoryboard: 0

[Editor]
Bookmarks: 53574
DistanceSpacing: 1.3
BeatDivisor: 4
GridSize: 4
TimelineZoom: 1.7

[Metadata]
Title:Rage Over a Lost Penny
TitleUnicode:Rage Over a Lost Penny
Artist:Ludwig van Beethoven
ArtistUnicode:Ludwig van Beethoven
Creator:Noivernn
Version:Rage Over a Seven-Star Map
Source:
Tags:
BeatmapID:1765375
BeatmapSetID:843835

[Difficulty]
HPDrainRate:5
CircleSize:3.9
OverallDifficulty:8
ApproachRate:9.5
SliderMultiplier:1.4
SliderTickRate:2

[Events]
//Background and Video events
0,0,"beethoven_810_500_75_s_c1.jpg",0,0
//Break Periods
2,64441,66549
2,126107,133716
//Storyboard Layer 0 (Background)
//Storyboard Layer 1 (Fail)
//Storyboard Layer 2 (Pass)
//Storyboard Layer 3 (Foreground)
//Storyboard Sound Samples

[TimingPoints]
5741.61067359343,333.333333333333,4,2,1,8,1,0
16408,-100,4,2,1,8,0,0
21741,-83.3333333333333,4,2,1,8,0,1
26991,-100,4,2,1,8,0,0
43074,-100,4,2,1,8,0,1
64408,-100,4,2,1,8,0,0
106741,-83.3333333333333,4,2,1,8,0,0
106908,333.333333333333,4,2,1,8,1,0
106908,-83.3333333333333,4,2,1,8,0,0
110241,333.333333333333,4,2,1,8,1,0
110241,-83.3333333333333,4,2,1,8,0,1
115574,-71.4285714285714,4,2,1,8,0,1
120908,-55.5555555555556,4,2,1,8,0,1
126074,-83.3333333333333,4,2,1,8,0,0
144908,-71.4285714285714,4,2,1,8,0,0
152908,-83.3333333333333,4,2,1,8,0,0
163074,-133.333333333333,4,2,1,8,0,0
168908,-100,4,2,1,8,0,0
199574,-71.4285714285714,4,2,1,8,0,0
204907,-71.4285714285714,4,2,1,8,0,1
210240,-111.111111111111,4,2,1,8,0,0
218240,-50,4,2,1,8,0,1
232907,-66.6666666666667,4,2,1,8,0,1
250240,-71.4285714285714,4,2,1,8,0,0

[HitObjects]
56,112,5741,6,0,L|140:104,1,70
214,124,6074,1,0,0:0:0:0:
296,152,6241,1,0,0:0:0:0:
268,235,6408,1,0,0:0:0:0:
185,206,6574,1,0,0:0:0:0:
268,235,6741,2,0,P|312:219|340:215,1,70
440,252,7074,5,0,0:0:0:0:
444,292,7158,1,0,0:0:0:0:
428,328,7241,1,0,0:0:0:0:
392,348,7324,1,0,0:0:0:0:
348,352,7408,2,0,P|296:344|276:320,1,70
185,206,7741,1,0,0:0:0:0:
175,166,7825,1,0,0:0:0:0:
186,128,7908,1,0,0:0:0:0:
219,102,7991,1,0,0:0:0:0:
260,87,8075,2,0,P|312:86|335:107,1,70
325,94,8408,6,0,L|333:178,1,70
313,252,8741,1,0,0:0:0:0:
285,334,8908,1,0,0:0:0:0:
202,306,9075,1,0,0:0:0:0:
231,223,9241,1,0,0:0:0:0:
202,306,9408,2,0,P|218:350|222:378,1,70
52,277,9741,5,0,0:0:0:0:
32,241,9824,1,0,0:0:0:0:
28,197,9908,1,0,0:0:0:0:
36,157,9991,1,0,0:0:0:0:
53,118,10074,1,0,0:0:0:0:
216,156,10241,1,0,0:0:0:0:
216,156,10324,1,0,0:0:0:0:
216,156,10408,2,0,P|231:194|221:248,1,70
137,69,10741,2,0,P|137:34|151:2,1,70
230,222,11074,5,0,0:0:0:0:
215,274,11158,1,0,0:0:0:0:
186,319,11241,1,0,0:0:0:0:
142,343,11324,1,0,0:0:0:0:
88,340,11408,1,0,0:0:0:0:
47,311,11491,1,0,0:0:0:0:
15,272,11574,1,0,0:0:0:0:
2,222,11658,1,0,0:0:0:0:
1,169,11741,2,0,P|4:131|33:81,1,70
137,69,12074,2,0,P|134:107|105:157,1,70
244,40,12408,5,0,0:0:0:0:
296,40,12491,1,0,0:0:0:0:
348,40,12574,1,0,0:0:0:0:
400,40,12658,1,0,0:0:0:0:
452,40,12741,1,0,0:0:0:0:
284,168,13074,5,0,0:0:0:0:
336,168,13157,1,0,0:0:0:0:
388,168,13240,1,0,0:0:0:0:
440,168,13324,1,0,0:0:0:0:
492,168,13407,1,0,0:0:0:0:
267,234,13741,5,0,0:0:0:0:
284,284,13825,1,0,0:0:0:0:
315,327,13908,1,0,0:0:0:0:
361,349,13991,1,0,0:0:0:0:
414,344,14075,1,0,0:0:0:0:
454,312,14158,1,0,0:0:0:0:
483,272,14241,1,0,0:0:0:0:
494,221,14325,1,0,0:0:0:0:
492,168,14408,2,0,P|487:130|455:81,1,70
296,40,14741,2,0,P|300:77|332:126,1,70
142,178,15074,6,0,L|88:154,1,35
183,342,15241,2,0,L|214:327,1,35
284,168,15408,2,0,L|252:182,1,35
195,24,15574,2,0,L|227:39,1,35
110,163,15741,1,0,0:0:0:0:
142,178,16074,1,0,0:0:0:0:
56,272,16408,6,0,L|140:280,1,70
214,260,16741,1,0,0:0:0:0:
296,232,16908,1,0,0:0:0:0:
185,178,17074,1,0,0:0:0:0:
268,149,17241,1,0,0:0:0:0:
268,149,17408,2,0,P|312:165|340:169,1,70
440,132,17741,5,0,0:0:0:0:
444,92,17825,1,0,0:0:0:0:
428,56,17908,1,0,0:0:0:0:
392,36,17991,1,0,0:0:0:0:
348,32,18075,2,0,P|296:40|276:64,1,70
185,178,18408,1,0,0:0:0:0:
175,218,18492,1,0,0:0:0:0:
186,256,18575,1,0,0:0:0:0:
219,282,18658,1,0,0:0:0:0:
260,297,18742,2,0,P|312:298|335:277,1,70
325,290,19075,6,0,L|333:206,1,70
313,132,19408,1,0,0:0:0:0:
285,50,19575,1,0,0:0:0:0:
231,161,19741,1,0,0:0:0:0:
202,78,19908,1,0,0:0:0:0:
202,78,20075,2,0,P|218:34|222:6,1,70
52,107,20408,5,0,0:0:0:0:
32,143,20491,1,0,0:0:0:0:
28,187,20575,1,0,0:0:0:0:
36,227,20658,1,0,0:0:0:0:
53,266,20741,1,0,0:0:0:0:
216,228,20908,1,0,0:0:0:0:
216,228,20991,1,0,0:0:0:0:
216,228,21075,2,0,P|231:190|221:136,1,70
137,315,21408,1,0,0:0:0:0:
115,205,21741,5,2,0:0:0:0:
64,186,21824,1,0,0:0:0:0:
36,140,21908,1,2,0:0:0:0:
45,85,21991,1,0,0:0:0:0:
88,50,22074,1,0,0:0:0:0:
143,50,22158,1,0,0:0:0:0:
184,85,22241,1,2,0:0:0:0:
194,139,22324,1,0,0:0:0:0:
161,183,22408,5,2,0:0:0:0:
165,238,22491,1,0,0:0:0:0:
201,278,22575,1,2,0:0:0:0:
256,286,22658,1,0,0:0:0:0:
301,255,22741,1,0,0:0:0:0:
317,203,22825,1,0,0:0:0:0:
296,153,22908,1,2,0:0:0:0:
314,102,22990,1,0,0:0:0:0:
360,73,23074,5,2,0:0:0:0:
415,82,23157,1,0,0:0:0:0:
450,123,23240,1,2,0:0:0:0:
451,177,23324,1,0,0:0:0:0:
418,221,23407,1,0,0:0:0:0:
362,230,23491,1,0,0:0:0:0:
316,203,23574,1,2,0:0:0:0:
296,153,23657,1,0,0:0:0:0:
249,130,23741,5,2,0:0:0:0:
194,139,23824,1,0,0:0:0:0:
159,180,23907,1,2,0:0:0:0:
158,234,23991,1,0,0:0:0:0:
148,287,24074,1,0,0:0:0:0:
115,331,24157,1,0,0:0:0:0:
59,340,24241,1,0,0:0:0:0:
13,313,24324,1,0,0:0:0:0:
4,258,24408,6,0,L|8:214,3,41.9999987182618
155,138,24741,2,0,L|158:179,3,41.9999987182618
318,277,25074,2,0,L|314:233,3,41.9999987182618
457,124,25407,2,0,L|453:165,3,41.9999987182618
452,182,25741,5,0,0:0:0:0:
452,198,25824,1,0,0:0:0:0:
450,214,25908,1,0,0:0:0:0:
449,230,25991,1,0,0:0:0:0:
448,246,26074,1,0,0:0:0:0:
447,262,26158,1,0,0:0:0:0:
447,278,26241,1,0,0:0:0:0:
447,294,26324,1,0,0:0:0:0:
404,259,26408,5,0,0:0:0:0:
352,241,26491,1,0,0:0:0:0:
301,260,26574,1,0,0:0:0:0:
267,303,26658,1,0,0:0:0:0:
229,341,26741,1,0,0:0:0:0:
174,344,26824,1,0,0:0:0:0:
132,307,26908,1,0,0:0:0:0:
108,268,26991,1,0,0:0:0:0:
81,231,27074,6,0,P|56:280|40:304,1,70
89,121,27408,1,0,0:0:0:0:
161,279,27574,1,0,0:0:0:0:
208,110,27741,1,0,0:0:0:0:
81,231,27908,1,0,0:0:0:0:
248,183,28074,2,0,P|282:151|289:119,1,70
376,282,28408,5,0,0:0:0:0:
376,303,28492,1,0,0:0:0:0:
376,324,28575,1,0,0:0:0:0:
376,345,28658,1,0,0:0:0:0:
376,366,28741,1,0,0:0:0:0:
205,137,29075,5,0,0:0:0:0:
205,116,29158,1,0,0:0:0:0:
206,95,29241,1,0,0:0:0:0:
206,74,29324,1,0,0:0:0:0:
206,53,29408,1,0,0:0:0:0:
378,70,29741,6,0,P|383:127|388:156,1,70
414,312,30074,1,0,0:0:0:0:
487,153,30241,1,0,0:0:0:0:
353,267,30408,1,0,0:0:0:0:
292,103,30574,1,0,0:0:0:0:
244,287,30741,2,0,P|218:334|179:354,1,70
223,168,31074,2,0,L|197:122,4,35
347,291,31574,1,0,0:0:0:0:
353,267,31658,1,0,0:0:0:0:
357,243,31741,2,0,P|395:269|435:274,1,70
487,153,32074,2,0,P|449:127|409:122,1,70
285,119,32408,5,0,0:0:0:0:
250,121,32491,1,0,0:0:0:0:
222,142,32574,1,0,0:0:0:0:
210,175,32658,1,0,0:0:0:0:
203,209,32741,1,0,0:0:0:0:
180,182,32824,1,0,0:0:0:0:
151,161,32908,1,0,0:0:0:0:
116,153,32991,1,0,0:0:0:0:
81,157,33074,2,0,P|79:202|64:253,1,70
125,369,33408,2,0,P|127:324|142:273,1,70
203,209,33741,5,0,0:0:0:0:
210,175,33824,1,0,0:0:0:0:
222,142,33908,1,0,0:0:0:0:
250,121,33991,1,0,0:0:0:0:
283,129,34074,2,0,P|296:94|311:64,1,70
293,236,34408,5,0,0:0:0:0:
300,270,34491,1,0,0:0:0:0:
312,303,34575,1,0,0:0:0:0:
340,324,34658,1,0,0:0:0:0:
373,316,34741,2,0,P|386:351|401:381,1,70
428,64,35074,5,0,0:0:0:0:
403,39,35158,1,0,0:0:0:0:
369,30,35241,1,0,0:0:0:0:
335,39,35324,1,0,0:0:0:0:
310,64,35408,1,0,0:0:0:0:
301,97,35491,1,0,0:0:0:0:
310,131,35574,1,0,0:0:0:0:
335,156,35658,1,0,0:0:0:0:
368,166,35741,2,0,P|409:160|433:124,1,70
363,246,36074,2,0,L|377:346,1,70
252,231,36408,5,0,0:0:0:0:
212,238,36491,1,0,0:0:0:0:
172,232,36574,1,0,0:0:0:0:
146,203,36658,1,0,0:0:0:0:
136,164,36741,1,0,0:0:0:0:
125,126,36824,1,0,0:0:0:0:
97,98,36908,1,0,0:0:0:0:
58,93,36991,1,0,0:0:0:0:
26,109,37074,2,0,P|0:148|6:196,1,70
47,302,37408,1,0,0:0:0:0:
47,302,37574,1,0,0:0:0:0:
252,231,37741,5,0,0:0:0:0:
234,102,37908,1,0,0:0:0:0:
185,292,38074,1,0,0:0:0:0:
185,292,38241,1,0,0:0:0:0:
330,147,38408,1,0,0:0:0:0:
330,147,38574,1,0,0:0:0:0:
143,222,38741,1,0,0:0:0:0:
400,225,38908,1,0,0:0:0:0:
225,170,39074,6,0,L|192:137,4,35
298,249,39574,1,0,0:0:0:0:
185,292,39741,2,0,L|152:325,4,35
225,170,40241,1,0,0:0:0:0:
298,249,40408,5,0,0:0:0:0:
330,147,40574,1,0,0:0:0:0:
338,333,40741,1,0,0:0:0:0:
338,333,40908,1,0,0:0:0:0:
225,170,41074,1,0,0:0:0:0:
225,170,41241,1,0,0:0:0:0:
413,282,41408,1,0,0:0:0:0:
185,292,41574,1,0,0:0:0:0:
373,150,41741,6,0,L|335:189,4,35
211,55,42241,1,0,0:0:0:0:
221,76,42324,1,0,0:0:0:0:
233,97,42408,2,0,P|154:78|96:92,1,140
44,187,42908,1,0,0:0:0:0:
130,256,43074,5,2,0:0:0:0:
193,256,43158,1,0,0:0:0:0:
224,201,43241,1,2,0:0:0:0:
193,146,43324,1,0,0:0:0:0:
130,146,43408,1,0,0:0:0:0:
98,91,43491,1,0,0:0:0:0:
130,36,43574,1,2,0:0:0:0:
193,36,43658,1,0,0:0:0:0:
224,91,43741,5,2,0:0:0:0:
193,146,43824,1,0,0:0:0:0:
224,201,43908,1,2,0:0:0:0:
287,201,43992,1,0,0:0:0:0:
318,146,44075,1,0,0:0:0:0:
382,146,44158,1,0,0:0:0:0:
413,201,44241,1,2,0:0:0:0:
382,256,44324,1,0,0:0:0:0:
344,315,44408,5,2,0:0:0:0:
275,322,44491,1,0,0:0:0:0:
225,272,44574,1,2,0:0:0:0:
224,201,44658,1,0,0:0:0:0:
169,157,44741,1,0,0:0:0:0:
101,173,44824,1,0,0:0:0:0:
71,236,44908,1,2,0:0:0:0:
101,299,44991,1,0,0:0:0:0:
169,314,45074,5,2,0:0:0:0:
224,271,45157,1,0,0:0:0:0:
286,236,45241,1,2,0:0:0:0:
350,264,45324,1,0,0:0:0:0:
413,234,45407,1,0,0:0:0:0:
428,165,45491,1,0,0:0:0:0:
385,111,45575,1,2,0:0:0:0:
315,111,45658,1,0,0:0:0:0:
254,168,45741,5,2,0:0:0:0:
221,245,45824,1,0,0:0:0:0:
143,275,45908,1,2,0:0:0:0:
65,242,45991,1,0,0:0:0:0:
53,158,46075,1,0,0:0:0:0:
117,104,46158,1,0,0:0:0:0:
201,111,46242,1,2,0:0:0:0:
255,174,46325,1,0,0:0:0:0:
260,257,46408,5,2,0:0:0:0:
314,321,46491,1,0,0:0:0:0:
398,328,46574,1,2,0:0:0:0:
462,273,46658,1,0,0:0:0:0:
457,189,46741,1,0,0:0:0:0:
397,131,46824,1,0,0:0:0:0:
313,132,46907,1,2,0:0:0:0:
259,66,46991,1,0,0:0:0:0:
243,51,47074,5,2,0:0:0:0:
225,39,47158,1,0,0:0:0:0:
204,33,47241,1,0,0:0:0:0:
183,33,47324,1,0,0:0:0:0:
161,35,47408,5,2,0:0:0:0:
145,48,47491,1,0,0:0:0:0:
131,63,47574,1,0,0:0:0:0:
110,68,47658,1,0,0:0:0:0:
89,71,47741,2,0,L|34:60,6,35
176,131,48408,5,2,0:0:0:0:
239,131,48492,1,0,0:0:0:0:
270,186,48575,1,2,0:0:0:0:
239,241,48658,1,0,0:0:0:0:
176,241,48742,1,0,0:0:0:0:
144,296,48825,1,0,0:0:0:0:
176,351,48908,1,2,0:0:0:0:
239,351,48992,1,0,0:0:0:0:
270,296,49074,5,2,0:0:0:0:
239,241,49158,1,0,0:0:0:0:
270,186,49242,1,2,0:0:0:0:
333,186,49326,1,0,0:0:0:0:
364,241,49409,1,0,0:0:0:0:
428,241,49492,1,0,0:0:0:0:
459,186,49575,1,2,0:0:0:0:
428,131,49658,1,0,0:0:0:0:
390,72,49742,5,2,0:0:0:0:
321,65,49825,1,0,0:0:0:0:
271,115,49908,1,2,0:0:0:0:
270,186,49992,1,0,0:0:0:0:
215,230,50075,1,0,0:0:0:0:
147,214,50158,1,0,0:0:0:0:
117,151,50242,1,2,0:0:0:0:
147,88,50325,1,0,0:0:0:0:
215,73,50408,5,2,0:0:0:0:
270,116,50491,1,0,0:0:0:0:
332,151,50575,1,2,0:0:0:0:
396,123,50658,1,0,0:0:0:0:
459,153,50741,1,0,0:0:0:0:
474,222,50825,1,0,0:0:0:0:
431,276,50909,1,2,0:0:0:0:
361,276,50992,1,0,0:0:0:0:
300,219,51075,5,2,0:0:0:0:
267,142,51158,1,0,0:0:0:0:
189,112,51242,1,2,0:0:0:0:
111,145,51325,1,0,0:0:0:0:
99,229,51409,1,0,0:0:0:0:
163,283,51492,1,0,0:0:0:0:
247,276,51576,1,2,0:0:0:0:
301,213,51659,1,0,0:0:0:0:
306,130,51742,5,2,0:0:0:0:
360,66,51825,1,0,0:0:0:0:
444,59,51908,1,2,0:0:0:0:
508,114,51992,1,0,0:0:0:0:
503,198,52075,1,0,0:0:0:0:
443,256,52158,1,0,0:0:0:0:
359,255,52241,1,2,0:0:0:0:
305,321,52325,1,0,0:0:0:0:
289,336,52408,5,2,0:0:0:0:
271,348,52492,1,0,0:0:0:0:
250,354,52575,1,0,0:0:0:0:
229,354,52658,1,0,0:0:0:0:
207,352,52742,5,2,0:0:0:0:
191,339,52825,1,0,0:0:0:0:
177,324,52908,1,0,0:0:0:0:
156,319,52992,1,0,0:0:0:0:
135,316,53075,2,0,L|80:327,4,35
58,121,53574,1,0,0:0:0:0:
58,121,53741,6,2,L|59:87,1,35
256,13,53908,2,0,L|255:54,1,35
172,199,54074,2,0,L|172:164,1,35
362,80,54241,2,2,L|361:121,1,35
508,208,54408,2,2,L|515:153,3,35
375,218,54741,2,2,L|379:252,3,35
453,262,55074,6,2,L|453:297,1,35
258,357,55241,2,0,L|259:316,1,35
375,183,55408,2,0,L|374:217,1,35
149,292,55575,2,0,L|150:251,1,35
4,176,55741,2,2,L|-3:231,3,35
137,166,56074,2,2,L|133:132,3,35
70,299,56408,5,2,0:0:0:0:
77,329,56491,1,0,0:0:0:0:
93,356,56574,1,0,0:0:0:0:
116,377,56658,1,0,0:0:0:0:
144,391,56741,1,0,0:0:0:0:
175,396,56824,1,0,0:0:0:0:
206,391,56908,1,2,0:0:0:0:
235,378,56991,1,0,0:0:0:0:
258,357,57074,5,2,0:0:0:0:
275,331,57158,1,0,0:0:0:0:
283,300,57241,1,0,0:0:0:0:
291,270,57324,1,0,0:0:0:0:
298,240,57407,1,0,0:0:0:0:
314,213,57490,1,0,0:0:0:0:
337,191,57574,1,0,0:0:0:0:
366,178,57657,1,0,0:0:0:0:
397,180,57741,6,2,L|397:233,3,35
512,181,58074,2,2,L|512:146,3,35
472,299,58408,6,2,L|486:340,4,35
453,87,58908,1,0,0:0:0:0:
453,87,59074,5,2,0:0:0:0:
397,19,59157,1,0,0:0:0:0:
311,4,59240,1,0,0:0:0:0:
235,48,59323,1,0,0:0:0:0:
212,132,59407,1,0,0:0:0:0:
205,219,59491,1,0,0:0:0:0:
129,263,59573,1,0,0:0:0:0:
43,248,59657,1,0,0:0:0:0:
7,167,59741,2,2,L|0:112,3,35
212,132,60074,2,2,L|208:166,3,35
43,248,60407,5,2,0:0:0:0:
99,316,60490,1,0,0:0:0:0:
185,331,60573,1,0,0:0:0:0:
261,287,60656,1,0,0:0:0:0:
284,203,60740,1,0,0:0:0:0:
291,116,60824,1,0,0:0:0:0:
367,72,60906,1,2,0:0:0:0:
453,87,60990,1,0,0:0:0:0:
489,168,61074,2,2,L|496:223,3,35
284,203,61407,2,2,L|289:168,3,35
442,299,61741,5,2,0:0:0:0:
435,329,61824,1,0,0:0:0:0:
419,356,61907,1,0,0:0:0:0:
396,377,61991,1,0,0:0:0:0:
368,391,62074,1,0,0:0:0:0:
337,396,62157,1,0,0:0:0:0:
306,391,62241,1,2,0:0:0:0:
277,378,62324,1,0,0:0:0:0:
254,357,62407,5,2,0:0:0:0:
237,331,62491,1,0,0:0:0:0:
229,300,62574,1,2,0:0:0:0:
221,270,62657,1,0,0:0:0:0:
214,240,62740,1,0,0:0:0:0:
198,213,62823,1,0,0:0:0:0:
175,191,62907,1,0,0:0:0:0:
146,178,62990,1,0,0:0:0:0:
115,180,63074,6,2,L|115:233,3,35
0,183,63407,2,2,L|0:148,3,35
53,323,63741,6,2,L|39:364,6,35
134,70,67074,6,0,P|129:127|124:156,1,70
98,312,67407,1,0,0:0:0:0:
25,153,67574,1,0,0:0:0:0:
159,267,67741,1,0,0:0:0:0:
220,103,67907,1,0,0:0:0:0:
268,287,68074,2,0,P|294:334|333:354,1,70
293,144,68407,2,0,L|319:98,4,35
159,267,69074,2,0,L|133:313,4,35
326,219,69741,6,0,P|351:170|367:146,1,70
318,329,70075,1,0,0:0:0:0:
246,171,70241,1,0,0:0:0:0:
199,340,70408,1,0,0:0:0:0:
326,219,70575,1,0,0:0:0:0:
159,267,70741,2,0,P|125:299|118:331,1,70
192,96,71074,2,0,L|166:50,4,35
326,219,71741,2,0,L|352:265,4,35
377,99,72408,5,0,0:0:0:0:
377,99,72463,2,0,P|411:131|428:197,1,116.666666666667
387,296,72908,1,0,0:0:0:0:
326,219,73074,1,0,0:0:0:0:
311,316,73241,1,0,0:0:0:0:
239,248,73408,1,0,0:0:0:0:
239,248,73463,1,0,0:0:0:0:
261,33,73741,5,0,0:0:0:0:
261,54,73825,1,0,0:0:0:0:
261,75,73908,1,0,0:0:0:0:
260,96,73991,1,0,0:0:0:0:
260,117,74074,1,0,0:0:0:0:
130,316,74241,1,0,0:0:0:0:
124,292,74325,1,0,0:0:0:0:
120,268,74408,2,0,P|82:294|42:299,1,70
84,159,74741,2,0,P|122:133|162:128,1,70
330,111,75074,5,0,0:0:0:0:
355,86,75158,1,0,0:0:0:0:
389,78,75241,1,0,0:0:0:0:
423,86,75324,1,0,0:0:0:0:
448,111,75408,1,0,0:0:0:0:
457,144,75491,1,0,0:0:0:0:
448,178,75574,1,0,0:0:0:0:
423,203,75658,1,0,0:0:0:0:
390,213,75741,2,0,P|349:207|325:171,1,70
395,293,76074,2,0,L|381:393,1,70
235,303,76408,5,0,0:0:0:0:
201,296,76491,1,0,0:0:0:0:
168,284,76575,1,0,0:0:0:0:
147,255,76658,1,0,0:0:0:0:
155,223,76741,2,0,P|120:210|90:195,1,70
250,31,77075,5,0,0:0:0:0:
284,38,77158,1,0,0:0:0:0:
317,50,77242,1,0,0:0:0:0:
338,78,77325,1,0,0:0:0:0:
330,111,77408,2,0,P|365:124|395:139,1,70
319,248,77741,5,0,0:0:0:0:
304,300,77825,1,0,0:0:0:0:
275,345,77908,1,0,0:0:0:0:
231,369,77991,1,0,0:0:0:0:
177,366,78075,1,0,0:0:0:0:
136,337,78158,1,0,0:0:0:0:
104,298,78241,1,0,0:0:0:0:
91,248,78325,1,0,0:0:0:0:
90,195,78408,2,0,P|93:157|122:107,1,70
250,31,78741,2,0,P|247:69|218:119,1,70
205,229,79074,6,0,L|209:272,1,35
474,182,79241,2,0,L|470:147,1,35
237,132,79408,2,0,L|234:98,1,35
442,278,79574,2,0,L|446:321,1,35
340,66,79741,2,0,L|336:31,1,35
353,175,80074,1,0,0:0:0:0:
321,340,80408,5,0,0:0:0:0:
258,340,80492,1,0,0:0:0:0:
227,285,80575,1,0,0:0:0:0:
258,230,80658,1,0,0:0:0:0:
321,230,80742,5,0,0:0:0:0:
353,175,80825,1,0,0:0:0:0:
321,120,80908,1,0,0:0:0:0:
258,120,80992,1,0,0:0:0:0:
227,175,81074,5,0,0:0:0:0:
258,230,81158,1,0,0:0:0:0:
227,285,81242,1,0,0:0:0:0:
164,285,81326,1,0,0:0:0:0:
133,230,81408,5,0,0:0:0:0:
69,230,81492,1,0,0:0:0:0:
39,285,81575,1,0,0:0:0:0:
69,340,81658,1,0,0:0:0:0:
127,363,81741,6,0,P|145:370|171:373,4,35
100,166,82408,2,0,P|82:159|56:156,4,35
293,260,83074,5,0,0:0:0:0:
293,260,83158,1,0,0:0:0:0:
293,260,83241,1,0,0:0:0:0:
104,270,83408,1,0,0:0:0:0:
104,270,83492,1,0,0:0:0:0:
104,270,83574,1,0,0:0:0:0:
274,197,83741,5,0,0:0:0:0:
274,197,83825,1,0,0:0:0:0:
274,197,83908,1,0,0:0:0:0:
127,363,84075,1,0,0:0:0:0:
127,363,84159,1,0,0:0:0:0:
127,363,84242,1,0,0:0:0:0:
106,157,84408,5,0,0:0:0:0:
102,102,84491,1,0,0:0:0:0:
127,54,84574,1,0,0:0:0:0:
174,26,84657,1,0,0:0:0:0:
228,27,84741,1,0,0:0:0:0:
274,56,84824,1,0,0:0:0:0:
298,104,84907,1,0,0:0:0:0:
293,159,84991,1,0,0:0:0:0:
274,197,85074,2,0,P|229:212|184:195,1,70
108,88,85408,1,0,0:0:0:0:
108,88,85741,6,0,L|106:180,1,70
210,139,86074,2,0,L|208:231,1,70
309,176,86408,2,0,L|307:268,2,70
310,70,86908,1,0,0:0:0:0:
210,139,87074,1,0,0:0:0:0:
371,129,87241,1,0,0:0:0:0:
204,65,87408,1,0,0:0:0:0:
393,227,87574,1,0,0:0:0:0:
310,70,87741,1,0,0:0:0:0:
325,301,87908,1,0,0:0:0:0:
371,129,88074,1,0,0:0:0:0:
191,338,88241,1,0,0:0:0:0:
393,231,88408,6,0,P|449:257|469:290,1,70
325,301,88741,2,0,P|274:336|235:337,1,70
282,196,89074,2,0,P|276:134|295:100,2,70
325,301,89574,1,0,0:0:0:0:
278,127,89741,1,0,0:0:0:0:
278,127,89908,1,0,0:0:0:0:
393,231,90074,1,0,0:0:0:0:
385,45,90241,1,0,0:0:0:0:
393,231,90408,2,0,L|393:320,2,70
385,45,90908,6,0,L|387:137,1,70
283,96,91241,2,0,L|285:188,1,70
184,133,91575,2,0,L|186:225,2,70
183,27,92075,1,0,0:0:0:0:
283,96,92241,1,0,0:0:0:0:
122,86,92408,1,0,0:0:0:0:
289,22,92575,1,0,0:0:0:0:
100,184,92741,1,0,0:0:0:0:
183,27,92908,1,0,0:0:0:0:
168,258,93075,1,0,0:0:0:0:
122,86,93241,1,0,0:0:0:0:
302,295,93408,1,0,0:0:0:0:
100,188,93575,6,0,P|44:214|24:247,1,70
168,258,93908,2,0,P|218:293|257:294,1,70
211,153,94241,2,0,P|216:91|197:57,2,70
168,258,94741,1,0,0:0:0:0:
215,84,94908,1,0,0:0:0:0:
215,84,95075,1,0,0:0:0:0:
100,188,95241,1,0,0:0:0:0:
108,2,95408,1,0,0:0:0:0:
100,188,95575,2,0,L|100:277,2,70
101,90,96075,1,0,0:0:0:0:
161,159,96241,6,0,P|82:184|74:181,7,70
270,184,97574,2,0,P|287:103|294:97,7,70
208,265,98908,2,0,P|269:320|270:329,7,70
142,342,100241,2,0,L|62:360,1,70
139,249,100574,2,0,L|219:267,1,70
254,382,100908,2,0,L|322:366,2,70
356,264,101408,5,0,0:0:0:0:
356,264,101574,2,0,P|435:239|443:242,7,70
247,239,102907,2,0,P|229:319|222:325,7,70
309,158,104241,2,0,P|247:102|246:93,7,70
375,81,105574,2,0,L|455:63,1,70
378,174,105907,2,0,L|298:156,1,70
263,41,106241,2,0,L|194:56,2,70
178,144,106741,5,0,0:0:0:0:
178,144,106908,2,0,P|158:188|169:240,1,83.9999974365235
178,144,107241,2,0,P|149:104|99:88,1,83.9999974365235
254,119,107574,2,0,P|219:141|177:143,2,83.9999974365235
309,158,108074,5,0,0:0:0:0:
317,91,108241,1,0,0:0:0:0:
261,52,108408,1,0,0:0:0:0:
254,119,108574,1,0,0:0:0:0:
318,20,108741,1,0,0:0:0:0:
197,86,108908,1,0,0:0:0:0:
317,91,109074,1,0,0:0:0:0:
203,21,109241,1,0,0:0:0:0:
254,119,109408,6,0,L|290:197,1,83.9999974365235
331,277,109741,1,0,0:0:0:0:
374,195,109908,1,0,0:0:0:0:
254,265,110074,1,0,0:0:0:0:
461,260,110241,5,2,0:0:0:0:
443,209,110323,1,0,0:0:0:0:
464,159,110406,1,0,0:0:0:0:
448,107,110490,1,0,0:0:0:0:
403,76,110573,1,2,0:0:0:0:
348,84,110656,1,0,0:0:0:0:
312,124,110740,1,2,0:0:0:0:
308,179,110823,1,0,0:0:0:0:
341,223,110907,1,2,0:0:0:0:
331,277,110990,1,0,0:0:0:0:
290,312,111073,1,2,0:0:0:0:
235,312,111157,1,0,0:0:0:0:
198,284,111240,1,2,0:0:0:0:
207,229,111323,1,0,0:0:0:0:
179,183,111407,1,0,0:0:0:0:
128,164,111490,1,0,0:0:0:0:
81,164,111574,6,0,L|74:122,1,41.9999987182618
251,100,111741,2,0,L|244:141,1,41.9999987182618
116,243,111908,1,0,0:0:0:0:
113,263,111991,1,0,0:0:0:0:
110,283,112074,1,0,0:0:0:0:
109,304,112158,1,0,0:0:0:0:
109,324,112241,6,0,L|115:365,1,41.9999987182618
283,353,112408,2,0,L|289:311,1,41.9999987182618
258,181,112574,1,0,0:0:0:0:
255,161,112657,1,0,0:0:0:0:
252,141,112740,1,0,0:0:0:0:
251,120,112824,1,0,0:0:0:0:
251,98,112908,5,2,0:0:0:0:
302,116,112990,1,0,0:0:0:0:
352,95,113073,1,0,0:0:0:0:
404,111,113157,1,0,0:0:0:0:
435,156,113240,1,2,0:0:0:0:
427,211,113323,1,0,0:0:0:0:
387,247,113407,1,2,0:0:0:0:
332,251,113490,1,0,0:0:0:0:
288,218,113574,1,2,0:0:0:0:
234,228,113657,1,0,0:0:0:0:
199,269,113740,1,2,0:0:0:0:
195,323,113824,1,0,0:0:0:0:
172,371,113907,1,2,0:0:0:0:
132,334,113990,1,0,0:0:0:0:
81,317,114074,1,0,0:0:0:0:
30,335,114157,1,0,0:0:0:0:
3,286,114241,6,0,L|13:238,1,41.9999987182618
213,127,114408,2,0,L|204:168,1,41.9999987182618
3,56,114574,2,0,L|11:97,1,41.9999987182618
173,196,114741,1,0,0:0:0:0:
173,196,114824,1,0,0:0:0:0:
173,196,114908,2,0,L|219:154,4,41.9999987182618
42,371,115574,5,0,0:0:0:0:
88,324,115657,1,0,0:0:0:0:
149,300,115740,1,0,0:0:0:0:
215,299,115823,1,0,0:0:0:0:
280,306,115907,1,0,0:0:0:0:
346,307,115990,1,0,0:0:0:0:
409,287,116073,1,0,0:0:0:0:
459,245,116157,1,0,0:0:0:0:
484,186,116241,2,0,P|489:126|474:63,1,97.9999970092774
279,209,116574,2,0,P|274:269|289:332,1,97.9999970092774
234,46,116908,5,0,0:0:0:0:
175,21,116991,1,0,0:0:0:0:
116,46,117074,1,0,0:0:0:0:
91,104,117158,1,0,0:0:0:0:
116,163,117241,2,0,P|164:187|186:184,3,48.9999985046387
216,201,117574,5,0,0:0:0:0:
279,209,117657,1,0,0:0:0:0:
318,260,117740,1,0,0:0:0:0:
311,323,117824,1,0,0:0:0:0:
259,362,117907,2,0,P|204:358|187:344,3,48.9999985046387
192,299,118241,5,0,0:0:0:0:
205,237,118324,1,0,0:0:0:0:
219,174,118408,1,0,0:0:0:0:
234,112,118491,1,0,0:0:0:0:
203,56,118574,1,0,0:0:0:0:
244,6,118658,1,0,0:0:0:0:
307,0,118741,1,0,0:0:0:0:
349,46,118824,1,0,0:0:0:0:
361,108,118908,2,0,P|352:171|306:222,1,97.9999970092774
446,339,119241,2,0,P|449:290|473:247,1,97.9999970092774
512,104,119575,5,0,0:0:0:0:
481,31,119658,1,0,0:0:0:0:
409,1,119742,1,0,0:0:0:0:
337,31,119825,1,0,0:0:0:0:
321,107,119908,1,0,0:0:0:0:
291,180,119992,1,0,0:0:0:0:
219,210,120075,1,0,0:0:0:0:
147,180,120158,1,0,0:0:0:0:
94,122,120241,5,0,0:0:0:0:
70,118,120325,1,0,0:0:0:0:
46,122,120408,1,0,0:0:0:0:
25,136,120491,1,0,0:0:0:0:
12,156,120575,1,0,0:0:0:0:
7,180,120658,1,0,0:0:0:0:
12,205,120741,1,0,0:0:0:0:
25,225,120825,1,0,0:0:0:0:
43,240,120908,6,0,P|77:263|160:237,1,125.999996154785
179,223,121158,1,0,0:0:0:0:
198,198,121241,2,0,P|222:178|252:174,1,62.9999980773926
388,307,121407,2,0,P|363:326|333:330,1,62.9999980773926
379,127,121574,2,0,P|398:150|402:181,1,62.9999980773926
220,253,121740,2,0,P|201:228|197:197,1,62.9999980773926
265,36,121908,2,0,L|284:97,2,62.9999980773926
283,96,122241,5,0,0:0:0:0:
289,126,122324,1,0,0:0:0:0:
297,156,122408,1,0,0:0:0:0:
306,185,122491,1,0,0:0:0:0:
313,215,122574,2,0,L|332:276,3,62.9999980773926
419,267,122908,5,0,0:0:0:0:
425,237,122991,1,0,0:0:0:0:
433,207,123075,1,0,0:0:0:0:
442,178,123158,1,0,0:0:0:0:
449,148,123241,2,0,L|468:87,3,62.9999980773926
394,99,123574,6,0,P|360:76|277:102,1,125.999996154785
258,116,123824,1,0,0:0:0:0:
239,141,123907,2,0,P|215:161|185:165,1,62.9999980773926
49,32,124073,2,0,P|74:13|104:9,1,62.9999980773926
58,212,124240,2,0,P|38:188|34:157,1,62.9999980773926
217,86,124406,2,0,P|235:110|239:141,1,62.9999980773926
172,303,124574,2,0,L|153:242,2,62.9999980773926
344,312,124908,5,0,0:0:0:0:
422,342,124992,1,2,0:0:0:0:
500,309,125075,1,0,0:0:0:0:
512,225,125159,1,0,0:0:0:0:
448,171,125242,1,0,0:0:0:0:
455,146,125408,1,0,0:0:0:0:
455,146,125491,1,0,0:0:0:0:
455,146,125574,2,0,L|474:85,4,62.9999980773926
97,144,134241,6,0,P|60:184|38:203,1,70
133,39,134575,1,0,0:0:0:0:
161,211,134741,1,0,0:0:0:0:
250,59,134908,1,0,0:0:0:0:
97,144,135075,1,0,0:0:0:0:
270,140,135241,2,0,P|311:117|326:88,1,70
368,269,135575,5,0,0:0:0:0:
363,289,135659,1,0,0:0:0:0:
357,310,135742,1,0,0:0:0:0:
352,330,135825,1,0,0:0:0:0:
347,350,135908,1,0,0:0:0:0:
241,85,136242,5,0,0:0:0:0:
246,65,136325,1,0,0:0:0:0:
252,44,136408,1,0,0:0:0:0:
258,24,136491,1,0,0:0:0:0:
263,4,136575,1,0,0:0:0:0:
425,65,136908,6,0,P|415:121|412:150,1,70
397,308,137241,1,0,0:0:0:0:
509,173,137408,1,0,0:0:0:0:
350,249,137575,1,0,0:0:0:0:
333,74,137741,1,0,0:0:0:0:
239,240,137908,2,0,P|201:278|158:287,1,70
250,119,138241,2,0,L|236:67,4,35
338,270,138741,1,0,0:0:0:0:
350,249,138825,1,0,0:0:0:0:
360,227,138908,2,0,P|389:261|427:277,1,70
497,118,139241,1,0,0:0:0:0:
323,88,139408,1,0,0:0:0:0:
323,88,139575,5,0,0:0:0:0:
288,81,139658,1,0,0:0:0:0:
256,94,139741,1,0,0:0:0:0:
236,123,139825,1,0,0:0:0:0:
220,154,139908,1,0,0:0:0:0:
205,122,139991,1,0,0:0:0:0:
182,94,140075,1,0,0:0:0:0:
150,77,140158,1,0,0:0:0:0:
116,72,140241,2,0,P|102:114|74:160,1,70
103,288,140575,2,0,P|116:245|144:199,1,70
220,154,140908,5,0,0:0:0:0:
236,123,140991,1,0,0:0:0:0:
256,94,141075,1,0,0:0:0:0:
288,81,141158,1,0,0:0:0:0:
318,97,141241,2,0,P|339:66|361:41,1,70
300,203,141575,5,0,0:0:0:0:
298,238,141658,1,0,0:0:0:0:
301,273,141742,1,0,0:0:0:0:
323,300,141825,1,0,0:0:0:0:
357,301,141908,2,0,P|360:338|367:371,1,70
475,72,142241,5,0,0:0:0:0:
457,41,142325,1,0,0:0:0:0:
427,24,142408,1,0,0:0:0:0:
392,24,142491,1,0,0:0:0:0:
361,41,142575,1,0,0:0:0:0:
344,71,142658,1,0,0:0:0:0:
344,106,142741,1,0,0:0:0:0:
361,137,142825,1,0,0:0:0:0:
391,155,142908,2,0,P|432:159|464:131,1,70
365,231,143241,2,0,L|352:331,1,70
262,188,143575,5,0,0:0:0:0:
221,184,143658,1,0,0:0:0:0:
184,168,143741,1,0,0:0:0:0:
167,133,143825,1,0,0:0:0:0:
167,93,143908,1,0,0:0:0:0:
166,53,143991,1,0,0:0:0:0:
146,19,144075,1,0,0:0:0:0:
110,4,144158,1,0,0:0:0:0:
75,11,144241,2,0,P|39:41|33:89,1,70
45,203,144575,1,0,0:0:0:0:
45,203,144741,1,0,0:0:0:0:
167,133,144908,6,0,P|201:170|267:179,1,97.9999970092774
390,156,145241,1,0,0:0:0:0:
378,302,145408,1,0,0:0:0:0:
233,328,145574,1,0,0:0:0:0:
245,181,145741,1,0,0:0:0:0:
233,328,145908,2,0,P|199:365|133:374,1,97.9999970092774
27,255,146241,5,0,0:0:0:0:
27,203,146324,1,0,0:0:0:0:
27,151,146407,1,0,0:0:0:0:
27,99,146491,1,0,0:0:0:0:
27,47,146574,1,0,0:0:0:0:
155,215,146907,5,0,0:0:0:0:
155,163,146990,1,0,0:0:0:0:
155,111,147073,1,0,0:0:0:0:
155,59,147157,1,0,0:0:0:0:
155,7,147240,1,0,0:0:0:0:
391,205,147574,5,2,0:0:0:0:
436,173,147657,1,0,0:0:0:0:
451,121,147741,1,0,0:0:0:0:
428,70,147824,1,0,0:0:0:0:
377,48,147907,1,2,0:0:0:0:
324,62,147991,1,0,0:0:0:0:
294,106,148074,1,2,0:0:0:0:
298,161,148157,1,0,0:0:0:0:
341,195,148241,5,2,0:0:0:0:
352,249,148324,1,0,0:0:0:0:
327,297,148408,1,2,0:0:0:0:
276,319,148491,1,0,0:0:0:0:
225,301,148574,1,2,0:0:0:0:
196,255,148658,1,0,0:0:0:0:
203,201,148741,1,0,0:0:0:0:
173,157,148823,1,0,0:0:0:0:
121,140,148907,5,2,0:0:0:0:
70,163,148990,1,0,0:0:0:0:
47,212,149073,1,0,0:0:0:0:
60,264,149157,1,0,0:0:0:0:
103,298,149240,1,2,0:0:0:0:
159,293,149324,1,0,0:0:0:0:
197,255,149407,1,2,0:0:0:0:
203,201,149490,1,0,0:0:0:0:
243,167,149574,5,2,0:0:0:0:
298,161,149657,1,0,0:0:0:0:
343,192,149740,1,2,0:0:0:0:
351,246,149824,5,0,0:0:0:0:
398,221,149907,1,2,0:0:0:0:
441,187,149990,1,0,0:0:0:0:
497,193,150074,1,0,0:0:0:0:
330,19,150241,5,2,0:0:0:0:
257,2,150324,1,0,0:0:0:0:
198,49,150408,1,0,0:0:0:0:
198,124,150491,1,0,0:0:0:0:
257,172,150574,1,2,0:0:0:0:
330,155,150658,1,0,0:0:0:0:
390,108,150741,1,2,0:0:0:0:
464,125,150824,1,0,0:0:0:0:
497,193,150908,5,2,0:0:0:0:
464,261,150991,1,0,0:0:0:0:
390,278,151075,1,2,0:0:0:0:
331,231,151158,1,0,0:0:0:0:
258,214,151241,1,2,0:0:0:0:
199,261,151325,1,0,0:0:0:0:
199,336,151408,1,0,0:0:0:0:
258,384,151491,1,0,0:0:0:0:
331,367,151575,5,2,0:0:0:0:
364,299,151658,1,0,0:0:0:0:
331,231,151741,1,0,0:0:0:0:
258,214,151824,1,0,0:0:0:0:
199,166,151908,1,2,0:0:0:0:
201,91,151991,1,0,0:0:0:0:
144,41,152074,1,2,0:0:0:0:
70,54,152158,1,0,0:0:0:0:
34,123,152241,5,2,0:0:0:0:
65,191,152324,1,0,0:0:0:0:
137,212,152408,1,2,0:0:0:0:
199,166,152491,5,0,0:0:0:0:
252,112,152574,1,0,0:0:0:0:
329,112,152658,1,2,0:0:0:0:
395,149,152741,1,0,0:0:0:0:
403,227,152908,6,0,L|408:273,2,41.9999987182618
387,54,153241,2,0,L|439:112,1,41.9999987182618
499,189,153408,2,0,L|458:170,1,41.9999987182618
329,112,153574,2,0,B|327:164,1,41.9999987182618
323,288,153741,2,0,L|303:240,1,41.9999987182618
229,122,153908,2,0,L|196:82,2,41.9999987182618
77,283,154241,6,0,L|62:338,2,41.9999987182618
144,31,154574,2,0,L|92:89,1,41.9999987182618
32,166,154741,2,0,L|73:147,1,41.9999987182618
202,89,154907,2,0,B|204:141,1,41.9999987182618
208,265,155074,2,0,L|228:217,1,41.9999987182618
302,99,155241,2,0,L|337:62,2,41.9999987182618
366,262,155574,6,0,L|414:270,2,41.9999987182618
207,250,155908,2,0,L|215:296,1,41.9999987182618
68,210,156074,2,0,L|60:256,1,41.9999987182618
163,84,156241,2,0,L|171:38,1,41.9999987182618
24,124,156407,2,0,L|16:78,1,41.9999987182618
140,164,156574,2,0,L|188:175,2,41.9999987182618
210,358,156908,6,0,L|167:381,2,41.9999987182618
368,342,157242,2,0,L|376:387,1,41.9999987182618
485,257,157408,2,0,L|508:297,1,41.9999987182618
352,171,157575,2,0,L|328:130,1,41.9999987182618
497,161,157741,2,0,L|488:115,1,41.9999987182618
401,239,157908,2,0,L|359:265,2,41.9999987182618
417,214,158158,1,0,0:0:0:0:
421,185,158241,6,0,P|420:137|406:97,1,83.9999974365235
395,76,158491,1,0,0:0:0:0:
378,51,158574,1,0,0:0:0:0:
209,117,158741,1,0,0:0:0:0:
315,157,158908,1,0,0:0:0:0:
306,198,158991,1,0,0:0:0:0:
283,233,159074,1,0,0:0:0:0:
250,260,159158,1,0,0:0:0:0:
211,276,159241,1,0,0:0:0:0:
169,280,159324,1,0,0:0:0:0:
126,278,159408,1,0,0:0:0:0:
107,46,159574,6,0,P|135:84|147:125,1,83.9999974365235
151,148,159824,1,0,0:0:0:0:
153,178,159907,1,0,0:0:0:0:
317,257,160074,1,0,0:0:0:0:
377,161,160241,1,0,0:0:0:0:
345,133,160324,1,0,0:0:0:0:
306,119,160407,1,0,0:0:0:0:
263,118,160491,1,0,0:0:0:0:
222,128,160574,1,0,0:0:0:0:
186,150,160657,1,0,0:0:0:0:
153,178,160741,1,0,0:0:0:0:
275,336,160908,6,0,P|306:348|328:351,3,41.9999987182618
364,352,161241,1,0,0:0:0:0:
405,324,161324,1,0,0:0:0:0:
408,273,161408,1,0,0:0:0:0:
366,244,161491,1,0,0:0:0:0:
317,257,161574,1,0,0:0:0:0:
338,210,161658,1,0,0:0:0:0:
358,164,161741,1,0,0:0:0:0:
379,118,161824,1,0,0:0:0:0:
404,73,161908,1,0,0:0:0:0:
354,65,161991,1,0,0:0:0:0:
307,83,162074,1,0,0:0:0:0:
261,105,162158,1,0,0:0:0:0:
212,93,162241,5,0,0:0:0:0:
224,114,162324,1,0,0:0:0:0:
229,139,162408,1,0,0:0:0:0:
226,164,162491,1,0,0:0:0:0:
212,186,162574,1,0,0:0:0:0:
191,200,162658,1,0,0:0:0:0:
168,206,162741,1,0,0:0:0:0:
143,202,162824,1,0,0:0:0:0:
121,188,162908,1,0,0:0:0:0:
109,165,162991,1,0,0:0:0:0:
105,140,163074,6,0,L|99:92,3,26.2500010013581
126,103,163408,2,0,L|132:55,3,26.2500010013581,0|0|0|0,0:0|0:0|0:0|0:0,2:0:0:0:
155,74,163741,2,0,L|173:29,3,26.2500010013581,0|0|0|0,0:0|0:0|0:0|0:0,2:0:0:0:
191,53,164074,2,0,L|220:14,3,26.2500010013581,0|0|0|0,0:0|0:0|0:0|0:0,2:0:0:0:
228,47,164408,5,0,0:0:0:0:
253,56,164491,1,0,0:0:0:0:
275,68,164574,1,0,0:0:0:0:
291,86,164657,1,0,0:0:0:0:
302,109,164741,1,0,0:0:0:0:
304,134,164824,1,0,0:0:0:0:
316,156,164907,1,0,0:0:0:0:
334,176,164990,1,0,0:0:0:0:
358,185,165074,1,0,0:0:0:0:
384,183,165157,1,0,0:0:0:0:
404,172,165240,1,0,0:0:0:0:
422,153,165324,1,0,0:0:0:0:
431,128,165408,1,0,0:0:0:0:
442,104,165491,1,0,0:0:0:0:
444,78,165574,6,0,L|433:34,3,26.2500010013581
420,32,165907,2,0,L|380:49,3,26.2500010013581
373,56,166241,5,0,0:0:0:0:
348,63,166324,1,0,0:0:0:0:
322,69,166407,1,0,0:0:0:0:
296,72,166491,1,0,0:0:0:0:
270,75,166574,1,0,0:0:0:0:
244,75,166657,1,0,0:0:0:0:
217,74,166741,1,0,0:0:0:0:
191,71,166824,1,0,0:0:0:0:
165,67,166907,1,0,0:0:0:0:
140,61,166991,1,0,0:0:0:0:
115,53,167074,1,0,0:0:0:0:
90,44,167157,1,0,0:0:0:0:
66,33,167241,1,0,0:0:0:0:
44,18,167324,1,0,0:0:0:0:
19,6,167408,5,0,0:0:0:0:
20,26,167491,1,0,0:0:0:0:
23,46,167574,1,0,0:0:0:0:
27,66,167658,1,0,0:0:0:0:
30,86,167741,1,0,0:0:0:0:
33,106,167824,1,0,0:0:0:0:
37,126,167908,1,0,0:0:0:0:
41,146,167991,1,0,0:0:0:0:
45,166,168074,5,0,0:0:0:0:
67,171,168157,1,0,0:0:0:0:
91,169,168240,1,0,0:0:0:0:
111,158,168324,1,0,0:0:0:0:
126,140,168407,1,0,0:0:0:0:
136,118,168490,1,0,0:0:0:0:
151,103,168574,1,0,0:0:0:0:
169,87,168657,1,0,0:0:0:0:
189,76,168740,1,0,0:0:0:0:
212,74,168824,1,0,0:0:0:0:
239,77,168908,6,0,L|338:92,1,70
409,55,169241,1,0,0:0:0:0:
338,184,169408,1,0,0:0:0:0:
485,19,169574,2,0,P|490:60|472:107,1,70
338,184,169908,1,0,0:0:0:0:
502,213,170074,1,0,0:0:0:0:
364,215,170241,2,0,L|361:297,1,70
260,214,170574,2,0,L|263:296,1,70
164,266,170908,2,0,L|161:348,1,70
60,265,171241,2,0,L|63:347,1,70
167,197,171574,6,0,L|164:266,1,70
142,96,171907,1,0,0:0:0:0:
271,167,172074,1,0,0:0:0:0:
106,20,172240,2,0,P|147:15|194:33,1,70
271,167,172574,1,0,0:0:0:0:
300,3,172740,1,0,0:0:0:0:
302,141,172907,2,0,L|384:144,1,70
366,292,173240,2,0,L|314:244,1,70
210,205,173574,2,0,L|207:287,1,70
232,282,173908,6,0,P|197:315|160:289,1,70
62,161,174241,5,0,0:0:0:0:
89,324,174408,1,0,0:0:0:0:
127,213,174574,2,0,P|139:167|164:132,1,70
316,117,174908,1,0,0:0:0:0:
366,292,175074,1,0,0:0:0:0:
373,169,175241,2,0,P|342:185|307:192,1,70
127,213,175574,5,0,0:0:0:0:
232,282,175741,1,0,0:0:0:0:
18,185,175908,2,0,P|16:224|-8:276,1,70
47,62,176241,1,0,0:0:0:0:
127,213,176408,1,0,0:0:0:0:
136,52,176574,2,0,P|198:41|230:53,1,70
62,161,176908,1,0,0:0:0:0:
89,324,177075,1,0,0:0:0:0:
127,213,177241,2,0,P|139:167|164:132,1,70
316,117,177575,1,0,0:0:0:0:
366,292,177741,1,0,0:0:0:0:
373,169,177908,2,0,P|342:185|307:192,1,70
150,147,178241,5,0,0:0:0:0:
150,147,178408,1,0,0:0:0:0:
37,268,178574,2,0,P|20:298|13:333,1,70
194,312,178908,1,0,0:0:0:0:
194,312,179075,1,0,0:0:0:0:
307,191,179241,2,0,P|323:160|330:125,1,70
150,147,179574,5,0,0:0:0:0:
298,291,179741,1,0,0:0:0:0:
259,94,179908,5,0,0:0:0:0:
183,208,180074,1,0,0:0:0:0:
155,36,180241,5,0,0:0:0:0:
373,138,180408,1,0,0:0:0:0:
227,0,180574,5,0,0:0:0:0:
150,147,180741,1,0,0:0:0:0:
84,53,180908,5,0,0:0:0:0:
292,264,181074,1,0,0:0:0:0:
251,88,181241,5,0,0:0:0:0:
167,208,181408,1,0,0:0:0:0:
337,61,181574,5,0,0:0:0:0:
130,272,181740,1,0,0:0:0:0:
170,96,181907,5,0,0:0:0:0:
254,216,182074,1,0,0:0:0:0:
30,135,182241,5,0,0:0:0:0:
382,184,182408,1,0,0:0:0:0:
249,84,182574,5,0,0:0:0:0:
214,283,182741,1,0,0:0:0:0:
138,120,182908,5,0,0:0:0:0:
355,269,183074,1,0,0:0:0:0:
295,153,183241,5,0,0:0:0:0:
214,283,183408,1,0,0:0:0:0:
173,53,183574,5,0,0:0:0:0:
293,241,183741,1,0,0:0:0:0:
295,153,183908,5,0,0:0:0:0:
189,225,184074,1,0,0:0:0:0:
219,111,184241,5,0,0:0:0:0:
243,333,184408,1,0,0:0:0:0:
293,241,184574,5,0,0:0:0:0:
161,312,184741,1,0,0:0:0:0:
295,153,184908,5,0,0:0:0:0:
182,384,185074,1,0,0:0:0:0:
99,256,185241,5,0,0:0:0:0:
305,332,185408,1,0,0:0:0:0:
174,76,185574,5,0,0:0:0:0:
216,262,185741,1,0,0:0:0:0:
226,128,185908,5,0,0:0:0:0:
129,203,186074,1,0,0:0:0:0:
395,193,186241,5,0,0:0:0:0:
106,129,186408,1,0,0:0:0:0:
364,89,186574,5,0,0:0:0:0:
298,235,186741,1,0,0:0:0:0:
472,139,186908,5,0,0:0:0:0:
176,151,187075,1,0,0:0:0:0:
415,46,187241,5,0,0:0:0:0:
389,204,187408,1,0,0:0:0:0:
334,37,187574,5,0,0:0:0:0:
405,330,187741,1,0,0:0:0:0:
446,200,187908,5,0,0:0:0:0:
315,283,188074,1,0,0:0:0:0:
386,84,188241,5,0,0:0:0:0:
315,382,188408,1,0,0:0:0:0:
274,247,188575,5,0,0:0:0:0:
405,330,188741,1,0,0:0:0:0:
149,79,188908,6,0,L|181:104,1,35
278,176,189074,1,0,0:0:0:0:
321,230,189158,1,0,0:0:0:0:
325,300,189240,1,0,0:0:0:0:
287,359,189323,1,0,0:0:0:0:
222,384,189406,1,0,0:0:0:0:
153,366,189490,1,0,0:0:0:0:
103,315,189574,1,0,0:0:0:0:
86,248,189656,1,0,0:0:0:0:
100,178,189740,1,0,0:0:0:0:
81,110,189823,1,0,0:0:0:0:
41,50,189908,6,0,L|16:12,3,35
200,180,190241,2,0,L|225:218,3,35
138,40,190574,6,0,L|171:8,3,35
25,210,190907,2,0,L|-8:241,3,35
184,281,191241,6,0,L|221:307,3,35
246,309,191574,1,0,0:0:0:0:
280,313,191658,1,0,0:0:0:0:
314,305,191741,1,0,0:0:0:0:
344,288,191824,1,0,0:0:0:0:
363,261,191908,1,0,0:0:0:0:
368,226,191991,1,0,0:0:0:0:
365,191,192074,1,0,0:0:0:0:
343,163,192158,1,0,0:0:0:0:
312,145,192241,1,0,0:0:0:0:
277,145,192324,1,0,0:0:0:0:
248,165,192407,1,0,0:0:0:0:
230,195,192490,1,0,0:0:0:0:
227,181,192574,5,0,0:0:0:0:
225,162,192685,1,0,0:0:0:0:
220,143,192796,1,0,0:0:0:0:
209,127,192907,5,0,0:0:0:0:
195,113,193018,1,0,0:0:0:0:
179,102,193129,1,0,0:0:0:0:
161,95,193240,5,0,0:0:0:0:
142,91,193352,1,0,0:0:0:0:
123,92,193463,1,0,0:0:0:0:
105,97,193574,5,0,0:0:0:0:
88,106,193685,1,0,0:0:0:0:
77,121,193796,1,0,0:0:0:0:
66,136,193907,5,0,0:0:0:0:
59,153,194018,1,0,0:0:0:0:
54,171,194129,1,0,0:0:0:0:
51,189,194240,6,0,L|45:269,1,70
173,307,194574,2,0,L|167:237,1,70
293,187,194907,2,0,L|287:267,1,70
415,305,195241,2,0,L|409:235,1,70
402,95,195574,2,0,P|372:128|378:181,1,70
262,59,195907,2,0,P|253:25|228:2,1,70
293,187,196240,2,0,L|287:267,1,70
206,363,196574,2,0,P|180:339|172:306,1,70
51,189,196907,6,0,L|45:269,1,70
156,131,197240,2,0,P|165:97|190:74,1,70
205,249,197574,2,0,P|196:283|171:306,1,70
298,117,197907,2,0,L|292:197,1,70
415,305,198240,2,0,L|409:235,1,70
171,306,198574,2,0,P|180:339|206:363,1,70
346,357,198907,1,0,0:0:0:0:
409,235,199074,1,0,0:0:0:0:
292,186,199240,1,0,0:0:0:0:
251,289,199407,1,0,0:0:0:0:
361,182,199574,6,0,P|394:144|405:76,1,97.9999970092774
156,131,199907,2,0,P|123:169|112:237,1,97.9999970092774
347,303,200240,2,0,L|251:289,1,97.9999970092774
188,35,200574,2,0,L|285:50,1,97.9999970092774
22,168,200907,2,0,P|16:218|46:280,1,97.9999970092774
262,384,201240,2,0,P|267:333|237:271,1,97.9999970092774
156,131,201574,2,0,P|201:114|250:120,1,97.9999970092774
129,349,201907,2,0,P|83:365|34:359,1,97.9999970092774
221,196,202240,6,0,L|254:299,1,97.9999970092774
367,307,202574,1,0,0:0:0:0:
200,343,202740,1,0,0:0:0:0:
323,218,202907,2,0,L|378:137,1,97.9999970092774
502,77,203240,1,0,0:0:0:0:
329,23,203407,1,0,0:0:0:0:
473,16,203574,5,0,0:0:0:0:
279,107,203740,1,0,0:0:0:0:
378,136,203907,1,0,0:0:0:0:
378,136,204074,1,0,0:0:0:0:
398,0,204240,5,0,0:0:0:0:
411,225,204407,1,0,0:0:0:0:
378,136,204574,1,0,0:0:0:0:
378,136,204741,1,0,0:0:0:0:
442,246,204907,5,0,0:0:0:0:
473,191,204990,1,2,0:0:0:0:
442,136,205073,1,0,0:0:0:0:
378,136,205156,1,0,0:0:0:0:
347,191,205239,1,0,0:0:0:0:
284,191,205323,1,2,0:0:0:0:
253,136,205407,1,0,0:0:0:0:
284,81,205490,1,2,0:0:0:0:
253,26,205573,5,0,0:0:0:0:
190,26,205657,1,2,0:0:0:0:
158,81,205740,1,0,0:0:0:0:
190,136,205823,1,0,0:0:0:0:
253,136,205907,1,0,0:0:0:0:
284,191,205990,1,2,0:0:0:0:
253,246,206073,1,0,0:0:0:0:
190,246,206157,1,2,0:0:0:0:
127,253,206240,6,0,L|54:267,1,48.9999985046387
109,71,206407,2,0,L|99:137,1,48.9999985046387
78,262,206574,1,0,0:0:0:0:
82,295,206657,1,0,0:0:0:0:
97,325,206740,1,0,0:0:0:0:
121,349,206824,1,0,0:0:0:0:
149,367,206907,6,0,P|204:383|217:381,1,48.9999985046387
329,207,207074,2,0,P|307:195|283:190,1,48.9999985046387
113,173,207240,1,0,0:0:0:0:
79,189,207324,1,0,0:0:0:0:
47,178,207407,1,0,0:0:0:0:
36,145,207490,1,0,0:0:0:0:
70,138,207574,5,0,0:0:0:0:
39,193,207657,1,2,0:0:0:0:
70,248,207740,1,0,0:0:0:0:
134,248,207823,1,0,0:0:0:0:
165,193,207906,1,0,0:0:0:0:
228,193,207990,1,2,0:0:0:0:
259,248,208074,1,0,0:0:0:0:
228,303,208157,1,2,0:0:0:0:
259,358,208240,5,0,0:0:0:0:
322,358,208324,1,2,0:0:0:0:
354,303,208407,1,0,0:0:0:0:
322,248,208490,1,0,0:0:0:0:
259,248,208574,1,0,0:0:0:0:
228,193,208657,1,2,0:0:0:0:
259,138,208740,1,0,0:0:0:0:
322,138,208824,1,2,0:0:0:0:
385,131,208907,6,0,L|458:117,1,48.9999985046387
415,313,209074,2,0,L|425:247,1,48.9999985046387
251,89,209240,2,0,L|258:137,1,48.9999985046387
297,295,209407,1,0,0:0:0:0:
297,295,209490,1,0,0:0:0:0:
297,295,209574,2,0,L|224:309,4,48.9999985046387
156,287,210074,1,0,0:0:0:0:
156,129,210240,6,0,P|170:74|172:14,1,94.499997116089
172,36,210574,2,0,L|221:42,2,31.4999990386963
47,142,210907,2,0,P|33:197|31:257,1,94.499997116089
31,235,211241,2,0,L|-18:229,2,31.4999990386963
161,277,211574,6,0,P|206:301|276:293,1,94.499997116089
249,303,211908,2,0,L|243:352,2,31.4999990386963
244,151,212240,2,0,P|195:130|129:135,1,94.499997116089
155,129,212574,2,0,L|161:80,2,31.4999990386963
81,299,212907,5,0,0:0:0:0:
81,299,212990,1,0,0:0:0:0:
81,299,213074,1,0,0:0:0:0:
81,299,213157,1,0,0:0:0:0:
81,299,213240,2,0,L|42:344,2,31.4999990386963
310,210,213574,1,0,0:0:0:0:
310,210,213657,1,0,0:0:0:0:
310,210,213741,1,0,0:0:0:0:
310,210,213824,1,0,0:0:0:0:
310,210,213907,2,0,L|349:165,2,31.4999990386963
101,192,214240,5,0,0:0:0:0:
92,178,214324,1,0,0:0:0:0:
82,165,214407,1,0,0:0:0:0:
70,154,214490,1,0,0:0:0:0:
61,140,214574,2,0,P|44:120|25:112,2,31.4999990386963
248,302,214907,1,0,0:0:0:0:
257,316,214991,1,0,0:0:0:0:
267,329,215074,1,0,0:0:0:0:
279,340,215157,1,0,0:0:0:0:
291,350,215241,2,0,P|313:367|331:373,2,31.4999990386963
378,220,215574,5,0,0:0:0:0:
378,220,215657,1,0,0:0:0:0:
378,220,215740,1,0,0:0:0:0:
378,220,215824,1,0,0:0:0:0:
369,233,215907,5,0,0:0:0:0:
354,244,215990,1,0,0:0:0:0:
335,244,216074,1,0,0:0:0:0:
319,233,216157,1,0,0:0:0:0:
314,201,216240,5,0,0:0:0:0:
324,171,216323,1,0,0:0:0:0:
349,152,216406,1,0,0:0:0:0:
381,152,216490,1,0,0:0:0:0:
420,172,216573,5,0,0:0:0:0:
434,214,216657,1,0,0:0:0:0:
420,255,216740,1,0,0:0:0:0:
384,281,216823,1,0,0:0:0:0:
326,283,216908,5,0,0:0:0:0:
280,249,216991,1,0,0:0:0:0:
262,195,217074,1,0,0:0:0:0:
280,141,217158,1,0,0:0:0:0:
333,98,217240,5,0,0:0:0:0:
403,98,217324,1,0,0:0:0:0:
459,138,217407,1,0,0:0:0:0:
480,204,217490,1,0,0:0:0:0:
455,282,217574,5,0,0:0:0:0:
389,330,217657,1,0,0:0:0:0:
307,330,217740,1,0,0:0:0:0:
241,282,217824,1,0,0:0:0:0:
210,193,217907,5,0,0:0:0:0:
175,104,217991,1,0,0:0:0:0:
99,48,218074,1,0,0:0:0:0:
4,48,218157,1,0,0:0:0:0:
17,80,218240,5,0,0:0:0:0:
28,113,218324,1,0,0:0:0:0:
38,146,218407,1,0,0:0:0:0:
48,179,218490,1,0,0:0:0:0:
60,211,218574,2,0,L|83:283,1,70
312,196,218740,2,0,L|289:124,1,70
483,143,218907,5,0,0:0:0:0:
472,176,218991,1,0,0:0:0:0:
462,209,219074,1,0,0:0:0:0:
452,242,219157,1,0,0:0:0:0:
440,274,219241,2,0,L|417:346,1,70
188,259,219407,2,0,L|211:187,1,70
282,50,219574,5,0,0:0:0:0:
254,30,219657,1,0,0:0:0:0:
222,15,219741,1,0,0:0:0:0:
188,8,219824,1,0,0:0:0:0:
153,8,219907,1,0,0:0:0:0:
118,15,219991,1,0,0:0:0:0:
86,30,220074,1,0,0:0:0:0:
58,50,220157,1,0,0:0:0:0:
35,76,220241,1,0,0:0:0:0:
17,106,220324,1,0,0:0:0:0:
6,140,220407,1,0,0:0:0:0:
3,174,220491,1,0,0:0:0:0:
6,209,220574,1,0,0:0:0:0:
17,243,220657,1,0,0:0:0:0:
35,273,220741,1,0,0:0:0:0:
58,299,220824,1,0,0:0:0:0:
88,315,220907,6,0,P|129:332|161:333,1,70
225,220,221074,2,0,P|184:203|152:202,1,70
328,300,221240,2,0,P|372:294|400:279,1,70
399,149,221407,2,0,P|354:154|326:169,1,70
504,237,221574,1,0,0:0:0:0:
512,169,221657,1,0,0:0:0:0:
505,100,221740,1,0,0:0:0:0:
465,43,221824,1,0,0:0:0:0:
406,6,221907,1,0,0:0:0:0:
338,0,221990,1,0,0:0:0:0:
270,13,222074,1,0,0:0:0:0:
212,51,222157,1,0,0:0:0:0:
189,24,222240,5,0,0:0:0:0:
154,25,222323,1,0,0:0:0:0:
120,32,222407,1,0,0:0:0:0:
89,48,222490,1,0,0:0:0:0:
61,69,222573,1,0,0:0:0:0:
39,96,222657,1,0,0:0:0:0:
23,129,222740,1,0,0:0:0:0:
13,161,222823,1,0,0:0:0:0:
10,197,222907,1,0,0:0:0:0:
16,231,222990,1,0,0:0:0:0:
27,265,223073,1,0,0:0:0:0:
47,293,223157,1,0,0:0:0:0:
70,319,223240,1,0,0:0:0:0:
99,338,223323,1,0,0:0:0:0:
133,352,223407,1,0,0:0:0:0:
165,358,223490,1,0,0:0:0:0:
199,349,223574,6,0,P|240:332|263:310,1,70
229,185,223741,2,0,P|187:201|164:223,1,70
358,169,223907,2,0,P|384:133|394:103,1,70
301,12,224074,2,0,P|272:47|263:77,1,70
321,286,224240,2,0,P|340:314|349:348,1,70
171,150,224407,2,0,P|164:194|171:225,1,70
252,383,224574,2,0,P|260:349|258:314,1,70
83,179,224741,2,0,P|54:214|45:244,1,70
189,315,224907,1,0,0:0:0:0:
258,314,224990,1,0,0:0:0:0:
321,286,225073,1,0,0:0:0:0:
329,219,225157,1,0,0:0:0:0:
309,152,225240,1,0,0:0:0:0:
289,85,225323,1,0,0:0:0:0:
313,24,225407,1,0,0:0:0:0:
381,14,225490,1,0,0:0:0:0:
433,60,225574,6,0,L|474:157,1,70
329,219,225740,2,0,L|301:154,1,70
124,106,225907,2,0,L|165:203,1,70
39,285,226073,2,0,L|11:220,1,70
189,315,226240,6,0,P|177:366|150:395,1,70
353,301,226407,2,0,P|388:262|426:251,1,70
243,187,226574,2,0,L|215:122,1,70
68,44,226740,2,0,L|40:109,1,70
38,284,226907,6,0,P|72:275|100:254,1,70
219,54,227074,2,0,P|210:87|214:122,1,70
353,301,227240,2,0,P|328:276|296:263,1,70
100,253,227407,2,0,P|72:275|38:284,1,70
312,188,227574,6,0,P|329:157|333:123,1,70
189,315,227740,2,0,P|171:345|167:379,1,70
353,301,227907,2,0,L|455:300,1,70
214,122,228074,2,0,L|112:121,1,70
39,283,228240,5,0,0:0:0:0:
93,327,228324,1,0,0:0:0:0:
162,334,228407,1,0,0:0:0:0:
225,305,228490,1,0,0:0:0:0:
272,253,228574,1,0,0:0:0:0:
301,189,228657,1,0,0:0:0:0:
327,124,228740,1,0,0:0:0:0:
391,94,228824,1,0,0:0:0:0:
459,106,228907,5,0,0:0:0:0:
444,174,228990,1,0,0:0:0:0:
389,219,229074,1,0,0:0:0:0:
319,222,229157,1,0,0:0:0:0:
256,190,229240,1,0,0:0:0:0:
202,143,229324,1,0,0:0:0:0:
133,153,229407,1,0,0:0:0:0:
70,183,229490,1,0,0:0:0:0:
3,205,229574,5,0,0:0:0:0:
62,241,229657,1,0,0:0:0:0:
103,296,229740,1,0,0:0:0:0:
152,346,229824,1,0,0:0:0:0:
219,363,229907,1,0,0:0:0:0:
287,349,229990,1,0,0:0:0:0:
345,309,230074,1,0,0:0:0:0:
385,252,230157,1,0,0:0:0:0:
395,226,230240,5,0,0:0:0:0:
383,200,230324,1,0,0:0:0:0:
364,179,230407,1,0,0:0:0:0:
339,166,230490,1,0,0:0:0:0:
312,155,230574,1,0,0:0:0:0:
284,151,230657,1,0,0:0:0:0:
256,156,230740,1,0,0:0:0:0:
230,167,230823,1,0,0:0:0:0:
208,184,230907,1,0,0:0:0:0:
190,205,230990,1,0,0:0:0:0:
178,230,231073,1,0,0:0:0:0:
171,258,231157,1,0,0:0:0:0:
172,285,231240,1,0,0:0:0:0:
179,313,231323,1,0,0:0:0:0:
191,337,231407,1,0,0:0:0:0:
210,358,231490,1,0,0:0:0:0:
225,381,231574,5,2,0:0:0:0:
276,363,231656,1,0,0:0:0:0:
326,384,231739,1,0,0:0:0:0:
378,368,231823,1,0,0:0:0:0:
409,323,231906,1,2,0:0:0:0:
401,268,231989,1,0,0:0:0:0:
361,232,232073,1,2,0:0:0:0:
306,228,232156,1,0,0:0:0:0:
262,261,232240,1,2,0:0:0:0:
208,251,232323,1,0,0:0:0:0:
173,210,232406,1,2,0:0:0:0:
169,156,232490,1,0,0:0:0:0:
146,108,232573,1,2,0:0:0:0:
106,145,232656,1,0,0:0:0:0:
55,162,232740,1,0,0:0:0:0:
4,144,232823,1,0,0:0:0:0:
0,89,232907,6,0,L|3:29,3,52.5000020027161
124,207,233240,2,0,L|126:259,3,52.5000020027161
234,80,233574,2,0,L|237:20,3,52.5000020027161
358,198,233907,2,0,L|360:250,3,52.5000020027161
347,289,234240,5,2,0:0:0:0:
297,309,234322,1,0,0:0:0:0:
273,357,234405,1,0,0:0:0:0:
224,379,234489,1,0,0:0:0:0:
182,374,234572,1,2,0:0:0:0:
161,323,234655,1,0,0:0:0:0:
178,272,234739,1,2,0:0:0:0:
224,241,234822,1,0,0:0:0:0:
258,216,234906,1,2,0:0:0:0:
216,181,234989,1,0,0:0:0:0:
206,128,235072,1,2,0:0:0:0:
234,80,235156,1,0,0:0:0:0:
276,62,235239,1,2,0:0:0:0:
319,97,235322,1,0,0:0:0:0:
373,96,235406,1,0,0:0:0:0:
415,61,235489,1,0,0:0:0:0:
449,17,235574,6,0,L|386:1,3,52.5000020027161
420,171,235907,2,0,L|483:187,3,52.5000020027161
234,80,236240,2,0,L|171:64,3,52.5000020027161
205,234,236573,2,0,L|268:250,3,52.5000020027161
284,121,236907,5,0,0:0:0:0:
354,121,236990,1,0,0:0:0:0:
397,175,237074,1,0,0:0:0:0:
382,244,237158,1,0,0:0:0:0:
319,274,237241,1,0,0:0:0:0:
255,246,237324,1,0,0:0:0:0:
193,281,237408,1,0,0:0:0:0:
138,324,237491,1,0,0:0:0:0:
70,309,237574,1,0,0:0:0:0:
40,246,237657,1,0,0:0:0:0:
70,183,237741,1,0,0:0:0:0:
138,167,237824,1,0,0:0:0:0:
193,211,237907,1,0,0:0:0:0:
194,282,237991,1,0,0:0:0:0:
244,332,238074,1,0,0:0:0:0:
313,325,238157,1,0,0:0:0:0:
368,50,238324,5,0,0:0:0:0:
298,50,238407,1,0,0:0:0:0:
255,104,238491,1,0,0:0:0:0:
270,173,238575,1,0,0:0:0:0:
333,203,238658,1,0,0:0:0:0:
397,175,238741,1,0,0:0:0:0:
455,217,238825,1,0,0:0:0:0:
494,274,238908,1,0,0:0:0:0:
475,341,238991,1,0,0:0:0:0:
411,365,239074,1,0,0:0:0:0:
348,338,239157,1,0,0:0:0:0:
311,280,239240,1,0,0:0:0:0:
249,309,239324,1,0,0:0:0:0:
181,319,239407,1,0,0:0:0:0:
125,358,239490,1,0,0:0:0:0:
