osu file format v14

[General]
AudioFilename: audio.ogg
AudioLeadIn: 0
PreviewTime: 104526
Countdown: 0
SampleSet: Normal
StackLeniency: 0.7
Mode: 3
LetterboxInBreaks: 0
SpecialStyle: 0
WidescreenStoryboard: 1

[Editor]
Bookmarks: 15941,22325,27113,28710,35094,39883,41479,44671,47065,47863,51055,52652,53450,54248,55844,57440,60632,63825,66219,67017,70209,73401,76594,79786,82978,84574,85372,86170,92555,98939,105324,111708,118093,124478,130862,137247,148420,150016,156400,157996,159592,161987,162785,165977,169169,172361,175155,175554,178746,181140,181938,183534,185131,186727,187525,188323
DistanceSpacing: 2.4
BeatDivisor: 4
GridSize: 32
TimelineZoom: 5.099998

[Metadata]
Title:Onus Regulus
TitleUnicode:Onus RÄ“gulus
Artist:Ludicin
ArtistUnicode:Ludicin
Creator:uL-
Version:Judgmental Obliteration | 4K Extra
Source:cavoe's osu! event Global Taiko Showdown
Tags:coegts 2023 cgts electronic instrumental symphonic metal orchestral breakcore speedcore speed gts blocko
BeatmapID:4283840
BeatmapSetID:2046363

[Difficulty]
HPDrainRate:8
CircleSize:4
OverallDifficulty:8.5
ApproachRate:5
SliderMultiplier:1.4
SliderTickRate:1

[Events]
//Background and Video events
0,0,"onus_16-9_5333x3000px.jpg",0,0
//Break Periods
//Storyboard Layer 0 (Background)
//Storyboard Layer 1 (Fail)
//Storyboard Layer 2 (Pass)
//Storyboard Layer 3 (Foreground)
//Storyboard Layer 4 (Overlay)
//Storyboard Sound Samples

[TimingPoints]
3172,199.516505002876,4,1,1,50,1,0
15941,-100,4,1,1,50,0,1
28311,-100,4,1,1,50,0,0
28710,-100,4,1,1,50,0,1
41479,-100,4,1,1,50,0,0
47863,-100,4,1,1,50,0,1
53450,-100,4,1,1,50,0,0
54248,-100,4,1,1,50,0,1
60233,-100,4,1,1,50,0,0
60632,-100,4,1,1,50,0,1
66219,-100,4,1,1,50,0,0
67017,-100,4,1,1,50,0,1
73002,-100,4,1,1,50,0,0
73401,-100,4,1,1,50,0,1
86170,-100,4,1,1,50,0,0
92555,-100,4,1,1,50,0,1
104526,-100,4,1,1,50,0,0
105324,-100,4,1,1,50,0,1
117295,-100,4,1,1,50,0,0
118093,-100,4,1,1,50,0,1
130862,-100,4,1,1,50,0,0
162785,-100,4,1,1,50,0,1
175155,-100,4,1,1,50,0,0
175554,-100,4,1,1,50,0,1
181140,-100,4,1,1,50,0,0
181938,-100,4,1,1,50,0,1
183135,-100,4,1,1,50,0,0
183534,-100,4,1,1,50,0,1
184732,-100,4,1,1,50,0,0
185131,-100,4,1,1,50,0,1
187525,-100,4,1,1,50,0,0

[HitObjects]
64,192,3172,5,0,0:0:0:0:
448,192,3172,1,0,0:0:0:0:
320,192,3172,1,0,0:0:0:0:
192,192,3371,1,0,0:0:0:0:
320,192,3571,1,0,0:0:0:0:
448,192,3770,1,0,0:0:0:0:
64,192,3970,1,0,0:0:0:0:
64,192,4369,1,0,0:0:0:0:
192,192,4369,1,0,0:0:0:0:
192,192,4768,1,0,0:0:0:0:
448,192,4768,1,0,0:0:0:0:
64,192,5965,1,0,0:0:0:0:
448,192,5965,1,0,0:0:0:0:
64,192,6364,1,0,0:0:0:0:
320,192,6364,1,0,0:0:0:0:
448,192,6563,1,0,0:0:0:0:
192,192,6763,1,0,0:0:0:0:
320,192,6962,1,0,0:0:0:0:
64,192,7162,1,0,0:0:0:0:
320,192,7960,1,0,0:0:0:0:
448,192,7960,1,0,0:0:0:0:
64,192,7960,1,0,0:0:0:0:
448,192,8359,1,0,0:0:0:0:
320,192,8558,1,0,0:0:0:0:
192,192,8558,1,0,0:0:0:0:
192,192,8758,1,0,0:0:0:0:
64,192,8758,1,0,0:0:0:0:
64,192,8957,1,0,0:0:0:0:
320,192,8957,1,0,0:0:0:0:
448,192,9157,1,0,0:0:0:0:
192,192,9357,1,0,0:0:0:0:
64,192,9556,1,0,0:0:0:0:
320,192,9556,128,0,12349:0:0:0:0:
448,192,10753,1,0,0:0:0:0:
64,192,10753,1,0,0:0:0:0:
192,192,11152,1,0,0:0:0:0:
64,192,11152,1,0,0:0:0:0:
64,192,12349,1,0,0:0:0:0:
192,192,12349,1,0,0:0:0:0:
448,192,12349,128,0,12748:0:0:0:0:
192,192,12748,1,0,0:0:0:0:
320,192,12748,1,0,0:0:0:0:
64,192,12748,128,0,13546:0:0:0:0:
192,192,13546,128,0,15891:0:0:0:0:
448,192,14344,1,0,0:0:0:0:
320,192,14344,128,0,15891:0:0:0:0:
64,192,14344,1,0,0:0:0:0:
64,192,15941,5,0,0:0:0:0:
320,192,15941,1,0,0:0:0:0:
448,192,15941,1,0,0:0:0:0:
192,192,16007,1,0,0:0:0:0:
320,192,16074,1,0,0:0:0:0:
64,192,16140,1,0,0:0:0:0:
448,192,16140,1,0,0:0:0:0:
192,192,16207,1,0,0:0:0:0:
448,192,16273,1,0,0:0:0:0:
192,192,16340,1,0,0:0:0:0:
64,192,16340,1,0,0:0:0:0:
320,192,16406,1,0,0:0:0:0:
192,192,16473,1,0,0:0:0:0:
64,192,16539,1,0,0:0:0:0:
448,192,16539,1,0,0:0:0:0:
320,192,16606,1,0,0:0:0:0:
192,192,16672,1,0,0:0:0:0:
448,192,16739,1,0,0:0:0:0:
320,192,16739,1,0,0:0:0:0:
64,192,16739,1,0,0:0:0:0:
192,192,16805,1,0,0:0:0:0:
320,192,16872,1,0,0:0:0:0:
192,192,16938,1,0,0:0:0:0:
64,192,16938,1,0,0:0:0:0:
448,192,17005,1,0,0:0:0:0:
320,192,17071,1,0,0:0:0:0:
192,192,17138,1,0,0:0:0:0:
448,192,17138,1,0,0:0:0:0:
64,192,17204,1,0,0:0:0:0:
320,192,17271,1,0,0:0:0:0:
64,192,17337,1,0,0:0:0:0:
448,192,17337,1,0,0:0:0:0:
192,192,17387,1,0,0:0:0:0:
320,192,17437,1,0,0:0:0:0:
448,192,17487,1,0,0:0:0:0:
192,192,17537,1,0,0:0:0:0:
64,192,17537,1,0,0:0:0:0:
320,192,17603,1,0,0:0:0:0:
192,192,17670,1,0,0:0:0:0:
64,192,17736,1,0,0:0:0:0:
448,192,17736,1,0,0:0:0:0:
320,192,17803,1,0,0:0:0:0:
448,192,17869,1,0,0:0:0:0:
192,192,17936,1,0,0:0:0:0:
64,192,17936,1,0,0:0:0:0:
320,192,18002,1,0,0:0:0:0:
192,192,18069,1,0,0:0:0:0:
64,192,18135,1,0,0:0:0:0:
448,192,18135,1,0,0:0:0:0:
320,192,18202,1,0,0:0:0:0:
64,192,18268,1,0,0:0:0:0:
192,192,18335,1,0,0:0:0:0:
320,192,18335,1,0,0:0:0:0:
448,192,18335,1,0,0:0:0:0:
64,192,18401,1,0,0:0:0:0:
320,192,18468,1,0,0:0:0:0:
192,192,18534,1,0,0:0:0:0:
64,192,18534,1,0,0:0:0:0:
320,192,18601,1,0,0:0:0:0:
448,192,18667,1,0,0:0:0:0:
64,192,18734,1,0,0:0:0:0:
192,192,18734,1,0,0:0:0:0:
448,192,18800,1,0,0:0:0:0:
320,192,18867,1,0,0:0:0:0:
192,192,18933,1,0,0:0:0:0:
448,192,18933,1,0,0:0:0:0:
64,192,19000,1,0,0:0:0:0:
320,192,19066,1,0,0:0:0:0:
192,192,19133,1,0,0:0:0:0:
448,192,19133,1,0,0:0:0:0:
64,192,19133,1,0,0:0:0:0:
320,192,19199,1,0,0:0:0:0:
192,192,19266,1,0,0:0:0:0:
320,192,19332,1,0,0:0:0:0:
64,192,19332,1,0,0:0:0:0:
448,192,19399,1,0,0:0:0:0:
64,192,19465,1,0,0:0:0:0:
192,192,19532,1,0,0:0:0:0:
320,192,19532,1,0,0:0:0:0:
448,192,19598,1,0,0:0:0:0:
320,192,19665,1,0,0:0:0:0:
192,192,19731,1,0,0:0:0:0:
64,192,19731,1,0,0:0:0:0:
448,192,19798,1,0,0:0:0:0:
320,192,19864,1,0,0:0:0:0:
192,192,19931,1,0,0:0:0:0:
64,192,19931,1,0,0:0:0:0:
448,192,19931,1,0,0:0:0:0:
320,192,19997,1,0,0:0:0:0:
64,192,20064,1,0,0:0:0:0:
192,192,20130,1,0,0:0:0:0:
320,192,20130,1,0,0:0:0:0:
448,192,20197,1,0,0:0:0:0:
192,192,20263,1,0,0:0:0:0:
64,192,20330,1,0,0:0:0:0:
320,192,20330,1,0,0:0:0:0:
192,192,20396,1,0,0:0:0:0:
448,192,20463,1,0,0:0:0:0:
192,192,20529,1,0,0:0:0:0:
64,192,20529,1,0,0:0:0:0:
448,192,20579,1,0,0:0:0:0:
320,192,20629,1,0,0:0:0:0:
192,192,20679,1,0,0:0:0:0:
64,192,20729,1,0,0:0:0:0:
448,192,20729,1,0,0:0:0:0:
192,192,20795,1,0,0:0:0:0:
320,192,20862,1,0,0:0:0:0:
448,192,20928,1,0,0:0:0:0:
64,192,20928,1,0,0:0:0:0:
192,192,20995,1,0,0:0:0:0:
448,192,21061,1,0,0:0:0:0:
320,192,21128,1,0,0:0:0:0:
64,192,21128,1,0,0:0:0:0:
192,192,21194,1,0,0:0:0:0:
320,192,21261,1,0,0:0:0:0:
192,192,21328,1,0,0:0:0:0:
448,192,21328,1,0,0:0:0:0:
64,192,21394,1,0,0:0:0:0:
448,192,21461,1,0,0:0:0:0:
192,192,21527,1,0,0:0:0:0:
64,192,21527,1,0,0:0:0:0:
320,192,21527,1,0,0:0:0:0:
448,192,21594,1,0,0:0:0:0:
64,192,21660,1,0,0:0:0:0:
192,192,21727,1,0,0:0:0:0:
320,192,21727,1,0,0:0:0:0:
448,192,21793,1,0,0:0:0:0:
64,192,21860,1,0,0:0:0:0:
320,192,21926,1,0,0:0:0:0:
448,192,21926,1,0,0:0:0:0:
192,192,22026,1,0,0:0:0:0:
320,192,22126,1,0,0:0:0:0:
64,192,22126,1,0,0:0:0:0:
448,192,22126,1,0,0:0:0:0:
192,192,22225,1,0,0:0:0:0:
192,192,22325,1,0,0:0:0:0:
64,192,22325,1,0,0:0:0:0:
448,192,22325,1,0,0:0:0:0:
320,192,22392,1,0,0:0:0:0:
192,192,22458,1,0,0:0:0:0:
64,192,22525,1,0,0:0:0:0:
448,192,22525,1,0,0:0:0:0:
192,192,22591,1,0,0:0:0:0:
448,192,22658,1,0,0:0:0:0:
320,192,22724,1,0,0:0:0:0:
64,192,22724,1,0,0:0:0:0:
192,192,22791,1,0,0:0:0:0:
320,192,22857,1,0,0:0:0:0:
192,192,22924,1,0,0:0:0:0:
64,192,22924,1,0,0:0:0:0:
448,192,22990,1,0,0:0:0:0:
320,192,23057,1,0,0:0:0:0:
64,192,23123,1,0,0:0:0:0:
192,192,23123,1,0,0:0:0:0:
448,192,23123,1,0,0:0:0:0:
320,192,23190,1,0,0:0:0:0:
64,192,23256,1,0,0:0:0:0:
192,192,23323,1,0,0:0:0:0:
320,192,23323,1,0,0:0:0:0:
448,192,23389,1,0,0:0:0:0:
192,192,23456,1,0,0:0:0:0:
64,192,23522,1,0,0:0:0:0:
448,192,23522,1,0,0:0:0:0:
320,192,23589,1,0,0:0:0:0:
192,192,23655,1,0,0:0:0:0:
64,192,23722,1,0,0:0:0:0:
448,192,23722,1,0,0:0:0:0:
320,192,23772,1,0,0:0:0:0:
192,192,23821,1,0,0:0:0:0:
64,192,23871,1,0,0:0:0:0:
320,192,23921,1,0,0:0:0:0:
448,192,23921,1,0,0:0:0:0:
192,192,23988,1,0,0:0:0:0:
320,192,24054,1,0,0:0:0:0:
448,192,24121,1,0,0:0:0:0:
64,192,24121,1,0,0:0:0:0:
192,192,24187,1,0,0:0:0:0:
448,192,24254,1,0,0:0:0:0:
192,192,24320,1,0,0:0:0:0:
64,192,24320,1,0,0:0:0:0:
320,192,24387,1,0,0:0:0:0:
192,192,24453,1,0,0:0:0:0:
64,192,24520,1,0,0:0:0:0:
320,192,24520,1,0,0:0:0:0:
448,192,24586,1,0,0:0:0:0:
64,192,24653,1,0,0:0:0:0:
192,192,24719,1,0,0:0:0:0:
320,192,24719,1,0,0:0:0:0:
448,192,24719,1,0,0:0:0:0:
64,192,24786,1,0,0:0:0:0:
448,192,24852,1,0,0:0:0:0:
192,192,24919,1,0,0:0:0:0:
320,192,24919,1,0,0:0:0:0:
64,192,24985,1,0,0:0:0:0:
448,192,25052,1,0,0:0:0:0:
320,192,25118,1,0,0:0:0:0:
64,192,25118,1,0,0:0:0:0:
192,192,25185,1,0,0:0:0:0:
320,192,25251,1,0,0:0:0:0:
448,192,25318,1,0,0:0:0:0:
64,192,25318,1,0,0:0:0:0:
192,192,25384,1,0,0:0:0:0:
320,192,25451,1,0,0:0:0:0:
192,192,25517,1,0,0:0:0:0:
64,192,25517,1,0,0:0:0:0:
448,192,25517,1,0,0:0:0:0:
320,192,25584,1,0,0:0:0:0:
192,192,25650,1,0,0:0:0:0:
448,192,25717,1,0,0:0:0:0:
64,192,25717,1,0,0:0:0:0:
320,192,25783,1,0,0:0:0:0:
192,192,25850,1,0,0:0:0:0:
320,192,25916,1,0,0:0:0:0:
448,192,25916,1,0,0:0:0:0:
64,192,25983,1,0,0:0:0:0:
192,192,26049,1,0,0:0:0:0:
320,192,26116,1,0,0:0:0:0:
64,192,26116,1,0,0:0:0:0:
448,192,26182,1,0,0:0:0:0:
192,192,26249,1,0,0:0:0:0:
320,192,26315,1,0,0:0:0:0:
448,192,26315,1,0,0:0:0:0:
64,192,26315,1,0,0:0:0:0:
192,192,26382,1,0,0:0:0:0:
320,192,26448,1,0,0:0:0:0:
192,192,26515,1,0,0:0:0:0:
64,192,26515,1,0,0:0:0:0:
448,192,26581,1,0,0:0:0:0:
64,192,26648,1,0,0:0:0:0:
192,192,26714,1,0,0:0:0:0:
448,192,26714,1,0,0:0:0:0:
320,192,26781,1,0,0:0:0:0:
192,192,26847,1,0,0:0:0:0:
64,192,26914,1,0,0:0:0:0:
448,192,26914,1,0,0:0:0:0:
320,192,26964,1,0,0:0:0:0:
192,192,27014,1,0,0:0:0:0:
64,192,27064,1,0,0:0:0:0:
320,192,27113,1,0,0:0:0:0:
448,192,27113,1,0,0:0:0:0:
192,192,27163,1,0,0:0:0:0:
448,192,27213,1,0,0:0:0:0:
320,192,27246,1,0,0:0:0:0:
192,192,27280,1,0,0:0:0:0:
448,192,27313,1,0,0:0:0:0:
320,192,27363,1,0,0:0:0:0:
64,192,27413,1,0,0:0:0:0:
192,192,27446,1,0,0:0:0:0:
320,192,27479,1,0,0:0:0:0:
64,192,27513,1,0,0:0:0:0:
192,192,27562,1,0,0:0:0:0:
448,192,27612,1,0,0:0:0:0:
320,192,27646,1,0,0:0:0:0:
192,192,27679,1,0,0:0:0:0:
448,192,27712,1,0,0:0:0:0:
320,192,27762,1,0,0:0:0:0:
64,192,27812,1,0,0:0:0:0:
192,192,27845,1,0,0:0:0:0:
320,192,27878,1,0,0:0:0:0:
64,192,27912,1,0,0:0:0:0:
448,192,27912,1,0,0:0:0:0:
192,192,27978,1,0,0:0:0:0:
448,192,28045,1,0,0:0:0:0:
192,192,28111,1,0,0:0:0:0:
64,192,28111,1,0,0:0:0:0:
320,192,28178,1,0,0:0:0:0:
192,192,28244,1,0,0:0:0:0:
64,192,28311,1,0,0:0:0:0:
448,192,28311,1,0,0:0:0:0:
320,192,28377,1,0,0:0:0:0:
192,192,28444,1,0,0:0:0:0:
320,192,28510,1,0,0:0:0:0:
448,192,28510,1,0,0:0:0:0:
64,192,28510,1,0,0:0:0:0:
192,192,28610,1,0,0:0:0:0:
320,192,28610,1,0,0:0:0:0:
192,192,28710,1,0,0:0:0:0:
64,192,28710,1,0,0:0:0:0:
448,192,28710,1,0,0:0:0:0:
320,192,28776,1,0,0:0:0:0:
192,192,28843,1,0,0:0:0:0:
64,192,28909,1,0,0:0:0:0:
320,192,28909,1,0,0:0:0:0:
448,192,28976,1,0,0:0:0:0:
64,192,29042,1,0,0:0:0:0:
192,192,29109,1,0,0:0:0:0:
448,192,29109,1,0,0:0:0:0:
320,192,29175,1,0,0:0:0:0:
192,192,29242,1,0,0:0:0:0:
64,192,29308,1,0,0:0:0:0:
448,192,29308,1,0,0:0:0:0:
320,192,29375,1,0,0:0:0:0:
192,192,29441,1,0,0:0:0:0:
320,192,29508,1,0,0:0:0:0:
448,192,29508,1,0,0:0:0:0:
64,192,29508,1,0,0:0:0:0:
192,192,29574,1,0,0:0:0:0:
320,192,29641,1,0,0:0:0:0:
192,192,29707,1,0,0:0:0:0:
64,192,29707,1,0,0:0:0:0:
448,192,29774,1,0,0:0:0:0:
320,192,29840,1,0,0:0:0:0:
192,192,29907,1,0,0:0:0:0:
448,192,29907,1,0,0:0:0:0:
64,192,29973,1,0,0:0:0:0:
320,192,30040,1,0,0:0:0:0:
192,192,30106,1,0,0:0:0:0:
64,192,30106,1,0,0:0:0:0:
320,192,30173,1,0,0:0:0:0:
448,192,30239,1,0,0:0:0:0:
192,192,30306,1,0,0:0:0:0:
64,192,30306,1,0,0:0:0:0:
448,192,30372,1,0,0:0:0:0:
192,192,30439,1,0,0:0:0:0:
64,192,30505,1,0,0:0:0:0:
320,192,30505,1,0,0:0:0:0:
448,192,30572,1,0,0:0:0:0:
192,192,30638,1,0,0:0:0:0:
320,192,30705,1,0,0:0:0:0:
448,192,30705,1,0,0:0:0:0:
192,192,30771,1,0,0:0:0:0:
64,192,30838,1,0,0:0:0:0:
320,192,30904,1,0,0:0:0:0:
448,192,30904,1,0,0:0:0:0:
192,192,30971,1,0,0:0:0:0:
320,192,31037,1,0,0:0:0:0:
192,192,31104,1,0,0:0:0:0:
64,192,31104,1,0,0:0:0:0:
448,192,31104,1,0,0:0:0:0:
320,192,31170,1,0,0:0:0:0:
64,192,31237,1,0,0:0:0:0:
192,192,31303,1,0,0:0:0:0:
448,192,31303,1,0,0:0:0:0:
320,192,31370,1,0,0:0:0:0:
192,192,31436,1,0,0:0:0:0:
64,192,31503,1,0,0:0:0:0:
448,192,31503,1,0,0:0:0:0:
320,192,31569,1,0,0:0:0:0:
192,192,31636,1,0,0:0:0:0:
320,192,31702,1,0,0:0:0:0:
448,192,31702,1,0,0:0:0:0:
64,192,31769,1,0,0:0:0:0:
192,192,31835,1,0,0:0:0:0:
320,192,31902,1,0,0:0:0:0:
448,192,31902,1,0,0:0:0:0:
64,192,31902,1,0,0:0:0:0:
192,192,31968,1,0,0:0:0:0:
320,192,32035,1,0,0:0:0:0:
64,192,32101,1,0,0:0:0:0:
448,192,32101,1,0,0:0:0:0:
192,192,32168,1,0,0:0:0:0:
64,192,32234,1,0,0:0:0:0:
320,192,32301,1,0,0:0:0:0:
448,192,32301,1,0,0:0:0:0:
192,192,32367,1,0,0:0:0:0:
448,192,32434,1,0,0:0:0:0:
320,192,32500,1,0,0:0:0:0:
64,192,32500,1,0,0:0:0:0:
192,192,32567,1,0,0:0:0:0:
320,192,32633,1,0,0:0:0:0:
192,192,32700,1,0,0:0:0:0:
64,192,32700,1,0,0:0:0:0:
448,192,32700,1,0,0:0:0:0:
320,192,32766,1,0,0:0:0:0:
64,192,32833,1,0,0:0:0:0:
192,192,32899,1,0,0:0:0:0:
320,192,32899,1,0,0:0:0:0:
448,192,32966,1,0,0:0:0:0:
192,192,33032,1,0,0:0:0:0:
320,192,33099,1,0,0:0:0:0:
448,192,33099,1,0,0:0:0:0:
64,192,33165,1,0,0:0:0:0:
192,192,33232,1,0,0:0:0:0:
320,192,33298,1,0,0:0:0:0:
64,192,33298,1,0,0:0:0:0:
448,192,33365,1,0,0:0:0:0:
64,192,33432,1,0,0:0:0:0:
192,192,33498,1,0,0:0:0:0:
448,192,33498,1,0,0:0:0:0:
320,192,33565,1,0,0:0:0:0:
64,192,33631,1,0,0:0:0:0:
320,192,33698,1,0,0:0:0:0:
448,192,33698,1,0,0:0:0:0:
192,192,33764,1,0,0:0:0:0:
448,192,33831,1,0,0:0:0:0:
320,192,33897,1,0,0:0:0:0:
64,192,33897,1,0,0:0:0:0:
192,192,33964,1,0,0:0:0:0:
320,192,34030,1,0,0:0:0:0:
192,192,34097,1,0,0:0:0:0:
448,192,34097,1,0,0:0:0:0:
64,192,34163,1,0,0:0:0:0:
320,192,34230,1,0,0:0:0:0:
192,192,34296,1,0,0:0:0:0:
64,192,34296,1,0,0:0:0:0:
448,192,34296,1,0,0:0:0:0:
320,192,34363,1,0,0:0:0:0:
192,192,34429,1,0,0:0:0:0:
64,192,34496,1,0,0:0:0:0:
448,192,34496,1,0,0:0:0:0:
320,192,34562,1,0,0:0:0:0:
448,192,34629,1,0,0:0:0:0:
192,192,34695,1,0,0:0:0:0:
64,192,34695,1,0,0:0:0:0:
320,192,34762,1,0,0:0:0:0:
64,192,34828,1,0,0:0:0:0:
448,192,34895,1,0,0:0:0:0:
320,192,34895,1,0,0:0:0:0:
192,192,34895,1,0,0:0:0:0:
64,192,34961,1,0,0:0:0:0:
448,192,35028,1,0,0:0:0:0:
192,192,35094,1,0,0:0:0:0:
320,192,35094,1,0,0:0:0:0:
64,192,35094,1,0,0:0:0:0:
448,192,35161,1,0,0:0:0:0:
192,192,35227,1,0,0:0:0:0:
320,192,35294,1,0,0:0:0:0:
64,192,35294,1,0,0:0:0:0:
448,192,35360,1,0,0:0:0:0:
192,192,35427,1,0,0:0:0:0:
320,192,35493,1,0,0:0:0:0:
448,192,35493,1,0,0:0:0:0:
192,192,35560,1,0,0:0:0:0:
320,192,35626,1,0,0:0:0:0:
64,192,35693,1,0,0:0:0:0:
448,192,35693,1,0,0:0:0:0:
192,192,35759,1,0,0:0:0:0:
448,192,35826,1,0,0:0:0:0:
192,192,35892,1,0,0:0:0:0:
64,192,35892,1,0,0:0:0:0:
320,192,35892,1,0,0:0:0:0:
448,192,35959,1,0,0:0:0:0:
64,192,36025,1,0,0:0:0:0:
320,192,36092,1,0,0:0:0:0:
192,192,36092,1,0,0:0:0:0:
448,192,36158,1,0,0:0:0:0:
192,192,36225,1,0,0:0:0:0:
64,192,36291,1,0,0:0:0:0:
448,192,36291,1,0,0:0:0:0:
320,192,36358,1,0,0:0:0:0:
192,192,36424,1,0,0:0:0:0:
320,192,36491,1,0,0:0:0:0:
448,192,36491,1,0,0:0:0:0:
192,192,36557,1,0,0:0:0:0:
64,192,36624,1,0,0:0:0:0:
320,192,36690,1,0,0:0:0:0:
448,192,36690,1,0,0:0:0:0:
192,192,36757,1,0,0:0:0:0:
320,192,36823,1,0,0:0:0:0:
64,192,36890,1,0,0:0:0:0:
448,192,36890,1,0,0:0:0:0:
192,192,36956,1,0,0:0:0:0:
64,192,37023,1,0,0:0:0:0:
320,192,37089,1,0,0:0:0:0:
448,192,37089,1,0,0:0:0:0:
192,192,37156,1,0,0:0:0:0:
448,192,37222,1,0,0:0:0:0:
320,192,37289,1,0,0:0:0:0:
64,192,37289,1,0,0:0:0:0:
192,192,37355,1,0,0:0:0:0:
320,192,37422,1,0,0:0:0:0:
192,192,37488,1,0,0:0:0:0:
448,192,37488,1,0,0:0:0:0:
64,192,37488,1,0,0:0:0:0:
320,192,37555,1,0,0:0:0:0:
192,192,37621,1,0,0:0:0:0:
448,192,37688,1,0,0:0:0:0:
64,192,37688,1,0,0:0:0:0:
320,192,37754,1,0,0:0:0:0:
192,192,37821,1,0,0:0:0:0:
320,192,37887,1,0,0:0:0:0:
448,192,37887,1,0,0:0:0:0:
64,192,37954,1,0,0:0:0:0:
192,192,38020,1,0,0:0:0:0:
320,192,38087,1,0,0:0:0:0:
64,192,38087,1,0,0:0:0:0:
448,192,38153,1,0,0:0:0:0:
192,192,38220,1,0,0:0:0:0:
320,192,38286,1,0,0:0:0:0:
448,192,38286,1,0,0:0:0:0:
64,192,38286,1,0,0:0:0:0:
192,192,38353,1,0,0:0:0:0:
320,192,38419,1,0,0:0:0:0:
448,192,38486,1,0,0:0:0:0:
64,192,38486,1,0,0:0:0:0:
192,192,38552,1,0,0:0:0:0:
448,192,38619,1,0,0:0:0:0:
320,192,38685,1,0,0:0:0:0:
64,192,38685,1,0,0:0:0:0:
192,192,38752,1,0,0:0:0:0:
64,192,38818,1,0,0:0:0:0:
320,192,38885,1,0,0:0:0:0:
448,192,38885,1,0,0:0:0:0:
192,192,38951,1,0,0:0:0:0:
320,192,39018,1,0,0:0:0:0:
192,192,39084,1,0,0:0:0:0:
64,192,39084,1,0,0:0:0:0:
448,192,39084,1,0,0:0:0:0:
320,192,39151,1,0,0:0:0:0:
64,192,39217,1,0,0:0:0:0:
192,192,39284,1,0,0:0:0:0:
320,192,39284,1,0,0:0:0:0:
448,192,39350,1,0,0:0:0:0:
64,192,39417,1,0,0:0:0:0:
320,192,39484,1,0,0:0:0:0:
448,192,39484,1,0,0:0:0:0:
192,192,39550,1,0,0:0:0:0:
320,192,39617,1,0,0:0:0:0:
448,192,39683,1,0,0:0:0:0:
64,192,39683,1,0,0:0:0:0:
192,192,39750,1,0,0:0:0:0:
64,192,39816,1,0,0:0:0:0:
320,192,39883,1,0,0:0:0:0:
448,192,39883,1,0,0:0:0:0:
192,192,39916,1,0,0:0:0:0:
64,192,39949,1,0,0:0:0:0:
448,192,39982,1,0,0:0:0:0:
192,192,40016,1,0,0:0:0:0:
320,192,40049,1,0,0:0:0:0:
448,192,40082,1,0,0:0:0:0:
64,192,40115,1,0,0:0:0:0:
320,192,40149,1,0,0:0:0:0:
192,192,40182,1,0,0:0:0:0:
64,192,40215,1,0,0:0:0:0:
448,192,40248,1,0,0:0:0:0:
320,192,40282,1,0,0:0:0:0:
64,192,40315,1,0,0:0:0:0:
192,192,40348,1,0,0:0:0:0:
448,192,40381,1,0,0:0:0:0:
320,192,40415,1,0,0:0:0:0:
192,192,40448,1,0,0:0:0:0:
64,192,40481,1,0,0:0:0:0:
448,192,40514,1,0,0:0:0:0:
192,192,40548,1,0,0:0:0:0:
320,192,40581,1,0,0:0:0:0:
448,192,40614,1,0,0:0:0:0:
64,192,40647,1,0,0:0:0:0:
192,192,40681,1,0,0:0:0:0:
320,192,40714,1,0,0:0:0:0:
64,192,40747,1,0,0:0:0:0:
448,192,40780,1,0,0:0:0:0:
320,192,40814,1,0,0:0:0:0:
192,192,40847,1,0,0:0:0:0:
448,192,40880,1,0,0:0:0:0:
64,192,40913,1,0,0:0:0:0:
320,192,40947,1,0,0:0:0:0:
448,192,40980,1,0,0:0:0:0:
192,192,41013,1,0,0:0:0:0:
64,192,41046,1,0,0:0:0:0:
448,192,41080,1,0,0:0:0:0:
320,192,41080,1,0,0:0:0:0:
192,192,41130,1,0,0:0:0:0:
64,192,41179,1,0,0:0:0:0:
320,192,41229,1,0,0:0:0:0:
448,192,41279,1,0,0:0:0:0:
64,192,41279,1,0,0:0:0:0:
192,192,41329,1,0,0:0:0:0:
320,192,41379,1,0,0:0:0:0:
192,192,41429,1,0,0:0:0:0:
64,192,41479,1,0,0:0:0:0:
320,192,41479,1,0,0:0:0:0:
448,192,41479,1,0,0:0:0:0:
320,192,41678,1,0,0:0:0:0:
320,192,41778,1,0,0:0:0:0:
192,192,41878,1,0,0:0:0:0:
192,192,42077,1,0,0:0:0:0:
192,192,42277,1,0,0:0:0:0:
192,192,42576,1,0,0:0:0:0:
192,192,42776,1,0,0:0:0:0:
320,192,42875,1,0,0:0:0:0:
192,192,42975,1,0,0:0:0:0:
320,192,43075,1,0,0:0:0:0:
448,192,43075,1,0,0:0:0:0:
320,192,43274,1,0,0:0:0:0:
320,192,43374,1,0,0:0:0:0:
192,192,43474,1,0,0:0:0:0:
192,192,43673,1,0,0:0:0:0:
192,192,43873,1,0,0:0:0:0:
448,192,44072,128,0,44122:0:0:0:0:
448,192,44172,128,0,44222:0:0:0:0:
192,192,44172,1,0,0:0:0:0:
320,192,44372,1,0,0:0:0:0:
320,192,44471,1,0,0:0:0:0:
192,192,44571,1,0,0:0:0:0:
320,192,44671,1,0,0:0:0:0:
448,192,44671,1,0,0:0:0:0:
192,192,44870,1,0,0:0:0:0:
192,192,44970,1,0,0:0:0:0:
320,192,45070,1,0,0:0:0:0:
448,192,45070,128,0,45120:0:0:0:0:
448,192,45170,128,0,45220:0:0:0:0:
192,192,45269,1,0,0:0:0:0:
320,192,45469,1,0,0:0:0:0:
448,192,45469,128,0,45519:0:0:0:0:
192,192,45768,1,0,0:0:0:0:
320,192,45868,1,0,0:0:0:0:
448,192,45868,1,0,0:0:0:0:
192,192,45968,1,0,0:0:0:0:
192,192,46068,1,0,0:0:0:0:
448,192,46068,128,0,46117:0:0:0:0:
448,192,46167,128,0,46217:0:0:0:0:
64,192,46167,1,0,0:0:0:0:
320,192,46267,1,0,0:0:0:0:
448,192,46267,1,0,0:0:0:0:
320,192,46467,1,0,0:0:0:0:
448,192,46467,1,0,0:0:0:0:
192,192,46566,1,0,0:0:0:0:
320,192,46666,1,0,0:0:0:0:
448,192,46666,128,0,46716:0:0:0:0:
320,192,46866,1,0,0:0:0:0:
448,192,46866,1,0,0:0:0:0:
64,192,46965,5,0,0:0:0:0:
448,192,46965,1,0,0:0:0:0:
192,192,47015,1,0,0:0:0:0:
64,192,47065,1,0,0:0:0:0:
448,192,47065,1,0,0:0:0:0:
320,192,47115,1,0,0:0:0:0:
192,192,47165,1,0,0:0:0:0:
448,192,47165,1,0,0:0:0:0:
320,192,47265,1,0,0:0:0:0:
64,192,47315,1,0,0:0:0:0:
320,192,47364,1,0,0:0:0:0:
448,192,47414,1,0,0:0:0:0:
192,192,47464,1,0,0:0:0:0:
64,192,47464,1,0,0:0:0:0:
320,192,47514,1,0,0:0:0:0:
448,192,47564,1,0,0:0:0:0:
192,192,47564,1,0,0:0:0:0:
64,192,47614,1,0,0:0:0:0:
448,192,47664,1,0,0:0:0:0:
64,192,47714,1,0,0:0:0:0:
448,192,47763,1,0,0:0:0:0:
320,192,47813,1,0,0:0:0:0:
192,192,47863,1,0,0:0:0:0:
64,192,47863,1,0,0:0:0:0:
448,192,47863,1,0,0:0:0:0:
192,192,47963,1,0,0:0:0:0:
320,192,47963,1,0,0:0:0:0:
64,192,48063,1,0,0:0:0:0:
320,192,48063,1,0,0:0:0:0:
448,192,48063,1,0,0:0:0:0:
192,192,48162,1,0,0:0:0:0:
448,192,48162,1,0,0:0:0:0:
192,192,48262,1,0,0:0:0:0:
320,192,48262,1,0,0:0:0:0:
64,192,48262,1,0,0:0:0:0:
64,192,48362,1,0,0:0:0:0:
448,192,48362,1,0,0:0:0:0:
320,192,48462,1,0,0:0:0:0:
448,192,48462,1,0,0:0:0:0:
192,192,48462,1,0,0:0:0:0:
320,192,48562,1,0,0:0:0:0:
64,192,48562,1,0,0:0:0:0:
192,192,48661,1,0,0:0:0:0:
64,192,48661,1,0,0:0:0:0:
448,192,48711,1,0,0:0:0:0:
192,192,48761,1,0,0:0:0:0:
448,192,48811,1,0,0:0:0:0:
320,192,48861,1,0,0:0:0:0:
64,192,48861,1,0,0:0:0:0:
320,192,48961,1,0,0:0:0:0:
192,192,49010,1,0,0:0:0:0:
320,192,49060,1,0,0:0:0:0:
448,192,49060,1,0,0:0:0:0:
64,192,49110,1,0,0:0:0:0:
192,192,49160,1,0,0:0:0:0:
448,192,49160,1,0,0:0:0:0:
320,192,49210,1,0,0:0:0:0:
448,192,49260,1,0,0:0:0:0:
192,192,49260,1,0,0:0:0:0:
64,192,49260,1,0,0:0:0:0:
64,192,49360,1,0,0:0:0:0:
320,192,49360,1,0,0:0:0:0:
192,192,49459,1,0,0:0:0:0:
448,192,49459,1,0,0:0:0:0:
320,192,49459,1,0,0:0:0:0:
64,192,49559,1,0,0:0:0:0:
448,192,49559,1,0,0:0:0:0:
192,192,49659,1,0,0:0:0:0:
64,192,49659,1,0,0:0:0:0:
320,192,49659,1,0,0:0:0:0:
64,192,49759,1,0,0:0:0:0:
320,192,49759,1,0,0:0:0:0:
192,192,49858,1,0,0:0:0:0:
448,192,49858,1,0,0:0:0:0:
320,192,49858,1,0,0:0:0:0:
64,192,49958,1,0,0:0:0:0:
448,192,49958,1,0,0:0:0:0:
192,192,50058,1,0,0:0:0:0:
64,192,50058,1,0,0:0:0:0:
320,192,50058,1,0,0:0:0:0:
320,192,50158,1,0,0:0:0:0:
192,192,50158,1,0,0:0:0:0:
64,192,50257,1,0,0:0:0:0:
448,192,50257,1,0,0:0:0:0:
320,192,50291,1,0,0:0:0:0:
192,192,50324,1,0,0:0:0:0:
64,192,50357,1,0,0:0:0:0:
320,192,50390,1,0,0:0:0:0:
192,192,50424,1,0,0:0:0:0:
448,192,50457,1,0,0:0:0:0:
320,192,50507,1,0,0:0:0:0:
448,192,50557,1,0,0:0:0:0:
64,192,50557,1,0,0:0:0:0:
192,192,50656,1,0,0:0:0:0:
64,192,50656,1,0,0:0:0:0:
448,192,50756,1,0,0:0:0:0:
192,192,50756,1,0,0:0:0:0:
320,192,50806,1,0,0:0:0:0:
448,192,50856,1,0,0:0:0:0:
64,192,50856,1,0,0:0:0:0:
192,192,50906,1,0,0:0:0:0:
320,192,50956,1,0,0:0:0:0:
192,192,51006,1,0,0:0:0:0:
64,192,51055,1,0,0:0:0:0:
448,192,51055,1,0,0:0:0:0:
448,192,51155,1,0,0:0:0:0:
192,192,51155,1,0,0:0:0:0:
320,192,51155,1,0,0:0:0:0:
192,192,51255,1,0,0:0:0:0:
192,192,51355,1,0,0:0:0:0:
448,192,51454,1,0,0:0:0:0:
64,192,51454,1,0,0:0:0:0:
320,192,51454,1,0,0:0:0:0:
320,192,51554,1,0,0:0:0:0:
320,192,51654,1,0,0:0:0:0:
448,192,51754,1,0,0:0:0:0:
64,192,51754,1,0,0:0:0:0:
192,192,51754,1,0,0:0:0:0:
64,192,51854,1,0,0:0:0:0:
64,192,51953,1,0,0:0:0:0:
320,192,52053,1,0,0:0:0:0:
448,192,52053,1,0,0:0:0:0:
192,192,52053,1,0,0:0:0:0:
448,192,52153,1,0,0:0:0:0:
448,192,52253,1,0,0:0:0:0:
320,192,52352,1,0,0:0:0:0:
192,192,52352,1,0,0:0:0:0:
64,192,52352,1,0,0:0:0:0:
192,192,52452,1,0,0:0:0:0:
448,192,52452,1,0,0:0:0:0:
192,192,52552,1,0,0:0:0:0:
64,192,52652,1,0,0:0:0:0:
448,192,52652,1,0,0:0:0:0:
320,192,52652,1,0,0:0:0:0:
192,192,52785,1,0,0:0:0:0:
320,192,52785,1,0,0:0:0:0:
448,192,52785,1,0,0:0:0:0:
192,192,52918,1,0,0:0:0:0:
64,192,52918,1,0,0:0:0:0:
320,192,52918,1,0,0:0:0:0:
64,192,53051,1,0,0:0:0:0:
192,192,53051,1,0,0:0:0:0:
448,192,53051,1,0,0:0:0:0:
320,192,53184,1,0,0:0:0:0:
448,192,53184,1,0,0:0:0:0:
64,192,53184,1,0,0:0:0:0:
192,192,53317,1,0,0:0:0:0:
320,192,53317,1,0,0:0:0:0:
448,192,53317,1,0,0:0:0:0:
64,192,53450,1,0,0:0:0:0:
192,192,53450,128,0,53649:0:0:0:0:
320,192,53450,128,0,53549:0:0:0:0:
448,192,53649,1,0,0:0:0:0:
64,192,53649,1,0,0:0:0:0:
320,192,53649,1,0,0:0:0:0:
192,192,53849,1,0,0:0:0:0:
64,192,53849,1,0,0:0:0:0:
320,192,53915,1,0,0:0:0:0:
448,192,53915,1,0,0:0:0:0:
64,192,53982,1,0,0:0:0:0:
192,192,53982,1,0,0:0:0:0:
192,192,54048,1,0,0:0:0:0:
448,192,54048,1,0,0:0:0:0:
64,192,54115,1,0,0:0:0:0:
320,192,54115,1,0,0:0:0:0:
192,192,54181,1,0,0:0:0:0:
448,192,54181,1,0,0:0:0:0:
64,192,54248,1,0,0:0:0:0:
448,192,54248,1,0,0:0:0:0:
320,192,54248,1,0,0:0:0:0:
192,192,54347,1,0,0:0:0:0:
320,192,54347,1,0,0:0:0:0:
192,192,54447,1,0,0:0:0:0:
64,192,54447,1,0,0:0:0:0:
448,192,54447,1,0,0:0:0:0:
64,192,54547,1,0,0:0:0:0:
320,192,54547,1,0,0:0:0:0:
192,192,54647,1,0,0:0:0:0:
320,192,54647,1,0,0:0:0:0:
448,192,54647,1,0,0:0:0:0:
320,192,54747,1,0,0:0:0:0:
64,192,54747,1,0,0:0:0:0:
192,192,54846,1,0,0:0:0:0:
64,192,54846,1,0,0:0:0:0:
448,192,54846,1,0,0:0:0:0:
192,192,54946,1,0,0:0:0:0:
320,192,54946,1,0,0:0:0:0:
320,192,55046,1,0,0:0:0:0:
448,192,55046,1,0,0:0:0:0:
64,192,55046,1,0,0:0:0:0:
192,192,55146,1,0,0:0:0:0:
448,192,55195,1,0,0:0:0:0:
192,192,55245,1,0,0:0:0:0:
64,192,55245,1,0,0:0:0:0:
320,192,55345,1,0,0:0:0:0:
192,192,55395,1,0,0:0:0:0:
64,192,55445,1,0,0:0:0:0:
320,192,55445,1,0,0:0:0:0:
448,192,55445,1,0,0:0:0:0:
192,192,55545,1,0,0:0:0:0:
64,192,55545,1,0,0:0:0:0:
320,192,55594,1,0,0:0:0:0:
448,192,55644,1,0,0:0:0:0:
192,192,55644,1,0,0:0:0:0:
64,192,55744,1,0,0:0:0:0:
320,192,55744,128,0,55794:0:0:0:0:
192,192,55844,1,0,0:0:0:0:
448,192,55844,1,0,0:0:0:0:
64,192,55844,1,0,0:0:0:0:
192,192,55944,1,0,0:0:0:0:
320,192,55944,1,0,0:0:0:0:
320,192,56043,1,0,0:0:0:0:
448,192,56043,1,0,0:0:0:0:
64,192,56043,1,0,0:0:0:0:
448,192,56143,1,0,0:0:0:0:
192,192,56143,1,0,0:0:0:0:
192,192,56243,1,0,0:0:0:0:
64,192,56243,1,0,0:0:0:0:
320,192,56243,1,0,0:0:0:0:
320,192,56343,1,0,0:0:0:0:
64,192,56343,1,0,0:0:0:0:
192,192,56442,1,0,0:0:0:0:
320,192,56442,1,0,0:0:0:0:
448,192,56442,1,0,0:0:0:0:
64,192,56542,1,0,0:0:0:0:
448,192,56542,1,0,0:0:0:0:
64,192,56642,1,0,0:0:0:0:
320,192,56642,1,0,0:0:0:0:
192,192,56675,1,0,0:0:0:0:
448,192,56708,1,0,0:0:0:0:
64,192,56742,1,0,0:0:0:0:
320,192,56775,1,0,0:0:0:0:
192,192,56808,1,0,0:0:0:0:
448,192,56841,1,0,0:0:0:0:
320,192,56891,1,0,0:0:0:0:
448,192,56941,1,0,0:0:0:0:
192,192,56941,1,0,0:0:0:0:
192,192,57041,1,0,0:0:0:0:
64,192,57041,1,0,0:0:0:0:
320,192,57141,1,0,0:0:0:0:
64,192,57141,1,0,0:0:0:0:
192,192,57191,1,0,0:0:0:0:
320,192,57240,1,0,0:0:0:0:
448,192,57240,1,0,0:0:0:0:
64,192,57290,1,0,0:0:0:0:
448,192,57340,1,0,0:0:0:0:
320,192,57390,1,0,0:0:0:0:
192,192,57440,1,0,0:0:0:0:
64,192,57440,1,0,0:0:0:0:
448,192,57473,1,0,0:0:0:0:
320,192,57506,1,0,0:0:0:0:
64,192,57540,1,0,0:0:0:0:
192,192,57573,1,0,0:0:0:0:
320,192,57606,1,0,0:0:0:0:
64,192,57640,128,0,57739:0:0:0:0:
448,192,57739,128,0,57839:0:0:0:0:
192,192,57839,1,0,0:0:0:0:
64,192,57839,1,0,0:0:0:0:
320,192,57872,1,0,0:0:0:0:
448,192,57906,1,0,0:0:0:0:
64,192,57939,1,0,0:0:0:0:
320,192,57972,1,0,0:0:0:0:
192,192,58005,1,0,0:0:0:0:
64,192,58039,128,0,58238:0:0:0:0:
448,192,58138,1,0,0:0:0:0:
192,192,58238,1,0,0:0:0:0:
448,192,58238,128,0,58438:0:0:0:0:
64,192,58338,1,0,0:0:0:0:
192,192,58438,1,0,0:0:0:0:
64,192,58438,1,0,0:0:0:0:
320,192,58471,1,0,0:0:0:0:
448,192,58504,1,0,0:0:0:0:
192,192,58537,1,0,0:0:0:0:
64,192,58571,1,0,0:0:0:0:
448,192,58637,1,0,0:0:0:0:
320,192,58637,128,0,58737:0:0:0:0:
192,192,58737,1,0,0:0:0:0:
64,192,58837,1,0,0:0:0:0:
320,192,58886,1,0,0:0:0:0:
192,192,58936,1,0,0:0:0:0:
320,192,58986,1,0,0:0:0:0:
448,192,59036,1,0,0:0:0:0:
64,192,59036,128,0,59136:0:0:0:0:
448,192,59136,128,0,59236:0:0:0:0:
64,192,59236,1,0,0:0:0:0:
320,192,59269,1,0,0:0:0:0:
448,192,59302,1,0,0:0:0:0:
192,192,59335,1,0,0:0:0:0:
64,192,59369,1,0,0:0:0:0:
320,192,59402,1,0,0:0:0:0:
448,192,59435,1,0,0:0:0:0:
192,192,59435,1,0,0:0:0:0:
192,192,59535,1,0,0:0:0:0:
448,192,59635,128,0,59834:0:0:0:0:
320,192,59635,1,0,0:0:0:0:
64,192,59734,1,0,0:0:0:0:
192,192,59834,1,0,0:0:0:0:
64,192,59834,1,0,0:0:0:0:
192,192,59934,128,0,60034:0:0:0:0:
320,192,60034,1,0,0:0:0:0:
448,192,60034,1,0,0:0:0:0:
64,192,60133,1,0,0:0:0:0:
448,192,60133,1,0,0:0:0:0:
192,192,60183,1,0,0:0:0:0:
64,192,60233,1,0,0:0:0:0:
320,192,60233,1,0,0:0:0:0:
192,192,60300,1,0,0:0:0:0:
448,192,60300,1,0,0:0:0:0:
64,192,60366,1,0,0:0:0:0:
320,192,60366,1,0,0:0:0:0:
320,192,60433,1,0,0:0:0:0:
448,192,60433,1,0,0:0:0:0:
192,192,60499,1,0,0:0:0:0:
64,192,60499,1,0,0:0:0:0:
320,192,60566,1,0,0:0:0:0:
448,192,60566,1,0,0:0:0:0:
192,192,60632,1,0,0:0:0:0:
64,192,60632,1,0,0:0:0:0:
448,192,60632,1,0,0:0:0:0:
64,192,60732,1,0,0:0:0:0:
320,192,60732,1,0,0:0:0:0:
192,192,60832,1,0,0:0:0:0:
320,192,60832,1,0,0:0:0:0:
448,192,60832,1,0,0:0:0:0:
64,192,60932,1,0,0:0:0:0:
448,192,60932,1,0,0:0:0:0:
320,192,61031,1,0,0:0:0:0:
192,192,61031,1,0,0:0:0:0:
64,192,61031,1,0,0:0:0:0:
192,192,61131,1,0,0:0:0:0:
320,192,61131,1,0,0:0:0:0:
448,192,61231,1,0,0:0:0:0:
64,192,61231,1,0,0:0:0:0:
192,192,61264,1,0,0:0:0:0:
320,192,61297,1,0,0:0:0:0:
64,192,61331,1,0,0:0:0:0:
448,192,61380,1,0,0:0:0:0:
320,192,61430,1,0,0:0:0:0:
192,192,61430,1,0,0:0:0:0:
64,192,61480,1,0,0:0:0:0:
448,192,61530,1,0,0:0:0:0:
64,192,61580,1,0,0:0:0:0:
192,192,61630,1,0,0:0:0:0:
448,192,61630,1,0,0:0:0:0:
320,192,61680,1,0,0:0:0:0:
192,192,61730,1,0,0:0:0:0:
320,192,61779,1,0,0:0:0:0:
64,192,61829,1,0,0:0:0:0:
448,192,61829,1,0,0:0:0:0:
192,192,61879,1,0,0:0:0:0:
64,192,61929,1,0,0:0:0:0:
320,192,61979,1,0,0:0:0:0:
192,192,62029,1,0,0:0:0:0:
448,192,62029,1,0,0:0:0:0:
320,192,62079,1,0,0:0:0:0:
64,192,62129,1,0,0:0:0:0:
192,192,62179,1,0,0:0:0:0:
448,192,62228,1,0,0:0:0:0:
320,192,62228,1,0,0:0:0:0:
64,192,62228,1,0,0:0:0:0:
192,192,62328,1,0,0:0:0:0:
320,192,62328,1,0,0:0:0:0:
64,192,62378,1,0,0:0:0:0:
320,192,62428,1,0,0:0:0:0:
448,192,62428,1,0,0:0:0:0:
448,192,62528,1,0,0:0:0:0:
192,192,62627,1,0,0:0:0:0:
64,192,62627,1,0,0:0:0:0:
448,192,62677,1,0,0:0:0:0:
320,192,62727,1,0,0:0:0:0:
192,192,62727,1,0,0:0:0:0:
448,192,62777,1,0,0:0:0:0:
192,192,62827,1,0,0:0:0:0:
64,192,62827,1,0,0:0:0:0:
320,192,62877,1,0,0:0:0:0:
192,192,62927,1,0,0:0:0:0:
448,192,62927,1,0,0:0:0:0:
64,192,62977,1,0,0:0:0:0:
320,192,63026,1,0,0:0:0:0:
448,192,63026,1,0,0:0:0:0:
320,192,63093,1,0,0:0:0:0:
64,192,63159,1,0,0:0:0:0:
192,192,63159,1,0,0:0:0:0:
64,192,63226,1,0,0:0:0:0:
448,192,63292,1,0,0:0:0:0:
320,192,63292,1,0,0:0:0:0:
448,192,63359,1,0,0:0:0:0:
192,192,63425,1,0,0:0:0:0:
64,192,63425,1,0,0:0:0:0:
320,192,63492,1,0,0:0:0:0:
448,192,63492,1,0,0:0:0:0:
192,192,63558,1,0,0:0:0:0:
64,192,63558,1,0,0:0:0:0:
320,192,63625,1,0,0:0:0:0:
448,192,63625,1,0,0:0:0:0:
192,192,63692,1,0,0:0:0:0:
64,192,63692,1,0,0:0:0:0:
320,192,63758,1,0,0:0:0:0:
448,192,63758,1,0,0:0:0:0:
448,192,63825,1,0,0:0:0:0:
64,192,63825,1,0,0:0:0:0:
320,192,63924,1,0,0:0:0:0:
64,192,63924,1,0,0:0:0:0:
448,192,64024,1,0,0:0:0:0:
192,192,64024,1,0,0:0:0:0:
448,192,64124,1,0,0:0:0:0:
320,192,64124,1,0,0:0:0:0:
64,192,64124,1,0,0:0:0:0:
192,192,64273,1,0,0:0:0:0:
448,192,64323,1,0,0:0:0:0:
64,192,64373,1,0,0:0:0:0:
192,192,64423,1,0,0:0:0:0:
320,192,64423,1,0,0:0:0:0:
448,192,64623,1,0,0:0:0:0:
192,192,64623,1,0,0:0:0:0:
64,192,64623,1,0,0:0:0:0:
320,192,64822,1,0,0:0:0:0:
192,192,64822,1,0,0:0:0:0:
320,192,65022,1,0,0:0:0:0:
192,192,65022,1,0,0:0:0:0:
320,192,65221,1,0,0:0:0:0:
192,192,65221,1,0,0:0:0:0:
448,192,65421,1,0,0:0:0:0:
64,192,65421,1,0,0:0:0:0:
192,192,65421,1,0,0:0:0:0:
320,192,65520,1,0,0:0:0:0:
448,192,65520,1,0,0:0:0:0:
320,192,65620,1,0,0:0:0:0:
64,192,65620,1,0,0:0:0:0:
448,192,65720,1,0,0:0:0:0:
192,192,65720,1,0,0:0:0:0:
64,192,65720,1,0,0:0:0:0:
448,192,65820,1,0,0:0:0:0:
192,192,65820,1,0,0:0:0:0:
320,192,65919,1,0,0:0:0:0:
64,192,65919,1,0,0:0:0:0:
320,192,66019,1,0,0:0:0:0:
448,192,66019,1,0,0:0:0:0:
192,192,66019,1,0,0:0:0:0:
64,192,66119,1,0,0:0:0:0:
448,192,66119,1,0,0:0:0:0:
64,192,66219,1,0,0:0:0:0:
320,192,66219,1,0,0:0:0:0:
192,192,66219,128,0,66269:0:0:0:0:
320,192,66318,128,0,66368:0:0:0:0:
448,192,66318,1,0,0:0:0:0:
64,192,66418,128,0,66468:0:0:0:0:
192,192,66418,1,0,0:0:0:0:
192,192,66518,128,0,66568:0:0:0:0:
448,192,66518,1,0,0:0:0:0:
64,192,66568,1,0,0:0:0:0:
320,192,66618,128,0,66668:0:0:0:0:
192,192,66618,1,0,0:0:0:0:
448,192,66718,128,0,66767:0:0:0:0:
192,192,66817,128,0,66867:0:0:0:0:
320,192,66917,128,0,66967:0:0:0:0:
64,192,67017,1,0,0:0:0:0:
320,192,67017,1,0,0:0:0:0:
448,192,67017,1,0,0:0:0:0:
192,192,67117,1,0,0:0:0:0:
64,192,67117,1,0,0:0:0:0:
192,192,67216,1,0,0:0:0:0:
448,192,67216,1,0,0:0:0:0:
320,192,67216,1,0,0:0:0:0:
64,192,67316,1,0,0:0:0:0:
320,192,67316,1,0,0:0:0:0:
192,192,67416,1,0,0:0:0:0:
64,192,67416,1,0,0:0:0:0:
448,192,67416,1,0,0:0:0:0:
64,192,67516,1,0,0:0:0:0:
320,192,67516,1,0,0:0:0:0:
192,192,67615,1,0,0:0:0:0:
320,192,67615,1,0,0:0:0:0:
448,192,67615,1,0,0:0:0:0:
320,192,67715,1,0,0:0:0:0:
448,192,67715,1,0,0:0:0:0:
192,192,67815,1,0,0:0:0:0:
64,192,67815,1,0,0:0:0:0:
448,192,67815,1,0,0:0:0:0:
192,192,67915,1,0,0:0:0:0:
320,192,67964,1,0,0:0:0:0:
192,192,68014,1,0,0:0:0:0:
448,192,68014,1,0,0:0:0:0:
64,192,68014,1,0,0:0:0:0:
64,192,68114,1,0,0:0:0:0:
192,192,68214,1,0,0:0:0:0:
320,192,68214,1,0,0:0:0:0:
448,192,68214,1,0,0:0:0:0:
448,192,68314,1,0,0:0:0:0:
64,192,68314,1,0,0:0:0:0:
320,192,68364,1,0,0:0:0:0:
64,192,68413,1,0,0:0:0:0:
192,192,68413,1,0,0:0:0:0:
448,192,68413,1,0,0:0:0:0:
192,192,68513,1,0,0:0:0:0:
320,192,68513,1,0,0:0:0:0:
320,192,68613,1,0,0:0:0:0:
448,192,68613,1,0,0:0:0:0:
64,192,68613,1,0,0:0:0:0:
192,192,68713,1,0,0:0:0:0:
64,192,68713,1,0,0:0:0:0:
192,192,68812,1,0,0:0:0:0:
320,192,68812,1,0,0:0:0:0:
448,192,68812,1,0,0:0:0:0:
320,192,68912,1,0,0:0:0:0:
64,192,68912,1,0,0:0:0:0:
192,192,69012,1,0,0:0:0:0:
64,192,69012,1,0,0:0:0:0:
448,192,69012,1,0,0:0:0:0:
192,192,69112,1,0,0:0:0:0:
448,192,69112,1,0,0:0:0:0:
64,192,69211,1,0,0:0:0:0:
320,192,69211,1,0,0:0:0:0:
448,192,69211,1,0,0:0:0:0:
192,192,69311,1,0,0:0:0:0:
320,192,69311,1,0,0:0:0:0:
64,192,69411,1,0,0:0:0:0:
448,192,69411,1,0,0:0:0:0:
320,192,69444,1,0,0:0:0:0:
192,192,69477,1,0,0:0:0:0:
64,192,69511,1,0,0:0:0:0:
448,192,69544,1,0,0:0:0:0:
192,192,69577,1,0,0:0:0:0:
320,192,69610,1,0,0:0:0:0:
64,192,69660,1,0,0:0:0:0:
448,192,69710,1,0,0:0:0:0:
320,192,69710,1,0,0:0:0:0:
192,192,69810,1,0,0:0:0:0:
64,192,69810,1,0,0:0:0:0:
448,192,69810,1,0,0:0:0:0:
192,192,69910,1,0,0:0:0:0:
320,192,69910,1,0,0:0:0:0:
448,192,69960,1,0,0:0:0:0:
192,192,70010,1,0,0:0:0:0:
64,192,70010,1,0,0:0:0:0:
320,192,70059,1,0,0:0:0:0:
64,192,70109,1,0,0:0:0:0:
320,192,70159,1,0,0:0:0:0:
192,192,70209,1,0,0:0:0:0:
448,192,70209,1,0,0:0:0:0:
192,192,70309,1,0,0:0:0:0:
64,192,70309,1,0,0:0:0:0:
64,192,70409,1,0,0:0:0:0:
448,192,70409,1,0,0:0:0:0:
192,192,70508,1,0,0:0:0:0:
448,192,70508,1,0,0:0:0:0:
192,192,70608,1,0,0:0:0:0:
64,192,70608,1,0,0:0:0:0:
320,192,70608,1,0,0:0:0:0:
64,192,70708,1,0,0:0:0:0:
320,192,70808,1,0,0:0:0:0:
448,192,70808,1,0,0:0:0:0:
192,192,70907,1,0,0:0:0:0:
320,192,70907,1,0,0:0:0:0:
64,192,70907,1,0,0:0:0:0:
192,192,71007,1,0,0:0:0:0:
320,192,71107,1,0,0:0:0:0:
64,192,71107,1,0,0:0:0:0:
320,192,71207,1,0,0:0:0:0:
448,192,71207,1,0,0:0:0:0:
192,192,71207,1,0,0:0:0:0:
448,192,71306,1,0,0:0:0:0:
64,192,71306,1,0,0:0:0:0:
320,192,71406,1,0,0:0:0:0:
64,192,71406,1,0,0:0:0:0:
192,192,71456,1,0,0:0:0:0:
320,192,71506,1,0,0:0:0:0:
448,192,71506,1,0,0:0:0:0:
192,192,71556,1,0,0:0:0:0:
64,192,71606,1,0,0:0:0:0:
448,192,71606,128,0,71656:0:0:0:0:
448,192,71705,1,0,0:0:0:0:
192,192,71705,128,0,71805:0:0:0:0:
320,192,71805,1,0,0:0:0:0:
448,192,71805,1,0,0:0:0:0:
64,192,71805,128,0,72005:0:0:0:0:
192,192,71905,1,0,0:0:0:0:
320,192,72005,1,0,0:0:0:0:
448,192,72005,128,0,72104:0:0:0:0:
192,192,72104,128,0,72204:0:0:0:0:
64,192,72204,1,0,0:0:0:0:
448,192,72204,1,0,0:0:0:0:
320,192,72204,128,0,72404:0:0:0:0:
64,192,72404,1,0,0:0:0:0:
192,192,72404,128,0,72503:0:0:0:0:
320,192,72503,1,0,0:0:0:0:
448,192,72503,128,0,72603:0:0:0:0:
192,192,72603,1,0,0:0:0:0:
64,192,72603,128,0,72703:0:0:0:0:
448,192,72703,128,0,72803:0:0:0:0:
64,192,72803,1,0,0:0:0:0:
192,192,72803,128,0,72903:0:0:0:0:
320,192,72903,128,0,73002:0:0:0:0:
64,192,72952,1,0,0:0:0:0:
448,192,73002,1,0,0:0:0:0:
192,192,73002,1,0,0:0:0:0:
64,192,73069,1,0,0:0:0:0:
320,192,73069,1,0,0:0:0:0:
192,192,73135,1,0,0:0:0:0:
448,192,73135,1,0,0:0:0:0:
192,192,73202,1,0,0:0:0:0:
64,192,73202,1,0,0:0:0:0:
320,192,73268,1,0,0:0:0:0:
448,192,73268,1,0,0:0:0:0:
192,192,73335,1,0,0:0:0:0:
64,192,73335,1,0,0:0:0:0:
64,192,73401,1,0,0:0:0:0:
320,192,73401,1,0,0:0:0:0:
448,192,73401,1,0,0:0:0:0:
192,192,73501,1,0,0:0:0:0:
320,192,73501,1,0,0:0:0:0:
192,192,73601,1,0,0:0:0:0:
64,192,73601,1,0,0:0:0:0:
448,192,73601,1,0,0:0:0:0:
64,192,73701,1,0,0:0:0:0:
320,192,73701,1,0,0:0:0:0:
320,192,73800,1,0,0:0:0:0:
448,192,73800,1,0,0:0:0:0:
192,192,73800,1,0,0:0:0:0:
448,192,73900,1,0,0:0:0:0:
320,192,73900,1,0,0:0:0:0:
192,192,74000,1,0,0:0:0:0:
64,192,74000,1,0,0:0:0:0:
448,192,74000,1,0,0:0:0:0:
64,192,74100,1,0,0:0:0:0:
320,192,74100,1,0,0:0:0:0:
192,192,74199,1,0,0:0:0:0:
320,192,74199,1,0,0:0:0:0:
448,192,74199,1,0,0:0:0:0:
320,192,74299,1,0,0:0:0:0:
192,192,74349,1,0,0:0:0:0:
64,192,74399,1,0,0:0:0:0:
448,192,74399,1,0,0:0:0:0:
320,192,74399,1,0,0:0:0:0:
448,192,74499,1,0,0:0:0:0:
192,192,74598,5,0,0:0:0:0:
64,192,74598,1,0,0:0:0:0:
320,192,74598,1,0,0:0:0:0:
192,192,74698,1,0,0:0:0:0:
448,192,74698,1,0,0:0:0:0:
320,192,74748,1,0,0:0:0:0:
192,192,74798,1,0,0:0:0:0:
64,192,74798,1,0,0:0:0:0:
448,192,74798,1,0,0:0:0:0:
320,192,74898,1,0,0:0:0:0:
64,192,74898,1,0,0:0:0:0:
320,192,74997,1,0,0:0:0:0:
448,192,74997,1,0,0:0:0:0:
192,192,74997,1,0,0:0:0:0:
448,192,75097,1,0,0:0:0:0:
192,192,75097,1,0,0:0:0:0:
64,192,75197,1,0,0:0:0:0:
192,192,75197,1,0,0:0:0:0:
320,192,75197,1,0,0:0:0:0:
64,192,75297,1,0,0:0:0:0:
448,192,75297,1,0,0:0:0:0:
192,192,75396,1,0,0:0:0:0:
448,192,75396,1,0,0:0:0:0:
320,192,75396,1,0,0:0:0:0:
192,192,75496,1,0,0:0:0:0:
64,192,75496,1,0,0:0:0:0:
64,192,75596,1,0,0:0:0:0:
320,192,75596,1,0,0:0:0:0:
448,192,75596,1,0,0:0:0:0:
192,192,75696,1,0,0:0:0:0:
320,192,75696,1,0,0:0:0:0:
64,192,75796,5,0,0:0:0:0:
448,192,75796,1,0,0:0:0:0:
320,192,75829,1,0,0:0:0:0:
192,192,75862,1,0,0:0:0:0:
448,192,75895,1,0,0:0:0:0:
320,192,75929,1,0,0:0:0:0:
64,192,75962,1,0,0:0:0:0:
192,192,75995,1,0,0:0:0:0:
320,192,76045,1,0,0:0:0:0:
192,192,76095,1,0,0:0:0:0:
448,192,76095,1,0,0:0:0:0:
64,192,76195,1,0,0:0:0:0:
448,192,76195,1,0,0:0:0:0:
192,192,76294,1,0,0:0:0:0:
64,192,76294,1,0,0:0:0:0:
320,192,76344,1,0,0:0:0:0:
448,192,76394,1,0,0:0:0:0:
192,192,76394,1,0,0:0:0:0:
64,192,76444,1,0,0:0:0:0:
320,192,76494,1,0,0:0:0:0:
64,192,76544,1,0,0:0:0:0:
320,192,76594,1,0,0:0:0:0:
448,192,76594,1,0,0:0:0:0:
192,192,76627,1,0,0:0:0:0:
64,192,76660,1,0,0:0:0:0:
448,192,76693,1,0,0:0:0:0:
192,192,76727,1,0,0:0:0:0:
320,192,76760,1,0,0:0:0:0:
448,192,76793,128,0,76893:0:0:0:0:
64,192,76893,128,0,76993:0:0:0:0:
320,192,76993,1,0,0:0:0:0:
192,192,76993,1,0,0:0:0:0:
448,192,77026,1,0,0:0:0:0:
64,192,77059,1,0,0:0:0:0:
320,192,77092,1,0,0:0:0:0:
192,192,77126,1,0,0:0:0:0:
64,192,77159,1,0,0:0:0:0:
448,192,77192,128,0,77292:0:0:0:0:
64,192,77292,128,0,77392:0:0:0:0:
448,192,77392,1,0,0:0:0:0:
320,192,77392,128,0,77491:0:0:0:0:
192,192,77491,1,0,0:0:0:0:
448,192,77591,1,0,0:0:0:0:
192,192,77591,1,0,0:0:0:0:
64,192,77624,1,0,0:0:0:0:
320,192,77658,1,0,0:0:0:0:
448,192,77691,128,0,77791:0:0:0:0:
64,192,77791,1,0,0:0:0:0:
192,192,77791,128,0,77890:0:0:0:0:
448,192,77890,1,0,0:0:0:0:
64,192,77990,128,0,78090:0:0:0:0:
192,192,78040,1,0,0:0:0:0:
320,192,78090,1,0,0:0:0:0:
192,192,78140,1,0,0:0:0:0:
64,192,78190,1,0,0:0:0:0:
448,192,78190,128,0,78339:0:0:0:0:
192,192,78289,1,0,0:0:0:0:
448,192,78389,1,0,0:0:0:0:
192,192,78422,1,0,0:0:0:0:
64,192,78456,1,0,0:0:0:0:
320,192,78489,1,0,0:0:0:0:
448,192,78522,1,0,0:0:0:0:
192,192,78555,1,0,0:0:0:0:
64,192,78589,1,0,0:0:0:0:
320,192,78589,1,0,0:0:0:0:
320,192,78688,1,0,0:0:0:0:
64,192,78788,128,0,78988:0:0:0:0:
192,192,78788,1,0,0:0:0:0:
448,192,78888,1,0,0:0:0:0:
448,192,78988,1,0,0:0:0:0:
320,192,78988,128,0,79088:0:0:0:0:
192,192,79088,1,0,0:0:0:0:
192,192,79187,1,0,0:0:0:0:
64,192,79187,1,0,0:0:0:0:
448,192,79287,1,0,0:0:0:0:
64,192,79287,1,0,0:0:0:0:
320,192,79337,1,0,0:0:0:0:
448,192,79387,1,0,0:0:0:0:
192,192,79387,1,0,0:0:0:0:
320,192,79453,1,0,0:0:0:0:
64,192,79453,1,0,0:0:0:0:
448,192,79520,1,0,0:0:0:0:
192,192,79520,1,0,0:0:0:0:
192,192,79586,1,0,0:0:0:0:
64,192,79586,1,0,0:0:0:0:
320,192,79653,1,0,0:0:0:0:
448,192,79653,1,0,0:0:0:0:
192,192,79719,1,0,0:0:0:0:
64,192,79719,1,0,0:0:0:0:
320,192,79786,1,0,0:0:0:0:
448,192,79786,1,0,0:0:0:0:
64,192,79786,1,0,0:0:0:0:
192,192,79886,1,0,0:0:0:0:
320,192,79886,1,0,0:0:0:0:
192,192,79985,1,0,0:0:0:0:
64,192,79985,1,0,0:0:0:0:
448,192,79985,1,0,0:0:0:0:
64,192,80085,1,0,0:0:0:0:
320,192,80085,1,0,0:0:0:0:
320,192,80185,1,0,0:0:0:0:
192,192,80185,1,0,0:0:0:0:
448,192,80185,1,0,0:0:0:0:
192,192,80285,1,0,0:0:0:0:
64,192,80285,1,0,0:0:0:0:
64,192,80384,1,0,0:0:0:0:
320,192,80384,1,0,0:0:0:0:
448,192,80384,1,0,0:0:0:0:
192,192,80484,1,0,0:0:0:0:
448,192,80484,1,0,0:0:0:0:
320,192,80584,1,0,0:0:0:0:
64,192,80584,1,0,0:0:0:0:
448,192,80634,1,0,0:0:0:0:
64,192,80684,1,0,0:0:0:0:
192,192,80684,1,0,0:0:0:0:
192,192,80783,1,0,0:0:0:0:
448,192,80783,1,0,0:0:0:0:
320,192,80883,1,0,0:0:0:0:
448,192,80883,1,0,0:0:0:0:
192,192,80933,1,0,0:0:0:0:
64,192,80983,1,0,0:0:0:0:
320,192,80983,1,0,0:0:0:0:
192,192,81083,1,0,0:0:0:0:
320,192,81083,1,0,0:0:0:0:
192,192,81182,1,0,0:0:0:0:
64,192,81182,1,0,0:0:0:0:
448,192,81232,1,0,0:0:0:0:
320,192,81282,1,0,0:0:0:0:
64,192,81282,1,0,0:0:0:0:
192,192,81382,1,0,0:0:0:0:
448,192,81382,1,0,0:0:0:0:
320,192,81482,1,0,0:0:0:0:
448,192,81482,1,0,0:0:0:0:
192,192,81532,1,0,0:0:0:0:
64,192,81532,1,0,0:0:0:0:
320,192,81581,1,0,0:0:0:0:
448,192,81581,1,0,0:0:0:0:
192,192,81681,1,0,0:0:0:0:
320,192,81681,1,0,0:0:0:0:
192,192,81781,1,0,0:0:0:0:
64,192,81781,1,0,0:0:0:0:
320,192,81831,1,0,0:0:0:0:
64,192,81881,1,0,0:0:0:0:
448,192,81881,1,0,0:0:0:0:
192,192,81931,1,0,0:0:0:0:
320,192,81981,1,0,0:0:0:0:
448,192,81981,1,0,0:0:0:0:
192,192,82030,1,0,0:0:0:0:
64,192,82080,1,0,0:0:0:0:
320,192,82080,1,0,0:0:0:0:
448,192,82130,1,0,0:0:0:0:
192,192,82180,1,0,0:0:0:0:
64,192,82180,1,0,0:0:0:0:
192,192,82247,1,0,0:0:0:0:
320,192,82313,1,0,0:0:0:0:
448,192,82313,1,0,0:0:0:0:
320,192,82380,1,0,0:0:0:0:
64,192,82446,1,0,0:0:0:0:
192,192,82446,1,0,0:0:0:0:
64,192,82513,1,0,0:0:0:0:
320,192,82579,1,0,0:0:0:0:
448,192,82579,1,0,0:0:0:0:
192,192,82646,1,0,0:0:0:0:
64,192,82646,1,0,0:0:0:0:
320,192,82712,1,0,0:0:0:0:
448,192,82712,1,0,0:0:0:0:
192,192,82779,1,0,0:0:0:0:
64,192,82779,1,0,0:0:0:0:
320,192,82845,1,0,0:0:0:0:
448,192,82845,1,0,0:0:0:0:
192,192,82912,1,0,0:0:0:0:
64,192,82912,1,0,0:0:0:0:
320,192,82978,1,0,0:0:0:0:
448,192,82978,1,0,0:0:0:0:
64,192,82978,1,0,0:0:0:0:
192,192,83078,1,0,0:0:0:0:
320,192,83078,1,0,0:0:0:0:
192,192,83178,1,0,0:0:0:0:
64,192,83178,1,0,0:0:0:0:
448,192,83178,1,0,0:0:0:0:
64,192,83277,1,0,0:0:0:0:
448,192,83277,1,0,0:0:0:0:
192,192,83377,1,0,0:0:0:0:
320,192,83377,1,0,0:0:0:0:
448,192,83377,1,0,0:0:0:0:
192,192,83477,1,0,0:0:0:0:
64,192,83477,1,0,0:0:0:0:
64,192,83577,1,0,0:0:0:0:
320,192,83577,1,0,0:0:0:0:
448,192,83577,1,0,0:0:0:0:
192,192,83676,1,0,0:0:0:0:
448,192,83676,1,0,0:0:0:0:
192,192,83776,1,0,0:0:0:0:
320,192,83776,1,0,0:0:0:0:
64,192,83776,1,0,0:0:0:0:
64,192,83876,1,0,0:0:0:0:
448,192,83876,1,0,0:0:0:0:
320,192,83976,1,0,0:0:0:0:
192,192,83976,1,0,0:0:0:0:
448,192,83976,1,0,0:0:0:0:
320,192,84075,1,0,0:0:0:0:
192,192,84075,1,0,0:0:0:0:
64,192,84175,1,0,0:0:0:0:
192,192,84175,1,0,0:0:0:0:
448,192,84175,1,0,0:0:0:0:
320,192,84275,1,0,0:0:0:0:
448,192,84275,1,0,0:0:0:0:
192,192,84375,1,0,0:0:0:0:
64,192,84375,1,0,0:0:0:0:
320,192,84375,1,0,0:0:0:0:
64,192,84474,1,0,0:0:0:0:
448,192,84474,1,0,0:0:0:0:
192,192,84574,1,0,0:0:0:0:
448,192,84574,1,0,0:0:0:0:
320,192,84624,1,0,0:0:0:0:
192,192,84674,1,0,0:0:0:0:
192,192,84774,1,0,0:0:0:0:
320,192,84874,1,0,0:0:0:0:
64,192,84923,1,0,0:0:0:0:
320,192,84973,1,0,0:0:0:0:
320,192,85073,1,0,0:0:0:0:
64,192,85173,1,0,0:0:0:0:
448,192,85223,1,0,0:0:0:0:
64,192,85273,1,0,0:0:0:0:
192,192,85372,1,0,0:0:0:0:
320,192,85372,1,0,0:0:0:0:
448,192,85372,1,0,0:0:0:0:
64,192,85472,1,0,0:0:0:0:
448,192,85572,1,0,0:0:0:0:
320,192,85572,128,0,85672:0:0:0:0:
192,192,85622,1,0,0:0:0:0:
64,192,85672,1,0,0:0:0:0:
64,192,85771,1,0,0:0:0:0:
320,192,85771,1,0,0:0:0:0:
448,192,85871,1,0,0:0:0:0:
320,192,85971,128,0,86071:0:0:0:0:
64,192,86021,1,0,0:0:0:0:
192,192,86071,1,0,0:0:0:0:
64,192,86170,1,0,0:0:0:0:
192,192,86170,128,0,86769:0:0:0:0:
448,192,86170,128,0,86370:0:0:0:0:
448,192,86569,1,0,0:0:0:0:
320,192,86769,128,0,86869:0:0:0:0:
64,192,86869,128,0,86968:0:0:0:0:
192,192,86968,128,0,87168:0:0:0:0:
448,192,87168,128,0,87268:0:0:0:0:
64,192,87218,1,0,0:0:0:0:
320,192,87268,128,0,87367:0:0:0:0:
192,192,87318,1,0,0:0:0:0:
64,192,87367,128,0,87467:0:0:0:0:
448,192,87467,1,0,0:0:0:0:
192,192,87567,128,0,87667:0:0:0:0:
320,192,87766,128,0,87966:0:0:0:0:
448,192,87766,1,0,0:0:0:0:
64,192,87966,128,0,88166:0:0:0:0:
192,192,88066,1,0,0:0:0:0:
448,192,88166,128,0,88365:0:0:0:0:
320,192,88365,128,0,88565:0:0:0:0:
64,192,88365,1,0,0:0:0:0:
192,192,88565,128,0,88764:0:0:0:0:
448,192,88565,1,0,0:0:0:0:
320,192,88764,1,0,0:0:0:0:
64,192,88764,128,0,88964:0:0:0:0:
192,192,88864,1,0,0:0:0:0:
448,192,88964,128,0,89163:0:0:0:0:
192,192,89163,128,0,89363:0:0:0:0:
320,192,89163,1,0,0:0:0:0:
448,192,89363,128,0,89562:0:0:0:0:
64,192,89363,128,0,90161:0:0:0:0:
320,192,89562,1,0,0:0:0:0:
192,192,89612,1,0,0:0:0:0:
448,192,89662,1,0,0:0:0:0:
320,192,89712,1,0,0:0:0:0:
192,192,89762,128,0,89961:0:0:0:0:
320,192,89961,128,0,90161:0:0:0:0:
448,192,90161,128,0,90959:0:0:0:0:
192,192,90161,128,0,90560:0:0:0:0:
320,192,90560,128,0,90759:0:0:0:0:
64,192,90759,1,0,0:0:0:0:
192,192,90859,1,0,0:0:0:0:
64,192,90959,128,0,91757:0:0:0:0:
320,192,90959,128,0,91059:0:0:0:0:
320,192,91158,128,0,91258:0:0:0:0:
448,192,91358,128,0,91458:0:0:0:0:
448,192,91557,128,0,91657:0:0:0:0:
320,192,91757,128,0,92156:0:0:0:0:
192,192,91757,128,0,91956:0:0:0:0:
448,192,91757,128,0,92056:0:0:0:0:
192,192,92156,128,0,92355:0:0:0:0:
64,192,92355,1,0,0:0:0:0:
320,192,92355,1,0,0:0:0:0:
448,192,92355,1,0,0:0:0:0:
192,192,92455,1,0,0:0:0:0:
64,192,92555,1,0,0:0:0:0:
448,192,92555,1,0,0:0:0:0:
192,192,92555,1,0,0:0:0:0:
320,192,92655,1,0,0:0:0:0:
448,192,92655,1,0,0:0:0:0:
320,192,92754,1,0,0:0:0:0:
64,192,92754,1,0,0:0:0:0:
192,192,92854,1,0,0:0:0:0:
64,192,92854,1,0,0:0:0:0:
192,192,92954,1,0,0:0:0:0:
448,192,92954,1,0,0:0:0:0:
64,192,93054,1,0,0:0:0:0:
320,192,93054,1,0,0:0:0:0:
320,192,93153,1,0,0:0:0:0:
448,192,93153,1,0,0:0:0:0:
192,192,93253,1,0,0:0:0:0:
64,192,93253,1,0,0:0:0:0:
64,192,93353,1,0,0:0:0:0:
320,192,93353,1,0,0:0:0:0:
448,192,93353,1,0,0:0:0:0:
192,192,93453,1,0,0:0:0:0:
320,192,93453,1,0,0:0:0:0:
192,192,93552,1,0,0:0:0:0:
448,192,93552,1,0,0:0:0:0:
64,192,93652,1,0,0:0:0:0:
320,192,93652,1,0,0:0:0:0:
320,192,93752,1,0,0:0:0:0:
448,192,93752,1,0,0:0:0:0:
192,192,93852,1,0,0:0:0:0:
64,192,93852,1,0,0:0:0:0:
64,192,93952,1,0,0:0:0:0:
448,192,93952,1,0,0:0:0:0:
192,192,94051,1,0,0:0:0:0:
320,192,94051,1,0,0:0:0:0:
192,192,94151,1,0,0:0:0:0:
64,192,94151,1,0,0:0:0:0:
448,192,94251,1,0,0:0:0:0:
320,192,94251,1,0,0:0:0:0:
64,192,94351,1,0,0:0:0:0:
320,192,94351,1,0,0:0:0:0:
192,192,94450,1,0,0:0:0:0:
448,192,94450,1,0,0:0:0:0:
64,192,94550,1,0,0:0:0:0:
448,192,94550,1,0,0:0:0:0:
64,192,94650,1,0,0:0:0:0:
320,192,94650,1,0,0:0:0:0:
320,192,94750,1,0,0:0:0:0:
448,192,94750,1,0,0:0:0:0:
192,192,94849,1,0,0:0:0:0:
64,192,94849,1,0,0:0:0:0:
192,192,94949,1,0,0:0:0:0:
320,192,94949,1,0,0:0:0:0:
448,192,94949,1,0,0:0:0:0:
64,192,95049,1,0,0:0:0:0:
320,192,95049,1,0,0:0:0:0:
192,192,95149,1,0,0:0:0:0:
64,192,95149,1,0,0:0:0:0:
448,192,95198,1,0,0:0:0:0:
192,192,95248,1,0,0:0:0:0:
320,192,95248,1,0,0:0:0:0:
320,192,95348,1,0,0:0:0:0:
448,192,95348,1,0,0:0:0:0:
64,192,95348,1,0,0:0:0:0:
192,192,95448,1,0,0:0:0:0:
192,192,95548,1,0,0:0:0:0:
64,192,95548,1,0,0:0:0:0:
320,192,95647,1,0,0:0:0:0:
448,192,95647,1,0,0:0:0:0:
64,192,95747,1,0,0:0:0:0:
448,192,95747,1,0,0:0:0:0:
64,192,95847,1,0,0:0:0:0:
192,192,95847,1,0,0:0:0:0:
320,192,95947,1,0,0:0:0:0:
192,192,95947,1,0,0:0:0:0:
64,192,96046,1,0,0:0:0:0:
448,192,96046,1,0,0:0:0:0:
448,192,96146,1,0,0:0:0:0:
192,192,96146,1,0,0:0:0:0:
320,192,96246,1,0,0:0:0:0:
64,192,96246,1,0,0:0:0:0:
192,192,96346,1,0,0:0:0:0:
64,192,96346,1,0,0:0:0:0:
192,192,96445,1,0,0:0:0:0:
448,192,96445,1,0,0:0:0:0:
320,192,96545,1,0,0:0:0:0:
448,192,96545,1,0,0:0:0:0:
64,192,96545,1,0,0:0:0:0:
192,192,96645,1,0,0:0:0:0:
320,192,96645,1,0,0:0:0:0:
192,192,96745,1,0,0:0:0:0:
64,192,96745,1,0,0:0:0:0:
320,192,96844,1,0,0:0:0:0:
448,192,96844,1,0,0:0:0:0:
64,192,96944,1,0,0:0:0:0:
320,192,96944,1,0,0:0:0:0:
192,192,97044,1,0,0:0:0:0:
448,192,97044,1,0,0:0:0:0:
64,192,97144,1,0,0:0:0:0:
448,192,97144,1,0,0:0:0:0:
192,192,97244,1,0,0:0:0:0:
64,192,97244,1,0,0:0:0:0:
320,192,97343,1,0,0:0:0:0:
448,192,97343,1,0,0:0:0:0:
320,192,97443,1,0,0:0:0:0:
64,192,97443,1,0,0:0:0:0:
448,192,97543,1,0,0:0:0:0:
64,192,97543,1,0,0:0:0:0:
192,192,97643,1,0,0:0:0:0:
320,192,97643,1,0,0:0:0:0:
192,192,97742,1,0,0:0:0:0:
64,192,97742,1,0,0:0:0:0:
448,192,97842,1,0,0:0:0:0:
320,192,97842,1,0,0:0:0:0:
64,192,97942,1,0,0:0:0:0:
320,192,97942,1,0,0:0:0:0:
192,192,98042,1,0,0:0:0:0:
448,192,98042,1,0,0:0:0:0:
64,192,98141,1,0,0:0:0:0:
192,192,98141,1,0,0:0:0:0:
320,192,98141,1,0,0:0:0:0:
448,192,98191,1,0,0:0:0:0:
64,192,98241,1,0,0:0:0:0:
192,192,98291,1,0,0:0:0:0:
320,192,98341,1,0,0:0:0:0:
64,192,98391,1,0,0:0:0:0:
448,192,98441,1,0,0:0:0:0:
64,192,98491,1,0,0:0:0:0:
192,192,98540,1,0,0:0:0:0:
320,192,98540,1,0,0:0:0:0:
448,192,98590,1,0,0:0:0:0:
320,192,98640,1,0,0:0:0:0:
64,192,98690,1,0,0:0:0:0:
192,192,98740,1,0,0:0:0:0:
448,192,98740,1,0,0:0:0:0:
64,192,98790,1,0,0:0:0:0:
320,192,98840,1,0,0:0:0:0:
192,192,98890,1,0,0:0:0:0:
64,192,98939,1,0,0:0:0:0:
448,192,98939,1,0,0:0:0:0:
320,192,98939,1,0,0:0:0:0:
192,192,98989,1,0,0:0:0:0:
448,192,99039,1,0,0:0:0:0:
192,192,99089,1,0,0:0:0:0:
64,192,99139,1,0,0:0:0:0:
320,192,99139,1,0,0:0:0:0:
448,192,99189,1,0,0:0:0:0:
64,192,99239,1,0,0:0:0:0:
192,192,99289,1,0,0:0:0:0:
320,192,99338,1,0,0:0:0:0:
448,192,99338,1,0,0:0:0:0:
192,192,99388,1,0,0:0:0:0:
320,192,99438,1,0,0:0:0:0:
64,192,99488,1,0,0:0:0:0:
192,192,99538,1,0,0:0:0:0:
448,192,99538,1,0,0:0:0:0:
320,192,99588,1,0,0:0:0:0:
192,192,99638,1,0,0:0:0:0:
320,192,99688,1,0,0:0:0:0:
64,192,99737,1,0,0:0:0:0:
448,192,99737,1,0,0:0:0:0:
192,192,99787,1,0,0:0:0:0:
64,192,99837,1,0,0:0:0:0:
448,192,99887,1,0,0:0:0:0:
320,192,99937,1,0,0:0:0:0:
192,192,99937,1,0,0:0:0:0:
64,192,99987,1,0,0:0:0:0:
320,192,100037,1,0,0:0:0:0:
192,192,100087,1,0,0:0:0:0:
320,192,100137,1,0,0:0:0:0:
448,192,100137,1,0,0:0:0:0:
64,192,100186,1,0,0:0:0:0:
192,192,100236,1,0,0:0:0:0:
320,192,100286,1,0,0:0:0:0:
448,192,100336,1,0,0:0:0:0:
192,192,100336,1,0,0:0:0:0:
64,192,100386,1,0,0:0:0:0:
448,192,100436,1,0,0:0:0:0:
320,192,100486,1,0,0:0:0:0:
64,192,100536,1,0,0:0:0:0:
192,192,100536,1,0,0:0:0:0:
320,192,100585,1,0,0:0:0:0:
64,192,100635,1,0,0:0:0:0:
192,192,100685,1,0,0:0:0:0:
448,192,100735,1,0,0:0:0:0:
64,192,100735,1,0,0:0:0:0:
320,192,100785,1,0,0:0:0:0:
192,192,100835,1,0,0:0:0:0:
320,192,100885,1,0,0:0:0:0:
448,192,100935,1,0,0:0:0:0:
192,192,100935,1,0,0:0:0:0:
64,192,100984,1,0,0:0:0:0:
448,192,101034,1,0,0:0:0:0:
192,192,101084,1,0,0:0:0:0:
64,192,101134,1,0,0:0:0:0:
320,192,101134,1,0,0:0:0:0:
448,192,101184,1,0,0:0:0:0:
320,192,101234,1,0,0:0:0:0:
192,192,101284,1,0,0:0:0:0:
64,192,101334,1,0,0:0:0:0:
448,192,101334,1,0,0:0:0:0:
192,192,101383,1,0,0:0:0:0:
320,192,101433,1,0,0:0:0:0:
64,192,101483,1,0,0:0:0:0:
448,192,101533,1,0,0:0:0:0:
320,192,101533,1,0,0:0:0:0:
192,192,101583,1,0,0:0:0:0:
448,192,101633,1,0,0:0:0:0:
320,192,101683,1,0,0:0:0:0:
64,192,101733,1,0,0:0:0:0:
192,192,101733,1,0,0:0:0:0:
192,192,101832,1,0,0:0:0:0:
448,192,101832,1,0,0:0:0:0:
64,192,101932,1,0,0:0:0:0:
320,192,101932,1,0,0:0:0:0:
320,192,102032,1,0,0:0:0:0:
448,192,102032,1,0,0:0:0:0:
192,192,102132,1,0,0:0:0:0:
64,192,102132,1,0,0:0:0:0:
320,192,102182,1,0,0:0:0:0:
192,192,102231,1,0,0:0:0:0:
448,192,102281,1,0,0:0:0:0:
64,192,102331,1,0,0:0:0:0:
320,192,102331,1,0,0:0:0:0:
192,192,102381,1,0,0:0:0:0:
320,192,102431,1,0,0:0:0:0:
448,192,102481,1,0,0:0:0:0:
64,192,102531,1,0,0:0:0:0:
192,192,102531,1,0,0:0:0:0:
448,192,102581,1,0,0:0:0:0:
192,192,102630,1,0,0:0:0:0:
64,192,102680,1,0,0:0:0:0:
320,192,102730,1,0,0:0:0:0:
448,192,102730,1,0,0:0:0:0:
192,192,102780,1,0,0:0:0:0:
320,192,102830,1,0,0:0:0:0:
192,192,102880,1,0,0:0:0:0:
64,192,102930,1,0,0:0:0:0:
448,192,102930,1,0,0:0:0:0:
320,192,102980,1,0,0:0:0:0:
448,192,103030,1,0,0:0:0:0:
192,192,103079,1,0,0:0:0:0:
320,192,103129,1,0,0:0:0:0:
64,192,103129,1,0,0:0:0:0:
192,192,103179,1,0,0:0:0:0:
320,192,103229,1,0,0:0:0:0:
64,192,103279,1,0,0:0:0:0:
448,192,103329,1,0,0:0:0:0:
192,192,103329,1,0,0:0:0:0:
64,192,103379,1,0,0:0:0:0:
320,192,103429,1,0,0:0:0:0:
192,192,103478,1,0,0:0:0:0:
64,192,103528,1,0,0:0:0:0:
448,192,103528,1,0,0:0:0:0:
320,192,103578,1,0,0:0:0:0:
448,192,103628,1,0,0:0:0:0:
64,192,103678,1,0,0:0:0:0:
448,192,103728,1,0,0:0:0:0:
320,192,103728,1,0,0:0:0:0:
64,192,103794,1,0,0:0:0:0:
192,192,103861,1,0,0:0:0:0:
320,192,103927,1,0,0:0:0:0:
448,192,103927,1,0,0:0:0:0:
64,192,103994,1,0,0:0:0:0:
320,192,104060,1,0,0:0:0:0:
192,192,104127,5,0,0:0:0:0:
448,192,104127,1,0,0:0:0:0:
64,192,104193,1,0,0:0:0:0:
320,192,104260,1,0,0:0:0:0:
192,192,104326,1,0,0:0:0:0:
64,192,104326,1,0,0:0:0:0:
448,192,104393,1,0,0:0:0:0:
320,192,104459,1,0,0:0:0:0:
192,192,104526,128,0,104925:0:0:0:0:
64,192,104526,128,0,104725:0:0:0:0:
320,192,104725,128,0,104925:0:0:0:0:
64,192,104925,1,0,0:0:0:0:
448,192,104925,128,0,105058:0:0:0:0:
64,192,105124,128,0,105324:0:0:0:0:
192,192,105124,1,0,0:0:0:0:
448,192,105124,1,0,0:0:0:0:
320,192,105324,5,0,0:0:0:0:
448,192,105324,1,0,0:0:0:0:
192,192,105374,1,0,0:0:0:0:
448,192,105424,1,0,0:0:0:0:
320,192,105474,1,0,0:0:0:0:
64,192,105523,1,0,0:0:0:0:
192,192,105523,1,0,0:0:0:0:
320,192,105573,1,0,0:0:0:0:
64,192,105623,1,0,0:0:0:0:
192,192,105673,1,0,0:0:0:0:
320,192,105723,1,0,0:0:0:0:
448,192,105723,1,0,0:0:0:0:
64,192,105773,1,0,0:0:0:0:
320,192,105823,1,0,0:0:0:0:
192,192,105873,1,0,0:0:0:0:
64,192,105923,1,0,0:0:0:0:
320,192,105923,1,0,0:0:0:0:
448,192,105972,1,0,0:0:0:0:
64,192,106022,1,0,0:0:0:0:
320,192,106072,1,0,0:0:0:0:
192,192,106122,1,0,0:0:0:0:
448,192,106122,1,0,0:0:0:0:
320,192,106172,1,0,0:0:0:0:
192,192,106222,1,0,0:0:0:0:
64,192,106272,1,0,0:0:0:0:
320,192,106322,1,0,0:0:0:0:
448,192,106322,1,0,0:0:0:0:
192,192,106371,1,0,0:0:0:0:
448,192,106421,1,0,0:0:0:0:
320,192,106471,1,0,0:0:0:0:
192,192,106521,1,0,0:0:0:0:
64,192,106521,1,0,0:0:0:0:
448,192,106571,1,0,0:0:0:0:
64,192,106621,1,0,0:0:0:0:
320,192,106671,1,0,0:0:0:0:
448,192,106721,1,0,0:0:0:0:
192,192,106721,1,0,0:0:0:0:
64,192,106770,1,0,0:0:0:0:
192,192,106820,1,0,0:0:0:0:
320,192,106870,1,0,0:0:0:0:
448,192,106920,1,0,0:0:0:0:
64,192,106920,1,0,0:0:0:0:
192,192,106970,1,0,0:0:0:0:
320,192,107020,1,0,0:0:0:0:
320,192,107120,1,0,0:0:0:0:
448,192,107120,1,0,0:0:0:0:
192,192,107219,1,0,0:0:0:0:
448,192,107219,1,0,0:0:0:0:
192,192,107319,1,0,0:0:0:0:
64,192,107319,1,0,0:0:0:0:
320,192,107369,1,0,0:0:0:0:
192,192,107419,1,0,0:0:0:0:
64,192,107469,1,0,0:0:0:0:
320,192,107519,1,0,0:0:0:0:
448,192,107519,1,0,0:0:0:0:
192,192,107552,1,0,0:0:0:0:
64,192,107585,1,0,0:0:0:0:
448,192,107618,1,0,0:0:0:0:
192,192,107652,1,0,0:0:0:0:
320,192,107685,1,0,0:0:0:0:
448,192,107718,1,0,0:0:0:0:
192,192,107768,1,0,0:0:0:0:
64,192,107818,1,0,0:0:0:0:
64,192,107918,1,0,0:0:0:0:
448,192,107918,1,0,0:0:0:0:
320,192,108017,1,0,0:0:0:0:
192,192,108017,1,0,0:0:0:0:
320,192,108117,1,0,0:0:0:0:
64,192,108117,1,0,0:0:0:0:
192,192,108217,1,0,0:0:0:0:
64,192,108217,1,0,0:0:0:0:
192,192,108317,1,0,0:0:0:0:
448,192,108317,1,0,0:0:0:0:
448,192,108416,1,0,0:0:0:0:
64,192,108416,1,0,0:0:0:0:
192,192,108516,1,0,0:0:0:0:
64,192,108516,1,0,0:0:0:0:
320,192,108566,1,0,0:0:0:0:
192,192,108616,1,0,0:0:0:0:
448,192,108666,1,0,0:0:0:0:
320,192,108716,1,0,0:0:0:0:
64,192,108716,1,0,0:0:0:0:
192,192,108766,1,0,0:0:0:0:
320,192,108815,1,0,0:0:0:0:
64,192,108865,1,0,0:0:0:0:
192,192,108915,1,0,0:0:0:0:
448,192,108915,1,0,0:0:0:0:
64,192,108965,1,0,0:0:0:0:
448,192,109015,1,0,0:0:0:0:
320,192,109065,1,0,0:0:0:0:
192,192,109115,1,0,0:0:0:0:
64,192,109115,1,0,0:0:0:0:
320,192,109165,1,0,0:0:0:0:
192,192,109215,1,0,0:0:0:0:
448,192,109264,1,0,0:0:0:0:
64,192,109314,1,0,0:0:0:0:
320,192,109314,1,0,0:0:0:0:
192,192,109364,1,0,0:0:0:0:
448,192,109414,1,0,0:0:0:0:
64,192,109464,1,0,0:0:0:0:
320,192,109514,1,0,0:0:0:0:
448,192,109514,1,0,0:0:0:0:
192,192,109564,1,0,0:0:0:0:
64,192,109614,1,0,0:0:0:0:
320,192,109663,1,0,0:0:0:0:
192,192,109713,1,0,0:0:0:0:
64,192,109713,1,0,0:0:0:0:
448,192,109763,1,0,0:0:0:0:
192,192,109813,1,0,0:0:0:0:
320,192,109863,1,0,0:0:0:0:
64,192,109913,1,0,0:0:0:0:
448,192,109913,1,0,0:0:0:0:
320,192,109963,1,0,0:0:0:0:
192,192,110013,1,0,0:0:0:0:
448,192,110062,1,0,0:0:0:0:
192,192,110112,1,0,0:0:0:0:
64,192,110112,1,0,0:0:0:0:
320,192,110162,1,0,0:0:0:0:
448,192,110212,1,0,0:0:0:0:
64,192,110262,1,0,0:0:0:0:
320,192,110312,1,0,0:0:0:0:
448,192,110312,1,0,0:0:0:0:
64,192,110412,1,0,0:0:0:0:
448,192,110412,1,0,0:0:0:0:
64,192,110511,1,0,0:0:0:0:
192,192,110511,1,0,0:0:0:0:
320,192,110561,1,0,0:0:0:0:
192,192,110611,1,0,0:0:0:0:
64,192,110661,1,0,0:0:0:0:
320,192,110711,1,0,0:0:0:0:
448,192,110711,1,0,0:0:0:0:
192,192,110761,1,0,0:0:0:0:
320,192,110811,1,0,0:0:0:0:
448,192,110861,1,0,0:0:0:0:
192,192,110910,1,0,0:0:0:0:
64,192,110910,1,0,0:0:0:0:
320,192,110960,1,0,0:0:0:0:
64,192,111010,1,0,0:0:0:0:
192,192,111060,1,0,0:0:0:0:
320,192,111110,1,0,0:0:0:0:
448,192,111110,1,0,0:0:0:0:
192,192,111160,1,0,0:0:0:0:
320,192,111210,1,0,0:0:0:0:
448,192,111260,1,0,0:0:0:0:
192,192,111309,1,0,0:0:0:0:
64,192,111309,1,0,0:0:0:0:
320,192,111409,1,0,0:0:0:0:
448,192,111509,1,0,0:0:0:0:
64,192,111509,1,0,0:0:0:0:
64,192,111609,1,0,0:0:0:0:
320,192,111609,1,0,0:0:0:0:
320,192,111708,1,0,0:0:0:0:
448,192,111708,1,0,0:0:0:0:
64,192,111758,1,0,0:0:0:0:
320,192,111808,1,0,0:0:0:0:
192,192,111858,1,0,0:0:0:0:
64,192,111908,1,0,0:0:0:0:
448,192,111908,1,0,0:0:0:0:
320,192,111958,1,0,0:0:0:0:
64,192,112008,1,0,0:0:0:0:
192,192,112058,1,0,0:0:0:0:
320,192,112108,1,0,0:0:0:0:
448,192,112108,1,0,0:0:0:0:
192,192,112157,1,0,0:0:0:0:
64,192,112207,1,0,0:0:0:0:
320,192,112257,1,0,0:0:0:0:
192,192,112307,1,0,0:0:0:0:
64,192,112307,1,0,0:0:0:0:
448,192,112357,1,0,0:0:0:0:
192,192,112407,1,0,0:0:0:0:
320,192,112457,1,0,0:0:0:0:
448,192,112507,1,0,0:0:0:0:
64,192,112507,1,0,0:0:0:0:
192,192,112556,1,0,0:0:0:0:
320,192,112606,1,0,0:0:0:0:
192,192,112656,1,0,0:0:0:0:
64,192,112706,1,0,0:0:0:0:
448,192,112706,1,0,0:0:0:0:
320,192,112756,1,0,0:0:0:0:
192,192,112806,1,0,0:0:0:0:
448,192,112856,1,0,0:0:0:0:
192,192,112906,1,0,0:0:0:0:
64,192,112906,1,0,0:0:0:0:
320,192,112955,1,0,0:0:0:0:
448,192,113005,1,0,0:0:0:0:
192,192,113055,1,0,0:0:0:0:
64,192,113105,1,0,0:0:0:0:
448,192,113105,1,0,0:0:0:0:
320,192,113155,1,0,0:0:0:0:
192,192,113205,1,0,0:0:0:0:
448,192,113255,1,0,0:0:0:0:
320,192,113305,1,0,0:0:0:0:
64,192,113305,1,0,0:0:0:0:
192,192,113354,1,0,0:0:0:0:
320,192,113404,1,0,0:0:0:0:
192,192,113454,1,0,0:0:0:0:
448,192,113504,1,0,0:0:0:0:
64,192,113504,1,0,0:0:0:0:
64,192,113604,1,0,0:0:0:0:
192,192,113604,1,0,0:0:0:0:
448,192,113704,1,0,0:0:0:0:
320,192,113704,1,0,0:0:0:0:
192,192,113754,1,0,0:0:0:0:
320,192,113803,1,0,0:0:0:0:
448,192,113853,1,0,0:0:0:0:
192,192,113903,1,0,0:0:0:0:
64,192,113903,1,0,0:0:0:0:
320,192,113953,1,0,0:0:0:0:
192,192,114003,1,0,0:0:0:0:
448,192,114053,1,0,0:0:0:0:
320,192,114103,1,0,0:0:0:0:
64,192,114103,1,0,0:0:0:0:
192,192,114153,1,0,0:0:0:0:
320,192,114202,1,0,0:0:0:0:
192,192,114252,1,0,0:0:0:0:
64,192,114302,1,0,0:0:0:0:
448,192,114352,1,0,0:0:0:0:
192,192,114402,1,0,0:0:0:0:
320,192,114402,1,0,0:0:0:0:
64,192,114452,1,0,0:0:0:0:
448,192,114502,1,0,0:0:0:0:
192,192,114552,1,0,0:0:0:0:
320,192,114601,1,0,0:0:0:0:
448,192,114651,1,0,0:0:0:0:
192,192,114701,1,0,0:0:0:0:
64,192,114701,1,0,0:0:0:0:
448,192,114751,1,0,0:0:0:0:
320,192,114801,1,0,0:0:0:0:
192,192,114851,1,0,0:0:0:0:
448,192,114901,1,0,0:0:0:0:
64,192,114901,1,0,0:0:0:0:
320,192,114951,1,0,0:0:0:0:
192,192,115001,1,0,0:0:0:0:
320,192,115050,1,0,0:0:0:0:
64,192,115100,1,0,0:0:0:0:
448,192,115100,1,0,0:0:0:0:
192,192,115150,1,0,0:0:0:0:
320,192,115200,1,0,0:0:0:0:
64,192,115250,1,0,0:0:0:0:
448,192,115300,1,0,0:0:0:0:
192,192,115300,1,0,0:0:0:0:
64,192,115350,1,0,0:0:0:0:
320,192,115400,1,0,0:0:0:0:
448,192,115449,1,0,0:0:0:0:
64,192,115499,1,0,0:0:0:0:
192,192,115499,1,0,0:0:0:0:
320,192,115549,1,0,0:0:0:0:
64,192,115599,1,0,0:0:0:0:
192,192,115649,1,0,0:0:0:0:
448,192,115699,1,0,0:0:0:0:
320,192,115699,1,0,0:0:0:0:
64,192,115749,1,0,0:0:0:0:
192,192,115799,1,0,0:0:0:0:
320,192,115848,1,0,0:0:0:0:
448,192,115898,1,0,0:0:0:0:
192,192,115898,1,0,0:0:0:0:
64,192,115948,1,0,0:0:0:0:
320,192,115998,1,0,0:0:0:0:
192,192,116048,1,0,0:0:0:0:
448,192,116098,1,0,0:0:0:0:
320,192,116098,1,0,0:0:0:0:
64,192,116148,1,0,0:0:0:0:
192,192,116198,1,0,0:0:0:0:
448,192,116247,1,0,0:0:0:0:
64,192,116297,1,0,0:0:0:0:
320,192,116297,1,0,0:0:0:0:
192,192,116347,1,0,0:0:0:0:
448,192,116397,1,0,0:0:0:0:
320,192,116447,1,0,0:0:0:0:
64,192,116497,1,0,0:0:0:0:
448,192,116497,1,0,0:0:0:0:
192,192,116547,1,0,0:0:0:0:
320,192,116597,1,0,0:0:0:0:
192,192,116647,1,0,0:0:0:0:
64,192,116696,1,0,0:0:0:0:
448,192,116696,1,0,0:0:0:0:
320,192,116746,1,0,0:0:0:0:
192,192,116796,1,0,0:0:0:0:
320,192,116846,1,0,0:0:0:0:
448,192,116896,1,0,0:0:0:0:
192,192,116896,1,0,0:0:0:0:
64,192,116946,1,0,0:0:0:0:
320,192,116996,1,0,0:0:0:0:
192,192,117046,1,0,0:0:0:0:
320,192,117095,1,0,0:0:0:0:
64,192,117095,1,0,0:0:0:0:
448,192,117145,1,0,0:0:0:0:
192,192,117195,1,0,0:0:0:0:
320,192,117245,1,0,0:0:0:0:
64,192,117295,1,0,0:0:0:0:
448,192,117295,128,0,117395:0:0:0:0:
64,192,117395,128,0,117494:0:0:0:0:
320,192,117494,128,0,117594:0:0:0:0:
192,192,117594,128,0,117694:0:0:0:0:
320,192,117694,1,0,0:0:0:0:
64,192,117694,1,0,0:0:0:0:
448,192,117694,128,0,117794:0:0:0:0:
192,192,117794,1,0,0:0:0:0:
64,192,117893,1,0,0:0:0:0:
448,192,117893,1,0,0:0:0:0:
64,192,117993,1,0,0:0:0:0:
320,192,117993,1,0,0:0:0:0:
320,192,118093,1,0,0:0:0:0:
448,192,118093,1,0,0:0:0:0:
192,192,118143,1,0,0:0:0:0:
64,192,118193,1,0,0:0:0:0:
320,192,118243,1,0,0:0:0:0:
192,192,118293,1,0,0:0:0:0:
64,192,118293,1,0,0:0:0:0:
320,192,118342,1,0,0:0:0:0:
192,192,118392,1,0,0:0:0:0:
448,192,118442,1,0,0:0:0:0:
320,192,118492,1,0,0:0:0:0:
64,192,118492,1,0,0:0:0:0:
192,192,118542,1,0,0:0:0:0:
320,192,118592,1,0,0:0:0:0:
64,192,118642,1,0,0:0:0:0:
320,192,118692,1,0,0:0:0:0:
192,192,118692,1,0,0:0:0:0:
448,192,118741,1,0,0:0:0:0:
192,192,118791,1,0,0:0:0:0:
64,192,118841,1,0,0:0:0:0:
448,192,118891,1,0,0:0:0:0:
320,192,118891,1,0,0:0:0:0:
64,192,118941,1,0,0:0:0:0:
192,192,118991,1,0,0:0:0:0:
448,192,119041,1,0,0:0:0:0:
64,192,119091,1,0,0:0:0:0:
320,192,119091,1,0,0:0:0:0:
448,192,119140,1,0,0:0:0:0:
192,192,119190,1,0,0:0:0:0:
320,192,119240,1,0,0:0:0:0:
448,192,119290,1,0,0:0:0:0:
192,192,119290,1,0,0:0:0:0:
64,192,119340,1,0,0:0:0:0:
448,192,119390,1,0,0:0:0:0:
192,192,119440,1,0,0:0:0:0:
64,192,119490,1,0,0:0:0:0:
320,192,119490,1,0,0:0:0:0:
192,192,119540,1,0,0:0:0:0:
320,192,119589,1,0,0:0:0:0:
64,192,119639,1,0,0:0:0:0:
448,192,119689,1,0,0:0:0:0:
320,192,119689,1,0,0:0:0:0:
64,192,119739,1,0,0:0:0:0:
192,192,119789,1,0,0:0:0:0:
192,192,119889,1,0,0:0:0:0:
64,192,119889,1,0,0:0:0:0:
192,192,119988,1,0,0:0:0:0:
448,192,119988,1,0,0:0:0:0:
320,192,120088,1,0,0:0:0:0:
448,192,120088,1,0,0:0:0:0:
64,192,120138,1,0,0:0:0:0:
192,192,120188,1,0,0:0:0:0:
320,192,120238,1,0,0:0:0:0:
448,192,120288,1,0,0:0:0:0:
192,192,120288,1,0,0:0:0:0:
64,192,120338,1,0,0:0:0:0:
320,192,120363,1,0,0:0:0:0:
448,192,120387,1,0,0:0:0:0:
192,192,120412,1,0,0:0:0:0:
64,192,120437,1,0,0:0:0:0:
320,192,120487,1,0,0:0:0:0:
192,192,120537,1,0,0:0:0:0:
64,192,120587,1,0,0:0:0:0:
448,192,120587,1,0,0:0:0:0:
64,192,120687,1,0,0:0:0:0:
320,192,120687,1,0,0:0:0:0:
192,192,120786,1,0,0:0:0:0:
448,192,120786,1,0,0:0:0:0:
192,192,120886,1,0,0:0:0:0:
64,192,120886,1,0,0:0:0:0:
64,192,120986,1,0,0:0:0:0:
320,192,120986,1,0,0:0:0:0:
320,192,121086,1,0,0:0:0:0:
448,192,121086,1,0,0:0:0:0:
64,192,121186,1,0,0:0:0:0:
448,192,121186,1,0,0:0:0:0:
192,192,121285,1,0,0:0:0:0:
64,192,121285,1,0,0:0:0:0:
320,192,121335,1,0,0:0:0:0:
192,192,121385,1,0,0:0:0:0:
448,192,121435,1,0,0:0:0:0:
64,192,121485,1,0,0:0:0:0:
320,192,121485,1,0,0:0:0:0:
192,192,121535,1,0,0:0:0:0:
320,192,121585,1,0,0:0:0:0:
192,192,121634,1,0,0:0:0:0:
448,192,121684,1,0,0:0:0:0:
64,192,121684,1,0,0:0:0:0:
320,192,121734,1,0,0:0:0:0:
448,192,121784,1,0,0:0:0:0:
192,192,121834,1,0,0:0:0:0:
64,192,121884,1,0,0:0:0:0:
320,192,121884,1,0,0:0:0:0:
192,192,121934,1,0,0:0:0:0:
320,192,121984,1,0,0:0:0:0:
448,192,122033,1,0,0:0:0:0:
64,192,122083,1,0,0:0:0:0:
192,192,122083,1,0,0:0:0:0:
448,192,122133,1,0,0:0:0:0:
320,192,122183,1,0,0:0:0:0:
192,192,122233,1,0,0:0:0:0:
64,192,122283,1,0,0:0:0:0:
320,192,122283,1,0,0:0:0:0:
448,192,122333,1,0,0:0:0:0:
64,192,122383,1,0,0:0:0:0:
320,192,122432,1,0,0:0:0:0:
448,192,122482,1,0,0:0:0:0:
192,192,122482,1,0,0:0:0:0:
320,192,122532,1,0,0:0:0:0:
64,192,122582,1,0,0:0:0:0:
192,192,122632,1,0,0:0:0:0:
448,192,122682,1,0,0:0:0:0:
320,192,122682,1,0,0:0:0:0:
64,192,122732,1,0,0:0:0:0:
320,192,122782,1,0,0:0:0:0:
448,192,122832,1,0,0:0:0:0:
192,192,122881,1,0,0:0:0:0:
64,192,122881,1,0,0:0:0:0:
320,192,122931,1,0,0:0:0:0:
192,192,122981,1,0,0:0:0:0:
448,192,123081,1,0,0:0:0:0:
64,192,123081,1,0,0:0:0:0:
192,192,123181,1,0,0:0:0:0:
64,192,123181,1,0,0:0:0:0:
192,192,123280,1,0,0:0:0:0:
320,192,123280,1,0,0:0:0:0:
64,192,123330,1,0,0:0:0:0:
448,192,123380,1,0,0:0:0:0:
192,192,123430,1,0,0:0:0:0:
448,192,123480,1,0,0:0:0:0:
320,192,123480,1,0,0:0:0:0:
192,192,123530,1,0,0:0:0:0:
64,192,123580,1,0,0:0:0:0:
320,192,123630,1,0,0:0:0:0:
448,192,123679,1,0,0:0:0:0:
64,192,123679,1,0,0:0:0:0:
192,192,123729,1,0,0:0:0:0:
448,192,123779,1,0,0:0:0:0:
320,192,123829,1,0,0:0:0:0:
192,192,123879,1,0,0:0:0:0:
64,192,123879,1,0,0:0:0:0:
448,192,123929,1,0,0:0:0:0:
192,192,123979,1,0,0:0:0:0:
64,192,124029,1,0,0:0:0:0:
448,192,124079,1,0,0:0:0:0:
320,192,124079,1,0,0:0:0:0:
192,192,124178,1,0,0:0:0:0:
320,192,124278,1,0,0:0:0:0:
64,192,124278,1,0,0:0:0:0:
320,192,124378,1,0,0:0:0:0:
448,192,124378,1,0,0:0:0:0:
192,192,124478,1,0,0:0:0:0:
64,192,124478,1,0,0:0:0:0:
320,192,124527,1,0,0:0:0:0:
448,192,124577,1,0,0:0:0:0:
192,192,124627,1,0,0:0:0:0:
320,192,124677,1,0,0:0:0:0:
64,192,124677,1,0,0:0:0:0:
448,192,124727,1,0,0:0:0:0:
64,192,124777,1,0,0:0:0:0:
320,192,124827,1,0,0:0:0:0:
192,192,124877,1,0,0:0:0:0:
448,192,124877,1,0,0:0:0:0:
320,192,124926,1,0,0:0:0:0:
192,192,124976,1,0,0:0:0:0:
448,192,125026,1,0,0:0:0:0:
64,192,125076,1,0,0:0:0:0:
320,192,125076,1,0,0:0:0:0:
192,192,125126,1,0,0:0:0:0:
320,192,125176,1,0,0:0:0:0:
64,192,125226,1,0,0:0:0:0:
320,192,125276,1,0,0:0:0:0:
448,192,125276,1,0,0:0:0:0:
192,192,125325,1,0,0:0:0:0:
64,192,125375,1,0,0:0:0:0:
448,192,125425,1,0,0:0:0:0:
192,192,125475,1,0,0:0:0:0:
64,192,125475,1,0,0:0:0:0:
448,192,125525,1,0,0:0:0:0:
192,192,125575,1,0,0:0:0:0:
320,192,125625,1,0,0:0:0:0:
448,192,125675,1,0,0:0:0:0:
192,192,125675,1,0,0:0:0:0:
64,192,125725,1,0,0:0:0:0:
448,192,125774,1,0,0:0:0:0:
192,192,125824,1,0,0:0:0:0:
320,192,125874,1,0,0:0:0:0:
64,192,125874,1,0,0:0:0:0:
448,192,125924,1,0,0:0:0:0:
64,192,125974,1,0,0:0:0:0:
192,192,126024,1,0,0:0:0:0:
320,192,126074,1,0,0:0:0:0:
448,192,126074,1,0,0:0:0:0:
64,192,126124,1,0,0:0:0:0:
192,192,126173,1,0,0:0:0:0:
192,192,126273,1,0,0:0:0:0:
448,192,126273,1,0,0:0:0:0:
64,192,126373,1,0,0:0:0:0:
320,192,126373,1,0,0:0:0:0:
320,192,126473,1,0,0:0:0:0:
448,192,126473,1,0,0:0:0:0:
64,192,126523,1,0,0:0:0:0:
192,192,126572,1,0,0:0:0:0:
320,192,126622,1,0,0:0:0:0:
448,192,126672,1,0,0:0:0:0:
192,192,126672,1,0,0:0:0:0:
64,192,126705,1,0,0:0:0:0:
320,192,126739,1,0,0:0:0:0:
448,192,126772,1,0,0:0:0:0:
192,192,126805,1,0,0:0:0:0:
320,192,126838,1,0,0:0:0:0:
448,192,126872,1,0,0:0:0:0:
64,192,126872,1,0,0:0:0:0:
192,192,126922,1,0,0:0:0:0:
64,192,126971,1,0,0:0:0:0:
192,192,127071,1,0,0:0:0:0:
64,192,127071,1,0,0:0:0:0:
192,192,127171,1,0,0:0:0:0:
448,192,127171,1,0,0:0:0:0:
320,192,127271,1,0,0:0:0:0:
448,192,127271,1,0,0:0:0:0:
320,192,127371,1,0,0:0:0:0:
64,192,127371,1,0,0:0:0:0:
192,192,127470,1,0,0:0:0:0:
64,192,127470,1,0,0:0:0:0:
320,192,127570,1,0,0:0:0:0:
448,192,127570,1,0,0:0:0:0:
192,192,127670,1,0,0:0:0:0:
448,192,127670,1,0,0:0:0:0:
64,192,127720,1,0,0:0:0:0:
192,192,127770,1,0,0:0:0:0:
320,192,127819,1,0,0:0:0:0:
448,192,127869,1,0,0:0:0:0:
64,192,127869,1,0,0:0:0:0:
192,192,127919,1,0,0:0:0:0:
448,192,127969,1,0,0:0:0:0:
320,192,128019,1,0,0:0:0:0:
192,192,128069,1,0,0:0:0:0:
64,192,128069,1,0,0:0:0:0:
448,192,128119,1,0,0:0:0:0:
320,192,128169,1,0,0:0:0:0:
64,192,128218,1,0,0:0:0:0:
448,192,128268,1,0,0:0:0:0:
192,192,128268,1,0,0:0:0:0:
320,192,128318,1,0,0:0:0:0:
64,192,128368,1,0,0:0:0:0:
192,192,128418,1,0,0:0:0:0:
448,192,128468,1,0,0:0:0:0:
320,192,128468,1,0,0:0:0:0:
192,192,128518,1,0,0:0:0:0:
448,192,128568,1,0,0:0:0:0:
320,192,128618,1,0,0:0:0:0:
192,192,128667,1,0,0:0:0:0:
64,192,128667,1,0,0:0:0:0:
448,192,128717,1,0,0:0:0:0:
192,192,128767,1,0,0:0:0:0:
64,192,128817,1,0,0:0:0:0:
320,192,128867,1,0,0:0:0:0:
448,192,128867,1,0,0:0:0:0:
192,192,128917,1,0,0:0:0:0:
320,192,128967,1,0,0:0:0:0:
64,192,129017,1,0,0:0:0:0:
192,192,129066,1,0,0:0:0:0:
448,192,129066,1,0,0:0:0:0:
320,192,129116,1,0,0:0:0:0:
192,192,129166,1,0,0:0:0:0:
64,192,129216,1,0,0:0:0:0:
448,192,129266,1,0,0:0:0:0:
320,192,129266,1,0,0:0:0:0:
192,192,129316,1,0,0:0:0:0:
320,192,129366,1,0,0:0:0:0:
448,192,129416,1,0,0:0:0:0:
192,192,129465,1,0,0:0:0:0:
64,192,129465,1,0,0:0:0:0:
320,192,129515,1,0,0:0:0:0:
64,192,129565,1,0,0:0:0:0:
448,192,129615,1,0,0:0:0:0:
192,192,129665,1,0,0:0:0:0:
320,192,129665,1,0,0:0:0:0:
64,192,129715,1,0,0:0:0:0:
448,192,129765,1,0,0:0:0:0:
192,192,129815,1,0,0:0:0:0:
320,192,129864,1,0,0:0:0:0:
448,192,129864,1,0,0:0:0:0:
64,192,129914,1,0,0:0:0:0:
192,192,129964,1,0,0:0:0:0:
320,192,130014,1,0,0:0:0:0:
448,192,130064,1,0,0:0:0:0:
64,192,130064,1,0,0:0:0:0:
192,192,130164,1,0,0:0:0:0:
448,192,130264,1,0,0:0:0:0:
192,192,130363,1,0,0:0:0:0:
64,192,130463,1,0,0:0:0:0:
320,192,130463,1,0,0:0:0:0:
448,192,130463,1,0,0:0:0:0:
192,192,130563,1,0,0:0:0:0:
320,192,130663,1,0,0:0:0:0:
64,192,130663,128,0,130762:0:0:0:0:
448,192,130762,128,0,130862:0:0:0:0:
64,192,130862,1,0,0:0:0:0:
192,192,130862,128,0,132558:0:0:0:0:
320,192,132558,128,0,134054:0:0:0:0:
64,192,134054,128,0,135501:0:0:0:0:
448,192,135501,128,0,135601:0:0:0:0:
320,192,135601,128,0,135750:0:0:0:0:
192,192,135750,128,0,137247:0:0:0:0:
448,192,136848,128,0,137247:0:0:0:0:
64,192,137247,128,0,137296:0:0:0:0:
320,192,137247,1,0,0:0:0:0:
192,192,137346,128,0,137396:0:0:0:0:
448,192,137446,128,0,137496:0:0:0:0:
64,192,137546,128,0,137596:0:0:0:0:
320,192,137646,128,0,137696:0:0:0:0:
192,192,137745,128,0,137795:0:0:0:0:
448,192,137845,128,0,137895:0:0:0:0:
320,192,137945,128,0,137995:0:0:0:0:
64,192,138045,128,0,138095:0:0:0:0:
448,192,138045,1,0,0:0:0:0:
192,192,138144,128,0,138194:0:0:0:0:
320,192,138244,128,0,138294:0:0:0:0:
192,192,138344,128,0,138394:0:0:0:0:
448,192,138444,128,0,138494:0:0:0:0:
320,192,138543,128,0,138593:0:0:0:0:
64,192,138643,128,0,138693:0:0:0:0:
448,192,138743,128,0,138793:0:0:0:0:
64,192,138843,1,0,0:0:0:0:
192,192,138843,128,0,138893:0:0:0:0:
320,192,138942,128,0,138992:0:0:0:0:
448,192,139042,128,0,139092:0:0:0:0:
64,192,139142,128,0,139192:0:0:0:0:
320,192,139242,128,0,139292:0:0:0:0:
192,192,139342,128,0,139391:0:0:0:0:
64,192,139441,128,0,139491:0:0:0:0:
320,192,139541,128,0,139591:0:0:0:0:
448,192,139641,1,0,0:0:0:0:
64,192,139641,128,0,139691:0:0:0:0:
192,192,139741,128,0,139790:0:0:0:0:
320,192,139840,128,0,139890:0:0:0:0:
448,192,139940,128,0,139990:0:0:0:0:
192,192,140040,128,0,140090:0:0:0:0:
320,192,140140,128,0,140189:0:0:0:0:
64,192,140239,128,0,140289:0:0:0:0:
448,192,140339,128,0,140389:0:0:0:0:
64,192,140439,128,0,140489:0:0:0:0:
320,192,140439,1,0,0:0:0:0:
192,192,140539,128,0,140588:0:0:0:0:
448,192,140638,128,0,140688:0:0:0:0:
64,192,140738,128,0,140788:0:0:0:0:
320,192,140838,128,0,140888:0:0:0:0:
192,192,140938,128,0,140988:0:0:0:0:
448,192,141037,128,0,141087:0:0:0:0:
320,192,141137,128,0,141187:0:0:0:0:
448,192,141237,1,0,0:0:0:0:
64,192,141237,128,0,141287:0:0:0:0:
192,192,141337,128,0,141387:0:0:0:0:
320,192,141436,128,0,141486:0:0:0:0:
192,192,141536,128,0,141586:0:0:0:0:
448,192,141636,128,0,141686:0:0:0:0:
320,192,141736,128,0,141786:0:0:0:0:
64,192,141835,128,0,141885:0:0:0:0:
448,192,141935,128,0,141985:0:0:0:0:
192,192,142035,128,0,142085:0:0:0:0:
64,192,142035,1,0,0:0:0:0:
320,192,142135,128,0,142185:0:0:0:0:
448,192,142235,128,0,142284:0:0:0:0:
64,192,142334,128,0,142384:0:0:0:0:
320,192,142434,128,0,142484:0:0:0:0:
192,192,142534,128,0,142584:0:0:0:0:
64,192,142634,128,0,142683:0:0:0:0:
320,192,142733,128,0,142783:0:0:0:0:
64,192,142833,128,0,142883:0:0:0:0:
448,192,142833,1,0,0:0:0:0:
192,192,142933,128,0,142983:0:0:0:0:
448,192,143033,128,0,143082:0:0:0:0:
64,192,143132,128,0,143182:0:0:0:0:
320,192,143232,128,0,143282:0:0:0:0:
192,192,143332,128,0,143382:0:0:0:0:
448,192,143432,128,0,143481:0:0:0:0:
320,192,143531,128,0,143581:0:0:0:0:
64,192,143631,128,0,143681:0:0:0:0:
448,192,143631,1,0,0:0:0:0:
192,192,143731,128,0,143781:0:0:0:0:
448,192,143831,128,0,143881:0:0:0:0:
64,192,143930,128,0,143980:0:0:0:0:
320,192,144030,128,0,144080:0:0:0:0:
192,192,144130,128,0,144180:0:0:0:0:
448,192,144230,128,0,144280:0:0:0:0:
320,192,144329,128,0,144379:0:0:0:0:
64,192,144429,128,0,144479:0:0:0:0:
448,192,144429,1,0,0:0:0:0:
192,192,144529,128,0,144579:0:0:0:0:
320,192,144629,128,0,144679:0:0:0:0:
192,192,144728,128,0,144778:0:0:0:0:
448,192,144828,128,0,144878:0:0:0:0:
320,192,144928,128,0,144978:0:0:0:0:
64,192,145028,128,0,145078:0:0:0:0:
448,192,145127,128,0,145177:0:0:0:0:
64,192,145227,1,0,0:0:0:0:
192,192,145227,128,0,145277:0:0:0:0:
320,192,145327,128,0,145377:0:0:0:0:
448,192,145427,128,0,145477:0:0:0:0:
64,192,145527,128,0,145576:0:0:0:0:
320,192,145626,128,0,145676:0:0:0:0:
192,192,145726,128,0,145776:0:0:0:0:
64,192,145826,128,0,145876:0:0:0:0:
320,192,145926,128,0,145975:0:0:0:0:
448,192,146025,1,0,0:0:0:0:
64,192,146025,128,0,146075:0:0:0:0:
192,192,146125,128,0,146175:0:0:0:0:
320,192,146225,128,0,146275:0:0:0:0:
448,192,146325,128,0,146374:0:0:0:0:
192,192,146424,128,0,146474:0:0:0:0:
320,192,146524,128,0,146574:0:0:0:0:
64,192,146624,128,0,146674:0:0:0:0:
448,192,146724,128,0,146774:0:0:0:0:
64,192,146823,128,0,146873:0:0:0:0:
320,192,146823,1,0,0:0:0:0:
448,192,146923,128,0,146973:0:0:0:0:
192,192,147023,128,0,147073:0:0:0:0:
320,192,147123,128,0,147173:0:0:0:0:
448,192,147222,128,0,147272:0:0:0:0:
64,192,147322,128,0,147372:0:0:0:0:
448,192,147422,128,0,147472:0:0:0:0:
320,192,147522,128,0,147572:0:0:0:0:
64,192,147621,128,0,147671:0:0:0:0:
320,192,147721,128,0,147771:0:0:0:0:
192,192,147821,128,0,147871:0:0:0:0:
448,192,147871,128,0,147921:0:0:0:0:
64,192,147921,128,0,147971:0:0:0:0:
320,192,147971,128,0,148020:0:0:0:0:
448,192,148020,128,0,148070:0:0:0:0:
192,192,148120,128,0,148170:0:0:0:0:
64,192,148220,128,0,148270:0:0:0:0:
320,192,148320,128,0,148370:0:0:0:0:
64,192,148420,1,0,0:0:0:0:
448,192,148420,1,0,0:0:0:0:
192,192,148420,1,0,0:0:0:0:
320,192,148519,128,0,148569:0:0:0:0:
448,192,148619,128,0,148669:0:0:0:0:
64,192,148719,128,0,148769:0:0:0:0:
320,192,148819,128,0,148868:0:0:0:0:
192,192,148819,1,0,0:0:0:0:
448,192,148918,1,0,0:0:0:0:
64,192,149018,1,0,0:0:0:0:
192,192,149043,1,0,0:0:0:0:
320,192,149068,1,0,0:0:0:0:
448,192,149093,1,0,0:0:0:0:
64,192,149118,1,0,0:0:0:0:
192,192,149168,1,0,0:0:0:0:
448,192,149218,128,0,149317:0:0:0:0:
64,192,149267,1,0,0:0:0:0:
320,192,149317,128,0,149367:0:0:0:0:
192,192,149367,128,0,149417:0:0:0:0:
448,192,149417,128,0,149517:0:0:0:0:
192,192,149517,1,0,0:0:0:0:
64,192,149517,1,0,0:0:0:0:
320,192,149567,1,0,0:0:0:0:
448,192,149617,1,0,0:0:0:0:
64,192,149617,128,0,149816:0:0:0:0:
320,192,149816,1,0,0:0:0:0:
448,192,149816,128,0,149916:0:0:0:0:
64,192,149916,1,0,0:0:0:0:
192,192,149916,128,0,150016:0:0:0:0:
64,192,150016,1,0,0:0:0:0:
320,192,150016,1,0,0:0:0:0:
448,192,150016,1,0,0:0:0:0:
320,192,150115,1,0,0:0:0:0:
192,192,150165,1,0,0:0:0:0:
64,192,150215,1,0,0:0:0:0:
192,192,150315,1,0,0:0:0:0:
64,192,150415,1,0,0:0:0:0:
448,192,150415,1,0,0:0:0:0:
320,192,150465,1,0,0:0:0:0:
192,192,150514,1,0,0:0:0:0:
448,192,150614,1,0,0:0:0:0:
320,192,150639,1,0,0:0:0:0:
64,192,150664,1,0,0:0:0:0:
192,192,150689,1,0,0:0:0:0:
448,192,150714,1,0,0:0:0:0:
320,192,150764,1,0,0:0:0:0:
192,192,150814,1,0,0:0:0:0:
64,192,150864,1,0,0:0:0:0:
320,192,150913,1,0,0:0:0:0:
448,192,150913,1,0,0:0:0:0:
320,192,151013,1,0,0:0:0:0:
64,192,151013,1,0,0:0:0:0:
192,192,151113,1,0,0:0:0:0:
320,192,151163,1,0,0:0:0:0:
448,192,151213,1,0,0:0:0:0:
64,192,151213,1,0,0:0:0:0:
192,192,151313,1,0,0:0:0:0:
64,192,151412,1,0,0:0:0:0:
448,192,151412,1,0,0:0:0:0:
320,192,151512,1,0,0:0:0:0:
192,192,151512,1,0,0:0:0:0:
320,192,151612,1,0,0:0:0:0:
448,192,151612,1,0,0:0:0:0:
192,192,151712,1,0,0:0:0:0:
64,192,151712,1,0,0:0:0:0:
64,192,151811,1,0,0:0:0:0:
448,192,151811,1,0,0:0:0:0:
320,192,151911,1,0,0:0:0:0:
448,192,151911,1,0,0:0:0:0:
320,192,152011,1,0,0:0:0:0:
64,192,152011,1,0,0:0:0:0:
192,192,152111,1,0,0:0:0:0:
448,192,152210,1,0,0:0:0:0:
320,192,152235,1,0,0:0:0:0:
64,192,152260,1,0,0:0:0:0:
192,192,152285,1,0,0:0:0:0:
448,192,152310,1,0,0:0:0:0:
320,192,152360,1,0,0:0:0:0:
192,192,152410,1,0,0:0:0:0:
64,192,152410,1,0,0:0:0:0:
192,192,152510,1,0,0:0:0:0:
448,192,152510,1,0,0:0:0:0:
64,192,152609,1,0,0:0:0:0:
320,192,152609,1,0,0:0:0:0:
192,192,152709,1,0,0:0:0:0:
320,192,152759,1,0,0:0:0:0:
448,192,152809,1,0,0:0:0:0:
64,192,152809,1,0,0:0:0:0:
192,192,152909,1,0,0:0:0:0:
320,192,152909,1,0,0:0:0:0:
192,192,153008,1,0,0:0:0:0:
64,192,153008,1,0,0:0:0:0:
448,192,153058,1,0,0:0:0:0:
320,192,153108,1,0,0:0:0:0:
64,192,153158,1,0,0:0:0:0:
192,192,153208,1,0,0:0:0:0:
448,192,153208,1,0,0:0:0:0:
320,192,153258,1,0,0:0:0:0:
192,192,153308,1,0,0:0:0:0:
64,192,153407,1,0,0:0:0:0:
448,192,153407,1,0,0:0:0:0:
320,192,153507,1,0,0:0:0:0:
448,192,153507,1,0,0:0:0:0:
64,192,153607,1,0,0:0:0:0:
192,192,153607,1,0,0:0:0:0:
192,192,153707,1,0,0:0:0:0:
448,192,153806,1,0,0:0:0:0:
320,192,153831,1,0,0:0:0:0:
64,192,153856,1,0,0:0:0:0:
192,192,153881,1,0,0:0:0:0:
448,192,153906,1,0,0:0:0:0:
320,192,153956,1,0,0:0:0:0:
192,192,154006,1,0,0:0:0:0:
448,192,154056,1,0,0:0:0:0:
64,192,154106,1,0,0:0:0:0:
320,192,154106,1,0,0:0:0:0:
192,192,154205,1,0,0:0:0:0:
448,192,154205,1,0,0:0:0:0:
320,192,154255,1,0,0:0:0:0:
192,192,154305,1,0,0:0:0:0:
320,192,154355,1,0,0:0:0:0:
448,192,154405,1,0,0:0:0:0:
64,192,154405,1,0,0:0:0:0:
320,192,154505,1,0,0:0:0:0:
192,192,154555,1,0,0:0:0:0:
64,192,154605,1,0,0:0:0:0:
448,192,154605,1,0,0:0:0:0:
320,192,154654,1,0,0:0:0:0:
64,192,154704,1,0,0:0:0:0:
320,192,154804,1,0,0:0:0:0:
448,192,154804,1,0,0:0:0:0:
320,192,154904,1,0,0:0:0:0:
192,192,154954,1,0,0:0:0:0:
448,192,155004,1,0,0:0:0:0:
64,192,155004,1,0,0:0:0:0:
320,192,155053,1,0,0:0:0:0:
192,192,155103,1,0,0:0:0:0:
320,192,155153,1,0,0:0:0:0:
64,192,155203,1,0,0:0:0:0:
448,192,155203,1,0,0:0:0:0:
64,192,155303,1,0,0:0:0:0:
448,192,155403,1,0,0:0:0:0:
320,192,155428,1,0,0:0:0:0:
64,192,155452,1,0,0:0:0:0:
192,192,155477,1,0,0:0:0:0:
448,192,155502,1,0,0:0:0:0:
320,192,155552,1,0,0:0:0:0:
64,192,155602,1,0,0:0:0:0:
320,192,155652,1,0,0:0:0:0:
448,192,155702,1,0,0:0:0:0:
192,192,155702,1,0,0:0:0:0:
192,192,155802,1,0,0:0:0:0:
64,192,155802,1,0,0:0:0:0:
320,192,155852,1,0,0:0:0:0:
64,192,155901,1,0,0:0:0:0:
448,192,155951,1,0,0:0:0:0:
320,192,156001,1,0,0:0:0:0:
192,192,156001,1,0,0:0:0:0:
64,192,156051,1,0,0:0:0:0:
192,192,156101,1,0,0:0:0:0:
320,192,156151,1,0,0:0:0:0:
448,192,156201,1,0,0:0:0:0:
192,192,156201,1,0,0:0:0:0:
64,192,156251,1,0,0:0:0:0:
448,192,156300,1,0,0:0:0:0:
320,192,156350,1,0,0:0:0:0:
192,192,156400,1,0,0:0:0:0:
64,192,156400,1,0,0:0:0:0:
448,192,156450,1,0,0:0:0:0:
64,192,156500,1,0,0:0:0:0:
320,192,156550,1,0,0:0:0:0:
448,192,156600,1,0,0:0:0:0:
192,192,156600,1,0,0:0:0:0:
64,192,156650,1,0,0:0:0:0:
320,192,156699,1,0,0:0:0:0:
192,192,156749,1,0,0:0:0:0:
320,192,156799,1,0,0:0:0:0:
448,192,156799,1,0,0:0:0:0:
64,192,156849,1,0,0:0:0:0:
192,192,156899,1,0,0:0:0:0:
320,192,156949,1,0,0:0:0:0:
448,192,156999,1,0,0:0:0:0:
192,192,156999,1,0,0:0:0:0:
64,192,157032,1,0,0:0:0:0:
320,192,157065,1,0,0:0:0:0:
448,192,157098,1,0,0:0:0:0:
192,192,157148,1,0,0:0:0:0:
320,192,157198,1,0,0:0:0:0:
64,192,157198,1,0,0:0:0:0:
192,192,157248,1,0,0:0:0:0:
448,192,157298,1,0,0:0:0:0:
320,192,157348,1,0,0:0:0:0:
192,192,157398,1,0,0:0:0:0:
64,192,157398,1,0,0:0:0:0:
448,192,157448,1,0,0:0:0:0:
64,192,157498,1,0,0:0:0:0:
192,192,157547,1,0,0:0:0:0:
320,192,157597,1,0,0:0:0:0:
448,192,157597,1,0,0:0:0:0:
192,192,157697,1,0,0:0:0:0:
64,192,157797,1,0,0:0:0:0:
320,192,157797,1,0,0:0:0:0:
192,192,157897,1,0,0:0:0:0:
448,192,157897,1,0,0:0:0:0:
192,192,157996,1,0,0:0:0:0:
64,192,157996,1,0,0:0:0:0:
448,192,158046,1,0,0:0:0:0:
320,192,158096,1,0,0:0:0:0:
192,192,158146,1,0,0:0:0:0:
320,192,158196,1,0,0:0:0:0:
64,192,158196,1,0,0:0:0:0:
448,192,158246,1,0,0:0:0:0:
64,192,158296,1,0,0:0:0:0:
320,192,158345,1,0,0:0:0:0:
448,192,158395,1,0,0:0:0:0:
192,192,158395,1,0,0:0:0:0:
320,192,158445,1,0,0:0:0:0:
192,192,158495,1,0,0:0:0:0:
64,192,158545,1,0,0:0:0:0:
320,192,158595,1,0,0:0:0:0:
448,192,158595,1,0,0:0:0:0:
192,192,158628,1,0,0:0:0:0:
64,192,158661,1,0,0:0:0:0:
448,192,158695,1,0,0:0:0:0:
192,192,158744,1,0,0:0:0:0:
64,192,158794,1,0,0:0:0:0:
320,192,158794,1,0,0:0:0:0:
448,192,158844,1,0,0:0:0:0:
192,192,158894,1,0,0:0:0:0:
320,192,158944,1,0,0:0:0:0:
192,192,158994,1,0,0:0:0:0:
64,192,158994,1,0,0:0:0:0:
448,192,159044,1,0,0:0:0:0:
320,192,159094,1,0,0:0:0:0:
192,192,159144,1,0,0:0:0:0:
448,192,159193,1,0,0:0:0:0:
320,192,159193,1,0,0:0:0:0:
64,192,159293,1,0,0:0:0:0:
320,192,159293,1,0,0:0:0:0:
192,192,159343,1,0,0:0:0:0:
64,192,159393,1,0,0:0:0:0:
448,192,159443,1,0,0:0:0:0:
192,192,159493,1,0,0:0:0:0:
320,192,159543,1,0,0:0:0:0:
448,192,159592,1,0,0:0:0:0:
64,192,159592,1,0,0:0:0:0:
192,192,159642,1,0,0:0:0:0:
64,192,159692,1,0,0:0:0:0:
448,192,159742,1,0,0:0:0:0:
320,192,159792,1,0,0:0:0:0:
192,192,159792,1,0,0:0:0:0:
192,192,159892,1,0,0:0:0:0:
64,192,159892,1,0,0:0:0:0:
64,192,159991,1,0,0:0:0:0:
320,192,159991,1,0,0:0:0:0:
448,192,160041,1,0,0:0:0:0:
192,192,160091,1,0,0:0:0:0:
320,192,160141,1,0,0:0:0:0:
448,192,160191,1,0,0:0:0:0:
64,192,160191,1,0,0:0:0:0:
192,192,160224,1,0,0:0:0:0:
320,192,160257,1,0,0:0:0:0:
64,192,160291,1,0,0:0:0:0:
448,192,160341,1,0,0:0:0:0:
192,192,160391,1,0,0:0:0:0:
320,192,160391,1,0,0:0:0:0:
64,192,160440,1,0,0:0:0:0:
448,192,160490,1,0,0:0:0:0:
192,192,160540,1,0,0:0:0:0:
64,192,160590,1,0,0:0:0:0:
320,192,160590,1,0,0:0:0:0:
448,192,160640,1,0,0:0:0:0:
64,192,160690,1,0,0:0:0:0:
192,192,160740,1,0,0:0:0:0:
320,192,160790,1,0,0:0:0:0:
448,192,160790,1,0,0:0:0:0:
64,192,160839,1,0,0:0:0:0:
320,192,160889,1,0,0:0:0:0:
192,192,160939,1,0,0:0:0:0:
320,192,160989,1,0,0:0:0:0:
64,192,160989,1,0,0:0:0:0:
448,192,161039,1,0,0:0:0:0:
192,192,161089,1,0,0:0:0:0:
192,192,161189,1,0,0:0:0:0:
64,192,161189,1,0,0:0:0:0:
448,192,161238,1,0,0:0:0:0:
64,192,161288,1,0,0:0:0:0:
320,192,161338,1,0,0:0:0:0:
192,192,161388,1,0,0:0:0:0:
448,192,161388,1,0,0:0:0:0:
64,192,161438,1,0,0:0:0:0:
192,192,161488,1,0,0:0:0:0:
320,192,161538,1,0,0:0:0:0:
448,192,161588,1,0,0:0:0:0:
64,192,161588,1,0,0:0:0:0:
192,192,161637,1,0,0:0:0:0:
448,192,161687,1,0,0:0:0:0:
320,192,161737,1,0,0:0:0:0:
192,192,161787,1,0,0:0:0:0:
64,192,161787,1,0,0:0:0:0:
448,192,161820,1,0,0:0:0:0:
320,192,161854,1,0,0:0:0:0:
192,192,161887,1,0,0:0:0:0:
448,192,161937,1,0,0:0:0:0:
320,192,161987,1,0,0:0:0:0:
64,192,161987,1,0,0:0:0:0:
192,192,162086,128,0,162136:0:0:0:0:
320,192,162186,128,0,162236:0:0:0:0:
448,192,162286,128,0,162336:0:0:0:0:
64,192,162386,128,0,162436:0:0:0:0:
192,192,162485,128,0,162535:0:0:0:0:
320,192,162585,128,0,162635:0:0:0:0:
448,192,162685,128,0,162735:0:0:0:0:
192,192,162785,1,0,0:0:0:0:
64,192,162785,1,0,0:0:0:0:
448,192,162785,1,0,0:0:0:0:
64,192,162884,1,0,0:0:0:0:
320,192,162884,1,0,0:0:0:0:
192,192,162984,1,0,0:0:0:0:
320,192,162984,1,0,0:0:0:0:
448,192,162984,1,0,0:0:0:0:
448,192,163084,1,0,0:0:0:0:
64,192,163084,1,0,0:0:0:0:
192,192,163184,1,0,0:0:0:0:
64,192,163184,1,0,0:0:0:0:
320,192,163184,1,0,0:0:0:0:
448,192,163234,1,0,0:0:0:0:
192,192,163283,1,0,0:0:0:0:
64,192,163383,1,0,0:0:0:0:
448,192,163383,1,0,0:0:0:0:
320,192,163383,1,0,0:0:0:0:
320,192,163483,1,0,0:0:0:0:
192,192,163533,1,0,0:0:0:0:
64,192,163583,1,0,0:0:0:0:
448,192,163583,1,0,0:0:0:0:
320,192,163583,1,0,0:0:0:0:
192,192,163683,1,0,0:0:0:0:
64,192,163683,1,0,0:0:0:0:
192,192,163782,1,0,0:0:0:0:
448,192,163782,1,0,0:0:0:0:
320,192,163782,1,0,0:0:0:0:
64,192,163832,1,0,0:0:0:0:
448,192,163882,1,0,0:0:0:0:
192,192,163982,1,0,0:0:0:0:
64,192,163982,1,0,0:0:0:0:
320,192,163982,1,0,0:0:0:0:
192,192,164082,1,0,0:0:0:0:
448,192,164082,1,0,0:0:0:0:
448,192,164181,1,0,0:0:0:0:
64,192,164181,1,0,0:0:0:0:
192,192,164231,1,0,0:0:0:0:
320,192,164281,1,0,0:0:0:0:
64,192,164314,1,0,0:0:0:0:
192,192,164348,1,0,0:0:0:0:
320,192,164381,1,0,0:0:0:0:
448,192,164381,1,0,0:0:0:0:
64,192,164431,1,0,0:0:0:0:
448,192,164481,1,0,0:0:0:0:
192,192,164530,1,0,0:0:0:0:
320,192,164530,1,0,0:0:0:0:
64,192,164580,1,0,0:0:0:0:
448,192,164630,1,0,0:0:0:0:
192,192,164680,1,0,0:0:0:0:
64,192,164680,1,0,0:0:0:0:
448,192,164780,1,0,0:0:0:0:
192,192,164780,1,0,0:0:0:0:
320,192,164780,1,0,0:0:0:0:
448,192,164880,1,0,0:0:0:0:
64,192,164880,1,0,0:0:0:0:
320,192,164979,1,0,0:0:0:0:
64,192,164979,1,0,0:0:0:0:
448,192,165029,1,0,0:0:0:0:
192,192,165079,1,0,0:0:0:0:
320,192,165129,1,0,0:0:0:0:
192,192,165179,1,0,0:0:0:0:
64,192,165179,1,0,0:0:0:0:
448,192,165229,1,0,0:0:0:0:
192,192,165279,1,0,0:0:0:0:
448,192,165329,1,0,0:0:0:0:
320,192,165378,1,0,0:0:0:0:
64,192,165378,1,0,0:0:0:0:
64,192,165478,1,0,0:0:0:0:
192,192,165478,1,0,0:0:0:0:
320,192,165578,1,0,0:0:0:0:
448,192,165578,1,0,0:0:0:0:
64,192,165628,1,0,0:0:0:0:
320,192,165678,1,0,0:0:0:0:
64,192,165728,1,0,0:0:0:0:
192,192,165777,1,0,0:0:0:0:
448,192,165827,1,0,0:0:0:0:
192,192,165877,1,0,0:0:0:0:
448,192,165927,1,0,0:0:0:0:
64,192,165977,1,0,0:0:0:0:
192,192,165977,1,0,0:0:0:0:
320,192,166027,1,0,0:0:0:0:
64,192,166077,1,0,0:0:0:0:
448,192,166127,1,0,0:0:0:0:
320,192,166176,1,0,0:0:0:0:
192,192,166176,1,0,0:0:0:0:
448,192,166226,1,0,0:0:0:0:
192,192,166276,1,0,0:0:0:0:
64,192,166326,1,0,0:0:0:0:
320,192,166376,1,0,0:0:0:0:
448,192,166376,1,0,0:0:0:0:
64,192,166426,1,0,0:0:0:0:
320,192,166476,1,0,0:0:0:0:
192,192,166526,1,0,0:0:0:0:
64,192,166576,1,0,0:0:0:0:
320,192,166576,1,0,0:0:0:0:
448,192,166625,1,0,0:0:0:0:
64,192,166675,1,0,0:0:0:0:
192,192,166725,1,0,0:0:0:0:
320,192,166775,1,0,0:0:0:0:
448,192,166775,1,0,0:0:0:0:
320,192,166875,1,0,0:0:0:0:
64,192,166875,1,0,0:0:0:0:
64,192,166975,1,0,0:0:0:0:
192,192,166975,1,0,0:0:0:0:
448,192,166975,1,0,0:0:0:0:
192,192,167074,1,0,0:0:0:0:
320,192,167074,1,0,0:0:0:0:
64,192,167174,1,0,0:0:0:0:
448,192,167174,1,0,0:0:0:0:
192,192,167224,1,0,0:0:0:0:
448,192,167274,1,0,0:0:0:0:
320,192,167324,1,0,0:0:0:0:
192,192,167374,1,0,0:0:0:0:
64,192,167374,1,0,0:0:0:0:
320,192,167423,1,0,0:0:0:0:
448,192,167473,1,0,0:0:0:0:
192,192,167507,1,0,0:0:0:0:
320,192,167540,1,0,0:0:0:0:
448,192,167573,1,0,0:0:0:0:
64,192,167623,1,0,0:0:0:0:
320,192,167673,1,0,0:0:0:0:
192,192,167723,1,0,0:0:0:0:
64,192,167773,1,0,0:0:0:0:
448,192,167773,1,0,0:0:0:0:
320,192,167822,1,0,0:0:0:0:
192,192,167872,1,0,0:0:0:0:
320,192,167922,1,0,0:0:0:0:
448,192,167972,1,0,0:0:0:0:
64,192,167972,1,0,0:0:0:0:
192,192,168022,1,0,0:0:0:0:
320,192,168072,1,0,0:0:0:0:
64,192,168122,1,0,0:0:0:0:
320,192,168172,1,0,0:0:0:0:
448,192,168172,1,0,0:0:0:0:
192,192,168222,1,0,0:0:0:0:
448,192,168271,1,0,0:0:0:0:
320,192,168321,1,0,0:0:0:0:
192,192,168371,1,0,0:0:0:0:
64,192,168371,1,0,0:0:0:0:
320,192,168471,1,0,0:0:0:0:
192,192,168521,1,0,0:0:0:0:
64,192,168571,1,0,0:0:0:0:
320,192,168571,1,0,0:0:0:0:
448,192,168571,1,0,0:0:0:0:
192,192,168670,1,0,0:0:0:0:
320,192,168720,1,0,0:0:0:0:
448,192,168770,1,0,0:0:0:0:
64,192,168770,1,0,0:0:0:0:
192,192,168770,1,0,0:0:0:0:
320,192,168870,1,0,0:0:0:0:
192,192,168920,1,0,0:0:0:0:
64,192,168970,1,0,0:0:0:0:
448,192,168970,1,0,0:0:0:0:
320,192,169020,1,0,0:0:0:0:
64,192,169069,1,0,0:0:0:0:
192,192,169119,1,0,0:0:0:0:
320,192,169169,1,0,0:0:0:0:
448,192,169169,1,0,0:0:0:0:
64,192,169269,1,0,0:0:0:0:
320,192,169269,1,0,0:0:0:0:
192,192,169369,1,0,0:0:0:0:
64,192,169369,1,0,0:0:0:0:
448,192,169369,1,0,0:0:0:0:
320,192,169469,1,0,0:0:0:0:
448,192,169469,1,0,0:0:0:0:
320,192,169568,1,0,0:0:0:0:
192,192,169568,1,0,0:0:0:0:
64,192,169568,1,0,0:0:0:0:
448,192,169618,1,0,0:0:0:0:
64,192,169668,1,0,0:0:0:0:
192,192,169768,1,0,0:0:0:0:
320,192,169768,1,0,0:0:0:0:
448,192,169768,1,0,0:0:0:0:
320,192,169868,1,0,0:0:0:0:
192,192,169917,1,0,0:0:0:0:
64,192,169967,1,0,0:0:0:0:
320,192,169967,1,0,0:0:0:0:
448,192,169967,1,0,0:0:0:0:
192,192,170067,1,0,0:0:0:0:
320,192,170067,1,0,0:0:0:0:
192,192,170167,1,0,0:0:0:0:
64,192,170167,1,0,0:0:0:0:
448,192,170167,1,0,0:0:0:0:
320,192,170217,1,0,0:0:0:0:
192,192,170267,1,0,0:0:0:0:
64,192,170366,1,0,0:0:0:0:
320,192,170366,1,0,0:0:0:0:
448,192,170366,1,0,0:0:0:0:
192,192,170466,1,0,0:0:0:0:
448,192,170466,1,0,0:0:0:0:
64,192,170566,1,0,0:0:0:0:
192,192,170566,1,0,0:0:0:0:
448,192,170616,1,0,0:0:0:0:
64,192,170666,1,0,0:0:0:0:
192,192,170699,1,0,0:0:0:0:
320,192,170732,1,0,0:0:0:0:
448,192,170765,1,0,0:0:0:0:
64,192,170815,1,0,0:0:0:0:
320,192,170865,1,0,0:0:0:0:
192,192,170915,1,0,0:0:0:0:
64,192,170965,1,0,0:0:0:0:
448,192,170965,1,0,0:0:0:0:
192,192,171015,1,0,0:0:0:0:
320,192,171065,1,0,0:0:0:0:
448,192,171115,1,0,0:0:0:0:
192,192,171164,1,0,0:0:0:0:
64,192,171164,1,0,0:0:0:0:
64,192,171264,1,0,0:0:0:0:
320,192,171264,1,0,0:0:0:0:
192,192,171364,1,0,0:0:0:0:
448,192,171364,1,0,0:0:0:0:
320,192,171364,1,0,0:0:0:0:
448,192,171464,1,0,0:0:0:0:
64,192,171464,1,0,0:0:0:0:
192,192,171563,1,0,0:0:0:0:
64,192,171563,1,0,0:0:0:0:
448,192,171613,1,0,0:0:0:0:
320,192,171663,1,0,0:0:0:0:
64,192,171713,1,0,0:0:0:0:
192,192,171763,1,0,0:0:0:0:
448,192,171763,1,0,0:0:0:0:
64,192,171863,1,0,0:0:0:0:
448,192,171863,1,0,0:0:0:0:
192,192,171962,1,0,0:0:0:0:
64,192,171962,1,0,0:0:0:0:
320,192,171962,1,0,0:0:0:0:
192,192,172062,1,0,0:0:0:0:
448,192,172062,1,0,0:0:0:0:
64,192,172162,1,0,0:0:0:0:
448,192,172162,1,0,0:0:0:0:
320,192,172212,1,0,0:0:0:0:
192,192,172262,1,0,0:0:0:0:
64,192,172295,1,0,0:0:0:0:
448,192,172328,1,0,0:0:0:0:
320,192,172361,1,0,0:0:0:0:
192,192,172411,1,0,0:0:0:0:
320,192,172461,1,0,0:0:0:0:
448,192,172511,1,0,0:0:0:0:
192,192,172561,1,0,0:0:0:0:
64,192,172561,1,0,0:0:0:0:
320,192,172611,1,0,0:0:0:0:
192,192,172661,1,0,0:0:0:0:
64,192,172711,1,0,0:0:0:0:
448,192,172761,1,0,0:0:0:0:
192,192,172761,1,0,0:0:0:0:
320,192,172810,1,0,0:0:0:0:
448,192,172860,1,0,0:0:0:0:
64,192,172910,1,0,0:0:0:0:
320,192,172960,1,0,0:0:0:0:
448,192,172960,1,0,0:0:0:0:
192,192,173010,1,0,0:0:0:0:
64,192,173060,1,0,0:0:0:0:
448,192,173110,1,0,0:0:0:0:
320,192,173160,1,0,0:0:0:0:
192,192,173160,1,0,0:0:0:0:
64,192,173209,1,0,0:0:0:0:
192,192,173259,1,0,0:0:0:0:
320,192,173309,1,0,0:0:0:0:
448,192,173359,1,0,0:0:0:0:
64,192,173359,1,0,0:0:0:0:
192,192,173409,1,0,0:0:0:0:
448,192,173459,1,0,0:0:0:0:
320,192,173509,1,0,0:0:0:0:
192,192,173559,1,0,0:0:0:0:
64,192,173559,1,0,0:0:0:0:
448,192,173608,1,0,0:0:0:0:
320,192,173658,1,0,0:0:0:0:
192,192,173708,1,0,0:0:0:0:
64,192,173758,1,0,0:0:0:0:
320,192,173758,1,0,0:0:0:0:
448,192,173808,1,0,0:0:0:0:
192,192,173858,1,0,0:0:0:0:
64,192,173883,1,0,0:0:0:0:
320,192,173908,1,0,0:0:0:0:
448,192,173933,1,0,0:0:0:0:
192,192,173958,1,0,0:0:0:0:
64,192,174008,1,0,0:0:0:0:
320,192,174057,1,0,0:0:0:0:
192,192,174107,1,0,0:0:0:0:
320,192,174157,1,0,0:0:0:0:
448,192,174157,1,0,0:0:0:0:
64,192,174207,1,0,0:0:0:0:
192,192,174257,1,0,0:0:0:0:
320,192,174307,1,0,0:0:0:0:
448,192,174357,1,0,0:0:0:0:
192,192,174357,1,0,0:0:0:0:
64,192,174407,1,0,0:0:0:0:
448,192,174456,1,0,0:0:0:0:
64,192,174506,1,0,0:0:0:0:
192,192,174556,1,0,0:0:0:0:
320,192,174556,1,0,0:0:0:0:
448,192,174606,1,0,0:0:0:0:
320,192,174656,1,0,0:0:0:0:
64,192,174706,1,0,0:0:0:0:
192,192,174756,1,0,0:0:0:0:
320,192,174789,1,0,0:0:0:0:
64,192,174822,1,0,0:0:0:0:
192,192,174855,1,0,0:0:0:0:
448,192,174905,1,0,0:0:0:0:
320,192,174955,1,0,0:0:0:0:
192,192,174988,1,0,0:0:0:0:
448,192,175022,1,0,0:0:0:0:
320,192,175055,1,0,0:0:0:0:
64,192,175105,1,0,0:0:0:0:
192,192,175155,128,0,175205:0:0:0:0:
448,192,175155,128,0,175205:0:0:0:0:
448,192,175254,128,0,175304:0:0:0:0:
192,192,175254,128,0,175304:0:0:0:0:
64,192,175354,128,0,175454:0:0:0:0:
320,192,175354,128,0,175554:0:0:0:0:
64,192,175554,1,0,0:0:0:0:
448,192,175554,1,0,0:0:0:0:
192,192,175587,1,0,0:0:0:0:
320,192,175620,1,0,0:0:0:0:
64,192,175654,1,0,0:0:0:0:
192,192,175703,1,0,0:0:0:0:
448,192,175753,1,0,0:0:0:0:
320,192,175787,1,0,0:0:0:0:
192,192,175820,1,0,0:0:0:0:
448,192,175853,1,0,0:0:0:0:
320,192,175903,1,0,0:0:0:0:
192,192,175953,1,0,0:0:0:0:
64,192,175953,1,0,0:0:0:0:
448,192,176053,1,0,0:0:0:0:
64,192,176102,1,0,0:0:0:0:
320,192,176152,1,0,0:0:0:0:
448,192,176186,1,0,0:0:0:0:
192,192,176219,1,0,0:0:0:0:
64,192,176252,1,0,0:0:0:0:
320,192,176302,1,0,0:0:0:0:
192,192,176352,1,0,0:0:0:0:
448,192,176385,1,0,0:0:0:0:
320,192,176418,1,0,0:0:0:0:
64,192,176452,1,0,0:0:0:0:
192,192,176501,1,0,0:0:0:0:
320,192,176551,1,0,0:0:0:0:
64,192,176585,1,0,0:0:0:0:
192,192,176618,1,0,0:0:0:0:
448,192,176651,1,0,0:0:0:0:
320,192,176701,1,0,0:0:0:0:
192,192,176751,1,0,0:0:0:0:
64,192,176751,1,0,0:0:0:0:
448,192,176851,1,0,0:0:0:0:
192,192,176900,1,0,0:0:0:0:
320,192,176950,1,0,0:0:0:0:
64,192,176984,1,0,0:0:0:0:
192,192,177017,1,0,0:0:0:0:
448,192,177050,1,0,0:0:0:0:
320,192,177100,1,0,0:0:0:0:
192,192,177150,1,0,0:0:0:0:
448,192,177183,1,0,0:0:0:0:
64,192,177250,1,0,0:0:0:0:
320,192,177283,1,0,0:0:0:0:
192,192,177349,1,0,0:0:0:0:
320,192,177383,1,0,0:0:0:0:
448,192,177416,1,0,0:0:0:0:
64,192,177449,1,0,0:0:0:0:
192,192,177499,1,0,0:0:0:0:
448,192,177549,1,0,0:0:0:0:
320,192,177549,1,0,0:0:0:0:
320,192,177649,1,0,0:0:0:0:
192,192,177699,1,0,0:0:0:0:
64,192,177748,1,0,0:0:0:0:
448,192,177782,1,0,0:0:0:0:
320,192,177815,1,0,0:0:0:0:
64,192,177848,1,0,0:0:0:0:
192,192,177898,1,0,0:0:0:0:
320,192,177948,1,0,0:0:0:0:
64,192,177981,1,0,0:0:0:0:
448,192,178048,1,0,0:0:0:0:
192,192,178081,1,0,0:0:0:0:
320,192,178147,1,0,0:0:0:0:
448,192,178181,1,0,0:0:0:0:
192,192,178214,1,0,0:0:0:0:
64,192,178247,1,0,0:0:0:0:
320,192,178297,1,0,0:0:0:0:
448,192,178347,1,0,0:0:0:0:
192,192,178347,1,0,0:0:0:0:
192,192,178447,1,0,0:0:0:0:
64,192,178547,1,0,0:0:0:0:
320,192,178547,1,0,0:0:0:0:
448,192,178596,1,0,0:0:0:0:
192,192,178646,1,0,0:0:0:0:
320,192,178680,1,0,0:0:0:0:
448,192,178746,1,0,0:0:0:0:
64,192,178746,1,0,0:0:0:0:
320,192,178779,1,0,0:0:0:0:
192,192,178813,1,0,0:0:0:0:
448,192,178846,1,0,0:0:0:0:
320,192,178896,1,0,0:0:0:0:
64,192,178946,1,0,0:0:0:0:
192,192,178979,1,0,0:0:0:0:
320,192,179012,1,0,0:0:0:0:
64,192,179045,1,0,0:0:0:0:
192,192,179095,1,0,0:0:0:0:
320,192,179145,1,0,0:0:0:0:
448,192,179145,1,0,0:0:0:0:
64,192,179245,1,0,0:0:0:0:
448,192,179295,1,0,0:0:0:0:
192,192,179345,1,0,0:0:0:0:
64,192,179378,1,0,0:0:0:0:
320,192,179411,1,0,0:0:0:0:
448,192,179444,1,0,0:0:0:0:
192,192,179494,1,0,0:0:0:0:
320,192,179544,1,0,0:0:0:0:
64,192,179577,1,0,0:0:0:0:
192,192,179611,1,0,0:0:0:0:
448,192,179644,1,0,0:0:0:0:
320,192,179694,1,0,0:0:0:0:
192,192,179744,1,0,0:0:0:0:
448,192,179777,1,0,0:0:0:0:
320,192,179810,1,0,0:0:0:0:
64,192,179843,1,0,0:0:0:0:
192,192,179893,1,0,0:0:0:0:
320,192,179943,1,0,0:0:0:0:
448,192,179943,1,0,0:0:0:0:
64,192,180043,1,0,0:0:0:0:
320,192,180093,1,0,0:0:0:0:
192,192,180143,1,0,0:0:0:0:
448,192,180176,1,0,0:0:0:0:
320,192,180209,1,0,0:0:0:0:
64,192,180242,1,0,0:0:0:0:
192,192,180292,1,0,0:0:0:0:
320,192,180342,1,0,0:0:0:0:
64,192,180375,1,0,0:0:0:0:
448,192,180442,1,0,0:0:0:0:
192,192,180475,1,0,0:0:0:0:
320,192,180542,1,0,0:0:0:0:
192,192,180575,1,0,0:0:0:0:
64,192,180608,1,0,0:0:0:0:
448,192,180641,1,0,0:0:0:0:
320,192,180691,1,0,0:0:0:0:
64,192,180741,1,0,0:0:0:0:
192,192,180741,1,0,0:0:0:0:
192,192,180841,1,0,0:0:0:0:
320,192,180891,1,0,0:0:0:0:
448,192,180941,1,0,0:0:0:0:
64,192,180974,1,0,0:0:0:0:
192,192,181007,1,0,0:0:0:0:
448,192,181040,1,0,0:0:0:0:
320,192,181090,1,0,0:0:0:0:
192,192,181140,1,0,0:0:0:0:
64,192,181140,1,0,0:0:0:0:
448,192,181140,1,0,0:0:0:0:
64,192,181240,1,0,0:0:0:0:
448,192,181290,1,0,0:0:0:0:
320,192,181290,1,0,0:0:0:0:
192,192,181290,1,0,0:0:0:0:
448,192,181390,1,0,0:0:0:0:
192,192,181439,1,0,0:0:0:0:
64,192,181439,1,0,0:0:0:0:
320,192,181439,1,0,0:0:0:0:
64,192,181539,1,0,0:0:0:0:
448,192,181539,1,0,0:0:0:0:
320,192,181539,1,0,0:0:0:0:
192,192,181639,1,0,0:0:0:0:
320,192,181664,1,0,0:0:0:0:
448,192,181689,1,0,0:0:0:0:
64,192,181714,1,0,0:0:0:0:
192,192,181739,1,0,0:0:0:0:
320,192,181789,1,0,0:0:0:0:
64,192,181839,1,0,0:0:0:0:
448,192,181888,1,0,0:0:0:0:
192,192,181938,1,0,0:0:0:0:
64,192,181938,1,0,0:0:0:0:
320,192,181938,1,0,0:0:0:0:
64,192,182038,1,0,0:0:0:0:
448,192,182038,1,0,0:0:0:0:
64,192,182138,1,0,0:0:0:0:
320,192,182138,1,0,0:0:0:0:
448,192,182138,1,0,0:0:0:0:
320,192,182238,1,0,0:0:0:0:
192,192,182238,1,0,0:0:0:0:
192,192,182337,1,0,0:0:0:0:
64,192,182337,1,0,0:0:0:0:
448,192,182337,1,0,0:0:0:0:
64,192,182437,1,0,0:0:0:0:
320,192,182437,1,0,0:0:0:0:
192,192,182537,1,0,0:0:0:0:
320,192,182537,1,0,0:0:0:0:
448,192,182537,1,0,0:0:0:0:
448,192,182637,1,0,0:0:0:0:
64,192,182637,1,0,0:0:0:0:
320,192,182736,1,0,0:0:0:0:
192,192,182736,1,0,0:0:0:0:
64,192,182736,1,0,0:0:0:0:
192,192,182836,1,0,0:0:0:0:
448,192,182836,1,0,0:0:0:0:
64,192,182936,1,0,0:0:0:0:
320,192,182936,1,0,0:0:0:0:
448,192,182936,1,0,0:0:0:0:
64,192,183036,1,0,0:0:0:0:
192,192,183036,1,0,0:0:0:0:
320,192,183135,1,0,0:0:0:0:
448,192,183135,1,0,0:0:0:0:
64,192,183175,1,0,0:0:0:0:
192,192,183215,1,0,0:0:0:0:
448,192,183255,1,0,0:0:0:0:
320,192,183295,1,0,0:0:0:0:
64,192,183335,1,0,0:0:0:0:
192,192,183368,1,0,0:0:0:0:
320,192,183401,1,0,0:0:0:0:
64,192,183435,1,0,0:0:0:0:
448,192,183468,1,0,0:0:0:0:
320,192,183501,1,0,0:0:0:0:
192,192,183534,1,0,0:0:0:0:
64,192,183534,1,0,0:0:0:0:
192,192,183634,1,0,0:0:0:0:
448,192,183634,1,0,0:0:0:0:
64,192,183734,1,0,0:0:0:0:
320,192,183734,1,0,0:0:0:0:
448,192,183734,1,0,0:0:0:0:
448,192,183834,1,0,0:0:0:0:
192,192,183834,1,0,0:0:0:0:
192,192,183933,1,0,0:0:0:0:
64,192,183933,1,0,0:0:0:0:
320,192,183933,1,0,0:0:0:0:
64,192,184033,1,0,0:0:0:0:
448,192,184033,1,0,0:0:0:0:
192,192,184133,1,0,0:0:0:0:
320,192,184133,1,0,0:0:0:0:
448,192,184133,1,0,0:0:0:0:
64,192,184233,1,0,0:0:0:0:
192,192,184233,1,0,0:0:0:0:
64,192,184332,1,0,0:0:0:0:
448,192,184332,1,0,0:0:0:0:
192,192,184382,1,0,0:0:0:0:
448,192,184432,1,0,0:0:0:0:
320,192,184482,1,0,0:0:0:0:
192,192,184532,1,0,0:0:0:0:
64,192,184565,1,0,0:0:0:0:
448,192,184599,1,0,0:0:0:0:
192,192,184632,1,0,0:0:0:0:
320,192,184665,1,0,0:0:0:0:
448,192,184698,1,0,0:0:0:0:
64,192,184732,1,0,0:0:0:0:
320,192,184760,1,0,0:0:0:0:
192,192,184789,1,0,0:0:0:0:
64,192,184817,1,0,0:0:0:0:
448,192,184846,1,0,0:0:0:0:
320,192,184874,1,0,0:0:0:0:
192,192,184903,1,0,0:0:0:0:
64,192,184931,1,0,0:0:0:0:
448,192,184956,1,0,0:0:0:0:
320,192,184981,1,0,0:0:0:0:
192,192,185006,1,0,0:0:0:0:
64,192,185031,1,0,0:0:0:0:
448,192,185064,1,0,0:0:0:0:
320,192,185097,1,0,0:0:0:0:
192,192,185131,1,0,0:0:0:0:
448,192,185180,1,0,0:0:0:0:
64,192,185230,1,0,0:0:0:0:
320,192,185280,1,0,0:0:0:0:
192,192,185330,1,0,0:0:0:0:
448,192,185330,1,0,0:0:0:0:
64,192,185380,1,0,0:0:0:0:
448,192,185430,1,0,0:0:0:0:
192,192,185463,1,0,0:0:0:0:
320,192,185496,1,0,0:0:0:0:
448,192,185530,1,0,0:0:0:0:
64,192,185579,1,0,0:0:0:0:
320,192,185629,1,0,0:0:0:0:
192,192,185679,1,0,0:0:0:0:
448,192,185729,1,0,0:0:0:0:
64,192,185762,1,0,0:0:0:0:
192,192,185796,1,0,0:0:0:0:
320,192,185829,1,0,0:0:0:0:
64,192,185879,1,0,0:0:0:0:
448,192,185929,1,0,0:0:0:0:
192,192,185929,1,0,0:0:0:0:
320,192,185978,1,0,0:0:0:0:
192,192,186028,1,0,0:0:0:0:
448,192,186078,1,0,0:0:0:0:
64,192,186128,1,0,0:0:0:0:
320,192,186128,1,0,0:0:0:0:
192,192,186178,1,0,0:0:0:0:
448,192,186228,1,0,0:0:0:0:
320,192,186261,1,0,0:0:0:0:
192,192,186294,1,0,0:0:0:0:
64,192,186328,1,0,0:0:0:0:
320,192,186378,1,0,0:0:0:0:
64,192,186427,1,0,0:0:0:0:
448,192,186477,1,0,0:0:0:0:
192,192,186527,1,0,0:0:0:0:
320,192,186560,1,0,0:0:0:0:
448,192,186594,1,0,0:0:0:0:
64,192,186627,1,0,0:0:0:0:
320,192,186727,1,0,0:0:0:0:
448,192,186727,1,0,0:0:0:0:
192,192,186760,1,0,0:0:0:0:
64,192,186793,1,0,0:0:0:0:
448,192,186826,1,0,0:0:0:0:
192,192,186860,1,0,0:0:0:0:
320,192,186893,1,0,0:0:0:0:
448,192,186926,1,0,0:0:0:0:
64,192,186959,1,0,0:0:0:0:
320,192,186993,1,0,0:0:0:0:
192,192,187026,1,0,0:0:0:0:
448,192,187059,1,0,0:0:0:0:
64,192,187092,1,0,0:0:0:0:
320,192,187126,1,0,0:0:0:0:
448,192,187159,1,0,0:0:0:0:
192,192,187192,1,0,0:0:0:0:
64,192,187225,1,0,0:0:0:0:
448,192,187259,1,0,0:0:0:0:
192,192,187292,1,0,0:0:0:0:
320,192,187325,1,0,0:0:0:0:
64,192,187358,1,0,0:0:0:0:
448,192,187392,1,0,0:0:0:0:
320,192,187425,1,0,0:0:0:0:
192,192,187458,1,0,0:0:0:0:
64,192,187491,1,0,0:0:0:0:
320,192,187525,1,0,0:0:0:0:
448,192,187525,128,0,187724:0:0:0:0:
192,192,187625,1,0,0:0:0:0:
64,192,187724,128,0,187924:0:0:0:0:
320,192,187824,1,0,0:0:0:0:
448,192,187924,128,0,188123:0:0:0:0:
64,192,188024,1,0,0:0:0:0:
192,192,188123,128,0,188323:0:0:0:0:
448,192,188223,1,0,0:0:0:0:
320,192,188323,1,0,0:0:0:0:
448,192,188323,1,0,0:0:0:0:
64,192,188323,1,0,0:0:0:0:
192,192,188522,1,0,0:0:0:0:
320,192,188722,1,0,0:0:0:0:
448,192,188921,1,0,0:0:0:0:
192,192,189121,1,0,0:0:0:0:
320,192,189320,1,0,0:0:0:0:
64,192,189520,1,0,0:0:0:0:
192,192,189719,1,0,0:0:0:0:
320,192,189919,1,0,0:0:0:0:
448,192,189919,1,0,0:0:0:0:
64,192,190318,1,0,0:0:0:0:
64,192,191116,1,0,0:0:0:0:
448,192,191116,1,0,0:0:0:0:
320,192,191515,1,0,0:0:0:0:
448,192,191515,1,0,0:0:0:0:
192,192,191515,1,0,0:0:0:0:
64,192,191715,1,0,0:0:0:0:
448,192,191914,1,0,0:0:0:0:
192,192,192114,1,0,0:0:0:0:
64,192,192313,1,0,0:0:0:0:
448,192,192513,1,0,0:0:0:0:
320,192,192712,1,0,0:0:0:0:
192,192,192912,1,0,0:0:0:0:
64,192,193111,1,0,0:0:0:0:
320,192,193909,1,0,0:0:0:0:
320,192,194308,1,0,0:0:0:0:
192,192,194707,128,0,196403:0:0:0:0:
448,192,194707,1,0,0:0:0:0:
64,192,196403,1,0,0:0:0:0:
448,192,196403,128,0,198099:0:0:0:0:
320,192,198299,1,0,0:0:0:0:
64,192,198365,1,0,0:0:0:0:
192,192,198398,1,0,0:0:0:0:
448,192,198432,1,0,0:0:0:0:
320,192,198465,1,0,0:0:0:0:
64,192,198498,128,0,205681:0:0:0:0:
