osu file format v14

[General]
AudioFilename: audio.ogg
AudioLeadIn: 0
PreviewTime: 161995
Countdown: 0
SampleSet: Soft
StackLeniency: 0.7
Mode: 3
LetterboxInBreaks: 0
SpecialStyle: 0
WidescreenStoryboard: 0

[Editor]
DistanceSpacing: 2.4
BeatDivisor: 8
GridSize: 32
TimelineZoom: 3.099999

[Metadata]
Title:Onus Regulus
TitleUnicode:Onus RÄ“gulus
Artist:Ludicin
ArtistUnicode:Ludicin
Creator:saladpoo
Version:Easy
Source:cavoe's osu! event Global Taiko Showdown
Tags:coegts cgts 2023 handstream jumpstream dense chordjack speed stamina symphonic metal speedcore instrumental
BeatmapID:4580881
BeatmapSetID:2166236

[Difficulty]
HPDrainRate:5
CircleSize:4
OverallDifficulty:5
ApproachRate:5
SliderMultiplier:1.4
SliderTickRate:1

[Events]
//Background and Video events
0,0,"maxresdefault.jpg",0,0
//Break Periods
//Storyboard Layer 0 (Background)
//Storyboard Layer 1 (Fail)
//Storyboard Layer 2 (Pass)
//Storyboard Layer 3 (Foreground)
//Storyboard Layer 4 (Overlay)
//Storyboard Sound Samples

[TimingPoints]
-11.6442062664348,199.516505002876,4,2,0,100,1,0

[HitObjects]
64,192,15949,5,0,0:0:0:0:
192,192,15949,1,0,0:0:0:0:
448,192,15949,1,0,0:0:0:0:
320,192,16016,1,0,0:0:0:0:
64,192,16082,1,0,0:0:0:0:
192,192,16082,1,0,0:0:0:0:
448,192,16082,1,0,0:0:0:0:
320,192,16149,1,0,0:0:0:0:
192,192,16215,1,0,0:0:0:0:
64,192,16215,1,0,0:0:0:0:
448,192,16282,1,0,0:0:0:0:
320,192,16348,1,0,0:0:0:0:
64,192,16348,1,0,0:0:0:0:
192,192,16348,1,0,0:0:0:0:
448,192,16415,1,0,0:0:0:0:
192,192,16481,1,0,0:0:0:0:
320,192,16481,1,0,0:0:0:0:
64,192,16548,1,0,0:0:0:0:
448,192,16548,1,0,0:0:0:0:
320,192,16614,1,0,0:0:0:0:
192,192,16614,1,0,0:0:0:0:
64,192,16681,1,0,0:0:0:0:
192,192,16747,1,0,0:0:0:0:
320,192,16747,1,0,0:0:0:0:
448,192,16747,1,0,0:0:0:0:
64,192,16814,1,0,0:0:0:0:
192,192,16880,1,0,0:0:0:0:
320,192,16880,1,0,0:0:0:0:
448,192,16880,1,0,0:0:0:0:
64,192,16947,1,0,0:0:0:0:
320,192,17013,1,0,0:0:0:0:
448,192,17013,1,0,0:0:0:0:
192,192,17080,1,0,0:0:0:0:
64,192,17146,1,0,0:0:0:0:
320,192,17146,1,0,0:0:0:0:
448,192,17146,1,0,0:0:0:0:
192,192,17213,1,0,0:0:0:0:
64,192,17279,1,0,0:0:0:0:
448,192,17279,1,0,0:0:0:0:
320,192,17346,1,0,0:0:0:0:
192,192,17346,1,0,0:0:0:0:
64,192,17396,1,0,0:0:0:0:
448,192,17446,1,0,0:0:0:0:
320,192,17495,1,0,0:0:0:0:
448,192,17545,1,0,0:0:0:0:
64,192,17545,1,0,0:0:0:0:
192,192,17545,1,0,0:0:0:0:
320,192,17612,1,0,0:0:0:0:
192,192,17678,1,0,0:0:0:0:
64,192,17678,1,0,0:0:0:0:
448,192,17678,1,0,0:0:0:0:
320,192,17745,1,0,0:0:0:0:
448,192,17811,1,0,0:0:0:0:
64,192,17811,1,0,0:0:0:0:
192,192,17878,1,0,0:0:0:0:
320,192,17944,1,0,0:0:0:0:
448,192,17944,1,0,0:0:0:0:
64,192,17944,1,0,0:0:0:0:
192,192,18011,1,0,0:0:0:0:
320,192,18077,1,0,0:0:0:0:
448,192,18077,1,0,0:0:0:0:
192,192,18144,1,0,0:0:0:0:
448,192,18210,1,0,0:0:0:0:
64,192,18210,1,0,0:0:0:0:
320,192,18277,1,0,0:0:0:0:
64,192,18343,1,0,0:0:0:0:
192,192,18343,1,0,0:0:0:0:
448,192,18343,1,0,0:0:0:0:
320,192,18410,1,0,0:0:0:0:
448,192,18476,1,0,0:0:0:0:
192,192,18476,1,0,0:0:0:0:
64,192,18476,1,0,0:0:0:0:
320,192,18543,1,0,0:0:0:0:
64,192,18609,1,0,0:0:0:0:
192,192,18609,1,0,0:0:0:0:
448,192,18676,1,0,0:0:0:0:
64,192,18742,1,0,0:0:0:0:
320,192,18742,1,0,0:0:0:0:
192,192,18742,1,0,0:0:0:0:
448,192,18809,1,0,0:0:0:0:
192,192,18875,1,0,0:0:0:0:
64,192,18875,1,0,0:0:0:0:
320,192,18875,1,0,0:0:0:0:
448,192,18942,1,0,0:0:0:0:
64,192,19008,1,0,0:0:0:0:
320,192,19008,1,0,0:0:0:0:
192,192,19075,1,0,0:0:0:0:
64,192,19141,1,0,0:0:0:0:
448,192,19141,1,0,0:0:0:0:
320,192,19141,1,0,0:0:0:0:
192,192,19208,1,0,0:0:0:0:
64,192,19274,1,0,0:0:0:0:
320,192,19274,1,0,0:0:0:0:
448,192,19274,1,0,0:0:0:0:
192,192,19341,1,0,0:0:0:0:
320,192,19407,1,0,0:0:0:0:
448,192,19407,1,0,0:0:0:0:
64,192,19474,1,0,0:0:0:0:
192,192,19540,1,0,0:0:0:0:
320,192,19540,1,0,0:0:0:0:
448,192,19540,1,0,0:0:0:0:
64,192,19607,1,0,0:0:0:0:
448,192,19673,1,0,0:0:0:0:
320,192,19673,1,0,0:0:0:0:
64,192,19740,1,0,0:0:0:0:
192,192,19740,1,0,0:0:0:0:
320,192,19806,1,0,0:0:0:0:
448,192,19806,1,0,0:0:0:0:
192,192,19873,1,0,0:0:0:0:
64,192,19940,1,0,0:0:0:0:
320,192,19940,1,0,0:0:0:0:
448,192,19940,1,0,0:0:0:0:
192,192,20006,1,0,0:0:0:0:
320,192,20073,1,0,0:0:0:0:
448,192,20073,1,0,0:0:0:0:
64,192,20073,1,0,0:0:0:0:
192,192,20139,1,0,0:0:0:0:
64,192,20206,1,0,0:0:0:0:
448,192,20206,1,0,0:0:0:0:
320,192,20272,1,0,0:0:0:0:
192,192,20339,1,0,0:0:0:0:
64,192,20339,1,0,0:0:0:0:
448,192,20405,1,0,0:0:0:0:
320,192,20472,1,0,0:0:0:0:
192,192,20472,1,0,0:0:0:0:
64,192,20538,1,0,0:0:0:0:
448,192,20538,1,0,0:0:0:0:
192,192,20588,1,0,0:0:0:0:
320,192,20638,1,0,0:0:0:0:
192,192,20688,1,0,0:0:0:0:
64,192,20738,1,0,0:0:0:0:
320,192,20738,1,0,0:0:0:0:
448,192,20738,1,0,0:0:0:0:
192,192,20804,1,0,0:0:0:0:
64,192,20871,1,0,0:0:0:0:
320,192,20871,1,0,0:0:0:0:
448,192,20871,1,0,0:0:0:0:
192,192,20937,1,0,0:0:0:0:
320,192,21004,1,0,0:0:0:0:
64,192,21004,1,0,0:0:0:0:
448,192,21070,1,0,0:0:0:0:
320,192,21137,1,0,0:0:0:0:
192,192,21137,1,0,0:0:0:0:
64,192,21137,1,0,0:0:0:0:
448,192,21203,1,0,0:0:0:0:
320,192,21270,1,0,0:0:0:0:
192,192,21270,1,0,0:0:0:0:
64,192,21270,1,0,0:0:0:0:
448,192,21336,1,0,0:0:0:0:
64,192,21403,1,0,0:0:0:0:
192,192,21403,1,0,0:0:0:0:
320,192,21469,1,0,0:0:0:0:
64,192,21536,1,0,0:0:0:0:
448,192,21536,1,0,0:0:0:0:
192,192,21536,1,0,0:0:0:0:
320,192,21602,1,0,0:0:0:0:
192,192,21669,1,0,0:0:0:0:
64,192,21669,1,0,0:0:0:0:
448,192,21669,1,0,0:0:0:0:
320,192,21735,1,0,0:0:0:0:
192,192,21802,1,0,0:0:0:0:
448,192,21802,1,0,0:0:0:0:
64,192,21868,1,0,0:0:0:0:
192,192,21935,1,0,0:0:0:0:
320,192,21935,1,0,0:0:0:0:
448,192,21935,1,0,0:0:0:0:
64,192,21985,1,0,0:0:0:0:
320,192,22034,1,0,0:0:0:0:
64,192,22084,1,0,0:0:0:0:
192,192,22134,1,0,0:0:0:0:
448,192,22134,1,0,0:0:0:0:
320,192,22184,1,0,0:0:0:0:
192,192,22234,1,0,0:0:0:0:
320,192,22284,1,0,0:0:0:0:
192,192,22334,1,0,0:0:0:0:
448,192,22334,1,0,0:0:0:0:
64,192,22334,1,0,0:0:0:0:
320,192,22400,1,0,0:0:0:0:
448,192,22467,1,0,0:0:0:0:
192,192,22467,1,0,0:0:0:0:
64,192,22467,1,0,0:0:0:0:
320,192,22533,1,0,0:0:0:0:
448,192,22600,1,0,0:0:0:0:
192,192,22600,1,0,0:0:0:0:
320,192,22666,1,0,0:0:0:0:
192,192,22733,1,0,0:0:0:0:
64,192,22733,1,0,0:0:0:0:
448,192,22733,1,0,0:0:0:0:
320,192,22799,1,0,0:0:0:0:
192,192,22866,1,0,0:0:0:0:
64,192,22866,1,0,0:0:0:0:
320,192,22932,1,0,0:0:0:0:
448,192,22999,1,0,0:0:0:0:
64,192,22999,1,0,0:0:0:0:
192,192,23065,1,0,0:0:0:0:
64,192,23132,1,0,0:0:0:0:
320,192,23132,1,0,0:0:0:0:
448,192,23132,1,0,0:0:0:0:
192,192,23198,1,0,0:0:0:0:
64,192,23265,1,0,0:0:0:0:
320,192,23265,1,0,0:0:0:0:
448,192,23265,1,0,0:0:0:0:
192,192,23331,1,0,0:0:0:0:
320,192,23398,1,0,0:0:0:0:
448,192,23398,1,0,0:0:0:0:
64,192,23464,1,0,0:0:0:0:
192,192,23531,1,0,0:0:0:0:
448,192,23531,1,0,0:0:0:0:
320,192,23597,1,0,0:0:0:0:
64,192,23597,1,0,0:0:0:0:
192,192,23664,1,0,0:0:0:0:
320,192,23730,1,0,0:0:0:0:
448,192,23730,1,0,0:0:0:0:
192,192,23780,1,0,0:0:0:0:
64,192,23830,1,0,0:0:0:0:
320,192,23880,1,0,0:0:0:0:
448,192,23930,1,0,0:0:0:0:
192,192,23930,1,0,0:0:0:0:
64,192,23930,1,0,0:0:0:0:
320,192,23996,1,0,0:0:0:0:
448,192,24063,1,0,0:0:0:0:
64,192,24063,1,0,0:0:0:0:
192,192,24063,1,0,0:0:0:0:
320,192,24129,1,0,0:0:0:0:
448,192,24196,1,0,0:0:0:0:
64,192,24262,1,0,0:0:0:0:
320,192,24262,1,0,0:0:0:0:
192,192,24262,1,0,0:0:0:0:
448,192,24329,1,0,0:0:0:0:
64,192,24395,1,0,0:0:0:0:
320,192,24395,1,0,0:0:0:0:
192,192,24395,1,0,0:0:0:0:
448,192,24462,1,0,0:0:0:0:
64,192,24528,1,0,0:0:0:0:
320,192,24528,1,0,0:0:0:0:
192,192,24595,1,0,0:0:0:0:
448,192,24595,1,0,0:0:0:0:
64,192,24661,1,0,0:0:0:0:
192,192,24728,1,0,0:0:0:0:
448,192,24728,1,0,0:0:0:0:
320,192,24728,1,0,0:0:0:0:
64,192,24794,1,0,0:0:0:0:
192,192,24861,1,0,0:0:0:0:
320,192,24861,1,0,0:0:0:0:
448,192,24861,1,0,0:0:0:0:
64,192,24927,1,0,0:0:0:0:
192,192,24994,1,0,0:0:0:0:
320,192,24994,1,0,0:0:0:0:
448,192,25060,1,0,0:0:0:0:
320,192,25127,1,0,0:0:0:0:
192,192,25127,1,0,0:0:0:0:
64,192,25127,1,0,0:0:0:0:
448,192,25193,1,0,0:0:0:0:
320,192,25260,1,0,0:0:0:0:
192,192,25260,1,0,0:0:0:0:
64,192,25260,1,0,0:0:0:0:
448,192,25326,1,0,0:0:0:0:
64,192,25393,1,0,0:0:0:0:
320,192,25393,1,0,0:0:0:0:
192,192,25459,1,0,0:0:0:0:
64,192,25526,1,0,0:0:0:0:
320,192,25526,1,0,0:0:0:0:
448,192,25526,1,0,0:0:0:0:
192,192,25592,1,0,0:0:0:0:
64,192,25659,1,0,0:0:0:0:
320,192,25659,1,0,0:0:0:0:
448,192,25659,1,0,0:0:0:0:
192,192,25725,1,0,0:0:0:0:
320,192,25792,1,0,0:0:0:0:
448,192,25792,1,0,0:0:0:0:
64,192,25858,1,0,0:0:0:0:
192,192,25925,1,0,0:0:0:0:
320,192,25925,1,0,0:0:0:0:
448,192,25925,1,0,0:0:0:0:
64,192,25992,1,0,0:0:0:0:
448,192,26058,1,0,0:0:0:0:
192,192,26058,1,0,0:0:0:0:
320,192,26125,1,0,0:0:0:0:
64,192,26125,1,0,0:0:0:0:
448,192,26191,1,0,0:0:0:0:
192,192,26191,1,0,0:0:0:0:
320,192,26258,1,0,0:0:0:0:
192,192,26324,1,0,0:0:0:0:
448,192,26324,1,0,0:0:0:0:
64,192,26324,1,0,0:0:0:0:
320,192,26391,1,0,0:0:0:0:
448,192,26457,1,0,0:0:0:0:
192,192,26457,1,0,0:0:0:0:
64,192,26457,1,0,0:0:0:0:
320,192,26524,1,0,0:0:0:0:
192,192,26590,1,0,0:0:0:0:
64,192,26590,1,0,0:0:0:0:
448,192,26657,1,0,0:0:0:0:
320,192,26723,1,0,0:0:0:0:
192,192,26723,1,0,0:0:0:0:
64,192,26723,1,0,0:0:0:0:
448,192,26790,1,0,0:0:0:0:
320,192,26856,1,0,0:0:0:0:
64,192,26856,1,0,0:0:0:0:
192,192,26923,1,0,0:0:0:0:
448,192,26923,1,0,0:0:0:0:
320,192,26972,1,0,0:0:0:0:
64,192,26972,1,0,0:0:0:0:
192,192,27022,1,0,0:0:0:0:
448,192,27022,1,0,0:0:0:0:
320,192,27072,1,0,0:0:0:0:
192,192,27122,1,0,0:0:0:0:
448,192,27122,1,0,0:0:0:0:
64,192,27122,1,0,0:0:0:0:
320,192,27155,1,0,0:0:0:0:
192,192,27189,1,0,0:0:0:0:
64,192,27222,1,0,0:0:0:0:
448,192,27255,1,0,0:0:0:0:
192,192,27288,1,0,0:0:0:0:
320,192,27322,1,0,0:0:0:0:
448,192,27322,1,0,0:0:0:0:
64,192,27355,1,0,0:0:0:0:
192,192,27388,1,0,0:0:0:0:
448,192,27421,1,0,0:0:0:0:
320,192,27455,1,0,0:0:0:0:
192,192,27488,1,0,0:0:0:0:
64,192,27521,1,0,0:0:0:0:
448,192,27521,1,0,0:0:0:0:
320,192,27554,1,0,0:0:0:0:
64,192,27588,1,0,0:0:0:0:
192,192,27621,1,0,0:0:0:0:
448,192,27654,1,0,0:0:0:0:
320,192,27687,1,0,0:0:0:0:
192,192,27721,1,0,0:0:0:0:
64,192,27721,1,0,0:0:0:0:
448,192,27754,1,0,0:0:0:0:
64,192,27787,1,0,0:0:0:0:
192,192,27820,1,0,0:0:0:0:
320,192,27854,1,0,0:0:0:0:
64,192,27887,1,0,0:0:0:0:
192,192,27920,1,0,0:0:0:0:
448,192,27920,1,0,0:0:0:0:
320,192,27970,1,0,0:0:0:0:
64,192,28020,1,0,0:0:0:0:
320,192,28070,1,0,0:0:0:0:
192,192,28120,1,0,0:0:0:0:
64,192,28120,1,0,0:0:0:0:
448,192,28120,1,0,0:0:0:0:
320,192,28170,1,0,0:0:0:0:
192,192,28186,1,0,0:0:0:0:
64,192,28186,1,0,0:0:0:0:
448,192,28219,1,0,0:0:0:0:
192,192,28269,1,0,0:0:0:0:
320,192,28319,1,0,0:0:0:0:
448,192,28319,1,0,0:0:0:0:
64,192,28319,1,0,0:0:0:0:
192,192,28369,1,0,0:0:0:0:
320,192,28419,1,0,0:0:0:0:
448,192,28419,1,0,0:0:0:0:
192,192,28485,1,0,0:0:0:0:
64,192,28485,1,0,0:0:0:0:
320,192,28519,1,0,0:0:0:0:
448,192,28519,1,0,0:0:0:0:
192,192,28618,1,0,0:0:0:0:
64,192,28618,1,0,0:0:0:0:
448,192,28718,5,0,0:0:0:0:
320,192,28718,1,0,0:0:0:0:
64,191,28718,1,0,0:0:0:0:
192,192,28785,1,0,0:0:0:0:
448,192,28851,1,0,0:0:0:0:
320,192,28851,1,0,0:0:0:0:
64,191,28851,1,0,0:0:0:0:
192,192,28918,1,0,0:0:0:0:
320,192,28984,1,0,0:0:0:0:
448,192,28984,1,0,0:0:0:0:
64,191,29051,1,0,0:0:0:0:
192,192,29117,1,0,0:0:0:0:
448,192,29117,1,0,0:0:0:0:
320,192,29117,1,0,0:0:0:0:
64,191,29184,1,0,0:0:0:0:
320,192,29250,1,0,0:0:0:0:
192,192,29250,1,0,0:0:0:0:
448,192,29317,1,0,0:0:0:0:
64,191,29317,1,0,0:0:0:0:
192,192,29383,1,0,0:0:0:0:
320,192,29383,1,0,0:0:0:0:
448,192,29450,1,0,0:0:0:0:
320,192,29516,1,0,0:0:0:0:
192,192,29516,1,0,0:0:0:0:
64,191,29516,1,0,0:0:0:0:
448,192,29583,1,0,0:0:0:0:
320,192,29649,1,0,0:0:0:0:
192,192,29649,1,0,0:0:0:0:
64,191,29649,1,0,0:0:0:0:
448,192,29716,1,0,0:0:0:0:
192,192,29782,1,0,0:0:0:0:
64,191,29782,1,0,0:0:0:0:
320,192,29849,1,0,0:0:0:0:
448,192,29915,1,0,0:0:0:0:
192,192,29915,1,0,0:0:0:0:
64,191,29915,1,0,0:0:0:0:
320,192,29982,1,0,0:0:0:0:
448,192,30048,1,0,0:0:0:0:
64,191,30048,1,0,0:0:0:0:
192,192,30115,1,0,0:0:0:0:
320,192,30115,1,0,0:0:0:0:
448,192,30181,1,0,0:0:0:0:
64,191,30181,1,0,0:0:0:0:
192,192,30248,1,0,0:0:0:0:
64,191,30314,1,0,0:0:0:0:
448,192,30314,1,0,0:0:0:0:
320,192,30314,1,0,0:0:0:0:
192,192,30381,1,0,0:0:0:0:
320,192,30447,1,0,0:0:0:0:
448,192,30447,1,0,0:0:0:0:
64,191,30447,1,0,0:0:0:0:
192,192,30514,1,0,0:0:0:0:
64,191,30580,1,0,0:0:0:0:
448,192,30580,1,0,0:0:0:0:
320,192,30647,1,0,0:0:0:0:
192,192,30713,1,0,0:0:0:0:
64,191,30713,1,0,0:0:0:0:
448,192,30713,1,0,0:0:0:0:
320,192,30780,1,0,0:0:0:0:
192,192,30846,1,0,0:0:0:0:
64,191,30846,1,0,0:0:0:0:
320,192,30913,1,0,0:0:0:0:
64,191,30979,1,0,0:0:0:0:
448,192,30979,1,0,0:0:0:0:
192,192,31046,1,0,0:0:0:0:
448,192,31112,1,0,0:0:0:0:
320,192,31112,1,0,0:0:0:0:
64,191,31112,1,0,0:0:0:0:
192,192,31179,1,0,0:0:0:0:
64,191,31245,1,0,0:0:0:0:
320,192,31245,1,0,0:0:0:0:
448,192,31245,1,0,0:0:0:0:
192,192,31312,1,0,0:0:0:0:
448,192,31378,1,0,0:0:0:0:
320,192,31378,1,0,0:0:0:0:
64,191,31445,1,0,0:0:0:0:
448,192,31511,1,0,0:0:0:0:
192,192,31511,1,0,0:0:0:0:
320,192,31511,1,0,0:0:0:0:
64,191,31578,1,0,0:0:0:0:
320,192,31644,1,0,0:0:0:0:
448,192,31644,1,0,0:0:0:0:
192,192,31644,1,0,0:0:0:0:
64,191,31711,1,0,0:0:0:0:
448,192,31777,1,0,0:0:0:0:
192,192,31777,1,0,0:0:0:0:
320,192,31844,1,0,0:0:0:0:
448,192,31910,1,0,0:0:0:0:
64,191,31910,1,0,0:0:0:0:
192,192,31910,1,0,0:0:0:0:
320,192,31977,1,0,0:0:0:0:
448,192,32044,1,0,0:0:0:0:
192,192,32044,1,0,0:0:0:0:
64,191,32044,1,0,0:0:0:0:
320,192,32110,1,0,0:0:0:0:
192,192,32177,1,0,0:0:0:0:
64,191,32177,1,0,0:0:0:0:
448,192,32243,1,0,0:0:0:0:
320,192,32310,1,0,0:0:0:0:
192,192,32310,1,0,0:0:0:0:
64,191,32310,1,0,0:0:0:0:
448,192,32376,1,0,0:0:0:0:
64,191,32443,1,0,0:0:0:0:
192,192,32443,1,0,0:0:0:0:
448,192,32509,1,0,0:0:0:0:
320,192,32509,1,0,0:0:0:0:
192,192,32576,1,0,0:0:0:0:
64,191,32576,1,0,0:0:0:0:
320,192,32642,1,0,0:0:0:0:
448,192,32709,1,0,0:0:0:0:
192,192,32709,1,0,0:0:0:0:
64,191,32709,1,0,0:0:0:0:
320,192,32775,1,0,0:0:0:0:
192,192,32842,1,0,0:0:0:0:
64,191,32842,1,0,0:0:0:0:
448,192,32842,1,0,0:0:0:0:
320,192,32908,1,0,0:0:0:0:
448,192,32975,1,0,0:0:0:0:
64,191,32975,1,0,0:0:0:0:
192,192,33041,1,0,0:0:0:0:
320,192,33108,1,0,0:0:0:0:
448,192,33108,1,0,0:0:0:0:
64,191,33174,1,0,0:0:0:0:
192,192,33241,1,0,0:0:0:0:
448,192,33241,1,0,0:0:0:0:
64,191,33307,1,0,0:0:0:0:
320,192,33307,1,0,0:0:0:0:
192,192,33374,1,0,0:0:0:0:
448,192,33374,1,0,0:0:0:0:
320,192,33440,1,0,0:0:0:0:
448,192,33507,1,0,0:0:0:0:
192,192,33507,1,0,0:0:0:0:
64,191,33507,1,0,0:0:0:0:
320,192,33573,1,0,0:0:0:0:
448,192,33640,1,0,0:0:0:0:
192,192,33640,1,0,0:0:0:0:
64,191,33640,1,0,0:0:0:0:
320,192,33706,1,0,0:0:0:0:
192,192,33773,1,0,0:0:0:0:
448,192,33773,1,0,0:0:0:0:
64,191,33839,1,0,0:0:0:0:
192,192,33906,1,0,0:0:0:0:
320,192,33906,1,0,0:0:0:0:
448,192,33906,1,0,0:0:0:0:
64,191,33972,1,0,0:0:0:0:
192,192,34039,1,0,0:0:0:0:
320,192,34039,1,0,0:0:0:0:
448,192,34039,1,0,0:0:0:0:
64,191,34105,1,0,0:0:0:0:
448,192,34172,1,0,0:0:0:0:
320,192,34172,1,0,0:0:0:0:
192,192,34238,1,0,0:0:0:0:
448,192,34305,1,0,0:0:0:0:
64,191,34305,1,0,0:0:0:0:
320,192,34305,1,0,0:0:0:0:
192,192,34371,1,0,0:0:0:0:
320,192,34438,1,0,0:0:0:0:
448,192,34438,1,0,0:0:0:0:
64,191,34438,1,0,0:0:0:0:
192,192,34504,1,0,0:0:0:0:
320,192,34571,1,0,0:0:0:0:
64,191,34571,1,0,0:0:0:0:
448,192,34637,1,0,0:0:0:0:
320,192,34704,1,0,0:0:0:0:
192,192,34704,1,0,0:0:0:0:
64,191,34704,1,0,0:0:0:0:
448,192,34754,1,0,0:0:0:0:
192,192,34803,1,0,0:0:0:0:
448,192,34853,1,0,0:0:0:0:
320,192,34903,1,0,0:0:0:0:
64,191,34903,1,0,0:0:0:0:
192,192,34970,1,0,0:0:0:0:
448,192,34970,1,0,0:0:0:0:
320,192,35036,1,0,0:0:0:0:
64,191,35103,1,0,0:0:0:0:
448,192,35103,1,0,0:0:0:0:
192,192,35103,1,0,0:0:0:0:
320,192,35169,1,0,0:0:0:0:
64,191,35236,1,0,0:0:0:0:
448,192,35236,1,0,0:0:0:0:
192,192,35236,1,0,0:0:0:0:
320,192,35302,1,0,0:0:0:0:
64,191,35369,1,0,0:0:0:0:
448,192,35369,1,0,0:0:0:0:
192,192,35435,1,0,0:0:0:0:
320,192,35502,1,0,0:0:0:0:
448,192,35502,1,0,0:0:0:0:
64,191,35502,1,0,0:0:0:0:
192,192,35568,1,0,0:0:0:0:
320,192,35635,1,0,0:0:0:0:
448,192,35635,1,0,0:0:0:0:
192,192,35701,1,0,0:0:0:0:
64,191,35768,1,0,0:0:0:0:
448,192,35768,1,0,0:0:0:0:
320,192,35834,1,0,0:0:0:0:
448,192,35901,1,0,0:0:0:0:
192,192,35901,1,0,0:0:0:0:
64,191,35901,1,0,0:0:0:0:
320,192,35967,1,0,0:0:0:0:
448,192,36034,1,0,0:0:0:0:
192,192,36034,1,0,0:0:0:0:
64,191,36034,1,0,0:0:0:0:
320,192,36100,1,0,0:0:0:0:
192,192,36167,1,0,0:0:0:0:
64,191,36167,1,0,0:0:0:0:
448,192,36233,1,0,0:0:0:0:
320,192,36300,1,0,0:0:0:0:
64,191,36300,1,0,0:0:0:0:
192,192,36366,1,0,0:0:0:0:
448,192,36366,1,0,0:0:0:0:
320,192,36433,1,0,0:0:0:0:
448,192,36499,1,0,0:0:0:0:
192,192,36499,1,0,0:0:0:0:
64,192,36566,1,0,0:0:0:0:
320,192,36566,1,0,0:0:0:0:
192,192,36632,1,0,0:0:0:0:
64,191,36699,1,0,0:0:0:0:
320,192,36699,1,0,0:0:0:0:
448,192,36699,1,0,0:0:0:0:
192,192,36765,1,0,0:0:0:0:
64,191,36832,1,0,0:0:0:0:
448,192,36832,1,0,0:0:0:0:
320,192,36832,1,0,0:0:0:0:
192,192,36898,1,0,0:0:0:0:
64,191,36965,1,0,0:0:0:0:
448,192,37031,1,0,0:0:0:0:
192,192,37031,1,0,0:0:0:0:
320,192,37031,1,0,0:0:0:0:
64,191,37098,1,0,0:0:0:0:
448,192,37164,1,0,0:0:0:0:
192,192,37164,1,0,0:0:0:0:
320,192,37164,1,0,0:0:0:0:
64,191,37231,1,0,0:0:0:0:
448,192,37297,1,0,0:0:0:0:
192,192,37297,1,0,0:0:0:0:
320,192,37364,1,0,0:0:0:0:
64,191,37364,1,0,0:0:0:0:
448,192,37430,1,0,0:0:0:0:
320,192,37497,1,0,0:0:0:0:
64,191,37497,1,0,0:0:0:0:
192,192,37497,1,0,0:0:0:0:
448,192,37563,1,0,0:0:0:0:
320,192,37630,1,0,0:0:0:0:
192,192,37630,1,0,0:0:0:0:
64,191,37630,1,0,0:0:0:0:
448,192,37696,1,0,0:0:0:0:
320,192,37763,1,0,0:0:0:0:
192,192,37763,1,0,0:0:0:0:
64,191,37829,1,0,0:0:0:0:
192,192,37896,1,0,0:0:0:0:
320,192,37896,1,0,0:0:0:0:
448,192,37896,1,0,0:0:0:0:
64,191,37962,1,0,0:0:0:0:
192,192,38029,1,0,0:0:0:0:
320,192,38029,1,0,0:0:0:0:
448,192,38029,1,0,0:0:0:0:
64,191,38096,1,0,0:0:0:0:
448,192,38162,1,0,0:0:0:0:
192,192,38162,1,0,0:0:0:0:
320,192,38229,1,0,0:0:0:0:
448,192,38295,1,0,0:0:0:0:
192,192,38295,1,0,0:0:0:0:
64,191,38295,1,0,0:0:0:0:
320,192,38362,1,0,0:0:0:0:
448,192,38428,1,0,0:0:0:0:
192,192,38428,1,0,0:0:0:0:
64,191,38428,1,0,0:0:0:0:
320,192,38495,1,0,0:0:0:0:
192,192,38561,1,0,0:0:0:0:
64,191,38561,1,0,0:0:0:0:
448,192,38628,1,0,0:0:0:0:
320,192,38694,1,0,0:0:0:0:
192,192,38694,1,0,0:0:0:0:
64,191,38694,1,0,0:0:0:0:
448,192,38761,1,0,0:0:0:0:
64,191,38827,1,0,0:0:0:0:
320,192,38827,1,0,0:0:0:0:
192,192,38894,1,0,0:0:0:0:
448,192,38894,1,0,0:0:0:0:
64,191,38960,1,0,0:0:0:0:
320,192,38960,1,0,0:0:0:0:
192,192,39027,1,0,0:0:0:0:
320,192,39093,1,0,0:0:0:0:
64,191,39093,1,0,0:0:0:0:
448,192,39093,1,0,0:0:0:0:
192,192,39160,1,0,0:0:0:0:
64,191,39226,1,0,0:0:0:0:
320,192,39226,1,0,0:0:0:0:
448,192,39226,1,0,0:0:0:0:
192,192,39293,1,0,0:0:0:0:
320,192,39359,1,0,0:0:0:0:
448,192,39359,1,0,0:0:0:0:
64,191,39426,1,0,0:0:0:0:
192,192,39492,1,0,0:0:0:0:
320,192,39492,1,0,0:0:0:0:
448,192,39492,1,0,0:0:0:0:
64,191,39559,1,0,0:0:0:0:
192,192,39625,1,0,0:0:0:0:
448,192,39625,1,0,0:0:0:0:
64,191,39692,1,0,0:0:0:0:
320,192,39692,1,0,0:0:0:0:
192,192,39758,1,0,0:0:0:0:
448,192,39758,1,0,0:0:0:0:
320,192,39825,1,0,0:0:0:0:
64,191,39891,1,0,0:0:0:0:
448,192,39891,1,0,0:0:0:0:
192,192,39891,1,0,0:0:0:0:
320,192,39924,1,0,0:0:0:0:
192,192,39958,1,0,0:0:0:0:
64,192,39991,1,0,0:0:0:0:
448,192,40024,1,0,0:0:0:0:
192,192,40057,1,0,0:0:0:0:
320,192,40091,1,0,0:0:0:0:
64,192,40091,1,0,0:0:0:0:
448,192,40124,1,0,0:0:0:0:
192,192,40157,1,0,0:0:0:0:
320,192,40190,1,0,0:0:0:0:
64,192,40224,1,0,0:0:0:0:
192,192,40257,1,0,0:0:0:0:
320,192,40290,1,0,0:0:0:0:
448,192,40290,1,0,0:0:0:0:
64,192,40323,1,0,0:0:0:0:
192,192,40357,1,0,0:0:0:0:
448,192,40390,1,0,0:0:0:0:
320,192,40423,1,0,0:0:0:0:
192,192,40456,1,0,0:0:0:0:
64,192,40490,1,0,0:0:0:0:
448,192,40490,1,0,0:0:0:0:
320,192,40523,1,0,0:0:0:0:
64,192,40556,1,0,0:0:0:0:
192,192,40589,1,0,0:0:0:0:
320,192,40623,1,0,0:0:0:0:
448,192,40656,1,0,0:0:0:0:
192,192,40689,1,0,0:0:0:0:
64,192,40689,1,0,0:0:0:0:
320,192,40722,1,0,0:0:0:0:
448,192,40756,1,0,0:0:0:0:
192,192,40789,1,0,0:0:0:0:
320,192,40822,1,0,0:0:0:0:
64,192,40855,1,0,0:0:0:0:
192,192,40889,1,0,0:0:0:0:
448,192,40889,1,0,0:0:0:0:
320,192,40922,1,0,0:0:0:0:
64,192,40955,1,0,0:0:0:0:
448,192,40988,1,0,0:0:0:0:
320,192,41022,1,0,0:0:0:0:
192,192,41055,1,0,0:0:0:0:
64,192,41088,1,0,0:0:0:0:
448,192,41088,1,0,0:0:0:0:
320,192,41138,1,0,0:0:0:0:
192,192,41188,1,0,0:0:0:0:
64,192,41188,1,0,0:0:0:0:
320,192,41238,1,0,0:0:0:0:
448,192,41288,1,0,0:0:0:0:
64,192,41288,1,0,0:0:0:0:
192,192,41288,1,0,0:0:0:0:
320,192,41338,1,0,0:0:0:0:
448,192,41388,1,0,0:0:0:0:
64,192,41388,1,0,0:0:0:0:
192,192,41437,1,0,0:0:0:0:
64,192,41487,1,0,0:0:0:0:
448,192,41487,1,0,0:0:0:0:
320,192,41487,1,0,0:0:0:0:
320,192,41687,1,0,0:0:0:0:
320,192,41787,1,0,0:0:0:0:
320,192,41886,1,0,0:0:0:0:
320,192,42086,1,0,0:0:0:0:
320,192,42285,1,0,0:0:0:0:
320,192,42585,1,0,0:0:0:0:
320,192,42784,1,0,0:0:0:0:
320,192,42884,1,0,0:0:0:0:
320,192,42984,1,0,0:0:0:0:
192,192,43083,1,0,0:0:0:0:
448,192,43083,1,0,0:0:0:0:
64,192,43083,1,0,0:0:0:0:
192,192,43283,1,0,0:0:0:0:
192,192,43383,1,0,0:0:0:0:
192,192,43482,1,0,0:0:0:0:
192,192,43682,1,0,0:0:0:0:
192,192,43881,1,0,0:0:0:0:
192,192,44181,1,0,0:0:0:0:
192,192,44380,1,0,0:0:0:0:
192,192,44480,1,0,0:0:0:0:
192,192,44580,1,0,0:0:0:0:
64,192,44680,1,0,0:0:0:0:
320,192,44680,1,0,0:0:0:0:
448,192,44680,1,0,0:0:0:0:
320,192,44879,1,0,0:0:0:0:
320,192,44979,1,0,0:0:0:0:
192,192,45079,1,0,0:0:0:0:
64,192,45079,1,0,0:0:0:0:
448,192,45079,1,0,0:0:0:0:
192,192,45278,1,0,0:0:0:0:
64,192,45478,1,0,0:0:0:0:
320,192,45478,1,0,0:0:0:0:
448,192,45478,1,0,0:0:0:0:
320,192,45777,5,0,0:0:0:0:
64,192,45877,1,0,0:0:0:0:
192,192,45877,1,0,0:0:0:0:
448,192,45877,1,0,0:0:0:0:
320,192,45976,1,0,0:0:0:0:
192,192,46076,1,0,0:0:0:0:
64,192,46076,1,0,0:0:0:0:
192,192,46176,1,0,0:0:0:0:
64,192,46176,1,0,0:0:0:0:
64,192,46276,1,0,0:0:0:0:
320,192,46276,1,0,0:0:0:0:
448,192,46276,1,0,0:0:0:0:
320,192,46475,1,0,0:0:0:0:
448,192,46475,1,0,0:0:0:0:
64,192,46475,1,0,0:0:0:0:
320,192,46575,1,0,0:0:0:0:
192,192,46575,1,0,0:0:0:0:
192,192,46675,1,0,0:0:0:0:
64,192,46675,1,0,0:0:0:0:
448,192,46675,1,0,0:0:0:0:
448,192,46874,5,0,0:0:0:0:
64,192,46874,1,0,0:0:0:0:
192,192,46874,1,0,0:0:0:0:
320,192,46974,1,0,0:0:0:0:
448,192,46974,1,0,0:0:0:0:
320,192,47024,1,0,0:0:0:0:
448,192,47024,1,0,0:0:0:0:
192,192,47074,1,0,0:0:0:0:
64,192,47074,1,0,0:0:0:0:
64,192,47174,1,0,0:0:0:0:
192,192,47174,1,0,0:0:0:0:
320,192,47223,1,0,0:0:0:0:
64,192,47273,1,0,0:0:0:0:
448,192,47273,1,0,0:0:0:0:
192,192,47323,1,0,0:0:0:0:
320,192,47373,1,0,0:0:0:0:
448,192,47373,1,0,0:0:0:0:
192,192,47423,1,0,0:0:0:0:
64,192,47423,1,0,0:0:0:0:
320,192,47473,1,0,0:0:0:0:
448,192,47473,1,0,0:0:0:0:
192,192,47523,1,0,0:0:0:0:
64,192,47523,1,0,0:0:0:0:
320,192,47573,1,0,0:0:0:0:
448,192,47573,1,0,0:0:0:0:
192,192,47622,1,0,0:0:0:0:
64,192,47672,1,0,0:0:0:0:
448,192,47672,1,0,0:0:0:0:
320,192,47722,1,0,0:0:0:0:
192,192,47772,1,0,0:0:0:0:
448,192,47772,1,0,0:0:0:0:
64,192,47822,1,0,0:0:0:0:
192,192,47872,1,0,0:0:0:0:
320,192,47872,1,0,0:0:0:0:
448,192,47872,1,0,0:0:0:0:
192,192,47972,1,0,0:0:0:0:
320,192,47972,1,0,0:0:0:0:
448,192,47972,1,0,0:0:0:0:
192,192,48071,1,0,0:0:0:0:
448,192,48071,1,0,0:0:0:0:
64,192,48071,1,0,0:0:0:0:
192,192,48171,1,0,0:0:0:0:
64,192,48171,1,0,0:0:0:0:
448,192,48171,1,0,0:0:0:0:
64,192,48271,1,0,0:0:0:0:
448,192,48271,1,0,0:0:0:0:
320,192,48271,1,0,0:0:0:0:
320,192,48371,1,0,0:0:0:0:
448,192,48371,1,0,0:0:0:0:
64,192,48371,1,0,0:0:0:0:
192,192,48470,1,0,0:0:0:0:
64,192,48470,1,0,0:0:0:0:
448,192,48470,1,0,0:0:0:0:
192,192,48570,1,0,0:0:0:0:
320,192,48570,1,0,0:0:0:0:
448,192,48570,1,0,0:0:0:0:
192,192,48670,1,0,0:0:0:0:
64,192,48670,1,0,0:0:0:0:
320,192,48670,1,0,0:0:0:0:
448,192,48720,1,0,0:0:0:0:
64,192,48770,1,0,0:0:0:0:
192,192,48770,1,0,0:0:0:0:
320,192,48820,1,0,0:0:0:0:
64,192,48869,1,0,0:0:0:0:
448,192,48869,1,0,0:0:0:0:
192,192,48869,1,0,0:0:0:0:
64,192,48969,1,0,0:0:0:0:
448,192,48969,1,0,0:0:0:0:
448,192,49069,1,0,0:0:0:0:
64,192,49069,1,0,0:0:0:0:
320,192,49119,1,0,0:0:0:0:
192,192,49119,1,0,0:0:0:0:
64,192,49169,1,0,0:0:0:0:
448,192,49169,1,0,0:0:0:0:
320,192,49219,1,0,0:0:0:0:
192,192,49219,1,0,0:0:0:0:
448,192,49268,1,0,0:0:0:0:
64,192,49268,1,0,0:0:0:0:
192,192,49268,1,0,0:0:0:0:
320,192,49318,1,0,0:0:0:0:
448,192,49368,1,0,0:0:0:0:
64,192,49368,1,0,0:0:0:0:
192,192,49418,1,0,0:0:0:0:
320,192,49468,1,0,0:0:0:0:
448,192,49468,1,0,0:0:0:0:
64,192,49468,1,0,0:0:0:0:
320,192,49568,1,0,0:0:0:0:
64,192,49568,1,0,0:0:0:0:
448,192,49568,1,0,0:0:0:0:
192,192,49667,1,0,0:0:0:0:
64,192,49667,1,0,0:0:0:0:
448,192,49667,1,0,0:0:0:0:
192,192,49767,1,0,0:0:0:0:
448,192,49767,1,0,0:0:0:0:
64,192,49767,1,0,0:0:0:0:
192,192,49867,1,0,0:0:0:0:
320,192,49867,1,0,0:0:0:0:
448,192,49867,1,0,0:0:0:0:
192,192,49967,1,0,0:0:0:0:
320,192,49967,1,0,0:0:0:0:
448,192,49967,1,0,0:0:0:0:
64,192,50066,1,0,0:0:0:0:
320,192,50066,1,0,0:0:0:0:
448,192,50066,1,0,0:0:0:0:
448,192,50166,1,0,0:0:0:0:
320,192,50166,1,0,0:0:0:0:
64,192,50166,1,0,0:0:0:0:
448,192,50266,1,0,0:0:0:0:
320,192,50266,1,0,0:0:0:0:
192,192,50299,1,0,0:0:0:0:
64,192,50333,1,0,0:0:0:0:
448,192,50366,1,0,0:0:0:0:
320,192,50399,1,0,0:0:0:0:
192,192,50432,1,0,0:0:0:0:
64,192,50466,1,0,0:0:0:0:
320,192,50466,1,0,0:0:0:0:
448,192,50466,1,0,0:0:0:0:
192,192,50515,1,0,0:0:0:0:
64,192,50565,1,0,0:0:0:0:
448,192,50565,1,0,0:0:0:0:
192,192,50665,1,0,0:0:0:0:
64,192,50665,1,0,0:0:0:0:
448,192,50665,1,0,0:0:0:0:
320,192,50665,1,0,0:0:0:0:
64,192,50765,1,0,0:0:0:0:
192,192,50765,1,0,0:0:0:0:
320,192,50765,1,0,0:0:0:0:
448,192,50765,1,0,0:0:0:0:
448,192,50865,1,0,0:0:0:0:
64,192,50865,1,0,0:0:0:0:
192,192,50914,1,0,0:0:0:0:
320,192,50914,1,0,0:0:0:0:
64,192,50964,1,0,0:0:0:0:
448,192,50964,1,0,0:0:0:0:
192,192,51014,1,0,0:0:0:0:
64,192,51064,1,0,0:0:0:0:
448,192,51064,1,0,0:0:0:0:
320,192,51064,1,0,0:0:0:0:
64,192,51164,1,0,0:0:0:0:
320,192,51164,1,0,0:0:0:0:
448,192,51164,1,0,0:0:0:0:
192,192,51264,1,0,0:0:0:0:
192,192,51363,1,0,0:0:0:0:
64,192,51463,1,0,0:0:0:0:
320,192,51463,1,0,0:0:0:0:
448,192,51463,1,0,0:0:0:0:
192,192,51563,1,0,0:0:0:0:
64,192,51563,1,0,0:0:0:0:
192,192,51663,1,0,0:0:0:0:
320,192,51663,1,0,0:0:0:0:
192,192,51762,1,0,0:0:0:0:
64,192,51762,1,0,0:0:0:0:
448,192,51762,1,0,0:0:0:0:
320,192,51862,1,0,0:0:0:0:
448,192,51862,1,0,0:0:0:0:
320,192,51962,1,0,0:0:0:0:
192,192,51962,1,0,0:0:0:0:
64,192,52062,1,0,0:0:0:0:
320,192,52062,1,0,0:0:0:0:
448,192,52062,1,0,0:0:0:0:
64,192,52161,1,0,0:0:0:0:
192,192,52161,1,0,0:0:0:0:
448,192,52261,1,0,0:0:0:0:
192,192,52261,1,0,0:0:0:0:
320,192,52361,1,0,0:0:0:0:
64,192,52361,1,0,0:0:0:0:
448,192,52361,1,0,0:0:0:0:
320,192,52461,1,0,0:0:0:0:
64,192,52461,1,0,0:0:0:0:
192,192,52461,1,0,0:0:0:0:
448,192,52461,1,0,0:0:0:0:
192,192,52560,1,0,0:0:0:0:
64,192,52560,1,0,0:0:0:0:
64,192,52660,1,0,0:0:0:0:
320,192,52660,1,0,0:0:0:0:
448,192,52660,1,0,0:0:0:0:
64,192,52793,1,0,0:0:0:0:
192,192,52793,1,0,0:0:0:0:
320,192,52793,1,0,0:0:0:0:
192,192,52926,1,0,0:0:0:0:
320,192,52926,1,0,0:0:0:0:
448,192,52926,1,0,0:0:0:0:
64,192,53059,1,0,0:0:0:0:
448,192,53059,1,0,0:0:0:0:
320,192,53059,1,0,0:0:0:0:
192,192,53192,1,0,0:0:0:0:
320,192,53192,1,0,0:0:0:0:
448,192,53192,1,0,0:0:0:0:
320,192,53325,1,0,0:0:0:0:
192,192,53325,1,0,0:0:0:0:
64,192,53325,1,0,0:0:0:0:
64,192,53458,1,0,0:0:0:0:
192,192,53458,1,0,0:0:0:0:
320,192,53458,1,0,0:0:0:0:
448,192,53458,1,0,0:0:0:0:
320,192,53558,1,0,0:0:0:0:
448,192,53558,1,0,0:0:0:0:
192,192,53658,1,0,0:0:0:0:
64,192,53658,1,0,0:0:0:0:
448,192,53658,1,0,0:0:0:0:
64,192,53857,1,0,0:0:0:0:
320,192,53857,1,0,0:0:0:0:
64,192,53924,1,0,0:0:0:0:
320,192,53924,1,0,0:0:0:0:
64,192,53990,1,0,0:0:0:0:
320,192,53990,1,0,0:0:0:0:
192,192,54057,1,0,0:0:0:0:
448,192,54057,1,0,0:0:0:0:
192,192,54123,1,0,0:0:0:0:
448,192,54123,1,0,0:0:0:0:
192,192,54190,1,0,0:0:0:0:
448,192,54190,1,0,0:0:0:0:
320,192,54256,1,0,0:0:0:0:
448,192,54256,1,0,0:0:0:0:
192,192,54256,1,0,0:0:0:0:
64,192,54256,1,0,0:0:0:0:
192,192,54356,1,0,0:0:0:0:
64,192,54356,1,0,0:0:0:0:
448,192,54356,1,0,0:0:0:0:
320,192,54406,1,0,0:0:0:0:
192,192,54456,1,0,0:0:0:0:
448,192,54456,1,0,0:0:0:0:
64,192,54456,1,0,0:0:0:0:
64,192,54556,1,0,0:0:0:0:
320,192,54556,1,0,0:0:0:0:
448,192,54556,1,0,0:0:0:0:
192,192,54655,1,0,0:0:0:0:
64,192,54655,1,0,0:0:0:0:
320,192,54655,1,0,0:0:0:0:
448,192,54655,1,0,0:0:0:0:
320,192,54755,1,0,0:0:0:0:
192,192,54755,1,0,0:0:0:0:
448,192,54755,1,0,0:0:0:0:
64,192,54805,1,0,0:0:0:0:
192,192,54855,1,0,0:0:0:0:
320,192,54855,1,0,0:0:0:0:
448,192,54855,1,0,0:0:0:0:
64,192,54905,1,0,0:0:0:0:
320,192,54955,1,0,0:0:0:0:
448,192,54955,1,0,0:0:0:0:
192,192,55005,1,0,0:0:0:0:
64,192,55054,1,0,0:0:0:0:
448,192,55054,1,0,0:0:0:0:
320,192,55054,1,0,0:0:0:0:
192,192,55104,1,0,0:0:0:0:
64,192,55154,1,0,0:0:0:0:
448,192,55154,1,0,0:0:0:0:
320,192,55204,1,0,0:0:0:0:
192,192,55204,1,0,0:0:0:0:
448,192,55254,1,0,0:0:0:0:
64,192,55254,1,0,0:0:0:0:
320,192,55304,1,0,0:0:0:0:
192,192,55354,1,0,0:0:0:0:
64,192,55354,1,0,0:0:0:0:
448,192,55404,1,0,0:0:0:0:
320,192,55453,1,0,0:0:0:0:
192,192,55453,1,0,0:0:0:0:
64,192,55453,1,0,0:0:0:0:
64,192,55553,1,0,0:0:0:0:
192,192,55553,1,0,0:0:0:0:
320,192,55603,1,0,0:0:0:0:
448,192,55603,1,0,0:0:0:0:
192,192,55653,1,0,0:0:0:0:
64,192,55653,1,0,0:0:0:0:
448,192,55653,1,0,0:0:0:0:
320,192,55753,1,0,0:0:0:0:
192,192,55753,1,0,0:0:0:0:
192,192,55852,1,0,0:0:0:0:
64,192,55852,1,0,0:0:0:0:
320,192,55852,1,0,0:0:0:0:
448,192,55852,1,0,0:0:0:0:
320,192,55952,1,0,0:0:0:0:
448,192,55952,1,0,0:0:0:0:
64,192,55952,1,0,0:0:0:0:
320,192,56052,1,0,0:0:0:0:
448,192,56052,1,0,0:0:0:0:
64,192,56052,1,0,0:0:0:0:
192,192,56152,1,0,0:0:0:0:
320,192,56152,1,0,0:0:0:0:
448,192,56152,1,0,0:0:0:0:
192,192,56252,1,0,0:0:0:0:
320,192,56252,1,0,0:0:0:0:
448,192,56252,1,0,0:0:0:0:
64,192,56252,1,0,0:0:0:0:
64,192,56351,1,0,0:0:0:0:
448,192,56351,1,0,0:0:0:0:
192,192,56351,1,0,0:0:0:0:
64,192,56451,1,0,0:0:0:0:
320,192,56451,1,0,0:0:0:0:
192,192,56451,1,0,0:0:0:0:
448,192,56451,1,0,0:0:0:0:
64,192,56551,1,0,0:0:0:0:
320,192,56551,1,0,0:0:0:0:
448,192,56551,1,0,0:0:0:0:
448,192,56651,1,0,0:0:0:0:
64,192,56651,1,0,0:0:0:0:
320,192,56684,1,0,0:0:0:0:
192,192,56717,1,0,0:0:0:0:
448,192,56750,1,0,0:0:0:0:
320,192,56784,1,0,0:0:0:0:
192,192,56817,1,0,0:0:0:0:
64,192,56850,1,0,0:0:0:0:
448,192,56850,1,0,0:0:0:0:
320,192,56900,1,0,0:0:0:0:
192,192,56950,1,0,0:0:0:0:
64,192,56950,1,0,0:0:0:0:
320,192,57000,1,0,0:0:0:0:
448,192,57000,1,0,0:0:0:0:
192,192,57050,1,0,0:0:0:0:
64,192,57050,1,0,0:0:0:0:
64,192,57149,1,0,0:0:0:0:
192,192,57149,1,0,0:0:0:0:
320,192,57199,1,0,0:0:0:0:
64,192,57249,1,0,0:0:0:0:
192,192,57249,1,0,0:0:0:0:
448,192,57249,1,0,0:0:0:0:
320,192,57299,1,0,0:0:0:0:
448,192,57349,1,0,0:0:0:0:
64,192,57349,1,0,0:0:0:0:
192,192,57399,1,0,0:0:0:0:
320,192,57449,1,0,0:0:0:0:
448,192,57449,1,0,0:0:0:0:
64,192,57449,1,0,0:0:0:0:
448,192,57548,1,0,0:0:0:0:
192,192,57548,1,0,0:0:0:0:
64,192,57648,1,0,0:0:0:0:
320,192,57648,1,0,0:0:0:0:
448,192,57648,1,0,0:0:0:0:
192,192,57748,1,0,0:0:0:0:
64,192,57848,1,0,0:0:0:0:
192,192,57848,1,0,0:0:0:0:
448,192,57848,1,0,0:0:0:0:
320,192,57848,1,0,0:0:0:0:
320,192,57947,1,0,0:0:0:0:
192,192,58047,1,0,0:0:0:0:
64,192,58047,1,0,0:0:0:0:
320,192,58147,1,0,0:0:0:0:
64,192,58247,1,0,0:0:0:0:
320,192,58247,1,0,0:0:0:0:
64,192,58346,1,0,0:0:0:0:
64,192,58446,1,0,0:0:0:0:
320,192,58446,1,0,0:0:0:0:
448,192,58446,1,0,0:0:0:0:
448,192,58546,1,0,0:0:0:0:
192,192,58546,1,0,0:0:0:0:
320,192,58646,1,0,0:0:0:0:
64,192,58646,1,0,0:0:0:0:
192,192,58646,1,0,0:0:0:0:
448,192,58646,1,0,0:0:0:0:
320,192,58845,1,0,0:0:0:0:
64,192,58845,1,0,0:0:0:0:
192,192,59045,1,0,0:0:0:0:
64,192,59045,1,0,0:0:0:0:
320,192,59045,1,0,0:0:0:0:
448,192,59045,1,0,0:0:0:0:
192,192,59144,1,0,0:0:0:0:
448,192,59144,1,0,0:0:0:0:
320,192,59244,1,0,0:0:0:0:
448,192,59244,1,0,0:0:0:0:
64,192,59244,1,0,0:0:0:0:
192,192,59344,1,0,0:0:0:0:
64,192,59444,1,0,0:0:0:0:
448,192,59444,1,0,0:0:0:0:
320,192,59444,1,0,0:0:0:0:
192,192,59544,1,0,0:0:0:0:
320,192,59643,1,0,0:0:0:0:
448,192,59643,1,0,0:0:0:0:
320,192,59743,1,0,0:0:0:0:
448,192,59743,1,0,0:0:0:0:
192,192,59843,1,0,0:0:0:0:
64,192,59843,1,0,0:0:0:0:
448,192,59843,1,0,0:0:0:0:
320,192,59943,1,0,0:0:0:0:
192,192,60042,1,0,0:0:0:0:
64,192,60042,1,0,0:0:0:0:
192,192,60142,1,0,0:0:0:0:
64,192,60142,1,0,0:0:0:0:
192,192,60192,1,0,0:0:0:0:
64,192,60192,1,0,0:0:0:0:
320,192,60242,1,0,0:0:0:0:
448,192,60242,1,0,0:0:0:0:
320,192,60308,1,0,0:0:0:0:
448,192,60308,1,0,0:0:0:0:
320,192,60375,1,0,0:0:0:0:
448,192,60375,1,0,0:0:0:0:
64,192,60441,1,0,0:0:0:0:
192,192,60441,1,0,0:0:0:0:
448,192,60441,1,0,0:0:0:0:
192,192,60508,1,0,0:0:0:0:
64,192,60508,1,0,0:0:0:0:
64,192,60574,1,0,0:0:0:0:
192,192,60574,1,0,0:0:0:0:
64,192,60641,1,0,0:0:0:0:
320,192,60641,1,0,0:0:0:0:
448,192,60641,1,0,0:0:0:0:
64,192,60741,1,0,0:0:0:0:
320,192,60741,1,0,0:0:0:0:
192,192,60741,1,0,0:0:0:0:
192,192,60840,1,0,0:0:0:0:
320,192,60840,1,0,0:0:0:0:
448,192,60840,1,0,0:0:0:0:
192,192,60940,1,0,0:0:0:0:
64,192,60940,1,0,0:0:0:0:
448,192,60940,1,0,0:0:0:0:
320,192,61040,1,0,0:0:0:0:
448,192,61040,1,0,0:0:0:0:
64,192,61040,1,0,0:0:0:0:
64,192,61140,1,0,0:0:0:0:
192,192,61140,1,0,0:0:0:0:
448,192,61140,1,0,0:0:0:0:
64,192,61239,1,0,0:0:0:0:
192,192,61264,1,0,0:0:0:0:
320,192,61289,1,0,0:0:0:0:
448,192,61314,1,0,0:0:0:0:
64,192,61339,1,0,0:0:0:0:
192,192,61372,1,0,0:0:0:0:
320,192,61406,1,0,0:0:0:0:
448,192,61439,1,0,0:0:0:0:
192,192,61439,1,0,0:0:0:0:
64,192,61439,1,0,0:0:0:0:
320,192,61489,1,0,0:0:0:0:
448,192,61539,1,0,0:0:0:0:
64,192,61539,1,0,0:0:0:0:
192,192,61589,1,0,0:0:0:0:
320,192,61589,1,0,0:0:0:0:
64,192,61638,1,0,0:0:0:0:
448,192,61638,1,0,0:0:0:0:
192,192,61688,1,0,0:0:0:0:
320,192,61738,1,0,0:0:0:0:
448,192,61738,1,0,0:0:0:0:
192,192,61788,1,0,0:0:0:0:
64,192,61788,1,0,0:0:0:0:
320,192,61838,1,0,0:0:0:0:
448,192,61838,1,0,0:0:0:0:
320,192,61938,1,0,0:0:0:0:
448,192,61938,1,0,0:0:0:0:
320,192,61988,1,0,0:0:0:0:
448,192,61988,1,0,0:0:0:0:
192,192,62037,1,0,0:0:0:0:
64,192,62037,1,0,0:0:0:0:
64,192,62137,1,0,0:0:0:0:
192,192,62137,1,0,0:0:0:0:
64,192,62237,1,0,0:0:0:0:
320,192,62237,1,0,0:0:0:0:
448,192,62237,1,0,0:0:0:0:
64,192,62337,1,0,0:0:0:0:
448,192,62337,1,0,0:0:0:0:
320,192,62337,1,0,0:0:0:0:
192,192,62387,1,0,0:0:0:0:
448,192,62437,1,0,0:0:0:0:
320,192,62437,1,0,0:0:0:0:
64,192,62437,1,0,0:0:0:0:
320,192,62536,1,0,0:0:0:0:
192,192,62536,1,0,0:0:0:0:
192,192,62636,1,0,0:0:0:0:
448,192,62636,1,0,0:0:0:0:
64,192,62636,1,0,0:0:0:0:
320,192,62686,1,0,0:0:0:0:
64,192,62736,1,0,0:0:0:0:
192,192,62736,1,0,0:0:0:0:
448,192,62786,1,0,0:0:0:0:
192,192,62836,1,0,0:0:0:0:
64,192,62836,1,0,0:0:0:0:
320,192,62836,1,0,0:0:0:0:
448,192,62885,1,0,0:0:0:0:
320,192,62935,1,0,0:0:0:0:
64,192,62935,1,0,0:0:0:0:
192,192,62985,1,0,0:0:0:0:
64,192,63035,1,0,0:0:0:0:
320,192,63035,1,0,0:0:0:0:
448,192,63035,1,0,0:0:0:0:
320,192,63102,1,0,0:0:0:0:
448,192,63102,1,0,0:0:0:0:
320,192,63168,1,0,0:0:0:0:
448,192,63168,1,0,0:0:0:0:
192,192,63235,1,0,0:0:0:0:
64,192,63235,1,0,0:0:0:0:
448,192,63235,1,0,0:0:0:0:
320,192,63301,1,0,0:0:0:0:
64,192,63301,1,0,0:0:0:0:
192,192,63368,1,0,0:0:0:0:
448,192,63368,1,0,0:0:0:0:
320,192,63434,1,0,0:0:0:0:
448,192,63434,1,0,0:0:0:0:
64,192,63434,1,0,0:0:0:0:
64,192,63501,1,0,0:0:0:0:
64,192,63567,1,0,0:0:0:0:
448,192,63634,1,0,0:0:0:0:
192,192,63634,1,0,0:0:0:0:
448,192,63700,1,0,0:0:0:0:
448,192,63767,1,0,0:0:0:0:
320,192,63833,1,0,0:0:0:0:
192,192,63833,1,0,0:0:0:0:
64,192,63833,1,0,0:0:0:0:
320,192,63933,1,0,0:0:0:0:
192,192,63933,1,0,0:0:0:0:
64,192,63933,1,0,0:0:0:0:
64,192,64033,1,0,0:0:0:0:
192,192,64033,1,0,0:0:0:0:
320,192,64033,1,0,0:0:0:0:
320,192,64132,1,0,0:0:0:0:
64,192,64132,1,0,0:0:0:0:
448,192,64132,1,0,0:0:0:0:
64,192,64282,1,0,0:0:0:0:
448,192,64282,1,0,0:0:0:0:
64,192,64332,1,0,0:0:0:0:
64,192,64382,1,0,0:0:0:0:
448,192,64432,1,0,0:0:0:0:
192,192,64432,1,0,0:0:0:0:
320,192,64432,1,0,0:0:0:0:
192,192,64631,1,0,0:0:0:0:
448,192,64631,1,0,0:0:0:0:
64,192,64631,1,0,0:0:0:0:
64,192,64831,1,0,0:0:0:0:
448,192,64831,1,0,0:0:0:0:
64,192,65030,1,0,0:0:0:0:
448,192,65030,1,0,0:0:0:0:
64,192,65230,1,0,0:0:0:0:
448,192,65230,1,0,0:0:0:0:
320,192,65429,5,0,0:0:0:0:
64,192,65429,1,0,0:0:0:0:
448,192,65429,1,0,0:0:0:0:
64,192,65529,1,0,0:0:0:0:
192,192,65529,1,0,0:0:0:0:
192,192,65629,1,0,0:0:0:0:
64,192,65629,1,0,0:0:0:0:
64,192,65729,1,0,0:0:0:0:
320,192,65729,1,0,0:0:0:0:
448,192,65729,1,0,0:0:0:0:
192,192,65828,1,0,0:0:0:0:
320,192,65828,1,0,0:0:0:0:
320,192,65928,1,0,0:0:0:0:
192,192,65928,1,0,0:0:0:0:
64,192,66028,1,0,0:0:0:0:
192,192,66028,1,0,0:0:0:0:
448,192,66028,1,0,0:0:0:0:
320,192,66128,1,0,0:0:0:0:
448,192,66128,1,0,0:0:0:0:
448,192,66227,1,0,0:0:0:0:
64,192,66227,1,0,0:0:0:0:
320,192,66227,1,0,0:0:0:0:
192,192,66227,1,0,0:0:0:0:
64,192,66327,1,0,0:0:0:0:
448,192,66327,1,0,0:0:0:0:
320,192,66427,1,0,0:0:0:0:
448,192,66427,1,0,0:0:0:0:
320,192,66527,1,0,0:0:0:0:
448,192,66527,1,0,0:0:0:0:
192,192,66576,1,0,0:0:0:0:
64,192,66576,1,0,0:0:0:0:
320,192,66626,1,0,0:0:0:0:
448,192,66626,1,0,0:0:0:0:
192,192,66726,1,0,0:0:0:0:
320,192,66726,1,0,0:0:0:0:
192,192,66826,1,0,0:0:0:0:
64,192,66826,1,0,0:0:0:0:
64,192,66926,1,0,0:0:0:0:
448,192,66926,1,0,0:0:0:0:
320,192,67025,1,0,0:0:0:0:
448,192,67025,1,0,0:0:0:0:
192,192,67025,1,0,0:0:0:0:
64,192,67025,1,0,0:0:0:0:
320,192,67125,1,0,0:0:0:0:
448,192,67125,1,0,0:0:0:0:
64,192,67125,1,0,0:0:0:0:
192,192,67225,1,0,0:0:0:0:
64,192,67225,1,0,0:0:0:0:
320,192,67225,1,0,0:0:0:0:
448,192,67225,1,0,0:0:0:0:
192,192,67325,1,0,0:0:0:0:
64,192,67325,1,0,0:0:0:0:
448,192,67325,1,0,0:0:0:0:
320,192,67325,1,0,0:0:0:0:
192,192,67424,1,0,0:0:0:0:
64,192,67424,1,0,0:0:0:0:
448,192,67424,1,0,0:0:0:0:
192,192,67524,1,0,0:0:0:0:
320,192,67524,1,0,0:0:0:0:
448,192,67524,1,0,0:0:0:0:
64,192,67524,1,0,0:0:0:0:
192,192,67624,1,0,0:0:0:0:
320,192,67624,1,0,0:0:0:0:
448,192,67624,1,0,0:0:0:0:
64,192,67724,1,0,0:0:0:0:
192,192,67724,1,0,0:0:0:0:
448,192,67724,1,0,0:0:0:0:
64,192,67823,1,0,0:0:0:0:
448,192,67823,1,0,0:0:0:0:
192,192,67823,1,0,0:0:0:0:
320,192,67873,1,0,0:0:0:0:
64,192,67923,1,0,0:0:0:0:
192,192,67923,1,0,0:0:0:0:
320,192,67973,1,0,0:0:0:0:
448,192,67973,1,0,0:0:0:0:
192,192,68023,1,0,0:0:0:0:
64,192,68023,1,0,0:0:0:0:
320,192,68073,1,0,0:0:0:0:
448,192,68123,1,0,0:0:0:0:
64,192,68123,1,0,0:0:0:0:
192,192,68123,1,0,0:0:0:0:
320,192,68173,1,0,0:0:0:0:
448,192,68223,1,0,0:0:0:0:
64,192,68223,1,0,0:0:0:0:
192,192,68223,1,0,0:0:0:0:
448,192,68322,1,0,0:0:0:0:
320,192,68322,1,0,0:0:0:0:
192,192,68372,1,0,0:0:0:0:
64,192,68372,1,0,0:0:0:0:
448,192,68422,1,0,0:0:0:0:
320,192,68422,1,0,0:0:0:0:
64,192,68522,1,0,0:0:0:0:
448,192,68522,1,0,0:0:0:0:
64,192,68622,1,0,0:0:0:0:
192,192,68622,1,0,0:0:0:0:
320,192,68622,1,0,0:0:0:0:
448,192,68622,1,0,0:0:0:0:
320,192,68721,1,0,0:0:0:0:
192,192,68721,1,0,0:0:0:0:
64,192,68721,1,0,0:0:0:0:
64,192,68821,1,0,0:0:0:0:
192,192,68821,1,0,0:0:0:0:
320,192,68821,1,0,0:0:0:0:
192,192,68921,1,0,0:0:0:0:
320,192,68921,1,0,0:0:0:0:
448,192,68921,1,0,0:0:0:0:
64,192,68921,1,0,0:0:0:0:
192,192,69021,1,0,0:0:0:0:
448,192,69021,1,0,0:0:0:0:
320,192,69021,1,0,0:0:0:0:
320,192,69120,1,0,0:0:0:0:
64,192,69120,1,0,0:0:0:0:
448,192,69120,1,0,0:0:0:0:
64,192,69220,1,0,0:0:0:0:
192,192,69220,1,0,0:0:0:0:
320,192,69220,1,0,0:0:0:0:
448,192,69220,1,0,0:0:0:0:
64,192,69320,1,0,0:0:0:0:
192,192,69320,1,0,0:0:0:0:
320,192,69320,1,0,0:0:0:0:
64,192,69420,1,0,0:0:0:0:
448,192,69420,1,0,0:0:0:0:
192,192,69445,1,0,0:0:0:0:
320,192,69469,1,0,0:0:0:0:
448,192,69494,1,0,0:0:0:0:
64,192,69519,1,0,0:0:0:0:
192,192,69544,1,0,0:0:0:0:
448,192,69569,1,0,0:0:0:0:
320,192,69594,1,0,0:0:0:0:
64,192,69619,1,0,0:0:0:0:
192,192,69619,1,0,0:0:0:0:
320,192,69669,1,0,0:0:0:0:
448,192,69669,1,0,0:0:0:0:
192,192,69719,1,0,0:0:0:0:
64,192,69719,1,0,0:0:0:0:
64,192,69819,1,0,0:0:0:0:
320,192,69819,1,0,0:0:0:0:
448,192,69819,1,0,0:0:0:0:
192,192,69819,1,0,0:0:0:0:
448,192,69918,1,0,0:0:0:0:
320,192,69918,1,0,0:0:0:0:
192,192,69968,1,0,0:0:0:0:
64,192,69968,1,0,0:0:0:0:
320,192,70018,1,0,0:0:0:0:
448,192,70018,1,0,0:0:0:0:
64,192,70068,1,0,0:0:0:0:
192,192,70118,1,0,0:0:0:0:
448,192,70118,1,0,0:0:0:0:
320,192,70168,1,0,0:0:0:0:
64,192,70218,1,0,0:0:0:0:
192,192,70218,1,0,0:0:0:0:
448,192,70218,1,0,0:0:0:0:
192,192,70317,1,0,0:0:0:0:
448,192,70317,1,0,0:0:0:0:
320,192,70317,1,0,0:0:0:0:
192,192,70417,1,0,0:0:0:0:
320,192,70417,1,0,0:0:0:0:
448,192,70417,1,0,0:0:0:0:
64,192,70517,1,0,0:0:0:0:
448,192,70517,1,0,0:0:0:0:
192,192,70517,1,0,0:0:0:0:
320,192,70517,1,0,0:0:0:0:
64,192,70617,1,0,0:0:0:0:
192,192,70617,1,0,0:0:0:0:
448,192,70617,1,0,0:0:0:0:
320,192,70617,1,0,0:0:0:0:
64,192,70716,1,0,0:0:0:0:
448,192,70716,1,0,0:0:0:0:
192,192,70816,1,0,0:0:0:0:
64,192,70816,1,0,0:0:0:0:
320,192,70816,1,0,0:0:0:0:
448,192,70816,1,0,0:0:0:0:
192,192,70916,1,0,0:0:0:0:
320,192,70916,1,0,0:0:0:0:
448,192,70916,1,0,0:0:0:0:
64,192,70916,1,0,0:0:0:0:
192,192,71016,1,0,0:0:0:0:
448,192,71016,1,0,0:0:0:0:
64,192,71016,1,0,0:0:0:0:
320,192,71115,1,0,0:0:0:0:
192,192,71115,1,0,0:0:0:0:
448,192,71115,1,0,0:0:0:0:
64,192,71115,1,0,0:0:0:0:
320,192,71215,1,0,0:0:0:0:
448,192,71215,1,0,0:0:0:0:
64,192,71215,1,0,0:0:0:0:
192,192,71315,1,0,0:0:0:0:
320,192,71315,1,0,0:0:0:0:
64,192,71315,1,0,0:0:0:0:
448,192,71315,1,0,0:0:0:0:
64,192,71415,1,0,0:0:0:0:
448,192,71415,1,0,0:0:0:0:
192,192,71465,1,0,0:0:0:0:
320,192,71465,1,0,0:0:0:0:
64,192,71515,1,0,0:0:0:0:
448,192,71515,1,0,0:0:0:0:
320,192,71564,1,0,0:0:0:0:
192,192,71614,1,0,0:0:0:0:
64,192,71614,1,0,0:0:0:0:
448,192,71614,1,0,0:0:0:0:
64,192,71714,1,0,0:0:0:0:
192,192,71714,1,0,0:0:0:0:
448,192,71714,1,0,0:0:0:0:
64,192,71814,1,0,0:0:0:0:
192,192,71814,1,0,0:0:0:0:
320,192,71814,1,0,0:0:0:0:
448,192,71814,1,0,0:0:0:0:
320,192,71914,1,0,0:0:0:0:
64,192,72013,1,0,0:0:0:0:
192,192,72013,1,0,0:0:0:0:
448,192,72013,1,0,0:0:0:0:
192,192,72113,1,0,0:0:0:0:
192,192,72163,1,0,0:0:0:0:
64,192,72213,1,0,0:0:0:0:
320,192,72213,1,0,0:0:0:0:
448,192,72213,1,0,0:0:0:0:
192,192,72313,1,0,0:0:0:0:
448,192,72313,1,0,0:0:0:0:
64,192,72412,1,0,0:0:0:0:
448,192,72412,1,0,0:0:0:0:
320,192,72412,1,0,0:0:0:0:
64,192,72512,1,0,0:0:0:0:
192,192,72512,1,0,0:0:0:0:
320,192,72512,1,0,0:0:0:0:
64,192,72612,1,0,0:0:0:0:
192,192,72612,1,0,0:0:0:0:
320,192,72612,1,0,0:0:0:0:
448,192,72612,1,0,0:0:0:0:
320,192,72712,1,0,0:0:0:0:
448,192,72712,1,0,0:0:0:0:
192,192,72811,1,0,0:0:0:0:
448,192,72811,1,0,0:0:0:0:
64,192,72811,1,0,0:0:0:0:
192,192,72911,1,0,0:0:0:0:
64,192,72911,1,0,0:0:0:0:
192,192,72961,1,0,0:0:0:0:
64,192,72961,1,0,0:0:0:0:
320,192,73011,1,0,0:0:0:0:
448,192,73011,1,0,0:0:0:0:
64,192,73011,1,0,0:0:0:0:
320,192,73077,1,0,0:0:0:0:
192,192,73077,1,0,0:0:0:0:
448,192,73144,1,0,0:0:0:0:
64,192,73144,1,0,0:0:0:0:
320,192,73210,1,0,0:0:0:0:
448,192,73210,1,0,0:0:0:0:
192,192,73210,1,0,0:0:0:0:
64,192,73277,1,0,0:0:0:0:
192,192,73277,1,0,0:0:0:0:
320,192,73343,1,0,0:0:0:0:
448,192,73343,1,0,0:0:0:0:
448,192,73410,1,0,0:0:0:0:
192,192,73410,1,0,0:0:0:0:
64,192,73410,1,0,0:0:0:0:
320,192,73410,1,0,0:0:0:0:
192,192,73510,1,0,0:0:0:0:
64,192,73510,1,0,0:0:0:0:
448,192,73510,1,0,0:0:0:0:
64,192,73609,1,0,0:0:0:0:
192,192,73609,1,0,0:0:0:0:
448,192,73609,1,0,0:0:0:0:
192,192,73709,1,0,0:0:0:0:
320,192,73709,1,0,0:0:0:0:
448,192,73709,1,0,0:0:0:0:
64,192,73709,1,0,0:0:0:0:
64,192,73809,1,0,0:0:0:0:
320,192,73809,1,0,0:0:0:0:
448,192,73809,1,0,0:0:0:0:
64,192,73909,1,0,0:0:0:0:
448,192,73909,1,0,0:0:0:0:
192,192,73909,1,0,0:0:0:0:
192,192,74008,1,0,0:0:0:0:
64,192,74008,1,0,0:0:0:0:
320,192,74008,1,0,0:0:0:0:
448,192,74008,1,0,0:0:0:0:
192,192,74108,1,0,0:0:0:0:
64,192,74108,1,0,0:0:0:0:
448,192,74108,1,0,0:0:0:0:
320,192,74208,1,0,0:0:0:0:
448,192,74208,1,0,0:0:0:0:
192,192,74258,1,0,0:0:0:0:
64,192,74258,1,0,0:0:0:0:
448,192,74308,1,0,0:0:0:0:
320,192,74341,1,0,0:0:0:0:
192,192,74374,1,0,0:0:0:0:
64,192,74408,1,0,0:0:0:0:
448,192,74408,1,0,0:0:0:0:
320,192,74457,1,0,0:0:0:0:
192,192,74457,1,0,0:0:0:0:
64,192,74507,1,0,0:0:0:0:
448,192,74507,1,0,0:0:0:0:
320,192,74557,1,0,0:0:0:0:
192,192,74607,1,0,0:0:0:0:
64,192,74607,1,0,0:0:0:0:
448,192,74607,1,0,0:0:0:0:
64,192,74707,1,0,0:0:0:0:
192,192,74707,1,0,0:0:0:0:
320,192,74757,1,0,0:0:0:0:
448,192,74757,1,0,0:0:0:0:
192,192,74807,1,0,0:0:0:0:
64,192,74807,1,0,0:0:0:0:
64,192,74906,1,0,0:0:0:0:
192,192,74906,1,0,0:0:0:0:
64,192,75006,1,0,0:0:0:0:
192,192,75006,1,0,0:0:0:0:
320,192,75006,1,0,0:0:0:0:
448,192,75006,1,0,0:0:0:0:
192,192,75106,1,0,0:0:0:0:
320,192,75106,1,0,0:0:0:0:
448,192,75106,1,0,0:0:0:0:
64,192,75206,1,0,0:0:0:0:
192,192,75206,1,0,0:0:0:0:
320,192,75206,1,0,0:0:0:0:
64,192,75305,1,0,0:0:0:0:
448,192,75305,1,0,0:0:0:0:
320,192,75305,1,0,0:0:0:0:
192,192,75405,1,0,0:0:0:0:
64,192,75405,1,0,0:0:0:0:
448,192,75405,1,0,0:0:0:0:
64,192,75505,1,0,0:0:0:0:
448,192,75505,1,0,0:0:0:0:
320,192,75555,1,0,0:0:0:0:
64,192,75605,1,0,0:0:0:0:
448,192,75605,1,0,0:0:0:0:
192,192,75605,1,0,0:0:0:0:
64,192,75704,1,0,0:0:0:0:
192,192,75704,1,0,0:0:0:0:
448,192,75704,1,0,0:0:0:0:
448,192,75804,1,0,0:0:0:0:
320,192,75804,1,0,0:0:0:0:
192,192,75829,1,0,0:0:0:0:
64,192,75854,1,0,0:0:0:0:
448,192,75879,1,0,0:0:0:0:
320,192,75904,1,0,0:0:0:0:
64,192,75929,1,0,0:0:0:0:
192,192,75954,1,0,0:0:0:0:
320,192,75979,1,0,0:0:0:0:
448,192,76004,1,0,0:0:0:0:
64,192,76004,1,0,0:0:0:0:
320,192,76054,1,0,0:0:0:0:
192,192,76054,1,0,0:0:0:0:
448,192,76103,1,0,0:0:0:0:
64,192,76103,1,0,0:0:0:0:
64,192,76203,1,0,0:0:0:0:
448,192,76203,1,0,0:0:0:0:
192,192,76203,1,0,0:0:0:0:
320,192,76203,1,0,0:0:0:0:
192,192,76303,1,0,0:0:0:0:
448,192,76303,1,0,0:0:0:0:
320,192,76303,1,0,0:0:0:0:
64,192,76303,1,0,0:0:0:0:
320,192,76353,1,0,0:0:0:0:
448,192,76353,1,0,0:0:0:0:
64,192,76403,1,0,0:0:0:0:
192,192,76403,1,0,0:0:0:0:
320,192,76453,1,0,0:0:0:0:
448,192,76453,1,0,0:0:0:0:
192,192,76502,1,0,0:0:0:0:
64,192,76502,1,0,0:0:0:0:
64,192,76552,1,0,0:0:0:0:
192,192,76552,1,0,0:0:0:0:
320,192,76602,1,0,0:0:0:0:
448,192,76602,1,0,0:0:0:0:
64,192,76602,1,0,0:0:0:0:
448,192,76802,1,0,0:0:0:0:
320,192,76802,1,0,0:0:0:0:
64,192,76901,1,0,0:0:0:0:
192,192,76901,1,0,0:0:0:0:
320,192,77001,1,0,0:0:0:0:
448,192,77001,1,0,0:0:0:0:
64,192,77001,1,0,0:0:0:0:
192,192,77101,1,0,0:0:0:0:
320,192,77101,1,0,0:0:0:0:
64,192,77201,1,0,0:0:0:0:
448,192,77201,1,0,0:0:0:0:
192,192,77301,1,0,0:0:0:0:
320,192,77301,1,0,0:0:0:0:
64,192,77400,1,0,0:0:0:0:
448,192,77400,1,0,0:0:0:0:
192,192,77500,1,0,0:0:0:0:
320,192,77600,1,0,0:0:0:0:
448,192,77600,1,0,0:0:0:0:
64,192,77600,1,0,0:0:0:0:
320,192,77700,1,0,0:0:0:0:
448,192,77700,1,0,0:0:0:0:
192,192,77799,1,0,0:0:0:0:
64,192,77799,1,0,0:0:0:0:
448,192,77799,1,0,0:0:0:0:
320,192,77899,1,0,0:0:0:0:
192,192,77999,1,0,0:0:0:0:
64,192,77999,1,0,0:0:0:0:
320,192,78099,1,0,0:0:0:0:
448,192,78099,1,0,0:0:0:0:
192,192,78198,1,0,0:0:0:0:
64,192,78198,1,0,0:0:0:0:
448,192,78198,1,0,0:0:0:0:
320,192,78298,1,0,0:0:0:0:
64,192,78398,1,0,0:0:0:0:
448,192,78398,1,0,0:0:0:0:
192,192,78398,1,0,0:0:0:0:
320,192,78498,1,0,0:0:0:0:
64,192,78498,1,0,0:0:0:0:
192,192,78597,1,0,0:0:0:0:
448,192,78597,1,0,0:0:0:0:
320,192,78597,1,0,0:0:0:0:
64,192,78697,1,0,0:0:0:0:
448,192,78697,1,0,0:0:0:0:
192,192,78797,1,0,0:0:0:0:
320,192,78797,1,0,0:0:0:0:
64,192,78897,1,0,0:0:0:0:
448,192,78897,1,0,0:0:0:0:
64,192,78996,1,0,0:0:0:0:
320,192,78996,1,0,0:0:0:0:
192,192,78996,1,0,0:0:0:0:
448,192,78996,1,0,0:0:0:0:
192,192,79096,1,0,0:0:0:0:
64,192,79196,1,0,0:0:0:0:
448,192,79196,1,0,0:0:0:0:
320,192,79196,1,0,0:0:0:0:
320,192,79296,1,0,0:0:0:0:
64,192,79395,1,0,0:0:0:0:
448,192,79395,1,0,0:0:0:0:
192,192,79395,1,0,0:0:0:0:
192,192,79462,1,0,0:0:0:0:
64,192,79462,1,0,0:0:0:0:
320,192,79528,1,0,0:0:0:0:
448,192,79528,1,0,0:0:0:0:
192,192,79595,1,0,0:0:0:0:
448,192,79595,1,0,0:0:0:0:
64,192,79595,1,0,0:0:0:0:
320,192,79661,1,0,0:0:0:0:
192,192,79661,1,0,0:0:0:0:
64,192,79728,1,0,0:0:0:0:
448,192,79728,1,0,0:0:0:0:
64,192,79794,1,0,0:0:0:0:
192,192,79794,1,0,0:0:0:0:
320,192,79794,1,0,0:0:0:0:
448,192,79794,1,0,0:0:0:0:
64,192,79894,1,0,0:0:0:0:
192,192,79894,1,0,0:0:0:0:
320,192,79894,1,0,0:0:0:0:
64,192,79994,1,0,0:0:0:0:
448,192,79994,1,0,0:0:0:0:
320,192,79994,1,0,0:0:0:0:
64,192,80094,1,0,0:0:0:0:
192,192,80094,1,0,0:0:0:0:
448,192,80094,1,0,0:0:0:0:
320,192,80094,1,0,0:0:0:0:
192,192,80193,1,0,0:0:0:0:
320,192,80193,1,0,0:0:0:0:
448,192,80193,1,0,0:0:0:0:
192,192,80293,1,0,0:0:0:0:
64,192,80293,1,0,0:0:0:0:
448,192,80293,1,0,0:0:0:0:
64,192,80393,1,0,0:0:0:0:
192,192,80393,1,0,0:0:0:0:
320,192,80393,1,0,0:0:0:0:
448,192,80393,1,0,0:0:0:0:
64,192,80493,1,0,0:0:0:0:
448,192,80493,1,0,0:0:0:0:
320,192,80593,1,0,0:0:0:0:
448,192,80593,1,0,0:0:0:0:
64,192,80642,1,0,0:0:0:0:
192,192,80642,1,0,0:0:0:0:
320,192,80692,1,0,0:0:0:0:
448,192,80692,1,0,0:0:0:0:
192,192,80792,1,0,0:0:0:0:
320,192,80792,1,0,0:0:0:0:
448,192,80792,1,0,0:0:0:0:
64,192,80792,1,0,0:0:0:0:
192,192,80892,1,0,0:0:0:0:
64,192,80892,1,0,0:0:0:0:
320,192,80942,1,0,0:0:0:0:
448,192,80942,1,0,0:0:0:0:
192,192,80992,1,0,0:0:0:0:
64,192,80992,1,0,0:0:0:0:
64,192,81091,1,0,0:0:0:0:
192,192,81091,1,0,0:0:0:0:
320,192,81091,1,0,0:0:0:0:
448,192,81091,1,0,0:0:0:0:
64,192,81191,1,0,0:0:0:0:
448,192,81191,1,0,0:0:0:0:
320,192,81241,1,0,0:0:0:0:
192,192,81241,1,0,0:0:0:0:
448,192,81291,1,0,0:0:0:0:
64,192,81291,1,0,0:0:0:0:
64,192,81391,1,0,0:0:0:0:
192,192,81391,1,0,0:0:0:0:
448,192,81391,1,0,0:0:0:0:
320,192,81440,1,0,0:0:0:0:
448,192,81490,1,0,0:0:0:0:
192,192,81490,1,0,0:0:0:0:
64,192,81540,1,0,0:0:0:0:
320,192,81540,1,0,0:0:0:0:
192,192,81590,1,0,0:0:0:0:
448,192,81590,1,0,0:0:0:0:
64,192,81640,1,0,0:0:0:0:
320,192,81690,1,0,0:0:0:0:
448,192,81690,1,0,0:0:0:0:
64,192,81740,1,0,0:0:0:0:
320,192,81790,1,0,0:0:0:0:
448,192,81790,1,0,0:0:0:0:
192,192,81790,1,0,0:0:0:0:
64,192,81840,1,0,0:0:0:0:
320,192,81889,1,0,0:0:0:0:
448,192,81889,1,0,0:0:0:0:
192,192,81939,1,0,0:0:0:0:
64,192,81939,1,0,0:0:0:0:
320,192,81989,1,0,0:0:0:0:
448,192,81989,1,0,0:0:0:0:
64,192,82039,1,0,0:0:0:0:
192,192,82089,1,0,0:0:0:0:
320,192,82089,1,0,0:0:0:0:
448,192,82139,1,0,0:0:0:0:
320,192,82189,1,0,0:0:0:0:
192,192,82189,1,0,0:0:0:0:
64,192,82189,1,0,0:0:0:0:
192,192,82255,1,0,0:0:0:0:
64,192,82255,1,0,0:0:0:0:
64,192,82322,1,0,0:0:0:0:
192,192,82322,1,0,0:0:0:0:
64,192,82388,1,0,0:0:0:0:
448,192,82388,1,0,0:0:0:0:
320,192,82388,1,0,0:0:0:0:
320,192,82455,1,0,0:0:0:0:
448,192,82455,1,0,0:0:0:0:
320,192,82521,1,0,0:0:0:0:
448,192,82521,1,0,0:0:0:0:
192,192,82588,1,0,0:0:0:0:
64,192,82588,1,0,0:0:0:0:
448,192,82588,1,0,0:0:0:0:
64,192,82654,1,0,0:0:0:0:
320,192,82654,1,0,0:0:0:0:
192,192,82721,1,0,0:0:0:0:
448,192,82721,1,0,0:0:0:0:
320,192,82787,1,0,0:0:0:0:
448,192,82787,1,0,0:0:0:0:
64,192,82787,1,0,0:0:0:0:
192,192,82854,1,0,0:0:0:0:
448,192,82854,1,0,0:0:0:0:
320,192,82920,1,0,0:0:0:0:
64,192,82920,1,0,0:0:0:0:
64,192,82987,1,0,0:0:0:0:
192,192,82987,1,0,0:0:0:0:
448,192,82987,1,0,0:0:0:0:
320,192,82987,1,0,0:0:0:0:
64,192,83086,1,0,0:0:0:0:
320,192,83086,1,0,0:0:0:0:
448,192,83136,1,0,0:0:0:0:
192,192,83136,1,0,0:0:0:0:
64,192,83186,1,0,0:0:0:0:
320,192,83186,1,0,0:0:0:0:
64,192,83286,1,0,0:0:0:0:
192,192,83286,1,0,0:0:0:0:
320,192,83286,1,0,0:0:0:0:
448,192,83286,1,0,0:0:0:0:
448,192,83386,5,0,0:0:0:0:
192,192,83386,1,0,0:0:0:0:
320,192,83436,1,0,0:0:0:0:
64,192,83436,1,0,0:0:0:0:
192,192,83486,1,0,0:0:0:0:
448,192,83486,1,0,0:0:0:0:
64,192,83585,1,0,0:0:0:0:
192,192,83585,1,0,0:0:0:0:
320,192,83585,1,0,0:0:0:0:
448,192,83585,1,0,0:0:0:0:
192,192,83685,1,0,0:0:0:0:
64,192,83685,1,0,0:0:0:0:
448,192,83685,1,0,0:0:0:0:
64,192,83785,1,0,0:0:0:0:
192,192,83785,1,0,0:0:0:0:
320,192,83785,1,0,0:0:0:0:
448,192,83785,1,0,0:0:0:0:
64,192,83885,1,0,0:0:0:0:
320,192,83885,1,0,0:0:0:0:
448,192,83885,1,0,0:0:0:0:
64,192,83984,1,0,0:0:0:0:
320,192,83984,1,0,0:0:0:0:
192,192,83984,1,0,0:0:0:0:
448,192,83984,1,0,0:0:0:0:
192,192,84084,1,0,0:0:0:0:
64,192,84084,1,0,0:0:0:0:
64,192,84184,1,0,0:0:0:0:
192,192,84184,1,0,0:0:0:0:
320,192,84184,1,0,0:0:0:0:
448,192,84184,1,0,0:0:0:0:
320,192,84284,1,0,0:0:0:0:
448,192,84284,1,0,0:0:0:0:
320,192,84383,1,0,0:0:0:0:
448,192,84383,1,0,0:0:0:0:
192,192,84383,1,0,0:0:0:0:
64,192,84383,1,0,0:0:0:0:
64,192,84483,1,0,0:0:0:0:
448,192,84483,1,0,0:0:0:0:
64,192,84583,5,0,0:0:0:0:
320,192,84583,1,0,0:0:0:0:
448,192,84583,1,0,0:0:0:0:
192,192,84633,1,0,0:0:0:0:
64,192,84683,1,0,0:0:0:0:
320,192,84683,1,0,0:0:0:0:
320,192,84782,1,0,0:0:0:0:
192,192,84882,1,0,0:0:0:0:
448,192,84882,1,0,0:0:0:0:
320,192,84932,1,0,0:0:0:0:
448,192,84982,1,0,0:0:0:0:
192,192,84982,1,0,0:0:0:0:
192,192,85082,1,0,0:0:0:0:
192,192,85181,1,0,0:0:0:0:
320,192,85181,1,0,0:0:0:0:
448,192,85231,1,0,0:0:0:0:
64,192,85231,1,0,0:0:0:0:
192,192,85281,1,0,0:0:0:0:
320,192,85281,1,0,0:0:0:0:
192,192,85381,1,0,0:0:0:0:
64,192,85381,1,0,0:0:0:0:
448,192,85381,1,0,0:0:0:0:
320,192,85381,1,0,0:0:0:0:
320,192,85481,1,0,0:0:0:0:
448,192,85481,1,0,0:0:0:0:
192,192,85580,1,0,0:0:0:0:
64,192,85580,1,0,0:0:0:0:
192,192,85630,1,0,0:0:0:0:
64,192,85630,1,0,0:0:0:0:
64,192,85680,1,0,0:0:0:0:
192,192,85680,1,0,0:0:0:0:
64,192,85780,1,0,0:0:0:0:
448,192,85780,1,0,0:0:0:0:
320,192,85780,1,0,0:0:0:0:
192,192,85880,1,0,0:0:0:0:
320,192,85880,1,0,0:0:0:0:
64,192,85979,1,0,0:0:0:0:
448,192,85979,1,0,0:0:0:0:
320,192,86029,1,0,0:0:0:0:
192,192,86029,1,0,0:0:0:0:
64,192,86079,1,0,0:0:0:0:
448,192,86079,1,0,0:0:0:0:
64,192,86179,5,0,0:0:0:0:
192,192,86179,1,0,0:0:0:0:
320,192,86179,1,0,0:0:0:0:
448,192,86179,1,0,0:0:0:0:
320,192,86379,1,0,0:0:0:0:
192,192,86379,1,0,0:0:0:0:
448,192,86478,1,0,0:0:0:0:
64,192,86578,1,0,0:0:0:0:
320,192,86578,1,0,0:0:0:0:
320,192,86778,1,0,0:0:0:0:
192,192,86877,1,0,0:0:0:0:
64,192,86877,1,0,0:0:0:0:
448,192,86977,1,0,0:0:0:0:
320,192,86977,1,0,0:0:0:0:
448,192,87177,1,0,0:0:0:0:
192,192,87226,1,0,0:0:0:0:
448,192,87276,1,0,0:0:0:0:
192,192,87326,1,0,0:0:0:0:
320,192,87376,1,0,0:0:0:0:
64,192,87376,1,0,0:0:0:0:
448,192,87376,1,0,0:0:0:0:
192,192,87576,1,0,0:0:0:0:
64,192,87775,1,0,0:0:0:0:
448,192,87775,1,0,0:0:0:0:
192,192,87975,1,0,0:0:0:0:
320,192,88074,1,0,0:0:0:0:
64,192,88174,1,0,0:0:0:0:
448,192,88174,1,0,0:0:0:0:
192,192,88374,1,0,0:0:0:0:
448,192,88374,1,0,0:0:0:0:
64,192,88573,1,0,0:0:0:0:
320,192,88573,1,0,0:0:0:0:
448,192,88573,1,0,0:0:0:0:
64,192,88773,1,0,0:0:0:0:
320,192,88872,1,0,0:0:0:0:
448,192,88872,1,0,0:0:0:0:
192,192,88972,1,0,0:0:0:0:
64,192,88972,1,0,0:0:0:0:
64,192,89172,1,0,0:0:0:0:
320,192,89172,1,0,0:0:0:0:
192,192,89371,1,0,0:0:0:0:
448,192,89371,1,0,0:0:0:0:
64,192,89371,1,0,0:0:0:0:
320,192,89571,1,0,0:0:0:0:
64,192,89621,1,0,0:0:0:0:
320,192,89671,1,0,0:0:0:0:
64,192,89720,1,0,0:0:0:0:
192,192,89770,1,0,0:0:0:0:
448,192,89770,1,0,0:0:0:0:
64,192,89970,1,0,0:0:0:0:
320,192,89970,1,0,0:0:0:0:
448,192,90169,1,0,0:0:0:0:
64,192,90169,1,0,0:0:0:0:
192,192,90169,1,0,0:0:0:0:
192,192,90369,1,0,0:0:0:0:
320,192,90369,1,0,0:0:0:0:
64,192,90568,1,0,0:0:0:0:
448,192,90568,1,0,0:0:0:0:
320,192,90768,1,0,0:0:0:0:
320,192,90868,5,0,0:0:0:0:
192,192,90918,1,0,0:0:0:0:
64,192,90967,1,0,0:0:0:0:
320,192,90967,1,0,0:0:0:0:
448,192,90967,1,0,0:0:0:0:
320,192,91167,1,0,0:0:0:0:
192,192,91167,1,0,0:0:0:0:
64,192,91167,1,0,0:0:0:0:
64,192,91366,1,0,0:0:0:0:
192,192,91366,1,0,0:0:0:0:
448,192,91366,1,0,0:0:0:0:
192,192,91566,1,0,0:0:0:0:
320,192,91566,1,0,0:0:0:0:
448,192,91566,1,0,0:0:0:0:
64,192,91765,1,0,0:0:0:0:
192,192,91765,1,0,0:0:0:0:
448,192,91765,1,0,0:0:0:0:
320,192,91765,1,0,0:0:0:0:
64,192,91815,1,0,0:0:0:0:
192,192,91832,1,0,0:0:0:0:
320,192,91865,1,0,0:0:0:0:
448,192,91915,1,0,0:0:0:0:
192,192,91965,1,0,0:0:0:0:
320,192,92015,1,0,0:0:0:0:
64,192,92085,1,0,0:0:0:0:
448,192,92164,1,0,0:0:0:0:
320,192,92164,1,0,0:0:0:0:
64,192,92198,1,0,0:0:0:0:
192,192,92231,1,0,0:0:0:0:
320,192,92264,1,0,0:0:0:0:
448,192,92314,1,0,0:0:0:0:
192,192,92364,1,0,0:0:0:0:
64,192,92364,1,0,0:0:0:0:
320,192,92414,1,0,0:0:0:0:
192,192,92497,1,0,0:0:0:0:
64,192,92564,1,0,0:0:0:0:
320,192,92564,1,0,0:0:0:0:
192,192,92564,1,0,0:0:0:0:
448,192,92564,1,0,0:0:0:0:
448,192,92613,1,0,0:0:0:0:
320,192,92638,1,0,0:0:0:0:
192,192,92663,1,0,0:0:0:0:
64,192,92697,1,0,0:0:0:0:
320,192,92730,1,0,0:0:0:0:
192,192,92763,1,0,0:0:0:0:
64,192,92763,1,0,0:0:0:0:
448,192,92796,1,0,0:0:0:0:
320,192,92830,1,0,0:0:0:0:
64,192,92863,1,0,0:0:0:0:
192,192,92863,1,0,0:0:0:0:
448,192,92923,1,0,0:0:0:0:
64,192,92963,1,0,0:0:0:0:
320,192,92963,1,0,0:0:0:0:
192,192,93012,1,0,0:0:0:0:
320,192,93062,1,0,0:0:0:0:
448,192,93062,1,0,0:0:0:0:
192,192,93112,1,0,0:0:0:0:
320,192,93162,1,0,0:0:0:0:
448,192,93162,1,0,0:0:0:0:
64,192,93212,1,0,0:0:0:0:
192,192,93237,1,0,0:0:0:0:
320,192,93262,1,0,0:0:0:0:
64,192,93295,1,0,0:0:0:0:
192,192,93328,1,0,0:0:0:0:
320,192,93362,1,0,0:0:0:0:
448,192,93362,1,0,0:0:0:0:
64,192,93411,1,0,0:0:0:0:
192,192,93428,1,0,0:0:0:0:
320,192,93461,1,0,0:0:0:0:
64,192,93495,1,0,0:0:0:0:
448,192,93511,1,0,0:0:0:0:
192,192,93561,1,0,0:0:0:0:
320,192,93561,1,0,0:0:0:0:
448,192,93594,1,0,0:0:0:0:
64,192,93611,1,0,0:0:0:0:
192,192,93661,1,0,0:0:0:0:
320,192,93661,1,0,0:0:0:0:
64,192,93686,1,0,0:0:0:0:
192,192,93727,1,0,0:0:0:0:
320,192,93761,1,0,0:0:0:0:
448,192,93761,1,0,0:0:0:0:
64,192,93794,1,0,0:0:0:0:
192,192,93827,1,0,0:0:0:0:
320,192,93860,1,0,0:0:0:0:
192,192,93927,1,0,0:0:0:0:
64,192,93960,1,0,0:0:0:0:
320,192,93960,1,0,0:0:0:0:
448,192,93960,1,0,0:0:0:0:
448,192,94040,1,0,0:0:0:0:
192,192,94060,1,0,0:0:0:0:
448,192,94110,1,0,0:0:0:0:
320,192,94160,1,0,0:0:0:0:
192,192,94160,1,0,0:0:0:0:
64,192,94160,1,0,0:0:0:0:
448,192,94193,1,0,0:0:0:0:
64,192,94226,1,0,0:0:0:0:
320,192,94259,1,0,0:0:0:0:
192,192,94293,1,0,0:0:0:0:
64,192,94326,1,0,0:0:0:0:
320,192,94359,1,0,0:0:0:0:
448,192,94359,1,0,0:0:0:0:
192,192,94392,1,0,0:0:0:0:
448,192,94439,1,0,0:0:0:0:
320,192,94479,1,0,0:0:0:0:
192,192,94519,1,0,0:0:0:0:
64,192,94559,1,0,0:0:0:0:
448,192,94559,1,0,0:0:0:0:
320,192,94609,1,0,0:0:0:0:
192,192,94658,1,0,0:0:0:0:
320,192,94708,1,0,0:0:0:0:
448,192,94758,1,0,0:0:0:0:
64,192,94758,1,0,0:0:0:0:
192,192,94758,1,0,0:0:0:0:
192,192,94858,1,0,0:0:0:0:
64,192,94858,1,0,0:0:0:0:
448,192,94858,1,0,0:0:0:0:
320,192,94958,1,0,0:0:0:0:
448,192,94958,1,0,0:0:0:0:
64,192,94983,1,0,0:0:0:0:
192,192,94983,1,0,0:0:0:0:
320,192,95057,1,0,0:0:0:0:
448,192,95057,1,0,0:0:0:0:
64,192,95057,1,0,0:0:0:0:
320,192,95157,1,0,0:0:0:0:
448,192,95157,1,0,0:0:0:0:
192,192,95207,1,0,0:0:0:0:
64,192,95207,1,0,0:0:0:0:
320,192,95257,1,0,0:0:0:0:
448,192,95257,1,0,0:0:0:0:
192,192,95307,1,0,0:0:0:0:
64,192,95357,1,0,0:0:0:0:
448,192,95357,1,0,0:0:0:0:
320,192,95390,1,0,0:0:0:0:
192,192,95423,1,0,0:0:0:0:
448,192,95457,1,0,0:0:0:0:
192,192,95490,1,0,0:0:0:0:
320,192,95523,1,0,0:0:0:0:
64,192,95556,1,0,0:0:0:0:
448,192,95590,1,0,0:0:0:0:
320,192,95623,1,0,0:0:0:0:
192,192,95656,1,0,0:0:0:0:
64,192,95706,1,0,0:0:0:0:
448,192,95756,1,0,0:0:0:0:
320,192,95756,1,0,0:0:0:0:
64,192,95806,1,0,0:0:0:0:
320,192,95856,1,0,0:0:0:0:
64,192,95905,1,0,0:0:0:0:
192,192,95955,1,0,0:0:0:0:
448,192,95955,1,0,0:0:0:0:
320,192,96022,1,0,0:0:0:0:
64,192,96055,1,0,0:0:0:0:
192,192,96055,1,0,0:0:0:0:
64,192,96122,1,0,0:0:0:0:
192,192,96122,1,0,0:0:0:0:
448,192,96155,1,0,0:0:0:0:
320,192,96188,1,0,0:0:0:0:
448,192,96221,1,0,0:0:0:0:
192,192,96255,1,0,0:0:0:0:
320,192,96288,1,0,0:0:0:0:
64,192,96321,1,0,0:0:0:0:
192,192,96354,1,0,0:0:0:0:
320,192,96394,1,0,0:0:0:0:
64,192,96434,1,0,0:0:0:0:
448,192,96474,1,0,0:0:0:0:
320,192,96514,1,0,0:0:0:0:
64,192,96554,1,0,0:0:0:0:
192,192,96554,1,0,0:0:0:0:
64,192,96604,1,0,0:0:0:0:
192,192,96620,1,0,0:0:0:0:
320,192,96654,1,0,0:0:0:0:
448,192,96687,1,0,0:0:0:0:
192,192,96720,1,0,0:0:0:0:
320,192,96753,1,0,0:0:0:0:
448,192,96787,1,0,0:0:0:0:
64,192,96820,1,0,0:0:0:0:
320,192,96853,1,0,0:0:0:0:
192,192,96886,1,0,0:0:0:0:
64,192,96920,1,0,0:0:0:0:
448,192,96953,1,0,0:0:0:0:
320,192,96953,1,0,0:0:0:0:
192,192,96993,1,0,0:0:0:0:
320,192,97033,1,0,0:0:0:0:
64,192,97073,1,0,0:0:0:0:
448,192,97112,1,0,0:0:0:0:
320,192,97152,1,0,0:0:0:0:
192,192,97202,1,0,0:0:0:0:
320,192,97252,1,0,0:0:0:0:
448,192,97252,1,0,0:0:0:0:
64,192,97302,1,0,0:0:0:0:
192,192,97319,1,0,0:0:0:0:
448,192,97352,1,0,0:0:0:0:
320,192,97352,1,0,0:0:0:0:
64,192,97385,1,0,0:0:0:0:
192,192,97418,1,0,0:0:0:0:
320,192,97452,1,0,0:0:0:0:
64,192,97485,1,0,0:0:0:0:
192,192,97518,1,0,0:0:0:0:
448,192,97551,1,0,0:0:0:0:
320,192,97591,1,0,0:0:0:0:
192,192,97631,1,0,0:0:0:0:
448,192,97671,1,0,0:0:0:0:
320,192,97711,1,0,0:0:0:0:
192,192,97751,1,0,0:0:0:0:
64,192,97751,1,0,0:0:0:0:
320,192,97817,1,0,0:0:0:0:
64,192,97851,1,0,0:0:0:0:
192,192,97851,1,0,0:0:0:0:
448,192,97884,1,0,0:0:0:0:
320,192,97950,1,0,0:0:0:0:
192,192,97950,1,0,0:0:0:0:
64,192,97984,1,0,0:0:0:0:
320,192,98050,1,0,0:0:0:0:
448,192,98050,1,0,0:0:0:0:
192,192,98121,1,0,0:0:0:0:
64,192,98150,1,0,0:0:0:0:
320,192,98150,1,0,0:0:0:0:
448,192,98150,1,0,0:0:0:0:
192,192,98200,1,0,0:0:0:0:
320,192,98250,1,0,0:0:0:0:
448,192,98250,1,0,0:0:0:0:
64,192,98300,1,0,0:0:0:0:
192,192,98349,1,0,0:0:0:0:
448,192,98349,1,0,0:0:0:0:
320,192,98399,1,0,0:0:0:0:
448,192,98449,1,0,0:0:0:0:
64,192,98449,1,0,0:0:0:0:
192,192,98499,1,0,0:0:0:0:
320,192,98549,1,0,0:0:0:0:
448,192,98549,1,0,0:0:0:0:
64,192,98549,1,0,0:0:0:0:
192,192,98599,1,0,0:0:0:0:
320,192,98649,1,0,0:0:0:0:
64,192,98649,1,0,0:0:0:0:
448,192,98699,1,0,0:0:0:0:
320,192,98749,1,0,0:0:0:0:
192,192,98749,1,0,0:0:0:0:
64,192,98798,1,0,0:0:0:0:
320,192,98848,1,0,0:0:0:0:
448,192,98848,1,0,0:0:0:0:
192,192,98898,1,0,0:0:0:0:
64,192,98948,1,0,0:0:0:0:
320,192,98948,1,0,0:0:0:0:
448,192,98948,1,0,0:0:0:0:
192,192,98998,1,0,0:0:0:0:
64,192,99048,1,0,0:0:0:0:
320,192,99098,1,0,0:0:0:0:
192,192,99148,1,0,0:0:0:0:
448,192,99148,1,0,0:0:0:0:
64,192,99148,1,0,0:0:0:0:
320,192,99197,1,0,0:0:0:0:
192,192,99247,1,0,0:0:0:0:
448,192,99297,1,0,0:0:0:0:
320,192,99347,1,0,0:0:0:0:
192,192,99347,1,0,0:0:0:0:
64,192,99347,1,0,0:0:0:0:
448,192,99397,1,0,0:0:0:0:
64,192,99447,1,0,0:0:0:0:
192,192,99497,1,0,0:0:0:0:
64,192,99547,1,0,0:0:0:0:
320,192,99547,1,0,0:0:0:0:
448,192,99547,1,0,0:0:0:0:
192,192,99596,1,0,0:0:0:0:
320,192,99646,1,0,0:0:0:0:
448,192,99696,1,0,0:0:0:0:
320,192,99746,1,0,0:0:0:0:
192,192,99746,1,0,0:0:0:0:
64,192,99746,1,0,0:0:0:0:
448,192,99796,1,0,0:0:0:0:
64,192,99846,1,0,0:0:0:0:
192,192,99896,1,0,0:0:0:0:
320,192,99946,1,0,0:0:0:0:
448,192,99946,1,0,0:0:0:0:
64,192,99946,1,0,0:0:0:0:
192,192,99996,1,0,0:0:0:0:
448,192,100045,1,0,0:0:0:0:
320,192,100095,1,0,0:0:0:0:
448,192,100145,1,0,0:0:0:0:
192,192,100145,1,0,0:0:0:0:
64,192,100145,1,0,0:0:0:0:
320,192,100195,1,0,0:0:0:0:
64,192,100245,1,0,0:0:0:0:
448,192,100295,1,0,0:0:0:0:
192,192,100345,1,0,0:0:0:0:
320,192,100345,1,0,0:0:0:0:
64,192,100345,1,0,0:0:0:0:
448,192,100395,1,0,0:0:0:0:
192,192,100444,1,0,0:0:0:0:
320,192,100494,1,0,0:0:0:0:
448,192,100544,1,0,0:0:0:0:
192,192,100544,1,0,0:0:0:0:
64,192,100544,1,0,0:0:0:0:
320,192,100594,1,0,0:0:0:0:
192,192,100644,1,0,0:0:0:0:
64,192,100694,1,0,0:0:0:0:
320,192,100744,1,0,0:0:0:0:
192,192,100744,1,0,0:0:0:0:
448,192,100744,1,0,0:0:0:0:
64,192,100794,1,0,0:0:0:0:
448,192,100843,1,0,0:0:0:0:
192,192,100893,1,0,0:0:0:0:
320,192,100943,1,0,0:0:0:0:
448,192,100943,1,0,0:0:0:0:
64,192,100943,1,0,0:0:0:0:
192,192,100993,1,0,0:0:0:0:
448,192,101043,1,0,0:0:0:0:
64,192,101093,1,0,0:0:0:0:
192,192,101143,1,0,0:0:0:0:
448,192,101143,1,0,0:0:0:0:
320,192,101143,1,0,0:0:0:0:
64,192,101193,1,0,0:0:0:0:
192,192,101242,1,0,0:0:0:0:
320,192,101292,1,0,0:0:0:0:
192,192,101342,5,0,0:0:0:0:
64,192,101342,1,0,0:0:0:0:
448,192,101342,1,0,0:0:0:0:
320,192,101392,1,0,0:0:0:0:
64,192,101442,1,0,0:0:0:0:
192,192,101492,1,0,0:0:0:0:
320,192,101542,1,0,0:0:0:0:
448,192,101542,1,0,0:0:0:0:
64,192,101542,1,0,0:0:0:0:
192,192,101592,1,0,0:0:0:0:
320,192,101642,1,0,0:0:0:0:
448,192,101691,1,0,0:0:0:0:
192,192,101741,1,0,0:0:0:0:
64,192,101741,1,0,0:0:0:0:
320,192,101741,1,0,0:0:0:0:
448,192,101791,1,0,0:0:0:0:
192,192,101841,1,0,0:0:0:0:
64,192,101841,1,0,0:0:0:0:
64,192,101941,1,0,0:0:0:0:
320,192,101941,1,0,0:0:0:0:
448,192,101941,1,0,0:0:0:0:
192,192,102041,1,0,0:0:0:0:
448,192,102041,1,0,0:0:0:0:
320,192,102140,5,0,0:0:0:0:
192,192,102140,1,0,0:0:0:0:
64,192,102140,1,0,0:0:0:0:
448,192,102190,1,0,0:0:0:0:
320,192,102240,1,0,0:0:0:0:
64,192,102240,1,0,0:0:0:0:
192,192,102290,1,0,0:0:0:0:
64,192,102340,1,0,0:0:0:0:
448,192,102340,1,0,0:0:0:0:
320,192,102340,1,0,0:0:0:0:
192,192,102390,1,0,0:0:0:0:
320,192,102440,1,0,0:0:0:0:
448,192,102440,1,0,0:0:0:0:
64,192,102489,1,0,0:0:0:0:
320,192,102539,1,0,0:0:0:0:
448,192,102539,1,0,0:0:0:0:
192,192,102539,1,0,0:0:0:0:
64,192,102589,1,0,0:0:0:0:
192,192,102639,1,0,0:0:0:0:
448,192,102639,1,0,0:0:0:0:
320,192,102689,1,0,0:0:0:0:
192,192,102739,1,0,0:0:0:0:
64,192,102739,1,0,0:0:0:0:
448,192,102739,1,0,0:0:0:0:
320,192,102789,1,0,0:0:0:0:
192,192,102839,1,0,0:0:0:0:
64,192,102839,1,0,0:0:0:0:
448,192,102888,1,0,0:0:0:0:
320,192,102938,1,0,0:0:0:0:
192,192,102938,1,0,0:0:0:0:
64,192,102938,1,0,0:0:0:0:
448,192,102988,1,0,0:0:0:0:
320,192,103038,1,0,0:0:0:0:
192,192,103038,1,0,0:0:0:0:
64,192,103088,1,0,0:0:0:0:
192,192,103138,1,0,0:0:0:0:
320,192,103138,1,0,0:0:0:0:
448,192,103138,1,0,0:0:0:0:
64,192,103188,1,0,0:0:0:0:
320,192,103238,1,0,0:0:0:0:
448,192,103238,1,0,0:0:0:0:
192,192,103288,1,0,0:0:0:0:
448,192,103337,1,0,0:0:0:0:
320,192,103337,1,0,0:0:0:0:
64,192,103337,1,0,0:0:0:0:
192,192,103387,1,0,0:0:0:0:
64,192,103437,1,0,0:0:0:0:
448,192,103437,1,0,0:0:0:0:
320,192,103487,1,0,0:0:0:0:
192,192,103537,1,0,0:0:0:0:
448,192,103537,1,0,0:0:0:0:
64,192,103537,1,0,0:0:0:0:
320,192,103587,1,0,0:0:0:0:
192,192,103637,1,0,0:0:0:0:
64,192,103637,1,0,0:0:0:0:
320,192,103687,1,0,0:0:0:0:
192,192,103736,1,0,0:0:0:0:
448,192,103736,1,0,0:0:0:0:
64,192,103736,1,0,0:0:0:0:
64,192,103803,1,0,0:0:0:0:
192,192,103803,1,0,0:0:0:0:
320,192,103869,1,0,0:0:0:0:
448,192,103869,1,0,0:0:0:0:
192,192,103936,1,0,0:0:0:0:
64,192,103936,1,0,0:0:0:0:
320,192,103936,1,0,0:0:0:0:
192,192,104002,1,0,0:0:0:0:
448,192,104002,1,0,0:0:0:0:
320,192,104069,1,0,0:0:0:0:
448,192,104069,1,0,0:0:0:0:
64,192,104135,1,0,0:0:0:0:
192,192,104135,1,0,0:0:0:0:
320,192,104135,1,0,0:0:0:0:
64,192,104202,1,0,0:0:0:0:
448,192,104202,1,0,0:0:0:0:
192,192,104268,1,0,0:0:0:0:
320,192,104268,1,0,0:0:0:0:
64,192,104335,1,0,0:0:0:0:
320,192,104335,1,0,0:0:0:0:
448,192,104335,1,0,0:0:0:0:
192,192,104401,1,0,0:0:0:0:
64,192,104401,1,0,0:0:0:0:
320,192,104468,1,0,0:0:0:0:
448,192,104468,1,0,0:0:0:0:
192,192,104535,1,0,0:0:0:0:
64,192,104535,1,0,0:0:0:0:
448,192,104535,1,0,0:0:0:0:
320,192,104734,1,0,0:0:0:0:
64,192,104734,1,0,0:0:0:0:
448,192,104934,1,0,0:0:0:0:
320,192,104934,1,0,0:0:0:0:
192,192,104934,1,0,0:0:0:0:
64,192,104934,1,0,0:0:0:0:
192,192,105133,1,0,0:0:0:0:
448,192,105133,1,0,0:0:0:0:
64,192,105133,1,0,0:0:0:0:
64,192,105333,1,0,0:0:0:0:
448,192,105333,1,0,0:0:0:0:
320,192,105333,1,0,0:0:0:0:
192,192,105333,1,0,0:0:0:0:
192,192,105432,1,0,0:0:0:0:
320,192,105432,1,0,0:0:0:0:
448,192,105432,1,0,0:0:0:0:
192,192,105532,1,0,0:0:0:0:
320,192,105532,1,0,0:0:0:0:
64,192,105532,1,0,0:0:0:0:
64,192,105632,1,0,0:0:0:0:
320,192,105632,1,0,0:0:0:0:
448,192,105632,1,0,0:0:0:0:
192,192,105732,1,0,0:0:0:0:
64,192,105732,1,0,0:0:0:0:
448,192,105732,1,0,0:0:0:0:
320,192,105831,1,0,0:0:0:0:
448,192,105831,1,0,0:0:0:0:
64,192,105831,1,0,0:0:0:0:
192,192,105881,1,0,0:0:0:0:
64,192,105931,1,0,0:0:0:0:
448,192,105931,1,0,0:0:0:0:
320,192,105981,1,0,0:0:0:0:
192,192,106031,1,0,0:0:0:0:
64,192,106031,1,0,0:0:0:0:
448,192,106081,1,0,0:0:0:0:
320,192,106131,1,0,0:0:0:0:
192,192,106131,1,0,0:0:0:0:
64,192,106131,1,0,0:0:0:0:
64,192,106230,1,0,0:0:0:0:
320,192,106230,1,0,0:0:0:0:
448,192,106230,1,0,0:0:0:0:
192,192,106280,1,0,0:0:0:0:
320,192,106330,1,0,0:0:0:0:
448,192,106330,1,0,0:0:0:0:
64,192,106330,1,0,0:0:0:0:
192,192,106430,1,0,0:0:0:0:
64,192,106430,1,0,0:0:0:0:
448,192,106430,1,0,0:0:0:0:
320,192,106480,1,0,0:0:0:0:
64,192,106530,1,0,0:0:0:0:
192,192,106530,1,0,0:0:0:0:
448,192,106530,1,0,0:0:0:0:
320,192,106580,1,0,0:0:0:0:
64,192,106629,1,0,0:0:0:0:
448,192,106629,1,0,0:0:0:0:
192,192,106679,1,0,0:0:0:0:
320,192,106729,1,0,0:0:0:0:
448,192,106729,1,0,0:0:0:0:
64,192,106779,1,0,0:0:0:0:
192,192,106829,1,0,0:0:0:0:
320,192,106829,1,0,0:0:0:0:
448,192,106879,1,0,0:0:0:0:
320,192,106929,1,0,0:0:0:0:
192,192,106929,1,0,0:0:0:0:
64,192,106929,1,0,0:0:0:0:
192,192,107028,1,0,0:0:0:0:
320,192,107028,1,0,0:0:0:0:
448,192,107028,1,0,0:0:0:0:
64,192,107128,1,0,0:0:0:0:
320,192,107128,1,0,0:0:0:0:
448,192,107128,1,0,0:0:0:0:
64,192,107228,1,0,0:0:0:0:
192,192,107228,1,0,0:0:0:0:
448,192,107228,1,0,0:0:0:0:
192,192,107328,1,0,0:0:0:0:
64,192,107328,1,0,0:0:0:0:
320,192,107378,1,0,0:0:0:0:
64,192,107427,1,0,0:0:0:0:
448,192,107427,1,0,0:0:0:0:
320,192,107477,1,0,0:0:0:0:
64,192,107527,1,0,0:0:0:0:
192,192,107527,1,0,0:0:0:0:
448,192,107552,1,0,0:0:0:0:
320,192,107577,1,0,0:0:0:0:
192,192,107602,1,0,0:0:0:0:
64,192,107627,1,0,0:0:0:0:
448,192,107652,1,0,0:0:0:0:
320,192,107677,1,0,0:0:0:0:
192,192,107702,1,0,0:0:0:0:
64,192,107727,1,0,0:0:0:0:
448,192,107727,1,0,0:0:0:0:
192,192,107777,1,0,0:0:0:0:
448,192,107827,1,0,0:0:0:0:
320,192,107827,1,0,0:0:0:0:
192,192,107926,1,0,0:0:0:0:
320,192,107926,1,0,0:0:0:0:
448,192,107926,1,0,0:0:0:0:
64,192,108026,1,0,0:0:0:0:
320,192,108026,1,0,0:0:0:0:
192,192,108026,1,0,0:0:0:0:
64,192,108126,1,0,0:0:0:0:
320,192,108126,1,0,0:0:0:0:
448,192,108126,1,0,0:0:0:0:
192,192,108226,1,0,0:0:0:0:
320,192,108226,1,0,0:0:0:0:
448,192,108226,1,0,0:0:0:0:
192,192,108325,1,0,0:0:0:0:
64,192,108325,1,0,0:0:0:0:
320,192,108325,1,0,0:0:0:0:
448,192,108325,1,0,0:0:0:0:
448,192,108425,1,0,0:0:0:0:
64,192,108425,1,0,0:0:0:0:
192,192,108425,1,0,0:0:0:0:
448,192,108525,1,0,0:0:0:0:
320,192,108525,1,0,0:0:0:0:
192,192,108575,1,0,0:0:0:0:
64,192,108575,1,0,0:0:0:0:
320,192,108625,1,0,0:0:0:0:
448,192,108625,1,0,0:0:0:0:
192,192,108674,1,0,0:0:0:0:
320,192,108724,1,0,0:0:0:0:
448,192,108724,1,0,0:0:0:0:
64,192,108724,1,0,0:0:0:0:
192,192,108774,1,0,0:0:0:0:
64,192,108824,1,0,0:0:0:0:
448,192,108824,1,0,0:0:0:0:
320,192,108874,1,0,0:0:0:0:
448,192,108924,1,0,0:0:0:0:
192,192,108924,1,0,0:0:0:0:
64,192,108924,1,0,0:0:0:0:
320,192,108974,1,0,0:0:0:0:
192,192,109024,1,0,0:0:0:0:
64,192,109024,1,0,0:0:0:0:
320,192,109074,1,0,0:0:0:0:
448,192,109074,1,0,0:0:0:0:
192,192,109123,1,0,0:0:0:0:
64,192,109123,1,0,0:0:0:0:
448,192,109173,1,0,0:0:0:0:
64,192,109223,1,0,0:0:0:0:
320,192,109223,1,0,0:0:0:0:
192,192,109273,1,0,0:0:0:0:
64,192,109323,1,0,0:0:0:0:
448,192,109323,1,0,0:0:0:0:
320,192,109323,1,0,0:0:0:0:
192,192,109373,1,0,0:0:0:0:
320,192,109423,1,0,0:0:0:0:
448,192,109423,1,0,0:0:0:0:
64,192,109473,1,0,0:0:0:0:
192,192,109522,1,0,0:0:0:0:
320,192,109522,1,0,0:0:0:0:
448,192,109522,1,0,0:0:0:0:
64,192,109572,1,0,0:0:0:0:
320,192,109622,1,0,0:0:0:0:
448,192,109622,1,0,0:0:0:0:
192,192,109672,1,0,0:0:0:0:
64,192,109722,1,0,0:0:0:0:
448,192,109722,1,0,0:0:0:0:
320,192,109722,1,0,0:0:0:0:
192,192,109772,1,0,0:0:0:0:
64,192,109822,1,0,0:0:0:0:
448,192,109822,1,0,0:0:0:0:
320,192,109872,1,0,0:0:0:0:
64,192,109921,1,0,0:0:0:0:
192,192,109921,1,0,0:0:0:0:
320,192,109971,1,0,0:0:0:0:
448,192,110021,1,0,0:0:0:0:
64,192,110021,1,0,0:0:0:0:
192,192,110071,1,0,0:0:0:0:
64,192,110121,1,0,0:0:0:0:
320,192,110121,1,0,0:0:0:0:
448,192,110121,1,0,0:0:0:0:
192,192,110171,1,0,0:0:0:0:
320,192,110221,1,0,0:0:0:0:
448,192,110221,1,0,0:0:0:0:
192,192,110271,1,0,0:0:0:0:
320,192,110320,1,0,0:0:0:0:
448,192,110320,1,0,0:0:0:0:
64,192,110320,1,0,0:0:0:0:
192,192,110420,1,0,0:0:0:0:
320,192,110420,1,0,0:0:0:0:
64,192,110420,1,0,0:0:0:0:
192,192,110520,1,0,0:0:0:0:
64,192,110520,1,0,0:0:0:0:
448,192,110520,1,0,0:0:0:0:
320,192,110570,1,0,0:0:0:0:
192,192,110620,1,0,0:0:0:0:
64,192,110620,1,0,0:0:0:0:
448,192,110620,1,0,0:0:0:0:
320,192,110670,1,0,0:0:0:0:
192,192,110720,1,0,0:0:0:0:
64,192,110720,1,0,0:0:0:0:
448,192,110769,1,0,0:0:0:0:
320,192,110819,1,0,0:0:0:0:
192,192,110819,1,0,0:0:0:0:
64,192,110869,1,0,0:0:0:0:
320,192,110919,1,0,0:0:0:0:
192,192,110919,1,0,0:0:0:0:
448,192,110919,1,0,0:0:0:0:
64,192,110969,1,0,0:0:0:0:
448,192,111019,1,0,0:0:0:0:
320,192,111069,1,0,0:0:0:0:
192,192,111119,1,0,0:0:0:0:
64,192,111119,1,0,0:0:0:0:
448,192,111119,1,0,0:0:0:0:
320,192,111168,1,0,0:0:0:0:
64,192,111218,1,0,0:0:0:0:
448,192,111218,1,0,0:0:0:0:
192,192,111268,1,0,0:0:0:0:
64,192,111318,1,0,0:0:0:0:
320,192,111318,1,0,0:0:0:0:
448,192,111318,1,0,0:0:0:0:
320,192,111418,1,0,0:0:0:0:
192,192,111418,1,0,0:0:0:0:
448,192,111418,1,0,0:0:0:0:
64,192,111518,1,0,0:0:0:0:
448,192,111518,1,0,0:0:0:0:
192,192,111518,1,0,0:0:0:0:
320,192,111617,1,0,0:0:0:0:
64,192,111617,1,0,0:0:0:0:
192,192,111717,1,0,0:0:0:0:
64,192,111717,1,0,0:0:0:0:
320,192,111717,1,0,0:0:0:0:
448,192,111767,1,0,0:0:0:0:
192,192,111817,1,0,0:0:0:0:
320,192,111867,1,0,0:0:0:0:
448,192,111917,1,0,0:0:0:0:
192,192,111917,1,0,0:0:0:0:
64,192,111917,1,0,0:0:0:0:
320,192,111966,1,0,0:0:0:0:
64,192,112016,1,0,0:0:0:0:
192,192,112066,1,0,0:0:0:0:
320,192,112116,1,0,0:0:0:0:
448,192,112116,1,0,0:0:0:0:
64,192,112116,1,0,0:0:0:0:
192,192,112166,1,0,0:0:0:0:
448,192,112216,1,0,0:0:0:0:
192,192,112266,1,0,0:0:0:0:
320,192,112316,1,0,0:0:0:0:
448,192,112316,1,0,0:0:0:0:
64,192,112316,1,0,0:0:0:0:
192,192,112366,1,0,0:0:0:0:
448,192,112415,1,0,0:0:0:0:
64,192,112415,1,0,0:0:0:0:
320,192,112465,1,0,0:0:0:0:
192,192,112515,1,0,0:0:0:0:
64,192,112515,1,0,0:0:0:0:
448,192,112515,1,0,0:0:0:0:
320,192,112565,1,0,0:0:0:0:
192,192,112615,1,0,0:0:0:0:
64,192,112665,1,0,0:0:0:0:
192,192,112715,1,0,0:0:0:0:
320,192,112715,1,0,0:0:0:0:
448,192,112715,1,0,0:0:0:0:
64,192,112765,1,0,0:0:0:0:
320,192,112814,1,0,0:0:0:0:
448,192,112864,1,0,0:0:0:0:
192,192,112914,1,0,0:0:0:0:
320,192,112914,1,0,0:0:0:0:
64,192,112914,1,0,0:0:0:0:
448,192,112964,1,0,0:0:0:0:
64,192,113014,1,0,0:0:0:0:
192,192,113064,1,0,0:0:0:0:
320,192,113114,1,0,0:0:0:0:
448,192,113114,1,0,0:0:0:0:
64,192,113114,1,0,0:0:0:0:
192,192,113164,1,0,0:0:0:0:
448,192,113213,1,0,0:0:0:0:
64,192,113263,1,0,0:0:0:0:
320,192,113313,1,0,0:0:0:0:
192,192,113313,1,0,0:0:0:0:
448,192,113313,1,0,0:0:0:0:
64,192,113363,1,0,0:0:0:0:
192,192,113413,1,0,0:0:0:0:
320,192,113463,1,0,0:0:0:0:
448,192,113513,1,0,0:0:0:0:
192,192,113513,1,0,0:0:0:0:
64,192,113513,1,0,0:0:0:0:
320,192,113563,1,0,0:0:0:0:
448,192,113613,1,0,0:0:0:0:
64,192,113613,1,0,0:0:0:0:
320,192,113662,1,0,0:0:0:0:
64,192,113712,1,0,0:0:0:0:
448,192,113712,1,0,0:0:0:0:
192,192,113712,1,0,0:0:0:0:
320,192,113762,1,0,0:0:0:0:
192,192,113812,1,0,0:0:0:0:
448,192,113812,1,0,0:0:0:0:
64,192,113862,1,0,0:0:0:0:
192,192,113912,1,0,0:0:0:0:
320,192,113912,1,0,0:0:0:0:
448,192,113912,1,0,0:0:0:0:
64,192,113962,1,0,0:0:0:0:
320,192,114012,1,0,0:0:0:0:
64,192,114061,1,0,0:0:0:0:
192,192,114111,1,0,0:0:0:0:
320,192,114111,1,0,0:0:0:0:
448,192,114111,1,0,0:0:0:0:
320,192,114211,1,0,0:0:0:0:
448,192,114211,1,0,0:0:0:0:
192,192,114211,1,0,0:0:0:0:
64,192,114311,1,0,0:0:0:0:
192,192,114311,1,0,0:0:0:0:
320,192,114361,1,0,0:0:0:0:
64,192,114411,1,0,0:0:0:0:
448,192,114411,1,0,0:0:0:0:
192,192,114411,1,0,0:0:0:0:
320,192,114460,1,0,0:0:0:0:
64,192,114510,1,0,0:0:0:0:
192,192,114510,1,0,0:0:0:0:
448,192,114510,1,0,0:0:0:0:
320,192,114560,1,0,0:0:0:0:
448,192,114610,1,0,0:0:0:0:
64,192,114610,1,0,0:0:0:0:
192,192,114660,1,0,0:0:0:0:
320,192,114710,1,0,0:0:0:0:
64,192,114710,1,0,0:0:0:0:
448,192,114710,1,0,0:0:0:0:
192,192,114760,1,0,0:0:0:0:
320,192,114810,1,0,0:0:0:0:
448,192,114810,1,0,0:0:0:0:
192,192,114859,1,0,0:0:0:0:
64,192,114859,1,0,0:0:0:0:
448,192,114909,1,0,0:0:0:0:
320,192,114909,1,0,0:0:0:0:
64,192,114959,1,0,0:0:0:0:
192,192,115009,1,0,0:0:0:0:
320,192,115009,1,0,0:0:0:0:
448,192,115059,1,0,0:0:0:0:
192,192,115109,1,0,0:0:0:0:
64,192,115109,1,0,0:0:0:0:
448,192,115159,1,0,0:0:0:0:
320,192,115209,1,0,0:0:0:0:
192,192,115209,1,0,0:0:0:0:
448,192,115259,1,0,0:0:0:0:
64,192,115259,1,0,0:0:0:0:
192,192,115308,1,0,0:0:0:0:
320,192,115308,1,0,0:0:0:0:
64,192,115358,1,0,0:0:0:0:
320,192,115408,1,0,0:0:0:0:
448,192,115408,1,0,0:0:0:0:
192,192,115458,1,0,0:0:0:0:
320,192,115508,1,0,0:0:0:0:
448,192,115508,1,0,0:0:0:0:
64,192,115508,1,0,0:0:0:0:
192,192,115558,1,0,0:0:0:0:
64,192,115608,1,0,0:0:0:0:
448,192,115608,1,0,0:0:0:0:
320,192,115658,1,0,0:0:0:0:
192,192,115658,1,0,0:0:0:0:
448,192,115707,1,0,0:0:0:0:
64,192,115707,1,0,0:0:0:0:
320,192,115757,1,0,0:0:0:0:
192,192,115807,1,0,0:0:0:0:
64,192,115807,1,0,0:0:0:0:
320,192,115857,1,0,0:0:0:0:
448,192,115907,1,0,0:0:0:0:
192,192,115907,1,0,0:0:0:0:
64,192,115907,1,0,0:0:0:0:
320,192,115957,1,0,0:0:0:0:
448,192,116007,1,0,0:0:0:0:
64,192,116007,1,0,0:0:0:0:
192,192,116057,1,0,0:0:0:0:
64,192,116106,1,0,0:0:0:0:
320,192,116106,1,0,0:0:0:0:
448,192,116106,1,0,0:0:0:0:
192,192,116156,1,0,0:0:0:0:
320,192,116206,1,0,0:0:0:0:
448,192,116206,1,0,0:0:0:0:
192,192,116256,1,0,0:0:0:0:
64,192,116306,1,0,0:0:0:0:
320,192,116306,1,0,0:0:0:0:
448,192,116306,1,0,0:0:0:0:
192,192,116356,1,0,0:0:0:0:
64,192,116406,1,0,0:0:0:0:
320,192,116406,1,0,0:0:0:0:
448,192,116456,1,0,0:0:0:0:
192,192,116505,1,0,0:0:0:0:
320,192,116505,1,0,0:0:0:0:
64,192,116505,1,0,0:0:0:0:
448,192,116555,1,0,0:0:0:0:
64,192,116605,1,0,0:0:0:0:
448,192,116655,1,0,0:0:0:0:
320,192,116705,1,0,0:0:0:0:
192,192,116705,1,0,0:0:0:0:
64,192,116705,1,0,0:0:0:0:
448,192,116755,1,0,0:0:0:0:
320,192,116805,1,0,0:0:0:0:
192,192,116855,1,0,0:0:0:0:
64,192,116905,1,0,0:0:0:0:
320,192,116905,1,0,0:0:0:0:
448,192,116905,1,0,0:0:0:0:
192,192,116954,1,0,0:0:0:0:
448,192,117004,1,0,0:0:0:0:
192,192,117054,1,0,0:0:0:0:
320,192,117104,1,0,0:0:0:0:
448,192,117104,1,0,0:0:0:0:
64,192,117104,1,0,0:0:0:0:
192,192,117154,1,0,0:0:0:0:
320,192,117204,1,0,0:0:0:0:
448,192,117204,1,0,0:0:0:0:
64,192,117254,1,0,0:0:0:0:
320,192,117304,1,0,0:0:0:0:
192,192,117304,1,0,0:0:0:0:
448,192,117304,1,0,0:0:0:0:
192,192,117403,1,0,0:0:0:0:
64,192,117403,1,0,0:0:0:0:
320,192,117503,1,0,0:0:0:0:
448,192,117503,1,0,0:0:0:0:
64,192,117503,1,0,0:0:0:0:
320,192,117603,1,0,0:0:0:0:
192,192,117603,1,0,0:0:0:0:
448,192,117603,1,0,0:0:0:0:
320,192,117703,1,0,0:0:0:0:
64,192,117703,1,0,0:0:0:0:
448,192,117703,1,0,0:0:0:0:
192,192,117703,1,0,0:0:0:0:
64,192,117802,1,0,0:0:0:0:
320,192,117802,1,0,0:0:0:0:
192,192,117902,1,0,0:0:0:0:
64,192,117902,1,0,0:0:0:0:
448,192,117902,1,0,0:0:0:0:
192,192,118002,1,0,0:0:0:0:
320,192,118002,1,0,0:0:0:0:
64,192,118102,1,0,0:0:0:0:
320,192,118102,1,0,0:0:0:0:
448,192,118102,1,0,0:0:0:0:
192,192,118152,1,0,0:0:0:0:
320,192,118201,1,0,0:0:0:0:
448,192,118201,1,0,0:0:0:0:
64,192,118251,1,0,0:0:0:0:
192,192,118301,1,0,0:0:0:0:
320,192,118301,1,0,0:0:0:0:
448,192,118301,1,0,0:0:0:0:
64,192,118351,1,0,0:0:0:0:
320,192,118401,1,0,0:0:0:0:
448,192,118401,1,0,0:0:0:0:
192,192,118451,1,0,0:0:0:0:
64,192,118501,1,0,0:0:0:0:
448,192,118501,1,0,0:0:0:0:
320,192,118501,1,0,0:0:0:0:
192,192,118551,1,0,0:0:0:0:
320,192,118600,1,0,0:0:0:0:
448,192,118600,1,0,0:0:0:0:
64,192,118650,1,0,0:0:0:0:
192,192,118700,1,0,0:0:0:0:
320,192,118700,1,0,0:0:0:0:
448,192,118750,1,0,0:0:0:0:
64,192,118800,1,0,0:0:0:0:
192,192,118800,1,0,0:0:0:0:
320,192,118850,1,0,0:0:0:0:
448,192,118900,1,0,0:0:0:0:
192,192,118900,1,0,0:0:0:0:
64,192,118900,1,0,0:0:0:0:
320,192,118950,1,0,0:0:0:0:
64,192,118999,1,0,0:0:0:0:
192,192,118999,1,0,0:0:0:0:
448,192,119049,1,0,0:0:0:0:
320,192,119099,1,0,0:0:0:0:
192,192,119099,1,0,0:0:0:0:
64,192,119099,1,0,0:0:0:0:
448,192,119149,1,0,0:0:0:0:
192,192,119199,1,0,0:0:0:0:
64,192,119199,1,0,0:0:0:0:
448,192,119249,1,0,0:0:0:0:
320,192,119299,1,0,0:0:0:0:
192,192,119299,1,0,0:0:0:0:
64,192,119299,1,0,0:0:0:0:
448,192,119349,1,0,0:0:0:0:
320,192,119398,1,0,0:0:0:0:
192,192,119398,1,0,0:0:0:0:
64,192,119448,1,0,0:0:0:0:
192,192,119498,1,0,0:0:0:0:
320,192,119498,1,0,0:0:0:0:
448,192,119498,1,0,0:0:0:0:
64,192,119548,1,0,0:0:0:0:
320,192,119598,1,0,0:0:0:0:
448,192,119598,1,0,0:0:0:0:
192,192,119648,1,0,0:0:0:0:
64,192,119698,1,0,0:0:0:0:
320,192,119698,1,0,0:0:0:0:
448,192,119698,1,0,0:0:0:0:
192,192,119748,1,0,0:0:0:0:
64,192,119798,1,0,0:0:0:0:
448,192,119798,1,0,0:0:0:0:
192,192,119847,1,0,0:0:0:0:
64,192,119897,1,0,0:0:0:0:
320,192,119897,1,0,0:0:0:0:
448,192,119897,1,0,0:0:0:0:
192,192,119947,1,0,0:0:0:0:
320,192,119997,1,0,0:0:0:0:
448,192,119997,1,0,0:0:0:0:
192,192,120047,1,0,0:0:0:0:
64,192,120097,1,0,0:0:0:0:
320,192,120097,1,0,0:0:0:0:
448,192,120097,1,0,0:0:0:0:
192,192,120147,1,0,0:0:0:0:
64,192,120197,1,0,0:0:0:0:
320,192,120197,1,0,0:0:0:0:
448,192,120246,1,0,0:0:0:0:
64,192,120296,1,0,0:0:0:0:
192,192,120321,1,0,0:0:0:0:
320,192,120346,1,0,0:0:0:0:
448,192,120371,1,0,0:0:0:0:
192,192,120396,1,0,0:0:0:0:
64,192,120421,1,0,0:0:0:0:
448,192,120446,1,0,0:0:0:0:
320,192,120471,1,0,0:0:0:0:
192,192,120496,1,0,0:0:0:0:
64,192,120496,1,0,0:0:0:0:
320,192,120546,1,0,0:0:0:0:
448,192,120546,1,0,0:0:0:0:
192,192,120596,1,0,0:0:0:0:
64,192,120596,1,0,0:0:0:0:
448,192,120645,1,0,0:0:0:0:
320,192,120645,1,0,0:0:0:0:
192,192,120695,1,0,0:0:0:0:
64,192,120695,1,0,0:0:0:0:
64,192,120795,1,0,0:0:0:0:
320,192,120795,1,0,0:0:0:0:
192,192,120895,1,0,0:0:0:0:
320,192,120895,1,0,0:0:0:0:
448,192,120895,1,0,0:0:0:0:
320,192,120995,1,0,0:0:0:0:
192,192,120995,1,0,0:0:0:0:
448,192,120995,1,0,0:0:0:0:
192,192,121094,1,0,0:0:0:0:
64,192,121094,1,0,0:0:0:0:
448,192,121094,1,0,0:0:0:0:
64,192,121194,1,0,0:0:0:0:
320,192,121194,1,0,0:0:0:0:
64,192,121294,1,0,0:0:0:0:
192,192,121294,1,0,0:0:0:0:
448,192,121294,1,0,0:0:0:0:
320,192,121344,1,0,0:0:0:0:
192,192,121394,1,0,0:0:0:0:
64,192,121394,1,0,0:0:0:0:
448,192,121444,1,0,0:0:0:0:
320,192,121493,1,0,0:0:0:0:
192,192,121493,1,0,0:0:0:0:
64,192,121543,1,0,0:0:0:0:
320,192,121593,1,0,0:0:0:0:
448,192,121593,1,0,0:0:0:0:
192,192,121643,1,0,0:0:0:0:
64,192,121693,1,0,0:0:0:0:
320,192,121693,1,0,0:0:0:0:
448,192,121693,1,0,0:0:0:0:
192,192,121743,1,0,0:0:0:0:
64,192,121793,1,0,0:0:0:0:
448,192,121793,1,0,0:0:0:0:
320,192,121843,1,0,0:0:0:0:
192,192,121892,1,0,0:0:0:0:
448,192,121892,1,0,0:0:0:0:
64,192,121942,1,0,0:0:0:0:
320,192,121992,1,0,0:0:0:0:
192,192,121992,1,0,0:0:0:0:
448,192,122042,1,0,0:0:0:0:
320,192,122092,1,0,0:0:0:0:
64,192,122092,1,0,0:0:0:0:
192,192,122092,1,0,0:0:0:0:
448,192,122142,1,0,0:0:0:0:
320,192,122192,1,0,0:0:0:0:
64,192,122192,1,0,0:0:0:0:
192,192,122242,1,0,0:0:0:0:
64,192,122291,1,0,0:0:0:0:
448,192,122291,1,0,0:0:0:0:
320,192,122291,1,0,0:0:0:0:
192,192,122341,1,0,0:0:0:0:
320,192,122391,1,0,0:0:0:0:
448,192,122391,1,0,0:0:0:0:
64,192,122441,1,0,0:0:0:0:
192,192,122491,1,0,0:0:0:0:
320,192,122491,1,0,0:0:0:0:
448,192,122491,1,0,0:0:0:0:
64,192,122541,1,0,0:0:0:0:
192,192,122591,1,0,0:0:0:0:
448,192,122591,1,0,0:0:0:0:
320,192,122641,1,0,0:0:0:0:
192,192,122691,1,0,0:0:0:0:
64,192,122691,1,0,0:0:0:0:
448,192,122691,1,0,0:0:0:0:
320,192,122740,1,0,0:0:0:0:
192,192,122790,1,0,0:0:0:0:
64,192,122790,1,0,0:0:0:0:
448,192,122840,1,0,0:0:0:0:
320,192,122890,1,0,0:0:0:0:
192,192,122890,1,0,0:0:0:0:
64,192,122890,1,0,0:0:0:0:
448,192,122940,1,0,0:0:0:0:
64,192,122990,1,0,0:0:0:0:
192,192,122990,1,0,0:0:0:0:
320,192,123040,1,0,0:0:0:0:
448,192,123090,1,0,0:0:0:0:
64,192,123090,1,0,0:0:0:0:
192,192,123090,1,0,0:0:0:0:
320,192,123189,1,0,0:0:0:0:
64,192,123189,1,0,0:0:0:0:
448,192,123189,1,0,0:0:0:0:
64,192,123289,1,0,0:0:0:0:
448,192,123289,1,0,0:0:0:0:
320,192,123289,1,0,0:0:0:0:
192,192,123339,1,0,0:0:0:0:
64,192,123389,1,0,0:0:0:0:
448,192,123389,1,0,0:0:0:0:
320,192,123439,1,0,0:0:0:0:
192,192,123489,1,0,0:0:0:0:
64,192,123489,1,0,0:0:0:0:
448,192,123489,1,0,0:0:0:0:
320,192,123538,1,0,0:0:0:0:
64,192,123588,1,0,0:0:0:0:
448,192,123588,1,0,0:0:0:0:
192,192,123638,1,0,0:0:0:0:
64,192,123688,1,0,0:0:0:0:
320,192,123688,1,0,0:0:0:0:
448,192,123688,1,0,0:0:0:0:
192,192,123738,1,0,0:0:0:0:
320,192,123788,1,0,0:0:0:0:
448,192,123838,1,0,0:0:0:0:
192,192,123888,1,0,0:0:0:0:
64,192,123888,1,0,0:0:0:0:
320,192,123888,1,0,0:0:0:0:
448,192,123937,1,0,0:0:0:0:
192,192,123987,1,0,0:0:0:0:
320,192,124037,1,0,0:0:0:0:
64,192,124087,1,0,0:0:0:0:
192,192,124087,1,0,0:0:0:0:
448,192,124087,1,0,0:0:0:0:
320,192,124187,1,0,0:0:0:0:
64,192,124287,1,0,0:0:0:0:
192,192,124287,1,0,0:0:0:0:
192,192,124386,1,0,0:0:0:0:
64,192,124486,1,0,0:0:0:0:
320,192,124486,1,0,0:0:0:0:
448,192,124486,1,0,0:0:0:0:
192,192,124536,1,0,0:0:0:0:
320,192,124586,1,0,0:0:0:0:
448,192,124586,1,0,0:0:0:0:
64,192,124636,1,0,0:0:0:0:
192,192,124686,1,0,0:0:0:0:
320,192,124686,1,0,0:0:0:0:
448,192,124686,1,0,0:0:0:0:
64,192,124736,1,0,0:0:0:0:
320,192,124785,1,0,0:0:0:0:
448,192,124785,1,0,0:0:0:0:
192,192,124835,1,0,0:0:0:0:
64,192,124885,1,0,0:0:0:0:
320,192,124885,1,0,0:0:0:0:
448,192,124885,1,0,0:0:0:0:
192,192,124935,1,0,0:0:0:0:
64,192,124985,1,0,0:0:0:0:
448,192,124985,1,0,0:0:0:0:
320,192,125035,1,0,0:0:0:0:
192,192,125085,1,0,0:0:0:0:
64,192,125085,1,0,0:0:0:0:
448,192,125085,1,0,0:0:0:0:
320,192,125135,1,0,0:0:0:0:
64,192,125184,1,0,0:0:0:0:
448,192,125184,1,0,0:0:0:0:
320,192,125234,1,0,0:0:0:0:
192,192,125284,1,0,0:0:0:0:
64,192,125284,1,0,0:0:0:0:
448,192,125284,1,0,0:0:0:0:
320,192,125334,1,0,0:0:0:0:
192,192,125384,1,0,0:0:0:0:
64,192,125384,1,0,0:0:0:0:
448,192,125434,1,0,0:0:0:0:
320,192,125484,1,0,0:0:0:0:
64,192,125484,1,0,0:0:0:0:
192,192,125484,1,0,0:0:0:0:
448,192,125534,1,0,0:0:0:0:
192,192,125583,1,0,0:0:0:0:
64,192,125583,1,0,0:0:0:0:
320,192,125633,1,0,0:0:0:0:
64,192,125683,1,0,0:0:0:0:
192,192,125683,1,0,0:0:0:0:
448,192,125683,1,0,0:0:0:0:
320,192,125733,1,0,0:0:0:0:
64,192,125783,1,0,0:0:0:0:
192,192,125783,1,0,0:0:0:0:
320,192,125833,1,0,0:0:0:0:
192,192,125883,1,0,0:0:0:0:
64,192,125883,1,0,0:0:0:0:
448,192,125883,1,0,0:0:0:0:
320,192,125933,1,0,0:0:0:0:
64,192,125983,1,0,0:0:0:0:
448,192,125983,1,0,0:0:0:0:
320,192,126032,1,0,0:0:0:0:
448,192,126082,1,0,0:0:0:0:
64,192,126082,1,0,0:0:0:0:
192,192,126082,1,0,0:0:0:0:
64,192,126182,1,0,0:0:0:0:
320,192,126182,1,0,0:0:0:0:
320,192,126282,1,0,0:0:0:0:
448,192,126282,1,0,0:0:0:0:
64,192,126282,1,0,0:0:0:0:
448,192,126382,1,0,0:0:0:0:
64,192,126382,1,0,0:0:0:0:
320,192,126382,1,0,0:0:0:0:
192,192,126382,1,0,0:0:0:0:
64,192,126481,1,0,0:0:0:0:
320,192,126481,1,0,0:0:0:0:
448,192,126481,1,0,0:0:0:0:
192,192,126531,1,0,0:0:0:0:
320,192,126581,1,0,0:0:0:0:
64,192,126581,1,0,0:0:0:0:
448,192,126631,1,0,0:0:0:0:
64,192,126681,1,0,0:0:0:0:
192,192,126706,1,0,0:0:0:0:
448,192,126731,1,0,0:0:0:0:
320,192,126756,1,0,0:0:0:0:
192,192,126781,1,0,0:0:0:0:
64,192,126806,1,0,0:0:0:0:
448,192,126830,1,0,0:0:0:0:
320,192,126855,1,0,0:0:0:0:
192,192,126880,1,0,0:0:0:0:
64,192,126880,1,0,0:0:0:0:
320,192,126930,1,0,0:0:0:0:
448,192,126980,1,0,0:0:0:0:
64,192,126980,1,0,0:0:0:0:
192,192,126980,1,0,0:0:0:0:
448,192,127080,1,0,0:0:0:0:
192,192,127080,1,0,0:0:0:0:
320,192,127080,1,0,0:0:0:0:
448,192,127180,1,0,0:0:0:0:
64,192,127180,1,0,0:0:0:0:
320,192,127180,1,0,0:0:0:0:
192,192,127279,1,0,0:0:0:0:
320,192,127279,1,0,0:0:0:0:
64,192,127279,1,0,0:0:0:0:
64,192,127379,1,0,0:0:0:0:
448,192,127379,1,0,0:0:0:0:
192,192,127379,1,0,0:0:0:0:
320,192,127479,1,0,0:0:0:0:
192,192,127479,1,0,0:0:0:0:
448,192,127479,1,0,0:0:0:0:
64,192,127479,1,0,0:0:0:0:
320,192,127579,1,0,0:0:0:0:
448,192,127579,1,0,0:0:0:0:
192,192,127678,1,0,0:0:0:0:
448,192,127678,1,0,0:0:0:0:
64,192,127678,1,0,0:0:0:0:
320,192,127728,1,0,0:0:0:0:
192,192,127778,1,0,0:0:0:0:
64,192,127828,1,0,0:0:0:0:
192,192,127878,1,0,0:0:0:0:
320,192,127878,1,0,0:0:0:0:
448,192,127878,1,0,0:0:0:0:
64,192,127928,1,0,0:0:0:0:
448,192,127978,1,0,0:0:0:0:
64,192,128028,1,0,0:0:0:0:
320,192,128077,1,0,0:0:0:0:
448,192,128077,1,0,0:0:0:0:
192,192,128077,1,0,0:0:0:0:
64,192,128127,1,0,0:0:0:0:
448,192,128177,1,0,0:0:0:0:
192,192,128227,1,0,0:0:0:0:
320,192,128277,1,0,0:0:0:0:
448,192,128277,1,0,0:0:0:0:
64,192,128277,1,0,0:0:0:0:
192,192,128327,1,0,0:0:0:0:
448,192,128377,1,0,0:0:0:0:
192,192,128427,1,0,0:0:0:0:
64,192,128476,1,0,0:0:0:0:
320,192,128476,1,0,0:0:0:0:
448,192,128476,1,0,0:0:0:0:
192,192,128526,1,0,0:0:0:0:
64,192,128576,1,0,0:0:0:0:
192,192,128626,1,0,0:0:0:0:
64,192,128676,1,0,0:0:0:0:
448,192,128676,1,0,0:0:0:0:
320,192,128676,1,0,0:0:0:0:
192,192,128726,1,0,0:0:0:0:
320,192,128776,1,0,0:0:0:0:
64,192,128776,1,0,0:0:0:0:
448,192,128826,1,0,0:0:0:0:
320,192,128876,1,0,0:0:0:0:
192,192,128876,1,0,0:0:0:0:
64,192,128876,1,0,0:0:0:0:
448,192,128925,1,0,0:0:0:0:
192,192,128975,1,0,0:0:0:0:
448,192,129025,1,0,0:0:0:0:
320,192,129075,1,0,0:0:0:0:
192,192,129075,1,0,0:0:0:0:
64,192,129075,1,0,0:0:0:0:
448,192,129125,1,0,0:0:0:0:
192,192,129175,1,0,0:0:0:0:
64,192,129175,1,0,0:0:0:0:
448,192,129225,1,0,0:0:0:0:
320,192,129225,1,0,0:0:0:0:
192,192,129275,1,0,0:0:0:0:
64,192,129275,1,0,0:0:0:0:
320,192,129324,1,0,0:0:0:0:
64,192,129374,1,0,0:0:0:0:
320,192,129424,1,0,0:0:0:0:
192,192,129474,1,0,0:0:0:0:
448,192,129474,1,0,0:0:0:0:
64,192,129474,1,0,0:0:0:0:
320,192,129524,1,0,0:0:0:0:
64,192,129574,1,0,0:0:0:0:
448,192,129624,1,0,0:0:0:0:
320,192,129674,1,0,0:0:0:0:
192,192,129674,1,0,0:0:0:0:
64,192,129674,1,0,0:0:0:0:
448,192,129723,1,0,0:0:0:0:
320,192,129773,1,0,0:0:0:0:
192,192,129773,1,0,0:0:0:0:
64,192,129823,1,0,0:0:0:0:
192,192,129873,1,0,0:0:0:0:
320,192,129873,1,0,0:0:0:0:
448,192,129873,1,0,0:0:0:0:
64,192,129923,1,0,0:0:0:0:
448,192,129973,1,0,0:0:0:0:
192,192,130023,1,0,0:0:0:0:
64,192,130073,1,0,0:0:0:0:
448,192,130073,1,0,0:0:0:0:
320,192,130073,1,0,0:0:0:0:
64,192,130172,1,0,0:0:0:0:
320,192,130172,1,0,0:0:0:0:
448,192,130172,1,0,0:0:0:0:
64,192,130272,1,0,0:0:0:0:
448,192,130272,1,0,0:0:0:0:
192,192,130272,1,0,0:0:0:0:
320,192,130372,1,0,0:0:0:0:
192,192,130372,1,0,0:0:0:0:
192,192,130472,1,0,0:0:0:0:
64,192,130472,1,0,0:0:0:0:
448,192,130472,1,0,0:0:0:0:
320,192,130472,1,0,0:0:0:0:
64,192,130571,1,0,0:0:0:0:
448,192,130571,1,0,0:0:0:0:
192,192,130671,1,0,0:0:0:0:
320,192,130671,1,0,0:0:0:0:
448,192,130671,1,0,0:0:0:0:
64,192,130671,1,0,0:0:0:0:
320,192,130771,1,0,0:0:0:0:
448,192,130771,1,0,0:0:0:0:
64,192,130771,1,0,0:0:0:0:
192,192,130871,128,0,132467:0:0:0:0:
320,192,130871,128,0,134063:0:0:0:0:
448,192,130871,128,0,135659:0:0:0:0:
64,192,130871,1,0,0:0:0:0:
64,192,132467,128,0,135360:0:0:0:0:
192,192,134063,128,0,135460:0:0:0:0:
64,192,135460,128,0,137155:0:0:0:0:
192,192,135559,128,0,137155:0:0:0:0:
320,192,135659,128,0,137155:0:0:0:0:
64,192,137255,5,0,0:0:0:0:
192,192,137255,1,0,0:0:0:0:
320,192,137255,1,0,0:0:0:0:
448,192,137255,1,0,0:0:0:0:
64,192,137355,1,0,0:0:0:0:
192,192,137455,1,0,0:0:0:0:
320,192,137554,1,0,0:0:0:0:
448,192,137654,1,0,0:0:0:0:
64,192,137754,1,0,0:0:0:0:
320,192,137854,1,0,0:0:0:0:
448,192,137954,1,0,0:0:0:0:
192,192,138053,1,0,0:0:0:0:
64,192,138153,1,0,0:0:0:0:
192,192,138253,1,0,0:0:0:0:
320,192,138353,1,0,0:0:0:0:
192,192,138452,1,0,0:0:0:0:
64,192,138552,1,0,0:0:0:0:
320,192,138652,1,0,0:0:0:0:
448,192,138752,1,0,0:0:0:0:
192,192,138851,1,0,0:0:0:0:
64,192,138951,1,0,0:0:0:0:
192,192,139051,1,0,0:0:0:0:
320,192,139151,1,0,0:0:0:0:
448,192,139250,1,0,0:0:0:0:
64,192,139350,1,0,0:0:0:0:
320,192,139450,1,0,0:0:0:0:
192,192,139550,1,0,0:0:0:0:
448,192,139649,1,0,0:0:0:0:
64,192,139749,1,0,0:0:0:0:
192,192,139849,1,0,0:0:0:0:
320,192,139949,1,0,0:0:0:0:
448,192,140048,1,0,0:0:0:0:
64,192,140148,1,0,0:0:0:0:
320,192,140248,1,0,0:0:0:0:
192,192,140348,1,0,0:0:0:0:
64,192,140447,1,0,0:0:0:0:
448,192,140547,1,0,0:0:0:0:
320,191,140647,1,0,0:0:0:0:
192,192,140747,1,0,0:0:0:0:
64,191,140847,1,0,0:0:0:0:
448,192,140946,1,0,0:0:0:0:
192,192,141046,1,0,0:0:0:0:
64,191,141146,1,0,0:0:0:0:
320,191,141246,1,0,0:0:0:0:
448,192,141345,1,0,0:0:0:0:
320,191,141445,1,0,0:0:0:0:
192,192,141545,1,0,0:0:0:0:
64,191,141645,1,0,0:0:0:0:
448,192,141744,1,0,0:0:0:0:
192,192,141844,1,0,0:0:0:0:
320,191,141944,1,0,0:0:0:0:
192,192,142044,1,0,0:0:0:0:
64,192,142143,1,0,0:0:0:0:
192,192,142243,1,0,0:0:0:0:
320,192,142343,1,0,0:0:0:0:
448,192,142443,1,0,0:0:0:0:
64,192,142542,1,0,0:0:0:0:
320,192,142642,1,0,0:0:0:0:
448,192,142742,1,0,0:0:0:0:
192,192,142842,1,0,0:0:0:0:
64,192,142941,1,0,0:0:0:0:
448,192,143041,1,0,0:0:0:0:
320,192,143141,1,0,0:0:0:0:
192,192,143241,1,0,0:0:0:0:
64,192,143340,1,0,0:0:0:0:
320,192,143440,1,0,0:0:0:0:
192,192,143540,1,0,0:0:0:0:
320,192,143640,1,0,0:0:0:0:
448,192,143739,1,0,0:0:0:0:
320,192,143839,1,0,0:0:0:0:
192,192,143939,1,0,0:0:0:0:
64,192,144039,1,0,0:0:0:0:
448,192,144139,1,0,0:0:0:0:
192,192,144238,1,0,0:0:0:0:
64,192,144338,1,0,0:0:0:0:
320,192,144438,1,0,0:0:0:0:
448,192,144538,1,0,0:0:0:0:
320,192,144637,1,0,0:0:0:0:
192,192,144737,1,0,0:0:0:0:
64,192,144837,1,0,0:0:0:0:
448,192,144937,1,0,0:0:0:0:
192,192,145036,1,0,0:0:0:0:
320,192,145136,1,0,0:0:0:0:
192,192,145236,1,0,0:0:0:0:
64,192,145336,1,0,0:0:0:0:
192,192,145435,1,0,0:0:0:0:
320,192,145535,1,0,0:0:0:0:
448,192,145635,1,0,0:0:0:0:
64,192,145735,1,0,0:0:0:0:
320,192,145834,1,0,0:0:0:0:
448,192,145934,1,0,0:0:0:0:
192,192,146034,1,0,0:0:0:0:
64,192,146134,1,0,0:0:0:0:
192,192,146233,1,0,0:0:0:0:
320,192,146333,1,0,0:0:0:0:
448,192,146433,1,0,0:0:0:0:
64,192,146533,1,0,0:0:0:0:
320,192,146632,1,0,0:0:0:0:
192,192,146732,1,0,0:0:0:0:
320,192,146832,1,0,0:0:0:0:
64,192,146932,1,0,0:0:0:0:
448,192,147032,1,0,0:0:0:0:
320,192,147131,1,0,0:0:0:0:
192,192,147231,1,0,0:0:0:0:
64,192,147331,1,0,0:0:0:0:
320,192,147431,1,0,0:0:0:0:
192,192,147530,1,0,0:0:0:0:
64,192,147630,1,0,0:0:0:0:
320,192,147730,1,0,0:0:0:0:
192,192,147830,1,0,0:0:0:0:
320,192,147929,1,0,0:0:0:0:
448,192,148029,1,0,0:0:0:0:
64,192,148129,1,0,0:0:0:0:
320,192,148229,1,0,0:0:0:0:
192,192,148328,1,0,0:0:0:0:
64,192,148428,1,0,0:0:0:0:
320,192,148428,1,0,0:0:0:0:
448,192,148428,1,0,0:0:0:0:
192,192,148428,1,0,0:0:0:0:
64,192,148528,1,0,0:0:0:0:
192,192,148528,1,0,0:0:0:0:
320,192,148628,1,0,0:0:0:0:
448,192,148628,1,0,0:0:0:0:
192,192,148678,1,0,0:0:0:0:
64,192,148678,1,0,0:0:0:0:
320,192,148727,1,0,0:0:0:0:
448,192,148727,1,0,0:0:0:0:
192,192,148777,1,0,0:0:0:0:
320,192,148827,1,0,0:0:0:0:
448,192,148827,1,0,0:0:0:0:
64,192,148827,1,0,0:0:0:0:
64,192,148927,1,0,0:0:0:0:
64,192,149027,1,0,0:0:0:0:
192,192,149052,1,0,0:0:0:0:
320,192,149077,1,0,0:0:0:0:
448,192,149102,1,0,0:0:0:0:
64,192,149126,1,0,0:0:0:0:
192,192,149151,1,0,0:0:0:0:
448,192,149176,1,0,0:0:0:0:
320,192,149201,1,0,0:0:0:0:
192,192,149226,1,0,0:0:0:0:
64,192,149226,1,0,0:0:0:0:
320,192,149293,1,0,0:0:0:0:
192,192,149359,1,0,0:0:0:0:
320,192,149426,1,0,0:0:0:0:
448,192,149426,1,0,0:0:0:0:
64,192,149525,1,0,0:0:0:0:
448,192,149525,1,0,0:0:0:0:
192,192,149575,1,0,0:0:0:0:
64,192,149625,1,0,0:0:0:0:
320,192,149625,1,0,0:0:0:0:
320,192,149725,1,0,0:0:0:0:
192,192,149825,1,0,0:0:0:0:
448,192,149825,1,0,0:0:0:0:
64,192,149925,1,0,0:0:0:0:
320,192,149925,1,0,0:0:0:0:
192,192,150024,1,0,0:0:0:0:
448,192,150024,1,0,0:0:0:0:
64,192,150024,1,0,0:0:0:0:
320,192,150024,1,0,0:0:0:0:
320,192,150124,1,0,0:0:0:0:
192,192,150124,1,0,0:0:0:0:
64,192,150224,1,0,0:0:0:0:
448,192,150224,1,0,0:0:0:0:
320,192,150224,1,0,0:0:0:0:
192,192,150324,1,0,0:0:0:0:
64,192,150324,1,0,0:0:0:0:
320,192,150423,1,0,0:0:0:0:
448,192,150423,1,0,0:0:0:0:
192,192,150423,1,0,0:0:0:0:
448,192,150523,1,0,0:0:0:0:
64,192,150523,1,0,0:0:0:0:
448,192,150623,1,0,0:0:0:0:
320,192,150648,1,0,0:0:0:0:
192,192,150673,1,0,0:0:0:0:
64,192,150698,1,0,0:0:0:0:
320,192,150723,1,0,0:0:0:0:
192,192,150772,1,0,0:0:0:0:
320,192,150822,1,0,0:0:0:0:
448,192,150822,1,0,0:0:0:0:
64,192,150872,1,0,0:0:0:0:
192,192,150922,1,0,0:0:0:0:
320,192,150972,1,0,0:0:0:0:
448,192,151022,1,0,0:0:0:0:
192,192,151072,1,0,0:0:0:0:
448,192,151122,1,0,0:0:0:0:
192,192,151171,1,0,0:0:0:0:
448,192,151221,1,0,0:0:0:0:
320,192,151221,1,0,0:0:0:0:
64,192,151221,1,0,0:0:0:0:
320,192,151321,1,0,0:0:0:0:
192,192,151421,1,0,0:0:0:0:
448,192,151421,1,0,0:0:0:0:
320,192,151471,1,0,0:0:0:0:
64,192,151521,1,0,0:0:0:0:
192,192,151521,1,0,0:0:0:0:
320,192,151571,1,0,0:0:0:0:
192,192,151620,1,0,0:0:0:0:
64,192,151620,1,0,0:0:0:0:
448,192,151620,1,0,0:0:0:0:
64,192,151720,1,0,0:0:0:0:
320,192,151720,1,0,0:0:0:0:
192,192,151820,1,0,0:0:0:0:
320,192,151820,1,0,0:0:0:0:
448,192,151820,1,0,0:0:0:0:
192,192,151920,1,0,0:0:0:0:
64,192,151920,1,0,0:0:0:0:
448,192,151920,1,0,0:0:0:0:
64,192,152019,1,0,0:0:0:0:
320,192,152019,1,0,0:0:0:0:
448,192,152019,1,0,0:0:0:0:
320,192,152119,1,0,0:0:0:0:
192,192,152119,1,0,0:0:0:0:
448,192,152119,1,0,0:0:0:0:
192,192,152219,1,0,0:0:0:0:
64,192,152219,1,0,0:0:0:0:
320,192,152244,1,0,0:0:0:0:
448,192,152269,1,0,0:0:0:0:
64,192,152319,1,0,0:0:0:0:
192,192,152344,1,0,0:0:0:0:
320,192,152369,1,0,0:0:0:0:
448,192,152394,1,0,0:0:0:0:
192,192,152418,1,0,0:0:0:0:
64,192,152418,1,0,0:0:0:0:
320,192,152468,1,0,0:0:0:0:
64,192,152518,1,0,0:0:0:0:
192,192,152518,1,0,0:0:0:0:
320,192,152568,1,0,0:0:0:0:
64,192,152618,1,0,0:0:0:0:
192,192,152618,1,0,0:0:0:0:
448,192,152618,1,0,0:0:0:0:
320,192,152668,1,0,0:0:0:0:
448,192,152718,1,0,0:0:0:0:
192,192,152718,1,0,0:0:0:0:
320,192,152768,1,0,0:0:0:0:
64,192,152817,1,0,0:0:0:0:
448,192,152817,1,0,0:0:0:0:
192,192,152817,1,0,0:0:0:0:
448,192,152917,1,0,0:0:0:0:
64,192,152917,1,0,0:0:0:0:
192,192,152967,1,0,0:0:0:0:
320,192,153017,1,0,0:0:0:0:
448,192,153017,1,0,0:0:0:0:
64,192,153067,1,0,0:0:0:0:
192,192,153117,1,0,0:0:0:0:
320,192,153117,1,0,0:0:0:0:
448,192,153167,1,0,0:0:0:0:
192,192,153217,1,0,0:0:0:0:
64,192,153217,1,0,0:0:0:0:
448,192,153266,1,0,0:0:0:0:
64,192,153316,1,0,0:0:0:0:
192,192,153316,1,0,0:0:0:0:
448,192,153366,1,0,0:0:0:0:
192,192,153416,1,0,0:0:0:0:
64,192,153416,1,0,0:0:0:0:
320,192,153466,1,0,0:0:0:0:
64,192,153516,1,0,0:0:0:0:
448,192,153516,1,0,0:0:0:0:
192,192,153566,1,0,0:0:0:0:
320,192,153616,1,0,0:0:0:0:
448,192,153616,1,0,0:0:0:0:
192,192,153665,1,0,0:0:0:0:
320,192,153715,1,0,0:0:0:0:
448,192,153715,1,0,0:0:0:0:
192,192,153765,1,0,0:0:0:0:
448,192,153815,1,0,0:0:0:0:
320,192,153840,1,0,0:0:0:0:
192,192,153865,1,0,0:0:0:0:
64,192,153890,1,0,0:0:0:0:
448,192,153915,1,0,0:0:0:0:
320,192,153915,1,0,0:0:0:0:
192,192,153965,1,0,0:0:0:0:
64,192,153965,1,0,0:0:0:0:
448,192,154015,1,0,0:0:0:0:
320,192,154015,1,0,0:0:0:0:
64,192,154064,1,0,0:0:0:0:
192,192,154114,1,0,0:0:0:0:
448,192,154114,1,0,0:0:0:0:
320,192,154164,1,0,0:0:0:0:
192,192,154214,1,0,0:0:0:0:
64,192,154214,1,0,0:0:0:0:
448,192,154264,1,0,0:0:0:0:
64,192,154314,1,0,0:0:0:0:
192,192,154314,1,0,0:0:0:0:
320,192,154364,1,0,0:0:0:0:
448,192,154414,1,0,0:0:0:0:
192,192,154414,1,0,0:0:0:0:
64,192,154464,1,0,0:0:0:0:
320,192,154513,1,0,0:0:0:0:
448,192,154513,1,0,0:0:0:0:
64,192,154563,1,0,0:0:0:0:
320,192,154613,1,0,0:0:0:0:
448,192,154613,1,0,0:0:0:0:
192,192,154663,1,0,0:0:0:0:
320,192,154713,1,0,0:0:0:0:
448,192,154713,1,0,0:0:0:0:
64,192,154763,1,0,0:0:0:0:
192,192,154813,1,0,0:0:0:0:
320,192,154813,1,0,0:0:0:0:
448,192,154813,1,0,0:0:0:0:
64,192,154863,1,0,0:0:0:0:
192,192,154912,1,0,0:0:0:0:
320,192,154962,1,0,0:0:0:0:
192,192,155012,1,0,0:0:0:0:
64,192,155012,1,0,0:0:0:0:
448,192,155012,1,0,0:0:0:0:
320,192,155062,1,0,0:0:0:0:
192,192,155112,1,0,0:0:0:0:
64,192,155112,1,0,0:0:0:0:
448,192,155162,1,0,0:0:0:0:
192,192,155212,1,0,0:0:0:0:
64,192,155212,1,0,0:0:0:0:
320,192,155212,1,0,0:0:0:0:
448,192,155262,1,0,0:0:0:0:
64,192,155311,1,0,0:0:0:0:
192,192,155361,1,0,0:0:0:0:
448,192,155411,1,0,0:0:0:0:
320,192,155411,1,0,0:0:0:0:
64,192,155436,1,0,0:0:0:0:
192,192,155461,1,0,0:0:0:0:
320,192,155486,1,0,0:0:0:0:
448,192,155511,1,0,0:0:0:0:
64,192,155561,1,0,0:0:0:0:
320,192,155611,1,0,0:0:0:0:
192,192,155611,1,0,0:0:0:0:
448,192,155611,1,0,0:0:0:0:
64,192,155661,1,0,0:0:0:0:
448,192,155710,1,0,0:0:0:0:
320,192,155710,1,0,0:0:0:0:
64,192,155760,1,0,0:0:0:0:
192,192,155760,1,0,0:0:0:0:
320,192,155810,1,0,0:0:0:0:
448,192,155810,1,0,0:0:0:0:
64,192,155860,1,0,0:0:0:0:
192,192,155910,1,0,0:0:0:0:
320,192,155910,1,0,0:0:0:0:
448,192,155960,1,0,0:0:0:0:
192,192,156010,1,0,0:0:0:0:
64,192,156010,1,0,0:0:0:0:
448,192,156060,1,0,0:0:0:0:
320,192,156110,1,0,0:0:0:0:
64,192,156110,1,0,0:0:0:0:
192,192,156159,1,0,0:0:0:0:
320,192,156209,1,0,0:0:0:0:
448,192,156209,1,0,0:0:0:0:
192,192,156259,1,0,0:0:0:0:
64,192,156309,1,0,0:0:0:0:
448,192,156309,1,0,0:0:0:0:
320,192,156359,1,0,0:0:0:0:
192,192,156409,1,0,0:0:0:0:
64,192,156409,1,0,0:0:0:0:
448,192,156409,1,0,0:0:0:0:
320,192,156459,1,0,0:0:0:0:
192,192,156509,1,0,0:0:0:0:
64,192,156509,1,0,0:0:0:0:
448,192,156509,1,0,0:0:0:0:
320,192,156558,1,0,0:0:0:0:
192,192,156608,1,0,0:0:0:0:
64,192,156608,1,0,0:0:0:0:
448,192,156658,1,0,0:0:0:0:
192,192,156708,1,0,0:0:0:0:
320,192,156708,1,0,0:0:0:0:
64,192,156708,1,0,0:0:0:0:
448,192,156758,1,0,0:0:0:0:
320,192,156808,1,0,0:0:0:0:
192,192,156808,1,0,0:0:0:0:
64,192,156808,1,0,0:0:0:0:
448,192,156858,1,0,0:0:0:0:
64,192,156908,1,0,0:0:0:0:
192,192,156908,1,0,0:0:0:0:
320,192,156957,1,0,0:0:0:0:
448,192,157007,1,0,0:0:0:0:
64,192,157007,1,0,0:0:0:0:
192,192,157032,1,0,0:0:0:0:
320,192,157057,1,0,0:0:0:0:
448,192,157082,1,0,0:0:0:0:
64,192,157107,1,0,0:0:0:0:
192,192,157157,1,0,0:0:0:0:
64,192,157207,1,0,0:0:0:0:
448,192,157207,1,0,0:0:0:0:
320,192,157207,1,0,0:0:0:0:
192,192,157257,1,0,0:0:0:0:
64,192,157307,1,0,0:0:0:0:
448,192,157307,1,0,0:0:0:0:
320,192,157307,1,0,0:0:0:0:
192,192,157356,1,0,0:0:0:0:
448,192,157406,1,0,0:0:0:0:
320,192,157406,1,0,0:0:0:0:
64,192,157456,1,0,0:0:0:0:
320,192,157506,1,0,0:0:0:0:
448,192,157506,1,0,0:0:0:0:
192,192,157506,1,0,0:0:0:0:
64,192,157556,1,0,0:0:0:0:
320,192,157606,1,0,0:0:0:0:
192,192,157606,1,0,0:0:0:0:
448,192,157606,1,0,0:0:0:0:
64,192,157656,1,0,0:0:0:0:
320,192,157706,1,0,0:0:0:0:
448,192,157706,1,0,0:0:0:0:
192,192,157756,1,0,0:0:0:0:
64,192,157805,1,0,0:0:0:0:
320,192,157805,1,0,0:0:0:0:
448,192,157805,1,0,0:0:0:0:
192,192,157855,1,0,0:0:0:0:
64,192,157905,1,0,0:0:0:0:
448,192,157905,1,0,0:0:0:0:
320,192,157955,1,0,0:0:0:0:
192,192,158005,1,0,0:0:0:0:
64,192,158005,1,0,0:0:0:0:
448,192,158005,1,0,0:0:0:0:
320,192,158055,1,0,0:0:0:0:
192,192,158105,1,0,0:0:0:0:
64,192,158105,1,0,0:0:0:0:
320,192,158155,1,0,0:0:0:0:
448,192,158155,1,0,0:0:0:0:
192,192,158204,1,0,0:0:0:0:
64,192,158204,1,0,0:0:0:0:
448,192,158254,1,0,0:0:0:0:
320,192,158254,1,0,0:0:0:0:
64,192,158304,1,0,0:0:0:0:
192,192,158304,1,0,0:0:0:0:
320,192,158354,1,0,0:0:0:0:
448,192,158354,1,0,0:0:0:0:
192,192,158404,1,0,0:0:0:0:
64,192,158404,1,0,0:0:0:0:
320,192,158454,1,0,0:0:0:0:
448,192,158454,1,0,0:0:0:0:
192,192,158504,1,0,0:0:0:0:
64,192,158504,1,0,0:0:0:0:
320,192,158554,1,0,0:0:0:0:
448,192,158554,1,0,0:0:0:0:
64,192,158603,1,0,0:0:0:0:
192,192,158628,1,0,0:0:0:0:
320,192,158653,1,0,0:0:0:0:
448,192,158678,1,0,0:0:0:0:
64,192,158703,1,0,0:0:0:0:
192,192,158728,1,0,0:0:0:0:
320,192,158753,1,0,0:0:0:0:
448,192,158778,1,0,0:0:0:0:
192,192,158803,1,0,0:0:0:0:
64,192,158803,1,0,0:0:0:0:
320,192,158853,1,0,0:0:0:0:
448,192,158853,1,0,0:0:0:0:
192,192,158903,1,0,0:0:0:0:
64,192,158903,1,0,0:0:0:0:
320,192,158953,1,0,0:0:0:0:
448,192,158953,1,0,0:0:0:0:
192,192,159003,1,0,0:0:0:0:
64,192,159003,1,0,0:0:0:0:
448,192,159052,1,0,0:0:0:0:
320,192,159102,1,0,0:0:0:0:
192,192,159102,1,0,0:0:0:0:
64,192,159152,1,0,0:0:0:0:
320,192,159202,1,0,0:0:0:0:
448,192,159202,1,0,0:0:0:0:
192,192,159252,1,0,0:0:0:0:
64,192,159252,1,0,0:0:0:0:
320,192,159302,1,0,0:0:0:0:
448,192,159302,1,0,0:0:0:0:
64,192,159352,1,0,0:0:0:0:
192,192,159402,1,0,0:0:0:0:
320,192,159402,1,0,0:0:0:0:
448,192,159451,1,0,0:0:0:0:
64,192,159501,1,0,0:0:0:0:
192,192,159501,1,0,0:0:0:0:
320,192,159551,1,0,0:0:0:0:
448,192,159601,1,0,0:0:0:0:
64,192,159601,1,0,0:0:0:0:
320,192,159651,1,0,0:0:0:0:
192,192,159651,1,0,0:0:0:0:
448,192,159701,1,0,0:0:0:0:
64,192,159701,1,0,0:0:0:0:
192,192,159751,1,0,0:0:0:0:
64,192,159801,1,0,0:0:0:0:
320,192,159801,1,0,0:0:0:0:
192,192,159850,1,0,0:0:0:0:
448,192,159850,1,0,0:0:0:0:
64,192,159900,1,0,0:0:0:0:
320,192,159900,1,0,0:0:0:0:
192,192,159950,1,0,0:0:0:0:
64,192,160000,1,0,0:0:0:0:
448,192,160000,1,0,0:0:0:0:
320,192,160050,1,0,0:0:0:0:
192,192,160050,1,0,0:0:0:0:
64,192,160100,1,0,0:0:0:0:
448,192,160100,1,0,0:0:0:0:
320,192,160150,1,0,0:0:0:0:
64,192,160200,1,0,0:0:0:0:
192,192,160225,1,0,0:0:0:0:
320,192,160249,1,0,0:0:0:0:
448,192,160274,1,0,0:0:0:0:
64,192,160299,1,0,0:0:0:0:
192,192,160324,1,0,0:0:0:0:
448,192,160349,1,0,0:0:0:0:
320,192,160374,1,0,0:0:0:0:
192,192,160399,1,0,0:0:0:0:
64,192,160399,1,0,0:0:0:0:
448,192,160449,1,0,0:0:0:0:
320,192,160449,1,0,0:0:0:0:
192,192,160499,1,0,0:0:0:0:
64,192,160499,1,0,0:0:0:0:
320,192,160549,1,0,0:0:0:0:
448,192,160549,1,0,0:0:0:0:
192,192,160599,1,0,0:0:0:0:
64,192,160599,1,0,0:0:0:0:
320,192,160649,1,0,0:0:0:0:
448,192,160649,1,0,0:0:0:0:
192,192,160698,1,0,0:0:0:0:
64,192,160698,1,0,0:0:0:0:
320,192,160748,1,0,0:0:0:0:
64,192,160798,1,0,0:0:0:0:
448,192,160798,1,0,0:0:0:0:
320,192,160848,1,0,0:0:0:0:
192,192,160848,1,0,0:0:0:0:
64,192,160898,1,0,0:0:0:0:
448,192,160898,1,0,0:0:0:0:
320,192,160948,1,0,0:0:0:0:
192,192,160948,1,0,0:0:0:0:
64,192,160998,1,0,0:0:0:0:
448,192,160998,1,0,0:0:0:0:
320,192,161048,1,0,0:0:0:0:
192,192,161048,1,0,0:0:0:0:
448,192,161097,1,0,0:0:0:0:
64,192,161097,1,0,0:0:0:0:
192,192,161147,1,0,0:0:0:0:
320,192,161197,5,0,0:0:0:0:
448,192,161197,1,0,0:0:0:0:
64,192,161247,1,0,0:0:0:0:
192,192,161247,1,0,0:0:0:0:
320,192,161297,1,0,0:0:0:0:
448,192,161297,1,0,0:0:0:0:
192,192,161347,1,0,0:0:0:0:
64,192,161347,1,0,0:0:0:0:
320,192,161397,1,0,0:0:0:0:
448,192,161397,1,0,0:0:0:0:
192,192,161447,1,0,0:0:0:0:
64,192,161447,1,0,0:0:0:0:
320,192,161496,1,0,0:0:0:0:
448,192,161496,1,0,0:0:0:0:
192,192,161546,1,0,0:0:0:0:
64,192,161546,1,0,0:0:0:0:
320,192,161596,1,0,0:0:0:0:
448,192,161596,1,0,0:0:0:0:
192,192,161646,1,0,0:0:0:0:
64,192,161646,1,0,0:0:0:0:
320,192,161696,1,0,0:0:0:0:
448,192,161696,1,0,0:0:0:0:
64,192,161746,1,0,0:0:0:0:
192,192,161796,1,0,0:0:0:0:
448,192,161796,1,0,0:0:0:0:
320,192,161821,1,0,0:0:0:0:
64,192,161846,1,0,0:0:0:0:
448,192,161871,1,0,0:0:0:0:
192,192,161895,1,0,0:0:0:0:
320,192,161945,1,0,0:0:0:0:
448,192,161995,1,0,0:0:0:0:
192,192,161995,1,0,0:0:0:0:
64,192,161995,1,0,0:0:0:0:
320,192,162095,1,0,0:0:0:0:
448,192,162095,1,0,0:0:0:0:
320,192,162195,1,0,0:0:0:0:
192,192,162195,1,0,0:0:0:0:
192,192,162295,1,0,0:0:0:0:
64,192,162295,1,0,0:0:0:0:
64,192,162394,1,0,0:0:0:0:
320,192,162394,1,0,0:0:0:0:
448,192,162394,1,0,0:0:0:0:
192,192,162494,1,0,0:0:0:0:
448,192,162494,1,0,0:0:0:0:
64,192,162594,1,0,0:0:0:0:
320,192,162594,1,0,0:0:0:0:
192,192,162694,1,0,0:0:0:0:
320,192,162694,1,0,0:0:0:0:
192,192,162793,1,0,0:0:0:0:
320,192,162793,1,0,0:0:0:0:
64,192,162793,1,0,0:0:0:0:
448,192,162793,1,0,0:0:0:0:
192,192,162893,1,0,0:0:0:0:
448,192,162893,1,0,0:0:0:0:
64,192,162893,1,0,0:0:0:0:
320,192,162993,1,0,0:0:0:0:
448,192,162993,1,0,0:0:0:0:
64,192,162993,1,0,0:0:0:0:
192,192,162993,1,0,0:0:0:0:
192,192,163093,1,0,0:0:0:0:
320,192,163093,1,0,0:0:0:0:
448,192,163093,1,0,0:0:0:0:
320,192,163192,1,0,0:0:0:0:
448,192,163192,1,0,0:0:0:0:
64,192,163192,1,0,0:0:0:0:
192,192,163242,1,0,0:0:0:0:
448,192,163292,1,0,0:0:0:0:
320,192,163292,1,0,0:0:0:0:
64,192,163292,1,0,0:0:0:0:
448,192,163392,1,0,0:0:0:0:
192,192,163392,1,0,0:0:0:0:
64,192,163392,1,0,0:0:0:0:
320,192,163392,1,0,0:0:0:0:
64,192,163492,1,0,0:0:0:0:
448,192,163492,1,0,0:0:0:0:
192,192,163492,1,0,0:0:0:0:
320,192,163542,1,0,0:0:0:0:
64,192,163591,1,0,0:0:0:0:
448,192,163591,1,0,0:0:0:0:
192,192,163591,1,0,0:0:0:0:
320,192,163691,1,0,0:0:0:0:
448,192,163691,1,0,0:0:0:0:
64,192,163691,1,0,0:0:0:0:
64,192,163791,1,0,0:0:0:0:
192,192,163791,1,0,0:0:0:0:
320,192,163841,1,0,0:0:0:0:
448,192,163841,1,0,0:0:0:0:
192,192,163891,1,0,0:0:0:0:
64,192,163891,1,0,0:0:0:0:
192,192,163990,1,0,0:0:0:0:
64,192,163990,1,0,0:0:0:0:
320,192,163990,1,0,0:0:0:0:
448,192,163990,1,0,0:0:0:0:
320,192,164090,1,0,0:0:0:0:
448,192,164090,1,0,0:0:0:0:
64,192,164090,1,0,0:0:0:0:
448,192,164190,1,0,0:0:0:0:
320,192,164190,1,0,0:0:0:0:
64,192,164240,1,0,0:0:0:0:
192,192,164240,1,0,0:0:0:0:
448,192,164290,1,0,0:0:0:0:
320,192,164315,1,0,0:0:0:0:
192,192,164340,1,0,0:0:0:0:
64,192,164365,1,0,0:0:0:0:
448,192,164389,1,0,0:0:0:0:
320,192,164389,1,0,0:0:0:0:
64,192,164439,1,0,0:0:0:0:
320,192,164489,1,0,0:0:0:0:
448,192,164489,1,0,0:0:0:0:
192,192,164539,1,0,0:0:0:0:
64,192,164539,1,0,0:0:0:0:
448,192,164589,1,0,0:0:0:0:
320,192,164639,1,0,0:0:0:0:
64,192,164639,1,0,0:0:0:0:
192,192,164689,1,0,0:0:0:0:
448,192,164689,1,0,0:0:0:0:
64,192,164739,1,0,0:0:0:0:
192,192,164788,1,0,0:0:0:0:
320,192,164788,1,0,0:0:0:0:
448,192,164788,1,0,0:0:0:0:
64,192,164838,1,0,0:0:0:0:
448,192,164888,1,0,0:0:0:0:
320,192,164888,1,0,0:0:0:0:
192,192,164938,1,0,0:0:0:0:
448,192,164988,1,0,0:0:0:0:
320,192,164988,1,0,0:0:0:0:
64,192,164988,1,0,0:0:0:0:
192,192,165038,1,0,0:0:0:0:
448,192,165088,1,0,0:0:0:0:
64,192,165088,1,0,0:0:0:0:
320,192,165138,1,0,0:0:0:0:
192,192,165188,1,0,0:0:0:0:
64,192,165188,1,0,0:0:0:0:
320,192,165237,1,0,0:0:0:0:
448,192,165237,1,0,0:0:0:0:
192,192,165287,1,0,0:0:0:0:
64,192,165287,1,0,0:0:0:0:
320,192,165337,1,0,0:0:0:0:
448,192,165337,1,0,0:0:0:0:
64,192,165387,1,0,0:0:0:0:
192,192,165387,1,0,0:0:0:0:
320,192,165487,1,0,0:0:0:0:
64,192,165487,1,0,0:0:0:0:
448,192,165487,1,0,0:0:0:0:
320,192,165587,1,0,0:0:0:0:
448,192,165587,1,0,0:0:0:0:
192,192,165636,1,0,0:0:0:0:
64,192,165636,1,0,0:0:0:0:
448,192,165686,1,0,0:0:0:0:
320,192,165686,1,0,0:0:0:0:
192,192,165736,1,0,0:0:0:0:
64,192,165736,1,0,0:0:0:0:
448,192,165786,1,0,0:0:0:0:
320,192,165786,1,0,0:0:0:0:
64,192,165836,1,0,0:0:0:0:
192,192,165836,1,0,0:0:0:0:
320,192,165886,1,0,0:0:0:0:
448,192,165886,1,0,0:0:0:0:
64,192,165936,1,0,0:0:0:0:
192,192,165986,1,0,0:0:0:0:
448,192,165986,1,0,0:0:0:0:
320,192,165986,1,0,0:0:0:0:
64,192,166035,1,0,0:0:0:0:
192,192,166085,1,0,0:0:0:0:
448,192,166085,1,0,0:0:0:0:
64,192,166135,1,0,0:0:0:0:
320,192,166135,1,0,0:0:0:0:
192,192,166185,1,0,0:0:0:0:
448,192,166185,1,0,0:0:0:0:
320,192,166235,1,0,0:0:0:0:
64,192,166285,1,0,0:0:0:0:
192,192,166285,1,0,0:0:0:0:
320,192,166335,1,0,0:0:0:0:
448,192,166335,1,0,0:0:0:0:
192,192,166385,1,0,0:0:0:0:
64,192,166385,1,0,0:0:0:0:
320,192,166435,1,0,0:0:0:0:
448,192,166484,1,0,0:0:0:0:
64,192,166484,1,0,0:0:0:0:
320,192,166534,1,0,0:0:0:0:
192,192,166534,1,0,0:0:0:0:
64,192,166584,1,0,0:0:0:0:
448,192,166584,1,0,0:0:0:0:
192,192,166634,1,0,0:0:0:0:
320,192,166634,1,0,0:0:0:0:
64,192,166684,1,0,0:0:0:0:
448,192,166684,1,0,0:0:0:0:
320,192,166734,1,0,0:0:0:0:
192,192,166784,1,0,0:0:0:0:
64,192,166784,1,0,0:0:0:0:
448,192,166784,1,0,0:0:0:0:
192,192,166883,1,0,0:0:0:0:
64,192,166883,1,0,0:0:0:0:
320,192,166883,1,0,0:0:0:0:
192,192,166983,1,0,0:0:0:0:
320,192,166983,1,0,0:0:0:0:
448,192,166983,1,0,0:0:0:0:
64,192,167083,1,0,0:0:0:0:
320,192,167083,1,0,0:0:0:0:
448,192,167083,1,0,0:0:0:0:
64,192,167183,1,0,0:0:0:0:
192,192,167183,1,0,0:0:0:0:
448,192,167183,1,0,0:0:0:0:
320,192,167233,1,0,0:0:0:0:
64,192,167282,1,0,0:0:0:0:
192,192,167282,1,0,0:0:0:0:
320,192,167332,1,0,0:0:0:0:
192,192,167382,1,0,0:0:0:0:
64,192,167382,1,0,0:0:0:0:
448,192,167432,1,0,0:0:0:0:
320,192,167482,1,0,0:0:0:0:
192,192,167482,1,0,0:0:0:0:
64,192,167507,1,0,0:0:0:0:
448,192,167532,1,0,0:0:0:0:
320,192,167557,1,0,0:0:0:0:
192,192,167582,1,0,0:0:0:0:
64,192,167582,1,0,0:0:0:0:
320,192,167632,1,0,0:0:0:0:
448,192,167632,1,0,0:0:0:0:
64,192,167681,1,0,0:0:0:0:
192,192,167681,1,0,0:0:0:0:
320,192,167731,1,0,0:0:0:0:
64,192,167781,1,0,0:0:0:0:
448,192,167781,1,0,0:0:0:0:
192,192,167781,1,0,0:0:0:0:
320,192,167831,1,0,0:0:0:0:
448,192,167881,1,0,0:0:0:0:
64,192,167881,1,0,0:0:0:0:
192,192,167931,1,0,0:0:0:0:
64,192,167981,1,0,0:0:0:0:
320,192,167981,1,0,0:0:0:0:
448,192,167981,1,0,0:0:0:0:
192,192,168031,1,0,0:0:0:0:
320,192,168081,1,0,0:0:0:0:
448,192,168081,1,0,0:0:0:0:
64,192,168130,1,0,0:0:0:0:
192,192,168130,1,0,0:0:0:0:
320,192,168180,1,0,0:0:0:0:
448,192,168180,1,0,0:0:0:0:
192,192,168230,1,0,0:0:0:0:
64,192,168280,1,0,0:0:0:0:
448,192,168280,1,0,0:0:0:0:
320,192,168330,1,0,0:0:0:0:
192,192,168380,1,0,0:0:0:0:
64,192,168380,1,0,0:0:0:0:
448,192,168380,1,0,0:0:0:0:
448,192,168480,1,0,0:0:0:0:
64,192,168480,1,0,0:0:0:0:
320,192,168480,1,0,0:0:0:0:
192,192,168529,1,0,0:0:0:0:
64,192,168579,1,0,0:0:0:0:
320,192,168579,1,0,0:0:0:0:
448,192,168579,1,0,0:0:0:0:
448,192,168679,1,0,0:0:0:0:
64,192,168679,1,0,0:0:0:0:
192,192,168679,1,0,0:0:0:0:
320,192,168729,1,0,0:0:0:0:
192,192,168779,1,0,0:0:0:0:
64,192,168779,1,0,0:0:0:0:
448,192,168779,1,0,0:0:0:0:
192,192,168879,1,0,0:0:0:0:
320,192,168879,1,0,0:0:0:0:
448,192,168928,1,0,0:0:0:0:
192,192,168978,1,0,0:0:0:0:
64,192,168978,1,0,0:0:0:0:
448,192,169028,1,0,0:0:0:0:
320,192,169028,1,0,0:0:0:0:
64,192,169078,1,0,0:0:0:0:
192,192,169078,1,0,0:0:0:0:
448,192,169128,1,0,0:0:0:0:
320,192,169178,1,0,0:0:0:0:
64,192,169178,1,0,0:0:0:0:
192,192,169178,1,0,0:0:0:0:
64,192,169278,1,0,0:0:0:0:
448,192,169278,1,0,0:0:0:0:
320,192,169278,1,0,0:0:0:0:
192,192,169377,1,0,0:0:0:0:
64,192,169377,1,0,0:0:0:0:
448,192,169377,1,0,0:0:0:0:
320,192,169477,1,0,0:0:0:0:
448,192,169477,1,0,0:0:0:0:
192,192,169477,1,0,0:0:0:0:
64,192,169477,1,0,0:0:0:0:
320,192,169577,1,0,0:0:0:0:
448,192,169577,1,0,0:0:0:0:
64,192,169577,1,0,0:0:0:0:
192,192,169627,1,0,0:0:0:0:
448,192,169677,1,0,0:0:0:0:
64,192,169677,1,0,0:0:0:0:
448,192,169776,1,0,0:0:0:0:
64,192,169776,1,0,0:0:0:0:
192,192,169776,1,0,0:0:0:0:
320,192,169776,1,0,0:0:0:0:
64,192,169876,1,0,0:0:0:0:
320,192,169876,1,0,0:0:0:0:
192,192,169926,1,0,0:0:0:0:
64,192,169976,1,0,0:0:0:0:
320,192,169976,1,0,0:0:0:0:
448,192,169976,1,0,0:0:0:0:
320,192,170076,1,0,0:0:0:0:
448,192,170076,1,0,0:0:0:0:
192,192,170076,1,0,0:0:0:0:
64,192,170175,1,0,0:0:0:0:
192,192,170175,1,0,0:0:0:0:
448,192,170175,1,0,0:0:0:0:
320,192,170225,1,0,0:0:0:0:
64,192,170275,1,0,0:0:0:0:
448,192,170275,1,0,0:0:0:0:
192,192,170275,1,0,0:0:0:0:
64,192,170375,1,0,0:0:0:0:
192,192,170375,1,0,0:0:0:0:
320,192,170375,1,0,0:0:0:0:
448,192,170375,1,0,0:0:0:0:
64,192,170475,1,0,0:0:0:0:
192,192,170475,1,0,0:0:0:0:
320,192,170525,1,0,0:0:0:0:
448,192,170525,1,0,0:0:0:0:
64,192,170574,1,0,0:0:0:0:
192,192,170599,1,0,0:0:0:0:
320,192,170624,1,0,0:0:0:0:
448,192,170649,1,0,0:0:0:0:
64,192,170674,1,0,0:0:0:0:
192,192,170699,1,0,0:0:0:0:
448,192,170724,1,0,0:0:0:0:
320,192,170749,1,0,0:0:0:0:
192,192,170774,1,0,0:0:0:0:
64,192,170774,1,0,0:0:0:0:
320,192,170824,1,0,0:0:0:0:
448,192,170824,1,0,0:0:0:0:
192,192,170874,1,0,0:0:0:0:
64,192,170874,1,0,0:0:0:0:
320,192,170924,1,0,0:0:0:0:
448,192,170924,1,0,0:0:0:0:
192,192,170974,1,0,0:0:0:0:
64,192,170974,1,0,0:0:0:0:
320,192,171023,1,0,0:0:0:0:
64,192,171073,1,0,0:0:0:0:
448,192,171073,1,0,0:0:0:0:
192,192,171123,1,0,0:0:0:0:
64,192,171173,1,0,0:0:0:0:
320,192,171173,1,0,0:0:0:0:
448,192,171173,1,0,0:0:0:0:
192,192,171273,1,0,0:0:0:0:
320,192,171273,1,0,0:0:0:0:
448,192,171273,1,0,0:0:0:0:
192,192,171373,1,0,0:0:0:0:
64,192,171373,1,0,0:0:0:0:
320,192,171373,1,0,0:0:0:0:
448,192,171373,1,0,0:0:0:0:
64,192,171472,1,0,0:0:0:0:
448,192,171472,1,0,0:0:0:0:
192,192,171472,1,0,0:0:0:0:
64,192,171572,1,0,0:0:0:0:
320,192,171572,1,0,0:0:0:0:
448,192,171572,1,0,0:0:0:0:
192,192,171622,1,0,0:0:0:0:
320,192,171672,1,0,0:0:0:0:
448,192,171672,1,0,0:0:0:0:
192,192,171722,1,0,0:0:0:0:
64,192,171722,1,0,0:0:0:0:
320,192,171772,1,0,0:0:0:0:
448,192,171772,1,0,0:0:0:0:
192,192,171871,1,0,0:0:0:0:
448,192,171871,1,0,0:0:0:0:
64,192,171871,1,0,0:0:0:0:
64,192,171971,1,0,0:0:0:0:
192,192,171971,1,0,0:0:0:0:
448,192,171971,1,0,0:0:0:0:
320,192,171971,1,0,0:0:0:0:
320,192,172071,1,0,0:0:0:0:
448,192,172071,1,0,0:0:0:0:
192,192,172121,1,0,0:0:0:0:
64,192,172121,1,0,0:0:0:0:
448,192,172171,1,0,0:0:0:0:
320,192,172171,1,0,0:0:0:0:
192,192,172204,1,0,0:0:0:0:
64,192,172237,1,0,0:0:0:0:
448,192,172270,1,0,0:0:0:0:
320,192,172304,1,0,0:0:0:0:
192,192,172337,1,0,0:0:0:0:
64,192,172370,1,0,0:0:0:0:
320,192,172370,1,0,0:0:0:0:
448,192,172370,1,0,0:0:0:0:
192,192,172420,1,0,0:0:0:0:
64,192,172470,1,0,0:0:0:0:
448,192,172470,1,0,0:0:0:0:
320,192,172520,1,0,0:0:0:0:
448,192,172570,1,0,0:0:0:0:
192,192,172570,1,0,0:0:0:0:
64,192,172570,1,0,0:0:0:0:
320,192,172620,1,0,0:0:0:0:
192,192,172669,1,0,0:0:0:0:
448,192,172669,1,0,0:0:0:0:
64,192,172719,1,0,0:0:0:0:
320,192,172719,1,0,0:0:0:0:
192,192,172769,1,0,0:0:0:0:
448,192,172769,1,0,0:0:0:0:
64,192,172819,1,0,0:0:0:0:
320,192,172869,1,0,0:0:0:0:
448,192,172869,1,0,0:0:0:0:
64,192,172919,1,0,0:0:0:0:
192,192,172969,1,0,0:0:0:0:
320,192,172969,1,0,0:0:0:0:
448,192,172969,1,0,0:0:0:0:
64,192,173019,1,0,0:0:0:0:
192,192,173068,1,0,0:0:0:0:
448,192,173068,1,0,0:0:0:0:
320,192,173118,1,0,0:0:0:0:
64,192,173118,1,0,0:0:0:0:
448,192,173168,1,0,0:0:0:0:
192,192,173168,1,0,0:0:0:0:
320,192,173218,1,0,0:0:0:0:
192,192,173268,1,0,0:0:0:0:
64,192,173268,1,0,0:0:0:0:
320,192,173318,1,0,0:0:0:0:
448,192,173318,1,0,0:0:0:0:
192,192,173368,1,0,0:0:0:0:
64,192,173368,1,0,0:0:0:0:
320,192,173418,1,0,0:0:0:0:
448,192,173418,1,0,0:0:0:0:
192,192,173467,1,0,0:0:0:0:
64,192,173467,1,0,0:0:0:0:
448,192,173517,1,0,0:0:0:0:
320,192,173567,1,0,0:0:0:0:
64,192,173567,1,0,0:0:0:0:
192,192,173567,1,0,0:0:0:0:
448,192,173617,1,0,0:0:0:0:
320,192,173667,1,0,0:0:0:0:
64,192,173667,1,0,0:0:0:0:
192,192,173717,1,0,0:0:0:0:
320,192,173767,1,0,0:0:0:0:
448,192,173767,1,0,0:0:0:0:
64,192,173767,1,0,0:0:0:0:
192,192,173817,1,0,0:0:0:0:
448,192,173866,1,0,0:0:0:0:
320,192,173891,1,0,0:0:0:0:
192,192,173916,1,0,0:0:0:0:
64,192,173941,1,0,0:0:0:0:
448,192,173966,1,0,0:0:0:0:
320,192,173966,1,0,0:0:0:0:
192,192,174016,1,0,0:0:0:0:
64,192,174066,1,0,0:0:0:0:
448,192,174066,1,0,0:0:0:0:
320,192,174116,1,0,0:0:0:0:
192,192,174166,1,0,0:0:0:0:
64,192,174166,1,0,0:0:0:0:
448,192,174216,1,0,0:0:0:0:
192,192,174266,1,0,0:0:0:0:
64,192,174266,1,0,0:0:0:0:
320,192,174315,1,0,0:0:0:0:
448,192,174365,1,0,0:0:0:0:
64,192,174365,1,0,0:0:0:0:
192,192,174415,1,0,0:0:0:0:
320,192,174415,1,0,0:0:0:0:
64,192,174465,1,0,0:0:0:0:
448,192,174465,1,0,0:0:0:0:
192,192,174515,1,0,0:0:0:0:
320,192,174565,1,0,0:0:0:0:
448,192,174565,1,0,0:0:0:0:
64,192,174615,1,0,0:0:0:0:
320,192,174665,1,0,0:0:0:0:
448,192,174665,1,0,0:0:0:0:
192,192,174714,1,0,0:0:0:0:
64,192,174764,1,0,0:0:0:0:
448,192,174764,1,0,0:0:0:0:
320,192,174798,1,0,0:0:0:0:
192,192,174831,1,0,0:0:0:0:
448,192,174864,1,0,0:0:0:0:
320,192,174897,1,0,0:0:0:0:
64,192,174964,1,0,0:0:0:0:
448,192,174964,1,0,0:0:0:0:
192,192,174997,1,0,0:0:0:0:
320,192,175030,1,0,0:0:0:0:
64,192,175064,1,0,0:0:0:0:
192,192,175097,1,0,0:0:0:0:
64,192,175163,1,0,0:0:0:0:
320,192,175163,1,0,0:0:0:0:
448,192,175163,1,0,0:0:0:0:
192,192,175263,1,0,0:0:0:0:
64,192,175363,1,0,0:0:0:0:
192,192,175363,1,0,0:0:0:0:
320,192,175363,1,0,0:0:0:0:
448,192,175363,1,0,0:0:0:0:
448,192,175463,1,0,0:0:0:0:
64,192,175562,1,0,0:0:0:0:
192,192,175587,1,0,0:0:0:0:
320,192,175612,1,0,0:0:0:0:
448,192,175637,1,0,0:0:0:0:
192,192,175662,1,0,0:0:0:0:
64,192,175662,1,0,0:0:0:0:
320,192,175712,1,0,0:0:0:0:
448,192,175712,1,0,0:0:0:0:
64,192,175762,1,0,0:0:0:0:
192,192,175787,1,0,0:0:0:0:
448,192,175812,1,0,0:0:0:0:
320,192,175837,1,0,0:0:0:0:
192,192,175862,1,0,0:0:0:0:
64,192,175862,1,0,0:0:0:0:
320,192,175912,1,0,0:0:0:0:
192,192,175961,1,0,0:0:0:0:
64,192,175961,1,0,0:0:0:0:
448,192,175961,1,0,0:0:0:0:
448,192,176061,1,0,0:0:0:0:
320,192,176061,1,0,0:0:0:0:
192,192,176111,1,0,0:0:0:0:
64,192,176111,1,0,0:0:0:0:
448,192,176161,1,0,0:0:0:0:
320,192,176186,1,0,0:0:0:0:
192,192,176211,1,0,0:0:0:0:
64,192,176236,1,0,0:0:0:0:
448,192,176261,1,0,0:0:0:0:
320,192,176261,1,0,0:0:0:0:
192,192,176311,1,0,0:0:0:0:
64,192,176311,1,0,0:0:0:0:
448,192,176360,1,0,0:0:0:0:
320,192,176385,1,0,0:0:0:0:
192,192,176410,1,0,0:0:0:0:
64,192,176435,1,0,0:0:0:0:
320,192,176460,1,0,0:0:0:0:
448,192,176460,1,0,0:0:0:0:
192,192,176510,1,0,0:0:0:0:
64,192,176510,1,0,0:0:0:0:
448,192,176560,1,0,0:0:0:0:
320,192,176585,1,0,0:0:0:0:
64,192,176610,1,0,0:0:0:0:
192,192,176635,1,0,0:0:0:0:
320,192,176660,1,0,0:0:0:0:
448,192,176660,1,0,0:0:0:0:
192,192,176710,1,0,0:0:0:0:
64,192,176759,1,0,0:0:0:0:
448,192,176759,1,0,0:0:0:0:
320,192,176759,1,0,0:0:0:0:
448,192,176859,1,0,0:0:0:0:
320,192,176884,1,0,0:0:0:0:
192,192,176909,1,0,0:0:0:0:
448,192,176959,1,0,0:0:0:0:
320,192,176984,1,0,0:0:0:0:
192,192,177009,1,0,0:0:0:0:
64,192,177034,1,0,0:0:0:0:
448,192,177059,1,0,0:0:0:0:
320,192,177059,1,0,0:0:0:0:
192,192,177109,1,0,0:0:0:0:
64,192,177109,1,0,0:0:0:0:
448,192,177159,1,0,0:0:0:0:
320,192,177183,1,0,0:0:0:0:
192,192,177208,1,0,0:0:0:0:
320,192,177258,1,0,0:0:0:0:
192,192,177283,1,0,0:0:0:0:
64,192,177308,1,0,0:0:0:0:
448,192,177358,1,0,0:0:0:0:
320,192,177383,1,0,0:0:0:0:
192,192,177408,1,0,0:0:0:0:
64,192,177433,1,0,0:0:0:0:
448,192,177458,1,0,0:0:0:0:
320,192,177483,1,0,0:0:0:0:
192,192,177508,1,0,0:0:0:0:
64,192,177533,1,0,0:0:0:0:
320,192,177558,1,0,0:0:0:0:
448,192,177558,1,0,0:0:0:0:
64,192,177657,1,0,0:0:0:0:
192,192,177657,1,0,0:0:0:0:
320,192,177707,1,0,0:0:0:0:
448,192,177707,1,0,0:0:0:0:
64,192,177757,1,0,0:0:0:0:
192,192,177782,1,0,0:0:0:0:
320,192,177807,1,0,0:0:0:0:
448,192,177832,1,0,0:0:0:0:
64,192,177857,1,0,0:0:0:0:
192,192,177857,1,0,0:0:0:0:
320,192,177907,1,0,0:0:0:0:
448,192,177907,1,0,0:0:0:0:
64,192,177957,1,0,0:0:0:0:
192,192,177982,1,0,0:0:0:0:
320,192,178006,1,0,0:0:0:0:
192,192,178056,1,0,0:0:0:0:
320,192,178081,1,0,0:0:0:0:
448,192,178106,1,0,0:0:0:0:
64,192,178156,1,0,0:0:0:0:
192,192,178181,1,0,0:0:0:0:
448,192,178206,1,0,0:0:0:0:
320,192,178231,1,0,0:0:0:0:
192,192,178256,1,0,0:0:0:0:
64,192,178281,1,0,0:0:0:0:
320,192,178306,1,0,0:0:0:0:
448,192,178331,1,0,0:0:0:0:
192,192,178356,1,0,0:0:0:0:
64,192,178356,1,0,0:0:0:0:
320,192,178455,1,0,0:0:0:0:
192,192,178455,1,0,0:0:0:0:
320,192,178505,1,0,0:0:0:0:
448,192,178555,1,0,0:0:0:0:
64,192,178555,1,0,0:0:0:0:
64,192,178655,1,0,0:0:0:0:
448,192,178655,1,0,0:0:0:0:
64,192,178755,1,0,0:0:0:0:
192,192,178780,1,0,0:0:0:0:
320,192,178805,1,0,0:0:0:0:
448,192,178829,1,0,0:0:0:0:
192,192,178854,1,0,0:0:0:0:
64,192,178854,1,0,0:0:0:0:
320,192,178904,1,0,0:0:0:0:
448,192,178904,1,0,0:0:0:0:
192,192,178954,1,0,0:0:0:0:
64,192,178979,1,0,0:0:0:0:
448,192,179004,1,0,0:0:0:0:
320,192,179029,1,0,0:0:0:0:
192,192,179054,1,0,0:0:0:0:
64,192,179054,1,0,0:0:0:0:
320,192,179104,1,0,0:0:0:0:
64,192,179154,1,0,0:0:0:0:
192,192,179154,1,0,0:0:0:0:
448,192,179154,1,0,0:0:0:0:
448,192,179253,1,0,0:0:0:0:
320,192,179278,1,0,0:0:0:0:
192,192,179303,1,0,0:0:0:0:
64,192,179353,1,0,0:0:0:0:
192,192,179378,1,0,0:0:0:0:
320,192,179403,1,0,0:0:0:0:
448,192,179428,1,0,0:0:0:0:
192,192,179453,1,0,0:0:0:0:
64,192,179453,1,0,0:0:0:0:
320,192,179503,1,0,0:0:0:0:
448,192,179503,1,0,0:0:0:0:
64,192,179553,1,0,0:0:0:0:
192,192,179578,1,0,0:0:0:0:
448,192,179603,1,0,0:0:0:0:
320,192,179628,1,0,0:0:0:0:
192,192,179652,1,0,0:0:0:0:
64,192,179652,1,0,0:0:0:0:
448,192,179702,1,0,0:0:0:0:
320,192,179702,1,0,0:0:0:0:
192,192,179752,1,0,0:0:0:0:
64,192,179777,1,0,0:0:0:0:
320,192,179802,1,0,0:0:0:0:
448,192,179827,1,0,0:0:0:0:
192,192,179852,1,0,0:0:0:0:
64,192,179852,1,0,0:0:0:0:
320,192,179902,1,0,0:0:0:0:
192,192,179952,1,0,0:0:0:0:
64,192,179952,1,0,0:0:0:0:
448,192,179952,1,0,0:0:0:0:
320,192,180052,1,0,0:0:0:0:
448,192,180052,1,0,0:0:0:0:
192,192,180101,1,0,0:0:0:0:
64,192,180101,1,0,0:0:0:0:
448,192,180151,1,0,0:0:0:0:
320,192,180176,1,0,0:0:0:0:
64,192,180201,1,0,0:0:0:0:
192,192,180226,1,0,0:0:0:0:
320,192,180251,1,0,0:0:0:0:
448,192,180251,1,0,0:0:0:0:
192,192,180301,1,0,0:0:0:0:
64,192,180301,1,0,0:0:0:0:
448,192,180351,1,0,0:0:0:0:
320,192,180376,1,0,0:0:0:0:
192,192,180401,1,0,0:0:0:0:
320,192,180451,1,0,0:0:0:0:
192,192,180475,1,0,0:0:0:0:
64,192,180500,1,0,0:0:0:0:
448,192,180550,1,0,0:0:0:0:
320,192,180575,1,0,0:0:0:0:
192,192,180600,1,0,0:0:0:0:
64,192,180625,1,0,0:0:0:0:
320,192,180650,1,0,0:0:0:0:
448,192,180650,1,0,0:0:0:0:
64,192,180700,1,0,0:0:0:0:
320,192,180750,1,0,0:0:0:0:
448,192,180750,1,0,0:0:0:0:
192,192,180750,1,0,0:0:0:0:
192,192,180850,1,0,0:0:0:0:
64,192,180850,1,0,0:0:0:0:
320,192,180899,1,0,0:0:0:0:
448,192,180899,1,0,0:0:0:0:
64,192,180949,1,0,0:0:0:0:
192,192,180974,1,0,0:0:0:0:
320,192,180999,1,0,0:0:0:0:
448,192,181024,1,0,0:0:0:0:
64,192,181049,1,0,0:0:0:0:
192,192,181049,1,0,0:0:0:0:
320,192,181099,1,0,0:0:0:0:
192,192,181149,1,0,0:0:0:0:
448,192,181149,1,0,0:0:0:0:
64,192,181149,1,0,0:0:0:0:
320,192,181199,1,0,0:0:0:0:
192,192,181249,1,0,0:0:0:0:
64,192,181298,1,0,0:0:0:0:
320,192,181298,1,0,0:0:0:0:
448,192,181298,1,0,0:0:0:0:
192,192,181348,1,0,0:0:0:0:
320,192,181398,1,0,0:0:0:0:
448,192,181448,1,0,0:0:0:0:
192,192,181448,1,0,0:0:0:0:
64,192,181448,1,0,0:0:0:0:
320,192,181498,1,0,0:0:0:0:
192,192,181548,1,0,0:0:0:0:
64,192,181548,1,0,0:0:0:0:
448,192,181548,1,0,0:0:0:0:
320,192,181598,1,0,0:0:0:0:
64,192,181648,1,0,0:0:0:0:
192,192,181673,1,0,0:0:0:0:
320,192,181698,1,0,0:0:0:0:
448,192,181722,1,0,0:0:0:0:
64,192,181747,1,0,0:0:0:0:
192,192,181747,1,0,0:0:0:0:
320,192,181797,1,0,0:0:0:0:
448,192,181797,1,0,0:0:0:0:
192,192,181847,1,0,0:0:0:0:
64,192,181847,1,0,0:0:0:0:
320,192,181897,1,0,0:0:0:0:
448,192,181897,1,0,0:0:0:0:
192,192,181947,1,0,0:0:0:0:
448,192,181947,1,0,0:0:0:0:
64,192,181947,1,0,0:0:0:0:
320,192,181947,1,0,0:0:0:0:
192,192,182047,1,0,0:0:0:0:
64,192,182047,1,0,0:0:0:0:
448,192,182047,1,0,0:0:0:0:
64,192,182146,1,0,0:0:0:0:
320,192,182146,1,0,0:0:0:0:
192,192,182146,1,0,0:0:0:0:
448,192,182146,1,0,0:0:0:0:
64,192,182246,1,0,0:0:0:0:
192,192,182246,1,0,0:0:0:0:
448,192,182246,1,0,0:0:0:0:
320,192,182246,1,0,0:0:0:0:
64,192,182346,1,0,0:0:0:0:
320,192,182346,1,0,0:0:0:0:
448,192,182346,1,0,0:0:0:0:
192,192,182346,1,0,0:0:0:0:
64,192,182446,1,0,0:0:0:0:
320,192,182446,1,0,0:0:0:0:
448,192,182446,1,0,0:0:0:0:
64,192,182545,1,0,0:0:0:0:
192,192,182545,1,0,0:0:0:0:
320,192,182545,1,0,0:0:0:0:
448,192,182545,1,0,0:0:0:0:
64,192,182645,1,0,0:0:0:0:
320,192,182645,1,0,0:0:0:0:
192,192,182645,1,0,0:0:0:0:
448,192,182645,1,0,0:0:0:0:
64,192,182745,1,0,0:0:0:0:
192,192,182745,1,0,0:0:0:0:
320,192,182745,1,0,0:0:0:0:
448,192,182745,1,0,0:0:0:0:
64,192,182845,1,0,0:0:0:0:
192,192,182845,1,0,0:0:0:0:
320,192,182845,1,0,0:0:0:0:
64,192,182944,1,0,0:0:0:0:
192,192,182944,1,0,0:0:0:0:
320,192,182944,1,0,0:0:0:0:
448,192,182944,1,0,0:0:0:0:
64,192,183044,1,0,0:0:0:0:
192,192,183044,1,0,0:0:0:0:
448,192,183044,1,0,0:0:0:0:
320,192,183044,1,0,0:0:0:0:
448,192,183144,1,0,0:0:0:0:
320,192,183144,1,0,0:0:0:0:
64,192,183177,1,0,0:0:0:0:
192,192,183211,1,0,0:0:0:0:
448,192,183244,1,0,0:0:0:0:
320,192,183277,1,0,0:0:0:0:
192,192,183310,1,0,0:0:0:0:
448,192,183344,1,0,0:0:0:0:
64,192,183344,1,0,0:0:0:0:
320,192,183368,1,0,0:0:0:0:
192,192,183393,1,0,0:0:0:0:
64,192,183418,1,0,0:0:0:0:
448,192,183443,1,0,0:0:0:0:
320,192,183468,1,0,0:0:0:0:
192,192,183493,1,0,0:0:0:0:
64,192,183493,1,0,0:0:0:0:
192,192,183543,1,0,0:0:0:0:
64,192,183543,1,0,0:0:0:0:
448,192,183543,1,0,0:0:0:0:
320,192,183543,1,0,0:0:0:0:
192,192,183643,1,0,0:0:0:0:
320,192,183643,1,0,0:0:0:0:
448,192,183643,1,0,0:0:0:0:
64,192,183743,1,0,0:0:0:0:
192,192,183743,1,0,0:0:0:0:
320,192,183743,1,0,0:0:0:0:
448,192,183743,1,0,0:0:0:0:
64,192,183842,1,0,0:0:0:0:
192,192,183842,1,0,0:0:0:0:
320,192,183842,1,0,0:0:0:0:
448,192,183842,1,0,0:0:0:0:
64,192,183942,5,0,0:0:0:0:
320,192,183942,1,0,0:0:0:0:
448,192,183942,1,0,0:0:0:0:
192,192,183942,1,0,0:0:0:0:
64,192,184042,1,0,0:0:0:0:
320,192,184042,1,0,0:0:0:0:
448,192,184042,1,0,0:0:0:0:
64,192,184142,1,0,0:0:0:0:
448,192,184142,1,0,0:0:0:0:
320,192,184142,1,0,0:0:0:0:
192,192,184142,1,0,0:0:0:0:
64,192,184241,1,0,0:0:0:0:
192,192,184241,1,0,0:0:0:0:
320,192,184241,1,0,0:0:0:0:
448,192,184241,1,0,0:0:0:0:
64,192,184341,1,0,0:0:0:0:
320,192,184341,1,0,0:0:0:0:
448,192,184341,1,0,0:0:0:0:
192,192,184391,1,0,0:0:0:0:
448,192,184441,1,0,0:0:0:0:
320,192,184441,1,0,0:0:0:0:
64,192,184474,1,0,0:0:0:0:
192,192,184507,1,0,0:0:0:0:
320,192,184541,1,0,0:0:0:0:
448,192,184541,1,0,0:0:0:0:
64,192,184574,1,0,0:0:0:0:
192,192,184607,1,0,0:0:0:0:
320,192,184640,1,0,0:0:0:0:
448,192,184640,1,0,0:0:0:0:
64,192,184674,1,0,0:0:0:0:
192,192,184707,1,0,0:0:0:0:
320,192,184740,1,0,0:0:0:0:
448,192,184765,1,0,0:0:0:0:
64,192,184790,1,0,0:0:0:0:
192,192,184815,1,0,0:0:0:0:
448,192,184840,1,0,0:0:0:0:
320,192,184865,1,0,0:0:0:0:
192,192,184890,1,0,0:0:0:0:
64,192,184915,1,0,0:0:0:0:
320,192,184940,1,0,0:0:0:0:
448,192,184965,1,0,0:0:0:0:
64,192,184990,1,0,0:0:0:0:
192,192,185014,1,0,0:0:0:0:
320,192,185039,1,0,0:0:0:0:
448,192,185064,1,0,0:0:0:0:
64,192,185089,1,0,0:0:0:0:
192,192,185114,1,0,0:0:0:0:
320,192,185139,5,0,0:0:0:0:
448,192,185139,1,0,0:0:0:0:
192,192,185189,1,0,0:0:0:0:
64,192,185189,1,0,0:0:0:0:
320,192,185239,1,0,0:0:0:0:
448,192,185239,1,0,0:0:0:0:
192,192,185289,1,0,0:0:0:0:
64,192,185289,1,0,0:0:0:0:
320,192,185339,1,0,0:0:0:0:
448,192,185339,1,0,0:0:0:0:
192,192,185389,1,0,0:0:0:0:
64,192,185389,1,0,0:0:0:0:
320,192,185438,1,0,0:0:0:0:
448,192,185463,1,0,0:0:0:0:
64,192,185488,1,0,0:0:0:0:
192,192,185513,1,0,0:0:0:0:
320,192,185538,1,0,0:0:0:0:
448,192,185538,1,0,0:0:0:0:
192,192,185588,1,0,0:0:0:0:
64,192,185588,1,0,0:0:0:0:
320,192,185638,1,0,0:0:0:0:
448,192,185638,1,0,0:0:0:0:
192,192,185688,1,0,0:0:0:0:
64,192,185688,1,0,0:0:0:0:
448,192,185738,1,0,0:0:0:0:
320,192,185763,1,0,0:0:0:0:
192,192,185788,1,0,0:0:0:0:
64,192,185813,1,0,0:0:0:0:
320,192,185837,1,0,0:0:0:0:
448,192,185837,1,0,0:0:0:0:
192,192,185887,1,0,0:0:0:0:
64,192,185937,1,0,0:0:0:0:
448,192,185937,1,0,0:0:0:0:
320,192,185987,1,0,0:0:0:0:
192,192,185987,1,0,0:0:0:0:
448,192,186037,1,0,0:0:0:0:
64,192,186037,1,0,0:0:0:0:
320,192,186087,1,0,0:0:0:0:
192,192,186087,1,0,0:0:0:0:
64,192,186137,1,0,0:0:0:0:
448,192,186137,1,0,0:0:0:0:
320,192,186187,1,0,0:0:0:0:
64,192,186237,1,0,0:0:0:0:
192,192,186261,1,0,0:0:0:0:
320,192,186286,1,0,0:0:0:0:
448,192,186311,1,0,0:0:0:0:
64,192,186336,1,0,0:0:0:0:
192,192,186336,1,0,0:0:0:0:
320,192,186386,1,0,0:0:0:0:
448,192,186386,1,0,0:0:0:0:
64,192,186436,1,0,0:0:0:0:
192,192,186436,1,0,0:0:0:0:
320,192,186486,1,0,0:0:0:0:
448,192,186486,1,0,0:0:0:0:
192,192,186536,1,0,0:0:0:0:
64,192,186561,1,0,0:0:0:0:
448,192,186586,1,0,0:0:0:0:
320,192,186611,1,0,0:0:0:0:
64,192,186636,1,0,0:0:0:0:
192,192,186660,1,0,0:0:0:0:
320,192,186685,1,0,0:0:0:0:
448,192,186710,1,0,0:0:0:0:
192,192,186735,1,0,0:0:0:0:
64,192,186769,1,0,0:0:0:0:
448,192,186802,1,0,0:0:0:0:
192,192,186835,1,0,0:0:0:0:
320,192,186868,1,0,0:0:0:0:
64,192,186902,1,0,0:0:0:0:
192,192,186935,1,0,0:0:0:0:
320,192,186968,1,0,0:0:0:0:
448,192,187001,1,0,0:0:0:0:
64,192,187035,1,0,0:0:0:0:
320,192,187068,1,0,0:0:0:0:
192,192,187101,1,0,0:0:0:0:
448,192,187134,1,0,0:0:0:0:
320,192,187168,1,0,0:0:0:0:
192,192,187201,1,0,0:0:0:0:
64,192,187234,1,0,0:0:0:0:
448,192,187267,1,0,0:0:0:0:
192,192,187301,1,0,0:0:0:0:
64,192,187334,1,0,0:0:0:0:
448,192,187367,1,0,0:0:0:0:
192,192,187400,1,0,0:0:0:0:
320,192,187434,1,0,0:0:0:0:
64,192,187467,1,0,0:0:0:0:
448,192,187500,1,0,0:0:0:0:
320,192,187533,1,0,0:0:0:0:
64,192,187533,1,0,0:0:0:0:
192,192,187533,1,0,0:0:0:0:
192,192,187633,1,0,0:0:0:0:
320,192,187733,1,0,0:0:0:0:
64,192,187733,1,0,0:0:0:0:
320,192,187833,1,0,0:0:0:0:
448,192,187932,1,0,0:0:0:0:
192,192,187932,1,0,0:0:0:0:
64,192,188032,1,0,0:0:0:0:
192,192,188132,1,0,0:0:0:0:
320,192,188132,1,0,0:0:0:0:
448,192,188232,1,0,0:0:0:0:
64,192,188232,1,0,0:0:0:0:
64,192,188331,1,0,0:0:0:0:
192,192,188331,1,0,0:0:0:0:
320,192,188331,1,0,0:0:0:0:
448,192,188331,1,0,0:0:0:0:
64,192,188531,1,0,0:0:0:0:
192,192,188730,1,0,0:0:0:0:
320,192,188930,1,0,0:0:0:0:
192,192,189130,1,0,0:0:0:0:
320,192,189329,1,0,0:0:0:0:
64,192,189529,1,0,0:0:0:0:
320,192,189728,1,0,0:0:0:0:
192,192,189928,1,0,0:0:0:0:
448,192,189928,1,0,0:0:0:0:
64,192,190327,1,0,0:0:0:0:
448,192,190327,1,0,0:0:0:0:
64,192,191125,1,0,0:0:0:0:
320,192,191125,1,0,0:0:0:0:
64,192,191524,1,0,0:0:0:0:
192,192,191524,1,0,0:0:0:0:
448,192,191524,1,0,0:0:0:0:
320,192,191723,1,0,0:0:0:0:
192,192,191923,1,0,0:0:0:0:
64,192,192122,1,0,0:0:0:0:
448,192,192322,1,0,0:0:0:0:
320,192,192322,1,0,0:0:0:0:
192,192,192521,1,0,0:0:0:0:
320,192,192721,1,0,0:0:0:0:
64,192,192920,1,0,0:0:0:0:
192,192,193120,1,0,0:0:0:0:
64,192,193918,1,0,0:0:0:0:
192,192,193918,1,0,0:0:0:0:
64,192,194317,1,0,0:0:0:0:
64,192,194716,1,0,0:0:0:0:
320,192,194716,1,0,0:0:0:0:
64,192,196412,1,0,0:0:0:0:
448,192,196412,1,0,0:0:0:0:
64,192,198307,1,0,0:0:0:0:
448,192,198307,1,0,0:0:0:0:
192,192,198341,1,0,0:0:0:0:
320,192,198374,1,0,0:0:0:0:
64,192,198407,1,0,0:0:0:0:
192,192,198440,1,0,0:0:0:0:
320,192,198474,1,0,0:0:0:0:
448,192,198474,1,0,0:0:0:0:
