osu file format v14

[General]
AudioFilename: audio 0.800x.mp3
AudioLeadIn: 0
PreviewTime: 202493
Countdown: 0
SampleSet: Soft
StackLeniency: 0.7
Mode: 3
LetterboxInBreaks: 0
SpecialStyle: 0
WidescreenStoryboard: 0

[Editor]
DistanceSpacing: 2.4
BeatDivisor: 8
GridSize: 32
TimelineZoom: 3.099999

[Metadata]
Title:Onus Regulus
TitleUnicode:Onus Rēgulus
Artist:Ludicin
ArtistUnicode:Ludicin
Creator:saladpoo
Version:Easy 0.8x (241bpm)
Source:cavoe's osu! event Global Taiko Showdown
Tags:coegts cgts 2023 handstream jumpstream dense chordjack speed stamina symphonic metal speedcore instrumental osutrainer
BeatmapID:4580881
BeatmapSetID:2166236

[Difficulty]
HPDrainRate:5
CircleSize:4
OverallDifficulty:2.9
ApproachRate:3.2
SliderMultiplier:1.4
SliderTickRate:1

[Events]
//Background and Video events
0,0,"maxresdefault.jpg",0,0
//Break Periods
//Storyboard Layer 0 (Background)
//Storyboard Layer 1 (Fail)
//Storyboard Layer 2 (Pass)
//Storyboard Layer 3 (Foreground)
//Storyboard Layer 4 (Overlay)
//Storyboard Sound Samples

[TimingPoints]
-13,249.395631253595,4,2,0,100,1,0

[HitObjects]
64,192,19936,5,0,0:0:0:0:
192,192,19936,1,0,0:0:0:0:
448,192,19936,1,0,0:0:0:0:
320,192,20020,1,0,0:0:0:0:
64,192,20102,1,0,0:0:0:0:
192,192,20102,1,0,0:0:0:0:
448,192,20102,1,0,0:0:0:0:
320,192,20186,1,0,0:0:0:0:
192,192,20268,1,0,0:0:0:0:
64,192,20268,1,0,0:0:0:0:
448,192,20352,1,0,0:0:0:0:
320,192,20435,1,0,0:0:0:0:
64,192,20435,1,0,0:0:0:0:
192,192,20435,1,0,0:0:0:0:
448,192,20518,1,0,0:0:0:0:
192,192,20601,1,0,0:0:0:0:
320,192,20601,1,0,0:0:0:0:
64,192,20685,1,0,0:0:0:0:
448,192,20685,1,0,0:0:0:0:
320,192,20767,1,0,0:0:0:0:
192,192,20767,1,0,0:0:0:0:
64,192,20851,1,0,0:0:0:0:
192,192,20933,1,0,0:0:0:0:
320,192,20933,1,0,0:0:0:0:
448,192,20933,1,0,0:0:0:0:
64,192,21017,1,0,0:0:0:0:
192,192,21100,1,0,0:0:0:0:
320,192,21100,1,0,0:0:0:0:
448,192,21100,1,0,0:0:0:0:
64,192,21183,1,0,0:0:0:0:
320,192,21266,1,0,0:0:0:0:
448,192,21266,1,0,0:0:0:0:
192,192,21350,1,0,0:0:0:0:
64,192,21432,1,0,0:0:0:0:
320,192,21432,1,0,0:0:0:0:
448,192,21432,1,0,0:0:0:0:
192,192,21516,1,0,0:0:0:0:
64,192,21598,1,0,0:0:0:0:
448,192,21598,1,0,0:0:0:0:
320,192,21682,1,0,0:0:0:0:
192,192,21682,1,0,0:0:0:0:
64,192,21745,1,0,0:0:0:0:
448,192,21807,1,0,0:0:0:0:
320,192,21868,1,0,0:0:0:0:
448,192,21931,1,0,0:0:0:0:
64,192,21931,1,0,0:0:0:0:
192,192,21931,1,0,0:0:0:0:
320,192,22015,1,0,0:0:0:0:
192,192,22097,1,0,0:0:0:0:
64,192,22097,1,0,0:0:0:0:
448,192,22097,1,0,0:0:0:0:
320,192,22181,1,0,0:0:0:0:
448,192,22263,1,0,0:0:0:0:
64,192,22263,1,0,0:0:0:0:
192,192,22347,1,0,0:0:0:0:
320,192,22430,1,0,0:0:0:0:
448,192,22430,1,0,0:0:0:0:
64,192,22430,1,0,0:0:0:0:
192,192,22513,1,0,0:0:0:0:
320,192,22596,1,0,0:0:0:0:
448,192,22596,1,0,0:0:0:0:
192,192,22680,1,0,0:0:0:0:
448,192,22762,1,0,0:0:0:0:
64,192,22762,1,0,0:0:0:0:
320,192,22846,1,0,0:0:0:0:
64,192,22928,1,0,0:0:0:0:
192,192,22928,1,0,0:0:0:0:
448,192,22928,1,0,0:0:0:0:
320,192,23012,1,0,0:0:0:0:
448,192,23095,1,0,0:0:0:0:
192,192,23095,1,0,0:0:0:0:
64,192,23095,1,0,0:0:0:0:
320,192,23178,1,0,0:0:0:0:
64,192,23261,1,0,0:0:0:0:
192,192,23261,1,0,0:0:0:0:
448,192,23345,1,0,0:0:0:0:
64,192,23427,1,0,0:0:0:0:
320,192,23427,1,0,0:0:0:0:
192,192,23427,1,0,0:0:0:0:
448,192,23511,1,0,0:0:0:0:
192,192,23593,1,0,0:0:0:0:
64,192,23593,1,0,0:0:0:0:
320,192,23593,1,0,0:0:0:0:
448,192,23677,1,0,0:0:0:0:
64,192,23760,1,0,0:0:0:0:
320,192,23760,1,0,0:0:0:0:
192,192,23843,1,0,0:0:0:0:
64,192,23926,1,0,0:0:0:0:
448,192,23926,1,0,0:0:0:0:
320,192,23926,1,0,0:0:0:0:
192,192,24010,1,0,0:0:0:0:
64,192,24092,1,0,0:0:0:0:
320,192,24092,1,0,0:0:0:0:
448,192,24092,1,0,0:0:0:0:
192,192,24176,1,0,0:0:0:0:
320,192,24258,1,0,0:0:0:0:
448,192,24258,1,0,0:0:0:0:
64,192,24342,1,0,0:0:0:0:
192,192,24425,1,0,0:0:0:0:
320,192,24425,1,0,0:0:0:0:
448,192,24425,1,0,0:0:0:0:
64,192,24508,1,0,0:0:0:0:
448,192,24591,1,0,0:0:0:0:
320,192,24591,1,0,0:0:0:0:
64,192,24675,1,0,0:0:0:0:
192,192,24675,1,0,0:0:0:0:
320,192,24757,1,0,0:0:0:0:
448,192,24757,1,0,0:0:0:0:
192,192,24841,1,0,0:0:0:0:
64,192,24925,1,0,0:0:0:0:
320,192,24925,1,0,0:0:0:0:
448,192,24925,1,0,0:0:0:0:
192,192,25007,1,0,0:0:0:0:
320,192,25091,1,0,0:0:0:0:
448,192,25091,1,0,0:0:0:0:
64,192,25091,1,0,0:0:0:0:
192,192,25173,1,0,0:0:0:0:
64,192,25257,1,0,0:0:0:0:
448,192,25257,1,0,0:0:0:0:
320,192,25340,1,0,0:0:0:0:
192,192,25423,1,0,0:0:0:0:
64,192,25423,1,0,0:0:0:0:
448,192,25506,1,0,0:0:0:0:
320,192,25590,1,0,0:0:0:0:
192,192,25590,1,0,0:0:0:0:
64,192,25672,1,0,0:0:0:0:
448,192,25672,1,0,0:0:0:0:
192,192,25735,1,0,0:0:0:0:
320,192,25797,1,0,0:0:0:0:
192,192,25860,1,0,0:0:0:0:
64,192,25922,1,0,0:0:0:0:
320,192,25922,1,0,0:0:0:0:
448,192,25922,1,0,0:0:0:0:
192,192,26005,1,0,0:0:0:0:
64,192,26088,1,0,0:0:0:0:
320,192,26088,1,0,0:0:0:0:
448,192,26088,1,0,0:0:0:0:
192,192,26171,1,0,0:0:0:0:
320,192,26255,1,0,0:0:0:0:
64,192,26255,1,0,0:0:0:0:
448,192,26337,1,0,0:0:0:0:
320,192,26421,1,0,0:0:0:0:
192,192,26421,1,0,0:0:0:0:
64,192,26421,1,0,0:0:0:0:
448,192,26503,1,0,0:0:0:0:
320,192,26587,1,0,0:0:0:0:
192,192,26587,1,0,0:0:0:0:
64,192,26587,1,0,0:0:0:0:
448,192,26670,1,0,0:0:0:0:
64,192,26753,1,0,0:0:0:0:
192,192,26753,1,0,0:0:0:0:
320,192,26836,1,0,0:0:0:0:
64,192,26920,1,0,0:0:0:0:
448,192,26920,1,0,0:0:0:0:
192,192,26920,1,0,0:0:0:0:
320,192,27002,1,0,0:0:0:0:
192,192,27086,1,0,0:0:0:0:
64,192,27086,1,0,0:0:0:0:
448,192,27086,1,0,0:0:0:0:
320,192,27168,1,0,0:0:0:0:
192,192,27252,1,0,0:0:0:0:
448,192,27252,1,0,0:0:0:0:
64,192,27335,1,0,0:0:0:0:
192,192,27418,1,0,0:0:0:0:
320,192,27418,1,0,0:0:0:0:
448,192,27418,1,0,0:0:0:0:
64,192,27481,1,0,0:0:0:0:
320,192,27542,1,0,0:0:0:0:
64,192,27605,1,0,0:0:0:0:
192,192,27667,1,0,0:0:0:0:
448,192,27667,1,0,0:0:0:0:
320,192,27730,1,0,0:0:0:0:
192,192,27792,1,0,0:0:0:0:
320,192,27855,1,0,0:0:0:0:
192,192,27917,1,0,0:0:0:0:
448,192,27917,1,0,0:0:0:0:
64,192,27917,1,0,0:0:0:0:
320,192,28000,1,0,0:0:0:0:
448,192,28083,1,0,0:0:0:0:
192,192,28083,1,0,0:0:0:0:
64,192,28083,1,0,0:0:0:0:
320,192,28166,1,0,0:0:0:0:
448,192,28250,1,0,0:0:0:0:
192,192,28250,1,0,0:0:0:0:
320,192,28332,1,0,0:0:0:0:
192,192,28416,1,0,0:0:0:0:
64,192,28416,1,0,0:0:0:0:
448,192,28416,1,0,0:0:0:0:
320,192,28498,1,0,0:0:0:0:
192,192,28582,1,0,0:0:0:0:
64,192,28582,1,0,0:0:0:0:
320,192,28665,1,0,0:0:0:0:
448,192,28748,1,0,0:0:0:0:
64,192,28748,1,0,0:0:0:0:
192,192,28831,1,0,0:0:0:0:
64,192,28915,1,0,0:0:0:0:
320,192,28915,1,0,0:0:0:0:
448,192,28915,1,0,0:0:0:0:
192,192,28997,1,0,0:0:0:0:
64,192,29081,1,0,0:0:0:0:
320,192,29081,1,0,0:0:0:0:
448,192,29081,1,0,0:0:0:0:
192,192,29163,1,0,0:0:0:0:
320,192,29247,1,0,0:0:0:0:
448,192,29247,1,0,0:0:0:0:
64,192,29330,1,0,0:0:0:0:
192,192,29413,1,0,0:0:0:0:
448,192,29413,1,0,0:0:0:0:
320,192,29496,1,0,0:0:0:0:
64,192,29496,1,0,0:0:0:0:
192,192,29580,1,0,0:0:0:0:
320,192,29662,1,0,0:0:0:0:
448,192,29662,1,0,0:0:0:0:
192,192,29725,1,0,0:0:0:0:
64,192,29787,1,0,0:0:0:0:
320,192,29850,1,0,0:0:0:0:
448,192,29912,1,0,0:0:0:0:
192,192,29912,1,0,0:0:0:0:
64,192,29912,1,0,0:0:0:0:
320,192,29995,1,0,0:0:0:0:
448,192,30078,1,0,0:0:0:0:
64,192,30078,1,0,0:0:0:0:
192,192,30078,1,0,0:0:0:0:
320,192,30161,1,0,0:0:0:0:
448,192,30245,1,0,0:0:0:0:
64,192,30327,1,0,0:0:0:0:
320,192,30327,1,0,0:0:0:0:
192,192,30327,1,0,0:0:0:0:
448,192,30411,1,0,0:0:0:0:
64,192,30493,1,0,0:0:0:0:
320,192,30493,1,0,0:0:0:0:
192,192,30493,1,0,0:0:0:0:
448,192,30577,1,0,0:0:0:0:
64,192,30660,1,0,0:0:0:0:
320,192,30660,1,0,0:0:0:0:
192,192,30743,1,0,0:0:0:0:
448,192,30743,1,0,0:0:0:0:
64,192,30826,1,0,0:0:0:0:
192,192,30910,1,0,0:0:0:0:
448,192,30910,1,0,0:0:0:0:
320,192,30910,1,0,0:0:0:0:
64,192,30992,1,0,0:0:0:0:
192,192,31076,1,0,0:0:0:0:
320,192,31076,1,0,0:0:0:0:
448,192,31076,1,0,0:0:0:0:
64,192,31158,1,0,0:0:0:0:
192,192,31242,1,0,0:0:0:0:
320,192,31242,1,0,0:0:0:0:
448,192,31325,1,0,0:0:0:0:
320,192,31408,1,0,0:0:0:0:
192,192,31408,1,0,0:0:0:0:
64,192,31408,1,0,0:0:0:0:
448,192,31491,1,0,0:0:0:0:
320,192,31575,1,0,0:0:0:0:
192,192,31575,1,0,0:0:0:0:
64,192,31575,1,0,0:0:0:0:
448,192,31657,1,0,0:0:0:0:
64,192,31741,1,0,0:0:0:0:
320,192,31741,1,0,0:0:0:0:
192,192,31823,1,0,0:0:0:0:
64,192,31907,1,0,0:0:0:0:
320,192,31907,1,0,0:0:0:0:
448,192,31907,1,0,0:0:0:0:
192,192,31990,1,0,0:0:0:0:
64,192,32073,1,0,0:0:0:0:
320,192,32073,1,0,0:0:0:0:
448,192,32073,1,0,0:0:0:0:
192,192,32156,1,0,0:0:0:0:
320,192,32240,1,0,0:0:0:0:
448,192,32240,1,0,0:0:0:0:
64,192,32322,1,0,0:0:0:0:
192,192,32406,1,0,0:0:0:0:
320,192,32406,1,0,0:0:0:0:
448,192,32406,1,0,0:0:0:0:
64,192,32490,1,0,0:0:0:0:
448,192,32572,1,0,0:0:0:0:
192,192,32572,1,0,0:0:0:0:
320,192,32656,1,0,0:0:0:0:
64,192,32656,1,0,0:0:0:0:
448,192,32738,1,0,0:0:0:0:
192,192,32738,1,0,0:0:0:0:
320,192,32822,1,0,0:0:0:0:
192,192,32905,1,0,0:0:0:0:
448,192,32905,1,0,0:0:0:0:
64,192,32905,1,0,0:0:0:0:
320,192,32988,1,0,0:0:0:0:
448,192,33071,1,0,0:0:0:0:
192,192,33071,1,0,0:0:0:0:
64,192,33071,1,0,0:0:0:0:
320,192,33155,1,0,0:0:0:0:
192,192,33237,1,0,0:0:0:0:
64,192,33237,1,0,0:0:0:0:
448,192,33321,1,0,0:0:0:0:
320,192,33403,1,0,0:0:0:0:
192,192,33403,1,0,0:0:0:0:
64,192,33403,1,0,0:0:0:0:
448,192,33487,1,0,0:0:0:0:
320,192,33570,1,0,0:0:0:0:
64,192,33570,1,0,0:0:0:0:
192,192,33653,1,0,0:0:0:0:
448,192,33653,1,0,0:0:0:0:
320,192,33715,1,0,0:0:0:0:
64,192,33715,1,0,0:0:0:0:
192,192,33777,1,0,0:0:0:0:
448,192,33777,1,0,0:0:0:0:
320,192,33840,1,0,0:0:0:0:
192,192,33902,1,0,0:0:0:0:
448,192,33902,1,0,0:0:0:0:
64,192,33902,1,0,0:0:0:0:
320,192,33943,1,0,0:0:0:0:
192,192,33986,1,0,0:0:0:0:
64,192,34027,1,0,0:0:0:0:
448,192,34068,1,0,0:0:0:0:
192,192,34110,1,0,0:0:0:0:
320,192,34152,1,0,0:0:0:0:
448,192,34152,1,0,0:0:0:0:
64,192,34193,1,0,0:0:0:0:
192,192,34235,1,0,0:0:0:0:
448,192,34276,1,0,0:0:0:0:
320,192,34318,1,0,0:0:0:0:
192,192,34360,1,0,0:0:0:0:
64,192,34401,1,0,0:0:0:0:
448,192,34401,1,0,0:0:0:0:
320,192,34442,1,0,0:0:0:0:
64,192,34485,1,0,0:0:0:0:
192,192,34526,1,0,0:0:0:0:
448,192,34567,1,0,0:0:0:0:
320,192,34608,1,0,0:0:0:0:
192,192,34651,1,0,0:0:0:0:
64,192,34651,1,0,0:0:0:0:
448,192,34692,1,0,0:0:0:0:
64,192,34733,1,0,0:0:0:0:
192,192,34775,1,0,0:0:0:0:
320,192,34817,1,0,0:0:0:0:
64,192,34858,1,0,0:0:0:0:
192,192,34900,1,0,0:0:0:0:
448,192,34900,1,0,0:0:0:0:
320,192,34962,1,0,0:0:0:0:
64,192,35025,1,0,0:0:0:0:
320,192,35087,1,0,0:0:0:0:
192,192,35150,1,0,0:0:0:0:
64,192,35150,1,0,0:0:0:0:
448,192,35150,1,0,0:0:0:0:
320,192,35212,1,0,0:0:0:0:
192,192,35232,1,0,0:0:0:0:
64,192,35232,1,0,0:0:0:0:
448,192,35273,1,0,0:0:0:0:
192,192,35336,1,0,0:0:0:0:
320,192,35398,1,0,0:0:0:0:
448,192,35398,1,0,0:0:0:0:
64,192,35398,1,0,0:0:0:0:
192,192,35461,1,0,0:0:0:0:
320,192,35523,1,0,0:0:0:0:
448,192,35523,1,0,0:0:0:0:
192,192,35606,1,0,0:0:0:0:
64,192,35606,1,0,0:0:0:0:
320,192,35648,1,0,0:0:0:0:
448,192,35648,1,0,0:0:0:0:
192,192,35772,1,0,0:0:0:0:
64,192,35772,1,0,0:0:0:0:
448,192,35897,5,0,0:0:0:0:
320,192,35897,1,0,0:0:0:0:
64,191,35897,1,0,0:0:0:0:
192,192,35981,1,0,0:0:0:0:
448,192,36063,1,0,0:0:0:0:
320,192,36063,1,0,0:0:0:0:
64,191,36063,1,0,0:0:0:0:
192,192,36147,1,0,0:0:0:0:
320,192,36230,1,0,0:0:0:0:
448,192,36230,1,0,0:0:0:0:
64,191,36313,1,0,0:0:0:0:
192,192,36396,1,0,0:0:0:0:
448,192,36396,1,0,0:0:0:0:
320,192,36396,1,0,0:0:0:0:
64,191,36480,1,0,0:0:0:0:
320,192,36562,1,0,0:0:0:0:
192,192,36562,1,0,0:0:0:0:
448,192,36646,1,0,0:0:0:0:
64,191,36646,1,0,0:0:0:0:
192,192,36728,1,0,0:0:0:0:
320,192,36728,1,0,0:0:0:0:
448,192,36812,1,0,0:0:0:0:
320,192,36895,1,0,0:0:0:0:
192,192,36895,1,0,0:0:0:0:
64,191,36895,1,0,0:0:0:0:
448,192,36978,1,0,0:0:0:0:
320,192,37061,1,0,0:0:0:0:
192,192,37061,1,0,0:0:0:0:
64,191,37061,1,0,0:0:0:0:
448,192,37145,1,0,0:0:0:0:
192,192,37227,1,0,0:0:0:0:
64,191,37227,1,0,0:0:0:0:
320,192,37311,1,0,0:0:0:0:
448,192,37393,1,0,0:0:0:0:
192,192,37393,1,0,0:0:0:0:
64,191,37393,1,0,0:0:0:0:
320,192,37477,1,0,0:0:0:0:
448,192,37560,1,0,0:0:0:0:
64,191,37560,1,0,0:0:0:0:
192,192,37643,1,0,0:0:0:0:
320,192,37643,1,0,0:0:0:0:
448,192,37726,1,0,0:0:0:0:
64,191,37726,1,0,0:0:0:0:
192,192,37810,1,0,0:0:0:0:
64,191,37892,1,0,0:0:0:0:
448,192,37892,1,0,0:0:0:0:
320,192,37892,1,0,0:0:0:0:
192,192,37976,1,0,0:0:0:0:
320,192,38058,1,0,0:0:0:0:
448,192,38058,1,0,0:0:0:0:
64,191,38058,1,0,0:0:0:0:
192,192,38142,1,0,0:0:0:0:
64,191,38225,1,0,0:0:0:0:
448,192,38225,1,0,0:0:0:0:
320,192,38308,1,0,0:0:0:0:
192,192,38391,1,0,0:0:0:0:
64,191,38391,1,0,0:0:0:0:
448,192,38391,1,0,0:0:0:0:
320,192,38475,1,0,0:0:0:0:
192,192,38557,1,0,0:0:0:0:
64,191,38557,1,0,0:0:0:0:
320,192,38641,1,0,0:0:0:0:
64,191,38723,1,0,0:0:0:0:
448,192,38723,1,0,0:0:0:0:
192,192,38807,1,0,0:0:0:0:
448,192,38890,1,0,0:0:0:0:
320,192,38890,1,0,0:0:0:0:
64,191,38890,1,0,0:0:0:0:
192,192,38973,1,0,0:0:0:0:
64,191,39056,1,0,0:0:0:0:
320,192,39056,1,0,0:0:0:0:
448,192,39056,1,0,0:0:0:0:
192,192,39140,1,0,0:0:0:0:
448,192,39222,1,0,0:0:0:0:
320,192,39222,1,0,0:0:0:0:
64,191,39306,1,0,0:0:0:0:
448,192,39388,1,0,0:0:0:0:
192,192,39388,1,0,0:0:0:0:
320,192,39388,1,0,0:0:0:0:
64,191,39472,1,0,0:0:0:0:
320,192,39555,1,0,0:0:0:0:
448,192,39555,1,0,0:0:0:0:
192,192,39555,1,0,0:0:0:0:
64,191,39638,1,0,0:0:0:0:
448,192,39721,1,0,0:0:0:0:
192,192,39721,1,0,0:0:0:0:
320,192,39805,1,0,0:0:0:0:
448,192,39887,1,0,0:0:0:0:
64,191,39887,1,0,0:0:0:0:
192,192,39887,1,0,0:0:0:0:
320,192,39971,1,0,0:0:0:0:
448,192,40055,1,0,0:0:0:0:
192,192,40055,1,0,0:0:0:0:
64,191,40055,1,0,0:0:0:0:
320,192,40137,1,0,0:0:0:0:
192,192,40221,1,0,0:0:0:0:
64,191,40221,1,0,0:0:0:0:
448,192,40303,1,0,0:0:0:0:
320,192,40387,1,0,0:0:0:0:
192,192,40387,1,0,0:0:0:0:
64,191,40387,1,0,0:0:0:0:
448,192,40470,1,0,0:0:0:0:
64,191,40553,1,0,0:0:0:0:
192,192,40553,1,0,0:0:0:0:
448,192,40636,1,0,0:0:0:0:
320,192,40636,1,0,0:0:0:0:
192,192,40720,1,0,0:0:0:0:
64,191,40720,1,0,0:0:0:0:
320,192,40802,1,0,0:0:0:0:
448,192,40886,1,0,0:0:0:0:
192,192,40886,1,0,0:0:0:0:
64,191,40886,1,0,0:0:0:0:
320,192,40968,1,0,0:0:0:0:
192,192,41052,1,0,0:0:0:0:
64,191,41052,1,0,0:0:0:0:
448,192,41052,1,0,0:0:0:0:
320,192,41135,1,0,0:0:0:0:
448,192,41218,1,0,0:0:0:0:
64,191,41218,1,0,0:0:0:0:
192,192,41301,1,0,0:0:0:0:
320,192,41385,1,0,0:0:0:0:
448,192,41385,1,0,0:0:0:0:
64,191,41467,1,0,0:0:0:0:
192,192,41551,1,0,0:0:0:0:
448,192,41551,1,0,0:0:0:0:
64,191,41633,1,0,0:0:0:0:
320,192,41633,1,0,0:0:0:0:
192,192,41717,1,0,0:0:0:0:
448,192,41717,1,0,0:0:0:0:
320,192,41800,1,0,0:0:0:0:
448,192,41883,1,0,0:0:0:0:
192,192,41883,1,0,0:0:0:0:
64,191,41883,1,0,0:0:0:0:
320,192,41966,1,0,0:0:0:0:
448,192,42050,1,0,0:0:0:0:
192,192,42050,1,0,0:0:0:0:
64,191,42050,1,0,0:0:0:0:
320,192,42132,1,0,0:0:0:0:
192,192,42216,1,0,0:0:0:0:
448,192,42216,1,0,0:0:0:0:
64,191,42298,1,0,0:0:0:0:
192,192,42382,1,0,0:0:0:0:
320,192,42382,1,0,0:0:0:0:
448,192,42382,1,0,0:0:0:0:
64,191,42465,1,0,0:0:0:0:
192,192,42548,1,0,0:0:0:0:
320,192,42548,1,0,0:0:0:0:
448,192,42548,1,0,0:0:0:0:
64,191,42631,1,0,0:0:0:0:
448,192,42715,1,0,0:0:0:0:
320,192,42715,1,0,0:0:0:0:
192,192,42797,1,0,0:0:0:0:
448,192,42881,1,0,0:0:0:0:
64,191,42881,1,0,0:0:0:0:
320,192,42881,1,0,0:0:0:0:
192,192,42963,1,0,0:0:0:0:
320,192,43047,1,0,0:0:0:0:
448,192,43047,1,0,0:0:0:0:
64,191,43047,1,0,0:0:0:0:
192,192,43130,1,0,0:0:0:0:
320,192,43213,1,0,0:0:0:0:
64,191,43213,1,0,0:0:0:0:
448,192,43296,1,0,0:0:0:0:
320,192,43380,1,0,0:0:0:0:
192,192,43380,1,0,0:0:0:0:
64,191,43380,1,0,0:0:0:0:
448,192,43442,1,0,0:0:0:0:
192,192,43503,1,0,0:0:0:0:
448,192,43566,1,0,0:0:0:0:
320,192,43628,1,0,0:0:0:0:
64,191,43628,1,0,0:0:0:0:
192,192,43712,1,0,0:0:0:0:
448,192,43712,1,0,0:0:0:0:
320,192,43795,1,0,0:0:0:0:
64,191,43878,1,0,0:0:0:0:
448,192,43878,1,0,0:0:0:0:
192,192,43878,1,0,0:0:0:0:
320,192,43961,1,0,0:0:0:0:
64,191,44045,1,0,0:0:0:0:
448,192,44045,1,0,0:0:0:0:
192,192,44045,1,0,0:0:0:0:
320,192,44127,1,0,0:0:0:0:
64,191,44211,1,0,0:0:0:0:
448,192,44211,1,0,0:0:0:0:
192,192,44293,1,0,0:0:0:0:
320,192,44377,1,0,0:0:0:0:
448,192,44377,1,0,0:0:0:0:
64,191,44377,1,0,0:0:0:0:
192,192,44460,1,0,0:0:0:0:
320,192,44543,1,0,0:0:0:0:
448,192,44543,1,0,0:0:0:0:
192,192,44626,1,0,0:0:0:0:
64,191,44710,1,0,0:0:0:0:
448,192,44710,1,0,0:0:0:0:
320,192,44792,1,0,0:0:0:0:
448,192,44876,1,0,0:0:0:0:
192,192,44876,1,0,0:0:0:0:
64,191,44876,1,0,0:0:0:0:
320,192,44958,1,0,0:0:0:0:
448,192,45042,1,0,0:0:0:0:
192,192,45042,1,0,0:0:0:0:
64,191,45042,1,0,0:0:0:0:
320,192,45125,1,0,0:0:0:0:
192,192,45208,1,0,0:0:0:0:
64,191,45208,1,0,0:0:0:0:
448,192,45291,1,0,0:0:0:0:
320,192,45375,1,0,0:0:0:0:
64,191,45375,1,0,0:0:0:0:
192,192,45457,1,0,0:0:0:0:
448,192,45457,1,0,0:0:0:0:
320,192,45541,1,0,0:0:0:0:
448,192,45623,1,0,0:0:0:0:
192,192,45623,1,0,0:0:0:0:
64,192,45707,1,0,0:0:0:0:
320,192,45707,1,0,0:0:0:0:
192,192,45790,1,0,0:0:0:0:
64,191,45873,1,0,0:0:0:0:
320,192,45873,1,0,0:0:0:0:
448,192,45873,1,0,0:0:0:0:
192,192,45956,1,0,0:0:0:0:
64,191,46040,1,0,0:0:0:0:
448,192,46040,1,0,0:0:0:0:
320,192,46040,1,0,0:0:0:0:
192,192,46122,1,0,0:0:0:0:
64,191,46206,1,0,0:0:0:0:
448,192,46288,1,0,0:0:0:0:
192,192,46288,1,0,0:0:0:0:
320,192,46288,1,0,0:0:0:0:
64,191,46372,1,0,0:0:0:0:
448,192,46455,1,0,0:0:0:0:
192,192,46455,1,0,0:0:0:0:
320,192,46455,1,0,0:0:0:0:
64,191,46538,1,0,0:0:0:0:
448,192,46621,1,0,0:0:0:0:
192,192,46621,1,0,0:0:0:0:
320,192,46705,1,0,0:0:0:0:
64,191,46705,1,0,0:0:0:0:
448,192,46787,1,0,0:0:0:0:
320,192,46871,1,0,0:0:0:0:
64,191,46871,1,0,0:0:0:0:
192,192,46871,1,0,0:0:0:0:
448,192,46953,1,0,0:0:0:0:
320,192,47037,1,0,0:0:0:0:
192,192,47037,1,0,0:0:0:0:
64,191,47037,1,0,0:0:0:0:
448,192,47120,1,0,0:0:0:0:
320,192,47203,1,0,0:0:0:0:
192,192,47203,1,0,0:0:0:0:
64,191,47286,1,0,0:0:0:0:
192,192,47370,1,0,0:0:0:0:
320,192,47370,1,0,0:0:0:0:
448,192,47370,1,0,0:0:0:0:
64,191,47452,1,0,0:0:0:0:
192,192,47536,1,0,0:0:0:0:
320,192,47536,1,0,0:0:0:0:
448,192,47536,1,0,0:0:0:0:
64,191,47620,1,0,0:0:0:0:
448,192,47702,1,0,0:0:0:0:
192,192,47702,1,0,0:0:0:0:
320,192,47786,1,0,0:0:0:0:
448,192,47868,1,0,0:0:0:0:
192,192,47868,1,0,0:0:0:0:
64,191,47868,1,0,0:0:0:0:
320,192,47952,1,0,0:0:0:0:
448,192,48035,1,0,0:0:0:0:
192,192,48035,1,0,0:0:0:0:
64,191,48035,1,0,0:0:0:0:
320,192,48118,1,0,0:0:0:0:
192,192,48201,1,0,0:0:0:0:
64,191,48201,1,0,0:0:0:0:
448,192,48285,1,0,0:0:0:0:
320,192,48367,1,0,0:0:0:0:
192,192,48367,1,0,0:0:0:0:
64,191,48367,1,0,0:0:0:0:
448,192,48451,1,0,0:0:0:0:
64,191,48533,1,0,0:0:0:0:
320,192,48533,1,0,0:0:0:0:
192,192,48617,1,0,0:0:0:0:
448,192,48617,1,0,0:0:0:0:
64,191,48700,1,0,0:0:0:0:
320,192,48700,1,0,0:0:0:0:
192,192,48783,1,0,0:0:0:0:
320,192,48866,1,0,0:0:0:0:
64,191,48866,1,0,0:0:0:0:
448,192,48866,1,0,0:0:0:0:
192,192,48950,1,0,0:0:0:0:
64,191,49032,1,0,0:0:0:0:
320,192,49032,1,0,0:0:0:0:
448,192,49032,1,0,0:0:0:0:
192,192,49116,1,0,0:0:0:0:
320,192,49198,1,0,0:0:0:0:
448,192,49198,1,0,0:0:0:0:
64,191,49282,1,0,0:0:0:0:
192,192,49365,1,0,0:0:0:0:
320,192,49365,1,0,0:0:0:0:
448,192,49365,1,0,0:0:0:0:
64,191,49448,1,0,0:0:0:0:
192,192,49531,1,0,0:0:0:0:
448,192,49531,1,0,0:0:0:0:
64,191,49615,1,0,0:0:0:0:
320,192,49615,1,0,0:0:0:0:
192,192,49697,1,0,0:0:0:0:
448,192,49697,1,0,0:0:0:0:
320,192,49781,1,0,0:0:0:0:
64,191,49863,1,0,0:0:0:0:
448,192,49863,1,0,0:0:0:0:
192,192,49863,1,0,0:0:0:0:
320,192,49905,1,0,0:0:0:0:
192,192,49947,1,0,0:0:0:0:
64,192,49988,1,0,0:0:0:0:
448,192,50030,1,0,0:0:0:0:
192,192,50071,1,0,0:0:0:0:
320,192,50113,1,0,0:0:0:0:
64,192,50113,1,0,0:0:0:0:
448,192,50155,1,0,0:0:0:0:
192,192,50196,1,0,0:0:0:0:
320,192,50237,1,0,0:0:0:0:
64,192,50280,1,0,0:0:0:0:
192,192,50321,1,0,0:0:0:0:
320,192,50362,1,0,0:0:0:0:
448,192,50362,1,0,0:0:0:0:
64,192,50403,1,0,0:0:0:0:
192,192,50446,1,0,0:0:0:0:
448,192,50487,1,0,0:0:0:0:
320,192,50528,1,0,0:0:0:0:
192,192,50570,1,0,0:0:0:0:
64,192,50612,1,0,0:0:0:0:
448,192,50612,1,0,0:0:0:0:
320,192,50653,1,0,0:0:0:0:
64,192,50695,1,0,0:0:0:0:
192,192,50736,1,0,0:0:0:0:
320,192,50778,1,0,0:0:0:0:
448,192,50820,1,0,0:0:0:0:
192,192,50861,1,0,0:0:0:0:
64,192,50861,1,0,0:0:0:0:
320,192,50902,1,0,0:0:0:0:
448,192,50945,1,0,0:0:0:0:
192,192,50986,1,0,0:0:0:0:
320,192,51027,1,0,0:0:0:0:
64,192,51068,1,0,0:0:0:0:
192,192,51111,1,0,0:0:0:0:
448,192,51111,1,0,0:0:0:0:
320,192,51152,1,0,0:0:0:0:
64,192,51193,1,0,0:0:0:0:
448,192,51235,1,0,0:0:0:0:
320,192,51277,1,0,0:0:0:0:
192,192,51318,1,0,0:0:0:0:
64,192,51360,1,0,0:0:0:0:
448,192,51360,1,0,0:0:0:0:
320,192,51422,1,0,0:0:0:0:
192,192,51485,1,0,0:0:0:0:
64,192,51485,1,0,0:0:0:0:
320,192,51547,1,0,0:0:0:0:
448,192,51610,1,0,0:0:0:0:
64,192,51610,1,0,0:0:0:0:
192,192,51610,1,0,0:0:0:0:
320,192,51672,1,0,0:0:0:0:
448,192,51735,1,0,0:0:0:0:
64,192,51735,1,0,0:0:0:0:
192,192,51796,1,0,0:0:0:0:
64,192,51858,1,0,0:0:0:0:
448,192,51858,1,0,0:0:0:0:
320,192,51858,1,0,0:0:0:0:
320,192,52108,1,0,0:0:0:0:
320,192,52233,1,0,0:0:0:0:
320,192,52357,1,0,0:0:0:0:
320,192,52607,1,0,0:0:0:0:
320,192,52856,1,0,0:0:0:0:
320,192,53231,1,0,0:0:0:0:
320,192,53480,1,0,0:0:0:0:
320,192,53605,1,0,0:0:0:0:
320,192,53730,1,0,0:0:0:0:
192,192,53853,1,0,0:0:0:0:
448,192,53853,1,0,0:0:0:0:
64,192,53853,1,0,0:0:0:0:
192,192,54103,1,0,0:0:0:0:
192,192,54228,1,0,0:0:0:0:
192,192,54352,1,0,0:0:0:0:
192,192,54602,1,0,0:0:0:0:
192,192,54851,1,0,0:0:0:0:
192,192,55226,1,0,0:0:0:0:
192,192,55475,1,0,0:0:0:0:
192,192,55600,1,0,0:0:0:0:
192,192,55725,1,0,0:0:0:0:
64,192,55850,1,0,0:0:0:0:
320,192,55850,1,0,0:0:0:0:
448,192,55850,1,0,0:0:0:0:
320,192,56098,1,0,0:0:0:0:
320,192,56223,1,0,0:0:0:0:
192,192,56348,1,0,0:0:0:0:
64,192,56348,1,0,0:0:0:0:
448,192,56348,1,0,0:0:0:0:
192,192,56597,1,0,0:0:0:0:
64,192,56847,1,0,0:0:0:0:
320,192,56847,1,0,0:0:0:0:
448,192,56847,1,0,0:0:0:0:
320,192,57221,5,0,0:0:0:0:
64,192,57346,1,0,0:0:0:0:
192,192,57346,1,0,0:0:0:0:
448,192,57346,1,0,0:0:0:0:
320,192,57470,1,0,0:0:0:0:
192,192,57595,1,0,0:0:0:0:
64,192,57595,1,0,0:0:0:0:
192,192,57720,1,0,0:0:0:0:
64,192,57720,1,0,0:0:0:0:
64,192,57845,1,0,0:0:0:0:
320,192,57845,1,0,0:0:0:0:
448,192,57845,1,0,0:0:0:0:
320,192,58093,1,0,0:0:0:0:
448,192,58093,1,0,0:0:0:0:
64,192,58093,1,0,0:0:0:0:
320,192,58218,1,0,0:0:0:0:
192,192,58218,1,0,0:0:0:0:
192,192,58343,1,0,0:0:0:0:
64,192,58343,1,0,0:0:0:0:
448,192,58343,1,0,0:0:0:0:
448,192,58592,5,0,0:0:0:0:
64,192,58592,1,0,0:0:0:0:
192,192,58592,1,0,0:0:0:0:
320,192,58717,1,0,0:0:0:0:
448,192,58717,1,0,0:0:0:0:
320,192,58780,1,0,0:0:0:0:
448,192,58780,1,0,0:0:0:0:
192,192,58842,1,0,0:0:0:0:
64,192,58842,1,0,0:0:0:0:
64,192,58967,1,0,0:0:0:0:
192,192,58967,1,0,0:0:0:0:
320,192,59028,1,0,0:0:0:0:
64,192,59091,1,0,0:0:0:0:
448,192,59091,1,0,0:0:0:0:
192,192,59153,1,0,0:0:0:0:
320,192,59216,1,0,0:0:0:0:
448,192,59216,1,0,0:0:0:0:
192,192,59278,1,0,0:0:0:0:
64,192,59278,1,0,0:0:0:0:
320,192,59341,1,0,0:0:0:0:
448,192,59341,1,0,0:0:0:0:
192,192,59403,1,0,0:0:0:0:
64,192,59403,1,0,0:0:0:0:
320,192,59466,1,0,0:0:0:0:
448,192,59466,1,0,0:0:0:0:
192,192,59527,1,0,0:0:0:0:
64,192,59590,1,0,0:0:0:0:
448,192,59590,1,0,0:0:0:0:
320,192,59652,1,0,0:0:0:0:
192,192,59715,1,0,0:0:0:0:
448,192,59715,1,0,0:0:0:0:
64,192,59777,1,0,0:0:0:0:
192,192,59840,1,0,0:0:0:0:
320,192,59840,1,0,0:0:0:0:
448,192,59840,1,0,0:0:0:0:
192,192,59965,1,0,0:0:0:0:
320,192,59965,1,0,0:0:0:0:
448,192,59965,1,0,0:0:0:0:
192,192,60088,1,0,0:0:0:0:
448,192,60088,1,0,0:0:0:0:
64,192,60088,1,0,0:0:0:0:
192,192,60213,1,0,0:0:0:0:
64,192,60213,1,0,0:0:0:0:
448,192,60213,1,0,0:0:0:0:
64,192,60338,1,0,0:0:0:0:
448,192,60338,1,0,0:0:0:0:
320,192,60338,1,0,0:0:0:0:
320,192,60463,1,0,0:0:0:0:
448,192,60463,1,0,0:0:0:0:
64,192,60463,1,0,0:0:0:0:
192,192,60587,1,0,0:0:0:0:
64,192,60587,1,0,0:0:0:0:
448,192,60587,1,0,0:0:0:0:
192,192,60712,1,0,0:0:0:0:
320,192,60712,1,0,0:0:0:0:
448,192,60712,1,0,0:0:0:0:
192,192,60837,1,0,0:0:0:0:
64,192,60837,1,0,0:0:0:0:
320,192,60837,1,0,0:0:0:0:
448,192,60900,1,0,0:0:0:0:
64,192,60962,1,0,0:0:0:0:
192,192,60962,1,0,0:0:0:0:
320,192,61025,1,0,0:0:0:0:
64,192,61086,1,0,0:0:0:0:
448,192,61086,1,0,0:0:0:0:
192,192,61086,1,0,0:0:0:0:
64,192,61211,1,0,0:0:0:0:
448,192,61211,1,0,0:0:0:0:
448,192,61336,1,0,0:0:0:0:
64,192,61336,1,0,0:0:0:0:
320,192,61398,1,0,0:0:0:0:
192,192,61398,1,0,0:0:0:0:
64,192,61461,1,0,0:0:0:0:
448,192,61461,1,0,0:0:0:0:
320,192,61523,1,0,0:0:0:0:
192,192,61523,1,0,0:0:0:0:
448,192,61585,1,0,0:0:0:0:
64,192,61585,1,0,0:0:0:0:
192,192,61585,1,0,0:0:0:0:
320,192,61647,1,0,0:0:0:0:
448,192,61710,1,0,0:0:0:0:
64,192,61710,1,0,0:0:0:0:
192,192,61772,1,0,0:0:0:0:
320,192,61835,1,0,0:0:0:0:
448,192,61835,1,0,0:0:0:0:
64,192,61835,1,0,0:0:0:0:
320,192,61960,1,0,0:0:0:0:
64,192,61960,1,0,0:0:0:0:
448,192,61960,1,0,0:0:0:0:
192,192,62083,1,0,0:0:0:0:
64,192,62083,1,0,0:0:0:0:
448,192,62083,1,0,0:0:0:0:
192,192,62208,1,0,0:0:0:0:
448,192,62208,1,0,0:0:0:0:
64,192,62208,1,0,0:0:0:0:
192,192,62333,1,0,0:0:0:0:
320,192,62333,1,0,0:0:0:0:
448,192,62333,1,0,0:0:0:0:
192,192,62458,1,0,0:0:0:0:
320,192,62458,1,0,0:0:0:0:
448,192,62458,1,0,0:0:0:0:
64,192,62582,1,0,0:0:0:0:
320,192,62582,1,0,0:0:0:0:
448,192,62582,1,0,0:0:0:0:
448,192,62707,1,0,0:0:0:0:
320,192,62707,1,0,0:0:0:0:
64,192,62707,1,0,0:0:0:0:
448,192,62832,1,0,0:0:0:0:
320,192,62832,1,0,0:0:0:0:
192,192,62873,1,0,0:0:0:0:
64,192,62916,1,0,0:0:0:0:
448,192,62957,1,0,0:0:0:0:
320,192,62998,1,0,0:0:0:0:
192,192,63040,1,0,0:0:0:0:
64,192,63082,1,0,0:0:0:0:
320,192,63082,1,0,0:0:0:0:
448,192,63082,1,0,0:0:0:0:
192,192,63143,1,0,0:0:0:0:
64,192,63206,1,0,0:0:0:0:
448,192,63206,1,0,0:0:0:0:
192,192,63331,1,0,0:0:0:0:
64,192,63331,1,0,0:0:0:0:
448,192,63331,1,0,0:0:0:0:
320,192,63331,1,0,0:0:0:0:
64,192,63456,1,0,0:0:0:0:
192,192,63456,1,0,0:0:0:0:
320,192,63456,1,0,0:0:0:0:
448,192,63456,1,0,0:0:0:0:
448,192,63581,1,0,0:0:0:0:
64,192,63581,1,0,0:0:0:0:
192,192,63642,1,0,0:0:0:0:
320,192,63642,1,0,0:0:0:0:
64,192,63705,1,0,0:0:0:0:
448,192,63705,1,0,0:0:0:0:
192,192,63767,1,0,0:0:0:0:
64,192,63830,1,0,0:0:0:0:
448,192,63830,1,0,0:0:0:0:
320,192,63830,1,0,0:0:0:0:
64,192,63955,1,0,0:0:0:0:
320,192,63955,1,0,0:0:0:0:
448,192,63955,1,0,0:0:0:0:
192,192,64080,1,0,0:0:0:0:
192,192,64203,1,0,0:0:0:0:
64,192,64328,1,0,0:0:0:0:
320,192,64328,1,0,0:0:0:0:
448,192,64328,1,0,0:0:0:0:
192,192,64453,1,0,0:0:0:0:
64,192,64453,1,0,0:0:0:0:
192,192,64578,1,0,0:0:0:0:
320,192,64578,1,0,0:0:0:0:
192,192,64702,1,0,0:0:0:0:
64,192,64702,1,0,0:0:0:0:
448,192,64702,1,0,0:0:0:0:
320,192,64827,1,0,0:0:0:0:
448,192,64827,1,0,0:0:0:0:
320,192,64952,1,0,0:0:0:0:
192,192,64952,1,0,0:0:0:0:
64,192,65077,1,0,0:0:0:0:
320,192,65077,1,0,0:0:0:0:
448,192,65077,1,0,0:0:0:0:
64,192,65201,1,0,0:0:0:0:
192,192,65201,1,0,0:0:0:0:
448,192,65326,1,0,0:0:0:0:
192,192,65326,1,0,0:0:0:0:
320,192,65451,1,0,0:0:0:0:
64,192,65451,1,0,0:0:0:0:
448,192,65451,1,0,0:0:0:0:
320,192,65576,1,0,0:0:0:0:
64,192,65576,1,0,0:0:0:0:
192,192,65576,1,0,0:0:0:0:
448,192,65576,1,0,0:0:0:0:
192,192,65700,1,0,0:0:0:0:
64,192,65700,1,0,0:0:0:0:
64,192,65825,1,0,0:0:0:0:
320,192,65825,1,0,0:0:0:0:
448,192,65825,1,0,0:0:0:0:
64,192,65991,1,0,0:0:0:0:
192,192,65991,1,0,0:0:0:0:
320,192,65991,1,0,0:0:0:0:
192,192,66157,1,0,0:0:0:0:
320,192,66157,1,0,0:0:0:0:
448,192,66157,1,0,0:0:0:0:
64,192,66323,1,0,0:0:0:0:
448,192,66323,1,0,0:0:0:0:
320,192,66323,1,0,0:0:0:0:
192,192,66490,1,0,0:0:0:0:
320,192,66490,1,0,0:0:0:0:
448,192,66490,1,0,0:0:0:0:
320,192,66656,1,0,0:0:0:0:
192,192,66656,1,0,0:0:0:0:
64,192,66656,1,0,0:0:0:0:
64,192,66822,1,0,0:0:0:0:
192,192,66822,1,0,0:0:0:0:
320,192,66822,1,0,0:0:0:0:
448,192,66822,1,0,0:0:0:0:
320,192,66947,1,0,0:0:0:0:
448,192,66947,1,0,0:0:0:0:
192,192,67072,1,0,0:0:0:0:
64,192,67072,1,0,0:0:0:0:
448,192,67072,1,0,0:0:0:0:
64,192,67321,1,0,0:0:0:0:
320,192,67321,1,0,0:0:0:0:
64,192,67405,1,0,0:0:0:0:
320,192,67405,1,0,0:0:0:0:
64,192,67487,1,0,0:0:0:0:
320,192,67487,1,0,0:0:0:0:
192,192,67571,1,0,0:0:0:0:
448,192,67571,1,0,0:0:0:0:
192,192,67653,1,0,0:0:0:0:
448,192,67653,1,0,0:0:0:0:
192,192,67737,1,0,0:0:0:0:
448,192,67737,1,0,0:0:0:0:
320,192,67820,1,0,0:0:0:0:
448,192,67820,1,0,0:0:0:0:
192,192,67820,1,0,0:0:0:0:
64,192,67820,1,0,0:0:0:0:
192,192,67945,1,0,0:0:0:0:
64,192,67945,1,0,0:0:0:0:
448,192,67945,1,0,0:0:0:0:
320,192,68007,1,0,0:0:0:0:
192,192,68070,1,0,0:0:0:0:
448,192,68070,1,0,0:0:0:0:
64,192,68070,1,0,0:0:0:0:
64,192,68195,1,0,0:0:0:0:
320,192,68195,1,0,0:0:0:0:
448,192,68195,1,0,0:0:0:0:
192,192,68318,1,0,0:0:0:0:
64,192,68318,1,0,0:0:0:0:
320,192,68318,1,0,0:0:0:0:
448,192,68318,1,0,0:0:0:0:
320,192,68443,1,0,0:0:0:0:
192,192,68443,1,0,0:0:0:0:
448,192,68443,1,0,0:0:0:0:
64,192,68506,1,0,0:0:0:0:
192,192,68568,1,0,0:0:0:0:
320,192,68568,1,0,0:0:0:0:
448,192,68568,1,0,0:0:0:0:
64,192,68631,1,0,0:0:0:0:
320,192,68693,1,0,0:0:0:0:
448,192,68693,1,0,0:0:0:0:
192,192,68756,1,0,0:0:0:0:
64,192,68817,1,0,0:0:0:0:
448,192,68817,1,0,0:0:0:0:
320,192,68817,1,0,0:0:0:0:
192,192,68880,1,0,0:0:0:0:
64,192,68942,1,0,0:0:0:0:
448,192,68942,1,0,0:0:0:0:
320,192,69005,1,0,0:0:0:0:
192,192,69005,1,0,0:0:0:0:
448,192,69067,1,0,0:0:0:0:
64,192,69067,1,0,0:0:0:0:
320,192,69130,1,0,0:0:0:0:
192,192,69192,1,0,0:0:0:0:
64,192,69192,1,0,0:0:0:0:
448,192,69255,1,0,0:0:0:0:
320,192,69316,1,0,0:0:0:0:
192,192,69316,1,0,0:0:0:0:
64,192,69316,1,0,0:0:0:0:
64,192,69441,1,0,0:0:0:0:
192,192,69441,1,0,0:0:0:0:
320,192,69503,1,0,0:0:0:0:
448,192,69503,1,0,0:0:0:0:
192,192,69566,1,0,0:0:0:0:
64,192,69566,1,0,0:0:0:0:
448,192,69566,1,0,0:0:0:0:
320,192,69691,1,0,0:0:0:0:
192,192,69691,1,0,0:0:0:0:
192,192,69815,1,0,0:0:0:0:
64,192,69815,1,0,0:0:0:0:
320,192,69815,1,0,0:0:0:0:
448,192,69815,1,0,0:0:0:0:
320,192,69940,1,0,0:0:0:0:
448,192,69940,1,0,0:0:0:0:
64,192,69940,1,0,0:0:0:0:
320,192,70065,1,0,0:0:0:0:
448,192,70065,1,0,0:0:0:0:
64,192,70065,1,0,0:0:0:0:
192,192,70190,1,0,0:0:0:0:
320,192,70190,1,0,0:0:0:0:
448,192,70190,1,0,0:0:0:0:
192,192,70315,1,0,0:0:0:0:
320,192,70315,1,0,0:0:0:0:
448,192,70315,1,0,0:0:0:0:
64,192,70315,1,0,0:0:0:0:
64,192,70438,1,0,0:0:0:0:
448,192,70438,1,0,0:0:0:0:
192,192,70438,1,0,0:0:0:0:
64,192,70563,1,0,0:0:0:0:
320,192,70563,1,0,0:0:0:0:
192,192,70563,1,0,0:0:0:0:
448,192,70563,1,0,0:0:0:0:
64,192,70688,1,0,0:0:0:0:
320,192,70688,1,0,0:0:0:0:
448,192,70688,1,0,0:0:0:0:
448,192,70813,1,0,0:0:0:0:
64,192,70813,1,0,0:0:0:0:
320,192,70855,1,0,0:0:0:0:
192,192,70896,1,0,0:0:0:0:
448,192,70937,1,0,0:0:0:0:
320,192,70980,1,0,0:0:0:0:
192,192,71021,1,0,0:0:0:0:
64,192,71062,1,0,0:0:0:0:
448,192,71062,1,0,0:0:0:0:
320,192,71125,1,0,0:0:0:0:
192,192,71187,1,0,0:0:0:0:
64,192,71187,1,0,0:0:0:0:
320,192,71250,1,0,0:0:0:0:
448,192,71250,1,0,0:0:0:0:
192,192,71312,1,0,0:0:0:0:
64,192,71312,1,0,0:0:0:0:
64,192,71436,1,0,0:0:0:0:
192,192,71436,1,0,0:0:0:0:
320,192,71498,1,0,0:0:0:0:
64,192,71561,1,0,0:0:0:0:
192,192,71561,1,0,0:0:0:0:
448,192,71561,1,0,0:0:0:0:
320,192,71623,1,0,0:0:0:0:
448,192,71686,1,0,0:0:0:0:
64,192,71686,1,0,0:0:0:0:
192,192,71748,1,0,0:0:0:0:
320,192,71811,1,0,0:0:0:0:
448,192,71811,1,0,0:0:0:0:
64,192,71811,1,0,0:0:0:0:
448,192,71935,1,0,0:0:0:0:
192,192,71935,1,0,0:0:0:0:
64,192,72060,1,0,0:0:0:0:
320,192,72060,1,0,0:0:0:0:
448,192,72060,1,0,0:0:0:0:
192,192,72185,1,0,0:0:0:0:
64,192,72310,1,0,0:0:0:0:
192,192,72310,1,0,0:0:0:0:
448,192,72310,1,0,0:0:0:0:
320,192,72310,1,0,0:0:0:0:
320,192,72433,1,0,0:0:0:0:
192,192,72558,1,0,0:0:0:0:
64,192,72558,1,0,0:0:0:0:
320,192,72683,1,0,0:0:0:0:
64,192,72808,1,0,0:0:0:0:
320,192,72808,1,0,0:0:0:0:
64,192,72932,1,0,0:0:0:0:
64,192,73057,1,0,0:0:0:0:
320,192,73057,1,0,0:0:0:0:
448,192,73057,1,0,0:0:0:0:
448,192,73182,1,0,0:0:0:0:
192,192,73182,1,0,0:0:0:0:
320,192,73307,1,0,0:0:0:0:
64,192,73307,1,0,0:0:0:0:
192,192,73307,1,0,0:0:0:0:
448,192,73307,1,0,0:0:0:0:
320,192,73556,1,0,0:0:0:0:
64,192,73556,1,0,0:0:0:0:
192,192,73806,1,0,0:0:0:0:
64,192,73806,1,0,0:0:0:0:
320,192,73806,1,0,0:0:0:0:
448,192,73806,1,0,0:0:0:0:
192,192,73930,1,0,0:0:0:0:
448,192,73930,1,0,0:0:0:0:
320,192,74055,1,0,0:0:0:0:
448,192,74055,1,0,0:0:0:0:
64,192,74055,1,0,0:0:0:0:
192,192,74180,1,0,0:0:0:0:
64,192,74305,1,0,0:0:0:0:
448,192,74305,1,0,0:0:0:0:
320,192,74305,1,0,0:0:0:0:
192,192,74430,1,0,0:0:0:0:
320,192,74553,1,0,0:0:0:0:
448,192,74553,1,0,0:0:0:0:
320,192,74678,1,0,0:0:0:0:
448,192,74678,1,0,0:0:0:0:
192,192,74803,1,0,0:0:0:0:
64,192,74803,1,0,0:0:0:0:
448,192,74803,1,0,0:0:0:0:
320,192,74928,1,0,0:0:0:0:
192,192,75052,1,0,0:0:0:0:
64,192,75052,1,0,0:0:0:0:
192,192,75177,1,0,0:0:0:0:
64,192,75177,1,0,0:0:0:0:
192,192,75240,1,0,0:0:0:0:
64,192,75240,1,0,0:0:0:0:
320,192,75302,1,0,0:0:0:0:
448,192,75302,1,0,0:0:0:0:
320,192,75385,1,0,0:0:0:0:
448,192,75385,1,0,0:0:0:0:
320,192,75468,1,0,0:0:0:0:
448,192,75468,1,0,0:0:0:0:
64,192,75551,1,0,0:0:0:0:
192,192,75551,1,0,0:0:0:0:
448,192,75551,1,0,0:0:0:0:
192,192,75635,1,0,0:0:0:0:
64,192,75635,1,0,0:0:0:0:
64,192,75717,1,0,0:0:0:0:
192,192,75717,1,0,0:0:0:0:
64,192,75801,1,0,0:0:0:0:
320,192,75801,1,0,0:0:0:0:
448,192,75801,1,0,0:0:0:0:
64,192,75926,1,0,0:0:0:0:
320,192,75926,1,0,0:0:0:0:
192,192,75926,1,0,0:0:0:0:
192,192,76050,1,0,0:0:0:0:
320,192,76050,1,0,0:0:0:0:
448,192,76050,1,0,0:0:0:0:
192,192,76175,1,0,0:0:0:0:
64,192,76175,1,0,0:0:0:0:
448,192,76175,1,0,0:0:0:0:
320,192,76300,1,0,0:0:0:0:
448,192,76300,1,0,0:0:0:0:
64,192,76300,1,0,0:0:0:0:
64,192,76425,1,0,0:0:0:0:
192,192,76425,1,0,0:0:0:0:
448,192,76425,1,0,0:0:0:0:
64,192,76548,1,0,0:0:0:0:
192,192,76580,1,0,0:0:0:0:
320,192,76611,1,0,0:0:0:0:
448,192,76642,1,0,0:0:0:0:
64,192,76673,1,0,0:0:0:0:
192,192,76715,1,0,0:0:0:0:
320,192,76757,1,0,0:0:0:0:
448,192,76798,1,0,0:0:0:0:
192,192,76798,1,0,0:0:0:0:
64,192,76798,1,0,0:0:0:0:
320,192,76861,1,0,0:0:0:0:
448,192,76923,1,0,0:0:0:0:
64,192,76923,1,0,0:0:0:0:
192,192,76986,1,0,0:0:0:0:
320,192,76986,1,0,0:0:0:0:
64,192,77047,1,0,0:0:0:0:
448,192,77047,1,0,0:0:0:0:
192,192,77110,1,0,0:0:0:0:
320,192,77172,1,0,0:0:0:0:
448,192,77172,1,0,0:0:0:0:
192,192,77235,1,0,0:0:0:0:
64,192,77235,1,0,0:0:0:0:
320,192,77297,1,0,0:0:0:0:
448,192,77297,1,0,0:0:0:0:
320,192,77422,1,0,0:0:0:0:
448,192,77422,1,0,0:0:0:0:
320,192,77485,1,0,0:0:0:0:
448,192,77485,1,0,0:0:0:0:
192,192,77546,1,0,0:0:0:0:
64,192,77546,1,0,0:0:0:0:
64,192,77671,1,0,0:0:0:0:
192,192,77671,1,0,0:0:0:0:
64,192,77796,1,0,0:0:0:0:
320,192,77796,1,0,0:0:0:0:
448,192,77796,1,0,0:0:0:0:
64,192,77921,1,0,0:0:0:0:
448,192,77921,1,0,0:0:0:0:
320,192,77921,1,0,0:0:0:0:
192,192,77983,1,0,0:0:0:0:
448,192,78046,1,0,0:0:0:0:
320,192,78046,1,0,0:0:0:0:
64,192,78046,1,0,0:0:0:0:
320,192,78170,1,0,0:0:0:0:
192,192,78170,1,0,0:0:0:0:
192,192,78295,1,0,0:0:0:0:
448,192,78295,1,0,0:0:0:0:
64,192,78295,1,0,0:0:0:0:
320,192,78357,1,0,0:0:0:0:
64,192,78420,1,0,0:0:0:0:
192,192,78420,1,0,0:0:0:0:
448,192,78482,1,0,0:0:0:0:
192,192,78545,1,0,0:0:0:0:
64,192,78545,1,0,0:0:0:0:
320,192,78545,1,0,0:0:0:0:
448,192,78606,1,0,0:0:0:0:
320,192,78668,1,0,0:0:0:0:
64,192,78668,1,0,0:0:0:0:
192,192,78731,1,0,0:0:0:0:
64,192,78793,1,0,0:0:0:0:
320,192,78793,1,0,0:0:0:0:
448,192,78793,1,0,0:0:0:0:
320,192,78877,1,0,0:0:0:0:
448,192,78877,1,0,0:0:0:0:
320,192,78960,1,0,0:0:0:0:
448,192,78960,1,0,0:0:0:0:
192,192,79043,1,0,0:0:0:0:
64,192,79043,1,0,0:0:0:0:
448,192,79043,1,0,0:0:0:0:
320,192,79126,1,0,0:0:0:0:
64,192,79126,1,0,0:0:0:0:
192,192,79210,1,0,0:0:0:0:
448,192,79210,1,0,0:0:0:0:
320,192,79292,1,0,0:0:0:0:
448,192,79292,1,0,0:0:0:0:
64,192,79292,1,0,0:0:0:0:
64,192,79376,1,0,0:0:0:0:
64,192,79458,1,0,0:0:0:0:
448,192,79542,1,0,0:0:0:0:
192,192,79542,1,0,0:0:0:0:
448,192,79625,1,0,0:0:0:0:
448,192,79708,1,0,0:0:0:0:
320,192,79791,1,0,0:0:0:0:
192,192,79791,1,0,0:0:0:0:
64,192,79791,1,0,0:0:0:0:
320,192,79916,1,0,0:0:0:0:
192,192,79916,1,0,0:0:0:0:
64,192,79916,1,0,0:0:0:0:
64,192,80041,1,0,0:0:0:0:
192,192,80041,1,0,0:0:0:0:
320,192,80041,1,0,0:0:0:0:
320,192,80165,1,0,0:0:0:0:
64,192,80165,1,0,0:0:0:0:
448,192,80165,1,0,0:0:0:0:
64,192,80352,1,0,0:0:0:0:
448,192,80352,1,0,0:0:0:0:
64,192,80415,1,0,0:0:0:0:
64,192,80477,1,0,0:0:0:0:
448,192,80540,1,0,0:0:0:0:
192,192,80540,1,0,0:0:0:0:
320,192,80540,1,0,0:0:0:0:
192,192,80788,1,0,0:0:0:0:
448,192,80788,1,0,0:0:0:0:
64,192,80788,1,0,0:0:0:0:
64,192,81038,1,0,0:0:0:0:
448,192,81038,1,0,0:0:0:0:
64,192,81287,1,0,0:0:0:0:
448,192,81287,1,0,0:0:0:0:
64,192,81537,1,0,0:0:0:0:
448,192,81537,1,0,0:0:0:0:
320,192,81786,5,0,0:0:0:0:
64,192,81786,1,0,0:0:0:0:
448,192,81786,1,0,0:0:0:0:
64,192,81911,1,0,0:0:0:0:
192,192,81911,1,0,0:0:0:0:
192,192,82036,1,0,0:0:0:0:
64,192,82036,1,0,0:0:0:0:
64,192,82161,1,0,0:0:0:0:
320,192,82161,1,0,0:0:0:0:
448,192,82161,1,0,0:0:0:0:
192,192,82285,1,0,0:0:0:0:
320,192,82285,1,0,0:0:0:0:
320,192,82410,1,0,0:0:0:0:
192,192,82410,1,0,0:0:0:0:
64,192,82535,1,0,0:0:0:0:
192,192,82535,1,0,0:0:0:0:
448,192,82535,1,0,0:0:0:0:
320,192,82660,1,0,0:0:0:0:
448,192,82660,1,0,0:0:0:0:
448,192,82783,1,0,0:0:0:0:
64,192,82783,1,0,0:0:0:0:
320,192,82783,1,0,0:0:0:0:
192,192,82783,1,0,0:0:0:0:
64,192,82908,1,0,0:0:0:0:
448,192,82908,1,0,0:0:0:0:
320,192,83033,1,0,0:0:0:0:
448,192,83033,1,0,0:0:0:0:
320,192,83158,1,0,0:0:0:0:
448,192,83158,1,0,0:0:0:0:
192,192,83220,1,0,0:0:0:0:
64,192,83220,1,0,0:0:0:0:
320,192,83282,1,0,0:0:0:0:
448,192,83282,1,0,0:0:0:0:
192,192,83407,1,0,0:0:0:0:
320,192,83407,1,0,0:0:0:0:
192,192,83532,1,0,0:0:0:0:
64,192,83532,1,0,0:0:0:0:
64,192,83657,1,0,0:0:0:0:
448,192,83657,1,0,0:0:0:0:
320,192,83781,1,0,0:0:0:0:
448,192,83781,1,0,0:0:0:0:
192,192,83781,1,0,0:0:0:0:
64,192,83781,1,0,0:0:0:0:
320,192,83906,1,0,0:0:0:0:
448,192,83906,1,0,0:0:0:0:
64,192,83906,1,0,0:0:0:0:
192,192,84031,1,0,0:0:0:0:
64,192,84031,1,0,0:0:0:0:
320,192,84031,1,0,0:0:0:0:
448,192,84031,1,0,0:0:0:0:
192,192,84156,1,0,0:0:0:0:
64,192,84156,1,0,0:0:0:0:
448,192,84156,1,0,0:0:0:0:
320,192,84156,1,0,0:0:0:0:
192,192,84280,1,0,0:0:0:0:
64,192,84280,1,0,0:0:0:0:
448,192,84280,1,0,0:0:0:0:
192,192,84405,1,0,0:0:0:0:
320,192,84405,1,0,0:0:0:0:
448,192,84405,1,0,0:0:0:0:
64,192,84405,1,0,0:0:0:0:
192,192,84530,1,0,0:0:0:0:
320,192,84530,1,0,0:0:0:0:
448,192,84530,1,0,0:0:0:0:
64,192,84655,1,0,0:0:0:0:
192,192,84655,1,0,0:0:0:0:
448,192,84655,1,0,0:0:0:0:
64,192,84778,1,0,0:0:0:0:
448,192,84778,1,0,0:0:0:0:
192,192,84778,1,0,0:0:0:0:
320,192,84841,1,0,0:0:0:0:
64,192,84903,1,0,0:0:0:0:
192,192,84903,1,0,0:0:0:0:
320,192,84966,1,0,0:0:0:0:
448,192,84966,1,0,0:0:0:0:
192,192,85028,1,0,0:0:0:0:
64,192,85028,1,0,0:0:0:0:
320,192,85091,1,0,0:0:0:0:
448,192,85153,1,0,0:0:0:0:
64,192,85153,1,0,0:0:0:0:
192,192,85153,1,0,0:0:0:0:
320,192,85216,1,0,0:0:0:0:
448,192,85278,1,0,0:0:0:0:
64,192,85278,1,0,0:0:0:0:
192,192,85278,1,0,0:0:0:0:
448,192,85402,1,0,0:0:0:0:
320,192,85402,1,0,0:0:0:0:
192,192,85465,1,0,0:0:0:0:
64,192,85465,1,0,0:0:0:0:
448,192,85527,1,0,0:0:0:0:
320,192,85527,1,0,0:0:0:0:
64,192,85652,1,0,0:0:0:0:
448,192,85652,1,0,0:0:0:0:
64,192,85777,1,0,0:0:0:0:
192,192,85777,1,0,0:0:0:0:
320,192,85777,1,0,0:0:0:0:
448,192,85777,1,0,0:0:0:0:
320,192,85901,1,0,0:0:0:0:
192,192,85901,1,0,0:0:0:0:
64,192,85901,1,0,0:0:0:0:
64,192,86026,1,0,0:0:0:0:
192,192,86026,1,0,0:0:0:0:
320,192,86026,1,0,0:0:0:0:
192,192,86151,1,0,0:0:0:0:
320,192,86151,1,0,0:0:0:0:
448,192,86151,1,0,0:0:0:0:
64,192,86151,1,0,0:0:0:0:
192,192,86276,1,0,0:0:0:0:
448,192,86276,1,0,0:0:0:0:
320,192,86276,1,0,0:0:0:0:
320,192,86400,1,0,0:0:0:0:
64,192,86400,1,0,0:0:0:0:
448,192,86400,1,0,0:0:0:0:
64,192,86525,1,0,0:0:0:0:
192,192,86525,1,0,0:0:0:0:
320,192,86525,1,0,0:0:0:0:
448,192,86525,1,0,0:0:0:0:
64,192,86650,1,0,0:0:0:0:
192,192,86650,1,0,0:0:0:0:
320,192,86650,1,0,0:0:0:0:
64,192,86775,1,0,0:0:0:0:
448,192,86775,1,0,0:0:0:0:
192,192,86806,1,0,0:0:0:0:
320,192,86836,1,0,0:0:0:0:
448,192,86867,1,0,0:0:0:0:
64,192,86898,1,0,0:0:0:0:
192,192,86930,1,0,0:0:0:0:
448,192,86961,1,0,0:0:0:0:
320,192,86992,1,0,0:0:0:0:
64,192,87023,1,0,0:0:0:0:
192,192,87023,1,0,0:0:0:0:
320,192,87086,1,0,0:0:0:0:
448,192,87086,1,0,0:0:0:0:
192,192,87148,1,0,0:0:0:0:
64,192,87148,1,0,0:0:0:0:
64,192,87273,1,0,0:0:0:0:
320,192,87273,1,0,0:0:0:0:
448,192,87273,1,0,0:0:0:0:
192,192,87273,1,0,0:0:0:0:
448,192,87397,1,0,0:0:0:0:
320,192,87397,1,0,0:0:0:0:
192,192,87460,1,0,0:0:0:0:
64,192,87460,1,0,0:0:0:0:
320,192,87522,1,0,0:0:0:0:
448,192,87522,1,0,0:0:0:0:
64,192,87585,1,0,0:0:0:0:
192,192,87647,1,0,0:0:0:0:
448,192,87647,1,0,0:0:0:0:
320,192,87710,1,0,0:0:0:0:
64,192,87772,1,0,0:0:0:0:
192,192,87772,1,0,0:0:0:0:
448,192,87772,1,0,0:0:0:0:
192,192,87896,1,0,0:0:0:0:
448,192,87896,1,0,0:0:0:0:
320,192,87896,1,0,0:0:0:0:
192,192,88021,1,0,0:0:0:0:
320,192,88021,1,0,0:0:0:0:
448,192,88021,1,0,0:0:0:0:
64,192,88146,1,0,0:0:0:0:
448,192,88146,1,0,0:0:0:0:
192,192,88146,1,0,0:0:0:0:
320,192,88146,1,0,0:0:0:0:
64,192,88271,1,0,0:0:0:0:
192,192,88271,1,0,0:0:0:0:
448,192,88271,1,0,0:0:0:0:
320,192,88271,1,0,0:0:0:0:
64,192,88395,1,0,0:0:0:0:
448,192,88395,1,0,0:0:0:0:
192,192,88520,1,0,0:0:0:0:
64,192,88520,1,0,0:0:0:0:
320,192,88520,1,0,0:0:0:0:
448,192,88520,1,0,0:0:0:0:
192,192,88645,1,0,0:0:0:0:
320,192,88645,1,0,0:0:0:0:
448,192,88645,1,0,0:0:0:0:
64,192,88645,1,0,0:0:0:0:
192,192,88770,1,0,0:0:0:0:
448,192,88770,1,0,0:0:0:0:
64,192,88770,1,0,0:0:0:0:
320,192,88893,1,0,0:0:0:0:
192,192,88893,1,0,0:0:0:0:
448,192,88893,1,0,0:0:0:0:
64,192,88893,1,0,0:0:0:0:
320,192,89018,1,0,0:0:0:0:
448,192,89018,1,0,0:0:0:0:
64,192,89018,1,0,0:0:0:0:
192,192,89143,1,0,0:0:0:0:
320,192,89143,1,0,0:0:0:0:
64,192,89143,1,0,0:0:0:0:
448,192,89143,1,0,0:0:0:0:
64,192,89268,1,0,0:0:0:0:
448,192,89268,1,0,0:0:0:0:
192,192,89331,1,0,0:0:0:0:
320,192,89331,1,0,0:0:0:0:
64,192,89393,1,0,0:0:0:0:
448,192,89393,1,0,0:0:0:0:
320,192,89455,1,0,0:0:0:0:
192,192,89517,1,0,0:0:0:0:
64,192,89517,1,0,0:0:0:0:
448,192,89517,1,0,0:0:0:0:
64,192,89642,1,0,0:0:0:0:
192,192,89642,1,0,0:0:0:0:
448,192,89642,1,0,0:0:0:0:
64,192,89767,1,0,0:0:0:0:
192,192,89767,1,0,0:0:0:0:
320,192,89767,1,0,0:0:0:0:
448,192,89767,1,0,0:0:0:0:
320,192,89892,1,0,0:0:0:0:
64,192,90016,1,0,0:0:0:0:
192,192,90016,1,0,0:0:0:0:
448,192,90016,1,0,0:0:0:0:
192,192,90141,1,0,0:0:0:0:
192,192,90203,1,0,0:0:0:0:
64,192,90266,1,0,0:0:0:0:
320,192,90266,1,0,0:0:0:0:
448,192,90266,1,0,0:0:0:0:
192,192,90391,1,0,0:0:0:0:
448,192,90391,1,0,0:0:0:0:
64,192,90515,1,0,0:0:0:0:
448,192,90515,1,0,0:0:0:0:
320,192,90515,1,0,0:0:0:0:
64,192,90640,1,0,0:0:0:0:
192,192,90640,1,0,0:0:0:0:
320,192,90640,1,0,0:0:0:0:
64,192,90765,1,0,0:0:0:0:
192,192,90765,1,0,0:0:0:0:
320,192,90765,1,0,0:0:0:0:
448,192,90765,1,0,0:0:0:0:
320,192,90890,1,0,0:0:0:0:
448,192,90890,1,0,0:0:0:0:
192,192,91013,1,0,0:0:0:0:
448,192,91013,1,0,0:0:0:0:
64,192,91013,1,0,0:0:0:0:
192,192,91138,1,0,0:0:0:0:
64,192,91138,1,0,0:0:0:0:
192,192,91201,1,0,0:0:0:0:
64,192,91201,1,0,0:0:0:0:
320,192,91263,1,0,0:0:0:0:
448,192,91263,1,0,0:0:0:0:
64,192,91263,1,0,0:0:0:0:
320,192,91346,1,0,0:0:0:0:
192,192,91346,1,0,0:0:0:0:
448,192,91430,1,0,0:0:0:0:
64,192,91430,1,0,0:0:0:0:
320,192,91512,1,0,0:0:0:0:
448,192,91512,1,0,0:0:0:0:
192,192,91512,1,0,0:0:0:0:
64,192,91596,1,0,0:0:0:0:
192,192,91596,1,0,0:0:0:0:
320,192,91678,1,0,0:0:0:0:
448,192,91678,1,0,0:0:0:0:
448,192,91762,1,0,0:0:0:0:
192,192,91762,1,0,0:0:0:0:
64,192,91762,1,0,0:0:0:0:
320,192,91762,1,0,0:0:0:0:
192,192,91887,1,0,0:0:0:0:
64,192,91887,1,0,0:0:0:0:
448,192,91887,1,0,0:0:0:0:
64,192,92011,1,0,0:0:0:0:
192,192,92011,1,0,0:0:0:0:
448,192,92011,1,0,0:0:0:0:
192,192,92136,1,0,0:0:0:0:
320,192,92136,1,0,0:0:0:0:
448,192,92136,1,0,0:0:0:0:
64,192,92136,1,0,0:0:0:0:
64,192,92261,1,0,0:0:0:0:
320,192,92261,1,0,0:0:0:0:
448,192,92261,1,0,0:0:0:0:
64,192,92386,1,0,0:0:0:0:
448,192,92386,1,0,0:0:0:0:
192,192,92386,1,0,0:0:0:0:
192,192,92510,1,0,0:0:0:0:
64,192,92510,1,0,0:0:0:0:
320,192,92510,1,0,0:0:0:0:
448,192,92510,1,0,0:0:0:0:
192,192,92635,1,0,0:0:0:0:
64,192,92635,1,0,0:0:0:0:
448,192,92635,1,0,0:0:0:0:
320,192,92760,1,0,0:0:0:0:
448,192,92760,1,0,0:0:0:0:
192,192,92822,1,0,0:0:0:0:
64,192,92822,1,0,0:0:0:0:
448,192,92885,1,0,0:0:0:0:
320,192,92926,1,0,0:0:0:0:
192,192,92967,1,0,0:0:0:0:
64,192,93010,1,0,0:0:0:0:
448,192,93010,1,0,0:0:0:0:
320,192,93071,1,0,0:0:0:0:
192,192,93071,1,0,0:0:0:0:
64,192,93133,1,0,0:0:0:0:
448,192,93133,1,0,0:0:0:0:
320,192,93196,1,0,0:0:0:0:
192,192,93258,1,0,0:0:0:0:
64,192,93258,1,0,0:0:0:0:
448,192,93258,1,0,0:0:0:0:
64,192,93383,1,0,0:0:0:0:
192,192,93383,1,0,0:0:0:0:
320,192,93446,1,0,0:0:0:0:
448,192,93446,1,0,0:0:0:0:
192,192,93508,1,0,0:0:0:0:
64,192,93508,1,0,0:0:0:0:
64,192,93632,1,0,0:0:0:0:
192,192,93632,1,0,0:0:0:0:
64,192,93757,1,0,0:0:0:0:
192,192,93757,1,0,0:0:0:0:
320,192,93757,1,0,0:0:0:0:
448,192,93757,1,0,0:0:0:0:
192,192,93882,1,0,0:0:0:0:
320,192,93882,1,0,0:0:0:0:
448,192,93882,1,0,0:0:0:0:
64,192,94007,1,0,0:0:0:0:
192,192,94007,1,0,0:0:0:0:
320,192,94007,1,0,0:0:0:0:
64,192,94131,1,0,0:0:0:0:
448,192,94131,1,0,0:0:0:0:
320,192,94131,1,0,0:0:0:0:
192,192,94256,1,0,0:0:0:0:
64,192,94256,1,0,0:0:0:0:
448,192,94256,1,0,0:0:0:0:
64,192,94381,1,0,0:0:0:0:
448,192,94381,1,0,0:0:0:0:
320,192,94443,1,0,0:0:0:0:
64,192,94506,1,0,0:0:0:0:
448,192,94506,1,0,0:0:0:0:
192,192,94506,1,0,0:0:0:0:
64,192,94630,1,0,0:0:0:0:
192,192,94630,1,0,0:0:0:0:
448,192,94630,1,0,0:0:0:0:
448,192,94755,1,0,0:0:0:0:
320,192,94755,1,0,0:0:0:0:
192,192,94786,1,0,0:0:0:0:
64,192,94817,1,0,0:0:0:0:
448,192,94848,1,0,0:0:0:0:
320,192,94880,1,0,0:0:0:0:
64,192,94911,1,0,0:0:0:0:
192,192,94942,1,0,0:0:0:0:
320,192,94973,1,0,0:0:0:0:
448,192,95005,1,0,0:0:0:0:
64,192,95005,1,0,0:0:0:0:
320,192,95067,1,0,0:0:0:0:
192,192,95067,1,0,0:0:0:0:
448,192,95128,1,0,0:0:0:0:
64,192,95128,1,0,0:0:0:0:
64,192,95253,1,0,0:0:0:0:
448,192,95253,1,0,0:0:0:0:
192,192,95253,1,0,0:0:0:0:
320,192,95253,1,0,0:0:0:0:
192,192,95378,1,0,0:0:0:0:
448,192,95378,1,0,0:0:0:0:
320,192,95378,1,0,0:0:0:0:
64,192,95378,1,0,0:0:0:0:
320,192,95441,1,0,0:0:0:0:
448,192,95441,1,0,0:0:0:0:
64,192,95503,1,0,0:0:0:0:
192,192,95503,1,0,0:0:0:0:
320,192,95566,1,0,0:0:0:0:
448,192,95566,1,0,0:0:0:0:
192,192,95627,1,0,0:0:0:0:
64,192,95627,1,0,0:0:0:0:
64,192,95690,1,0,0:0:0:0:
192,192,95690,1,0,0:0:0:0:
320,192,95752,1,0,0:0:0:0:
448,192,95752,1,0,0:0:0:0:
64,192,95752,1,0,0:0:0:0:
448,192,96002,1,0,0:0:0:0:
320,192,96002,1,0,0:0:0:0:
64,192,96126,1,0,0:0:0:0:
192,192,96126,1,0,0:0:0:0:
320,192,96251,1,0,0:0:0:0:
448,192,96251,1,0,0:0:0:0:
64,192,96251,1,0,0:0:0:0:
192,192,96376,1,0,0:0:0:0:
320,192,96376,1,0,0:0:0:0:
64,192,96501,1,0,0:0:0:0:
448,192,96501,1,0,0:0:0:0:
192,192,96626,1,0,0:0:0:0:
320,192,96626,1,0,0:0:0:0:
64,192,96750,1,0,0:0:0:0:
448,192,96750,1,0,0:0:0:0:
192,192,96875,1,0,0:0:0:0:
320,192,97000,1,0,0:0:0:0:
448,192,97000,1,0,0:0:0:0:
64,192,97000,1,0,0:0:0:0:
320,192,97125,1,0,0:0:0:0:
448,192,97125,1,0,0:0:0:0:
192,192,97248,1,0,0:0:0:0:
64,192,97248,1,0,0:0:0:0:
448,192,97248,1,0,0:0:0:0:
320,192,97373,1,0,0:0:0:0:
192,192,97498,1,0,0:0:0:0:
64,192,97498,1,0,0:0:0:0:
320,192,97623,1,0,0:0:0:0:
448,192,97623,1,0,0:0:0:0:
192,192,97747,1,0,0:0:0:0:
64,192,97747,1,0,0:0:0:0:
448,192,97747,1,0,0:0:0:0:
320,192,97872,1,0,0:0:0:0:
64,192,97997,1,0,0:0:0:0:
448,192,97997,1,0,0:0:0:0:
192,192,97997,1,0,0:0:0:0:
320,192,98122,1,0,0:0:0:0:
64,192,98122,1,0,0:0:0:0:
192,192,98246,1,0,0:0:0:0:
448,192,98246,1,0,0:0:0:0:
320,192,98246,1,0,0:0:0:0:
64,192,98371,1,0,0:0:0:0:
448,192,98371,1,0,0:0:0:0:
192,192,98496,1,0,0:0:0:0:
320,192,98496,1,0,0:0:0:0:
64,192,98621,1,0,0:0:0:0:
448,192,98621,1,0,0:0:0:0:
64,192,98745,1,0,0:0:0:0:
320,192,98745,1,0,0:0:0:0:
192,192,98745,1,0,0:0:0:0:
448,192,98745,1,0,0:0:0:0:
192,192,98870,1,0,0:0:0:0:
64,192,98995,1,0,0:0:0:0:
448,192,98995,1,0,0:0:0:0:
320,192,98995,1,0,0:0:0:0:
320,192,99120,1,0,0:0:0:0:
64,192,99243,1,0,0:0:0:0:
448,192,99243,1,0,0:0:0:0:
192,192,99243,1,0,0:0:0:0:
192,192,99327,1,0,0:0:0:0:
64,192,99327,1,0,0:0:0:0:
320,192,99410,1,0,0:0:0:0:
448,192,99410,1,0,0:0:0:0:
192,192,99493,1,0,0:0:0:0:
448,192,99493,1,0,0:0:0:0:
64,192,99493,1,0,0:0:0:0:
320,192,99576,1,0,0:0:0:0:
192,192,99576,1,0,0:0:0:0:
64,192,99660,1,0,0:0:0:0:
448,192,99660,1,0,0:0:0:0:
64,192,99742,1,0,0:0:0:0:
192,192,99742,1,0,0:0:0:0:
320,192,99742,1,0,0:0:0:0:
448,192,99742,1,0,0:0:0:0:
64,192,99867,1,0,0:0:0:0:
192,192,99867,1,0,0:0:0:0:
320,192,99867,1,0,0:0:0:0:
64,192,99992,1,0,0:0:0:0:
448,192,99992,1,0,0:0:0:0:
320,192,99992,1,0,0:0:0:0:
64,192,100117,1,0,0:0:0:0:
192,192,100117,1,0,0:0:0:0:
448,192,100117,1,0,0:0:0:0:
320,192,100117,1,0,0:0:0:0:
192,192,100241,1,0,0:0:0:0:
320,192,100241,1,0,0:0:0:0:
448,192,100241,1,0,0:0:0:0:
192,192,100366,1,0,0:0:0:0:
64,192,100366,1,0,0:0:0:0:
448,192,100366,1,0,0:0:0:0:
64,192,100491,1,0,0:0:0:0:
192,192,100491,1,0,0:0:0:0:
320,192,100491,1,0,0:0:0:0:
448,192,100491,1,0,0:0:0:0:
64,192,100616,1,0,0:0:0:0:
448,192,100616,1,0,0:0:0:0:
320,192,100741,1,0,0:0:0:0:
448,192,100741,1,0,0:0:0:0:
64,192,100802,1,0,0:0:0:0:
192,192,100802,1,0,0:0:0:0:
320,192,100865,1,0,0:0:0:0:
448,192,100865,1,0,0:0:0:0:
192,192,100990,1,0,0:0:0:0:
320,192,100990,1,0,0:0:0:0:
448,192,100990,1,0,0:0:0:0:
64,192,100990,1,0,0:0:0:0:
192,192,101115,1,0,0:0:0:0:
64,192,101115,1,0,0:0:0:0:
320,192,101177,1,0,0:0:0:0:
448,192,101177,1,0,0:0:0:0:
192,192,101240,1,0,0:0:0:0:
64,192,101240,1,0,0:0:0:0:
64,192,101363,1,0,0:0:0:0:
192,192,101363,1,0,0:0:0:0:
320,192,101363,1,0,0:0:0:0:
448,192,101363,1,0,0:0:0:0:
64,192,101488,1,0,0:0:0:0:
448,192,101488,1,0,0:0:0:0:
320,192,101551,1,0,0:0:0:0:
192,192,101551,1,0,0:0:0:0:
448,192,101613,1,0,0:0:0:0:
64,192,101613,1,0,0:0:0:0:
64,192,101738,1,0,0:0:0:0:
192,192,101738,1,0,0:0:0:0:
448,192,101738,1,0,0:0:0:0:
320,192,101800,1,0,0:0:0:0:
448,192,101862,1,0,0:0:0:0:
192,192,101862,1,0,0:0:0:0:
64,192,101925,1,0,0:0:0:0:
320,192,101925,1,0,0:0:0:0:
192,192,101987,1,0,0:0:0:0:
448,192,101987,1,0,0:0:0:0:
64,192,102050,1,0,0:0:0:0:
320,192,102112,1,0,0:0:0:0:
448,192,102112,1,0,0:0:0:0:
64,192,102175,1,0,0:0:0:0:
320,192,102237,1,0,0:0:0:0:
448,192,102237,1,0,0:0:0:0:
192,192,102237,1,0,0:0:0:0:
64,192,102300,1,0,0:0:0:0:
320,192,102361,1,0,0:0:0:0:
448,192,102361,1,0,0:0:0:0:
192,192,102423,1,0,0:0:0:0:
64,192,102423,1,0,0:0:0:0:
320,192,102486,1,0,0:0:0:0:
448,192,102486,1,0,0:0:0:0:
64,192,102548,1,0,0:0:0:0:
192,192,102611,1,0,0:0:0:0:
320,192,102611,1,0,0:0:0:0:
448,192,102673,1,0,0:0:0:0:
320,192,102736,1,0,0:0:0:0:
192,192,102736,1,0,0:0:0:0:
64,192,102736,1,0,0:0:0:0:
192,192,102818,1,0,0:0:0:0:
64,192,102818,1,0,0:0:0:0:
64,192,102902,1,0,0:0:0:0:
192,192,102902,1,0,0:0:0:0:
64,192,102985,1,0,0:0:0:0:
448,192,102985,1,0,0:0:0:0:
320,192,102985,1,0,0:0:0:0:
320,192,103068,1,0,0:0:0:0:
448,192,103068,1,0,0:0:0:0:
320,192,103151,1,0,0:0:0:0:
448,192,103151,1,0,0:0:0:0:
192,192,103235,1,0,0:0:0:0:
64,192,103235,1,0,0:0:0:0:
448,192,103235,1,0,0:0:0:0:
64,192,103317,1,0,0:0:0:0:
320,192,103317,1,0,0:0:0:0:
192,192,103401,1,0,0:0:0:0:
448,192,103401,1,0,0:0:0:0:
320,192,103483,1,0,0:0:0:0:
448,192,103483,1,0,0:0:0:0:
64,192,103483,1,0,0:0:0:0:
192,192,103567,1,0,0:0:0:0:
448,192,103567,1,0,0:0:0:0:
320,192,103650,1,0,0:0:0:0:
64,192,103650,1,0,0:0:0:0:
64,192,103733,1,0,0:0:0:0:
192,192,103733,1,0,0:0:0:0:
448,192,103733,1,0,0:0:0:0:
320,192,103733,1,0,0:0:0:0:
64,192,103857,1,0,0:0:0:0:
320,192,103857,1,0,0:0:0:0:
448,192,103920,1,0,0:0:0:0:
192,192,103920,1,0,0:0:0:0:
64,192,103982,1,0,0:0:0:0:
320,192,103982,1,0,0:0:0:0:
64,192,104107,1,0,0:0:0:0:
192,192,104107,1,0,0:0:0:0:
320,192,104107,1,0,0:0:0:0:
448,192,104107,1,0,0:0:0:0:
448,192,104232,5,0,0:0:0:0:
192,192,104232,1,0,0:0:0:0:
320,192,104295,1,0,0:0:0:0:
64,192,104295,1,0,0:0:0:0:
192,192,104357,1,0,0:0:0:0:
448,192,104357,1,0,0:0:0:0:
64,192,104481,1,0,0:0:0:0:
192,192,104481,1,0,0:0:0:0:
320,192,104481,1,0,0:0:0:0:
448,192,104481,1,0,0:0:0:0:
192,192,104606,1,0,0:0:0:0:
64,192,104606,1,0,0:0:0:0:
448,192,104606,1,0,0:0:0:0:
64,192,104731,1,0,0:0:0:0:
192,192,104731,1,0,0:0:0:0:
320,192,104731,1,0,0:0:0:0:
448,192,104731,1,0,0:0:0:0:
64,192,104856,1,0,0:0:0:0:
320,192,104856,1,0,0:0:0:0:
448,192,104856,1,0,0:0:0:0:
64,192,104980,1,0,0:0:0:0:
320,192,104980,1,0,0:0:0:0:
192,192,104980,1,0,0:0:0:0:
448,192,104980,1,0,0:0:0:0:
192,192,105105,1,0,0:0:0:0:
64,192,105105,1,0,0:0:0:0:
64,192,105230,1,0,0:0:0:0:
192,192,105230,1,0,0:0:0:0:
320,192,105230,1,0,0:0:0:0:
448,192,105230,1,0,0:0:0:0:
320,192,105355,1,0,0:0:0:0:
448,192,105355,1,0,0:0:0:0:
320,192,105478,1,0,0:0:0:0:
448,192,105478,1,0,0:0:0:0:
192,192,105478,1,0,0:0:0:0:
64,192,105478,1,0,0:0:0:0:
64,192,105603,1,0,0:0:0:0:
448,192,105603,1,0,0:0:0:0:
64,192,105728,5,0,0:0:0:0:
320,192,105728,1,0,0:0:0:0:
448,192,105728,1,0,0:0:0:0:
192,192,105791,1,0,0:0:0:0:
64,192,105853,1,0,0:0:0:0:
320,192,105853,1,0,0:0:0:0:
320,192,105977,1,0,0:0:0:0:
192,192,106102,1,0,0:0:0:0:
448,192,106102,1,0,0:0:0:0:
320,192,106165,1,0,0:0:0:0:
448,192,106227,1,0,0:0:0:0:
192,192,106227,1,0,0:0:0:0:
192,192,106352,1,0,0:0:0:0:
192,192,106476,1,0,0:0:0:0:
320,192,106476,1,0,0:0:0:0:
448,192,106538,1,0,0:0:0:0:
64,192,106538,1,0,0:0:0:0:
192,192,106601,1,0,0:0:0:0:
320,192,106601,1,0,0:0:0:0:
192,192,106726,1,0,0:0:0:0:
64,192,106726,1,0,0:0:0:0:
448,192,106726,1,0,0:0:0:0:
320,192,106726,1,0,0:0:0:0:
320,192,106851,1,0,0:0:0:0:
448,192,106851,1,0,0:0:0:0:
192,192,106975,1,0,0:0:0:0:
64,192,106975,1,0,0:0:0:0:
192,192,107037,1,0,0:0:0:0:
64,192,107037,1,0,0:0:0:0:
64,192,107100,1,0,0:0:0:0:
192,192,107100,1,0,0:0:0:0:
64,192,107225,1,0,0:0:0:0:
448,192,107225,1,0,0:0:0:0:
320,192,107225,1,0,0:0:0:0:
192,192,107350,1,0,0:0:0:0:
320,192,107350,1,0,0:0:0:0:
64,192,107473,1,0,0:0:0:0:
448,192,107473,1,0,0:0:0:0:
320,192,107536,1,0,0:0:0:0:
192,192,107536,1,0,0:0:0:0:
64,192,107598,1,0,0:0:0:0:
448,192,107598,1,0,0:0:0:0:
64,192,107723,5,0,0:0:0:0:
192,192,107723,1,0,0:0:0:0:
320,192,107723,1,0,0:0:0:0:
448,192,107723,1,0,0:0:0:0:
320,192,107973,1,0,0:0:0:0:
192,192,107973,1,0,0:0:0:0:
448,192,108097,1,0,0:0:0:0:
64,192,108222,1,0,0:0:0:0:
320,192,108222,1,0,0:0:0:0:
320,192,108472,1,0,0:0:0:0:
192,192,108596,1,0,0:0:0:0:
64,192,108596,1,0,0:0:0:0:
448,192,108721,1,0,0:0:0:0:
320,192,108721,1,0,0:0:0:0:
448,192,108971,1,0,0:0:0:0:
192,192,109032,1,0,0:0:0:0:
448,192,109095,1,0,0:0:0:0:
192,192,109157,1,0,0:0:0:0:
320,192,109220,1,0,0:0:0:0:
64,192,109220,1,0,0:0:0:0:
448,192,109220,1,0,0:0:0:0:
192,192,109470,1,0,0:0:0:0:
64,192,109718,1,0,0:0:0:0:
448,192,109718,1,0,0:0:0:0:
192,192,109968,1,0,0:0:0:0:
320,192,110092,1,0,0:0:0:0:
64,192,110217,1,0,0:0:0:0:
448,192,110217,1,0,0:0:0:0:
192,192,110467,1,0,0:0:0:0:
448,192,110467,1,0,0:0:0:0:
64,192,110716,1,0,0:0:0:0:
320,192,110716,1,0,0:0:0:0:
448,192,110716,1,0,0:0:0:0:
64,192,110966,1,0,0:0:0:0:
320,192,111090,1,0,0:0:0:0:
448,192,111090,1,0,0:0:0:0:
192,192,111215,1,0,0:0:0:0:
64,192,111215,1,0,0:0:0:0:
64,192,111465,1,0,0:0:0:0:
320,192,111465,1,0,0:0:0:0:
192,192,111713,1,0,0:0:0:0:
448,192,111713,1,0,0:0:0:0:
64,192,111713,1,0,0:0:0:0:
320,192,111963,1,0,0:0:0:0:
64,192,112026,1,0,0:0:0:0:
320,192,112088,1,0,0:0:0:0:
64,192,112150,1,0,0:0:0:0:
192,192,112212,1,0,0:0:0:0:
448,192,112212,1,0,0:0:0:0:
64,192,112462,1,0,0:0:0:0:
320,192,112462,1,0,0:0:0:0:
448,192,112711,1,0,0:0:0:0:
64,192,112711,1,0,0:0:0:0:
192,192,112711,1,0,0:0:0:0:
192,192,112961,1,0,0:0:0:0:
320,192,112961,1,0,0:0:0:0:
64,192,113210,1,0,0:0:0:0:
448,192,113210,1,0,0:0:0:0:
320,192,113460,1,0,0:0:0:0:
320,192,113585,5,0,0:0:0:0:
192,192,113647,1,0,0:0:0:0:
64,192,113708,1,0,0:0:0:0:
320,192,113708,1,0,0:0:0:0:
448,192,113708,1,0,0:0:0:0:
320,192,113958,1,0,0:0:0:0:
192,192,113958,1,0,0:0:0:0:
64,192,113958,1,0,0:0:0:0:
64,192,114207,1,0,0:0:0:0:
192,192,114207,1,0,0:0:0:0:
448,192,114207,1,0,0:0:0:0:
192,192,114457,1,0,0:0:0:0:
320,192,114457,1,0,0:0:0:0:
448,192,114457,1,0,0:0:0:0:
64,192,114706,1,0,0:0:0:0:
192,192,114706,1,0,0:0:0:0:
448,192,114706,1,0,0:0:0:0:
320,192,114706,1,0,0:0:0:0:
64,192,114768,1,0,0:0:0:0:
192,192,114790,1,0,0:0:0:0:
320,192,114831,1,0,0:0:0:0:
448,192,114893,1,0,0:0:0:0:
192,192,114956,1,0,0:0:0:0:
320,192,115018,1,0,0:0:0:0:
64,192,115106,1,0,0:0:0:0:
448,192,115205,1,0,0:0:0:0:
320,192,115205,1,0,0:0:0:0:
64,192,115247,1,0,0:0:0:0:
192,192,115288,1,0,0:0:0:0:
320,192,115330,1,0,0:0:0:0:
448,192,115392,1,0,0:0:0:0:
192,192,115455,1,0,0:0:0:0:
64,192,115455,1,0,0:0:0:0:
320,192,115517,1,0,0:0:0:0:
192,192,115621,1,0,0:0:0:0:
64,192,115705,1,0,0:0:0:0:
320,192,115705,1,0,0:0:0:0:
192,192,115705,1,0,0:0:0:0:
448,192,115705,1,0,0:0:0:0:
448,192,115766,1,0,0:0:0:0:
320,192,115797,1,0,0:0:0:0:
192,192,115828,1,0,0:0:0:0:
64,192,115871,1,0,0:0:0:0:
320,192,115912,1,0,0:0:0:0:
192,192,115953,1,0,0:0:0:0:
64,192,115953,1,0,0:0:0:0:
448,192,115995,1,0,0:0:0:0:
320,192,116037,1,0,0:0:0:0:
64,192,116078,1,0,0:0:0:0:
192,192,116078,1,0,0:0:0:0:
448,192,116153,1,0,0:0:0:0:
64,192,116203,1,0,0:0:0:0:
320,192,116203,1,0,0:0:0:0:
192,192,116265,1,0,0:0:0:0:
320,192,116327,1,0,0:0:0:0:
448,192,116327,1,0,0:0:0:0:
192,192,116390,1,0,0:0:0:0:
320,192,116452,1,0,0:0:0:0:
448,192,116452,1,0,0:0:0:0:
64,192,116515,1,0,0:0:0:0:
192,192,116546,1,0,0:0:0:0:
320,192,116577,1,0,0:0:0:0:
64,192,116618,1,0,0:0:0:0:
192,192,116660,1,0,0:0:0:0:
320,192,116702,1,0,0:0:0:0:
448,192,116702,1,0,0:0:0:0:
64,192,116763,1,0,0:0:0:0:
192,192,116785,1,0,0:0:0:0:
320,192,116826,1,0,0:0:0:0:
64,192,116868,1,0,0:0:0:0:
448,192,116888,1,0,0:0:0:0:
192,192,116951,1,0,0:0:0:0:
320,192,116951,1,0,0:0:0:0:
448,192,116992,1,0,0:0:0:0:
64,192,117013,1,0,0:0:0:0:
192,192,117076,1,0,0:0:0:0:
320,192,117076,1,0,0:0:0:0:
64,192,117107,1,0,0:0:0:0:
192,192,117158,1,0,0:0:0:0:
320,192,117201,1,0,0:0:0:0:
448,192,117201,1,0,0:0:0:0:
64,192,117242,1,0,0:0:0:0:
192,192,117283,1,0,0:0:0:0:
320,192,117325,1,0,0:0:0:0:
192,192,117408,1,0,0:0:0:0:
64,192,117450,1,0,0:0:0:0:
320,192,117450,1,0,0:0:0:0:
448,192,117450,1,0,0:0:0:0:
448,192,117550,1,0,0:0:0:0:
192,192,117575,1,0,0:0:0:0:
448,192,117637,1,0,0:0:0:0:
320,192,117700,1,0,0:0:0:0:
192,192,117700,1,0,0:0:0:0:
64,192,117700,1,0,0:0:0:0:
448,192,117741,1,0,0:0:0:0:
64,192,117782,1,0,0:0:0:0:
320,192,117823,1,0,0:0:0:0:
192,192,117866,1,0,0:0:0:0:
64,192,117907,1,0,0:0:0:0:
320,192,117948,1,0,0:0:0:0:
448,192,117948,1,0,0:0:0:0:
192,192,117990,1,0,0:0:0:0:
448,192,118048,1,0,0:0:0:0:
320,192,118098,1,0,0:0:0:0:
192,192,118148,1,0,0:0:0:0:
64,192,118198,1,0,0:0:0:0:
448,192,118198,1,0,0:0:0:0:
320,192,118261,1,0,0:0:0:0:
192,192,118322,1,0,0:0:0:0:
320,192,118385,1,0,0:0:0:0:
448,192,118447,1,0,0:0:0:0:
64,192,118447,1,0,0:0:0:0:
192,192,118447,1,0,0:0:0:0:
192,192,118572,1,0,0:0:0:0:
64,192,118572,1,0,0:0:0:0:
448,192,118572,1,0,0:0:0:0:
320,192,118697,1,0,0:0:0:0:
448,192,118697,1,0,0:0:0:0:
64,192,118728,1,0,0:0:0:0:
192,192,118728,1,0,0:0:0:0:
320,192,118821,1,0,0:0:0:0:
448,192,118821,1,0,0:0:0:0:
64,192,118821,1,0,0:0:0:0:
320,192,118946,1,0,0:0:0:0:
448,192,118946,1,0,0:0:0:0:
192,192,119008,1,0,0:0:0:0:
64,192,119008,1,0,0:0:0:0:
320,192,119071,1,0,0:0:0:0:
448,192,119071,1,0,0:0:0:0:
192,192,119133,1,0,0:0:0:0:
64,192,119196,1,0,0:0:0:0:
448,192,119196,1,0,0:0:0:0:
320,192,119237,1,0,0:0:0:0:
192,192,119278,1,0,0:0:0:0:
448,192,119321,1,0,0:0:0:0:
192,192,119362,1,0,0:0:0:0:
320,192,119403,1,0,0:0:0:0:
64,192,119445,1,0,0:0:0:0:
448,192,119487,1,0,0:0:0:0:
320,192,119528,1,0,0:0:0:0:
192,192,119570,1,0,0:0:0:0:
64,192,119632,1,0,0:0:0:0:
448,192,119695,1,0,0:0:0:0:
320,192,119695,1,0,0:0:0:0:
64,192,119757,1,0,0:0:0:0:
320,192,119820,1,0,0:0:0:0:
64,192,119881,1,0,0:0:0:0:
192,192,119943,1,0,0:0:0:0:
448,192,119943,1,0,0:0:0:0:
320,192,120027,1,0,0:0:0:0:
64,192,120068,1,0,0:0:0:0:
192,192,120068,1,0,0:0:0:0:
64,192,120152,1,0,0:0:0:0:
192,192,120152,1,0,0:0:0:0:
448,192,120193,1,0,0:0:0:0:
320,192,120235,1,0,0:0:0:0:
448,192,120276,1,0,0:0:0:0:
192,192,120318,1,0,0:0:0:0:
320,192,120360,1,0,0:0:0:0:
64,192,120401,1,0,0:0:0:0:
192,192,120442,1,0,0:0:0:0:
320,192,120492,1,0,0:0:0:0:
64,192,120542,1,0,0:0:0:0:
448,192,120592,1,0,0:0:0:0:
320,192,120642,1,0,0:0:0:0:
64,192,120692,1,0,0:0:0:0:
192,192,120692,1,0,0:0:0:0:
64,192,120755,1,0,0:0:0:0:
192,192,120775,1,0,0:0:0:0:
320,192,120817,1,0,0:0:0:0:
448,192,120858,1,0,0:0:0:0:
192,192,120900,1,0,0:0:0:0:
320,192,120941,1,0,0:0:0:0:
448,192,120983,1,0,0:0:0:0:
64,192,121025,1,0,0:0:0:0:
320,192,121066,1,0,0:0:0:0:
192,192,121107,1,0,0:0:0:0:
64,192,121150,1,0,0:0:0:0:
448,192,121191,1,0,0:0:0:0:
320,192,121191,1,0,0:0:0:0:
192,192,121241,1,0,0:0:0:0:
320,192,121291,1,0,0:0:0:0:
64,192,121341,1,0,0:0:0:0:
448,192,121390,1,0,0:0:0:0:
320,192,121440,1,0,0:0:0:0:
192,192,121502,1,0,0:0:0:0:
320,192,121565,1,0,0:0:0:0:
448,192,121565,1,0,0:0:0:0:
64,192,121627,1,0,0:0:0:0:
192,192,121648,1,0,0:0:0:0:
448,192,121690,1,0,0:0:0:0:
320,192,121690,1,0,0:0:0:0:
64,192,121731,1,0,0:0:0:0:
192,192,121772,1,0,0:0:0:0:
320,192,121815,1,0,0:0:0:0:
64,192,121856,1,0,0:0:0:0:
192,192,121897,1,0,0:0:0:0:
448,192,121938,1,0,0:0:0:0:
320,192,121988,1,0,0:0:0:0:
192,192,122038,1,0,0:0:0:0:
448,192,122088,1,0,0:0:0:0:
320,192,122138,1,0,0:0:0:0:
192,192,122188,1,0,0:0:0:0:
64,192,122188,1,0,0:0:0:0:
320,192,122271,1,0,0:0:0:0:
64,192,122313,1,0,0:0:0:0:
192,192,122313,1,0,0:0:0:0:
448,192,122355,1,0,0:0:0:0:
320,192,122437,1,0,0:0:0:0:
192,192,122437,1,0,0:0:0:0:
64,192,122480,1,0,0:0:0:0:
320,192,122562,1,0,0:0:0:0:
448,192,122562,1,0,0:0:0:0:
192,192,122651,1,0,0:0:0:0:
64,192,122687,1,0,0:0:0:0:
320,192,122687,1,0,0:0:0:0:
448,192,122687,1,0,0:0:0:0:
192,192,122750,1,0,0:0:0:0:
320,192,122812,1,0,0:0:0:0:
448,192,122812,1,0,0:0:0:0:
64,192,122875,1,0,0:0:0:0:
192,192,122936,1,0,0:0:0:0:
448,192,122936,1,0,0:0:0:0:
320,192,122998,1,0,0:0:0:0:
448,192,123061,1,0,0:0:0:0:
64,192,123061,1,0,0:0:0:0:
192,192,123123,1,0,0:0:0:0:
320,192,123186,1,0,0:0:0:0:
448,192,123186,1,0,0:0:0:0:
64,192,123186,1,0,0:0:0:0:
192,192,123248,1,0,0:0:0:0:
320,192,123311,1,0,0:0:0:0:
64,192,123311,1,0,0:0:0:0:
448,192,123373,1,0,0:0:0:0:
320,192,123436,1,0,0:0:0:0:
192,192,123436,1,0,0:0:0:0:
64,192,123497,1,0,0:0:0:0:
320,192,123560,1,0,0:0:0:0:
448,192,123560,1,0,0:0:0:0:
192,192,123622,1,0,0:0:0:0:
64,192,123685,1,0,0:0:0:0:
320,192,123685,1,0,0:0:0:0:
448,192,123685,1,0,0:0:0:0:
192,192,123747,1,0,0:0:0:0:
64,192,123810,1,0,0:0:0:0:
320,192,123872,1,0,0:0:0:0:
192,192,123935,1,0,0:0:0:0:
448,192,123935,1,0,0:0:0:0:
64,192,123935,1,0,0:0:0:0:
320,192,123996,1,0,0:0:0:0:
192,192,124058,1,0,0:0:0:0:
448,192,124121,1,0,0:0:0:0:
320,192,124183,1,0,0:0:0:0:
192,192,124183,1,0,0:0:0:0:
64,192,124183,1,0,0:0:0:0:
448,192,124246,1,0,0:0:0:0:
64,192,124308,1,0,0:0:0:0:
192,192,124371,1,0,0:0:0:0:
64,192,124433,1,0,0:0:0:0:
320,192,124433,1,0,0:0:0:0:
448,192,124433,1,0,0:0:0:0:
192,192,124495,1,0,0:0:0:0:
320,192,124557,1,0,0:0:0:0:
448,192,124620,1,0,0:0:0:0:
320,192,124682,1,0,0:0:0:0:
192,192,124682,1,0,0:0:0:0:
64,192,124682,1,0,0:0:0:0:
448,192,124745,1,0,0:0:0:0:
64,192,124807,1,0,0:0:0:0:
192,192,124870,1,0,0:0:0:0:
320,192,124932,1,0,0:0:0:0:
448,192,124932,1,0,0:0:0:0:
64,192,124932,1,0,0:0:0:0:
192,192,124995,1,0,0:0:0:0:
448,192,125056,1,0,0:0:0:0:
320,192,125118,1,0,0:0:0:0:
448,192,125181,1,0,0:0:0:0:
192,192,125181,1,0,0:0:0:0:
64,192,125181,1,0,0:0:0:0:
320,192,125243,1,0,0:0:0:0:
64,192,125306,1,0,0:0:0:0:
448,192,125368,1,0,0:0:0:0:
192,192,125431,1,0,0:0:0:0:
320,192,125431,1,0,0:0:0:0:
64,192,125431,1,0,0:0:0:0:
448,192,125493,1,0,0:0:0:0:
192,192,125555,1,0,0:0:0:0:
320,192,125617,1,0,0:0:0:0:
448,192,125680,1,0,0:0:0:0:
192,192,125680,1,0,0:0:0:0:
64,192,125680,1,0,0:0:0:0:
320,192,125742,1,0,0:0:0:0:
192,192,125805,1,0,0:0:0:0:
64,192,125867,1,0,0:0:0:0:
320,192,125930,1,0,0:0:0:0:
192,192,125930,1,0,0:0:0:0:
448,192,125930,1,0,0:0:0:0:
64,192,125992,1,0,0:0:0:0:
448,192,126053,1,0,0:0:0:0:
192,192,126116,1,0,0:0:0:0:
320,192,126178,1,0,0:0:0:0:
448,192,126178,1,0,0:0:0:0:
64,192,126178,1,0,0:0:0:0:
192,192,126241,1,0,0:0:0:0:
448,192,126303,1,0,0:0:0:0:
64,192,126366,1,0,0:0:0:0:
192,192,126428,1,0,0:0:0:0:
448,192,126428,1,0,0:0:0:0:
320,192,126428,1,0,0:0:0:0:
64,192,126491,1,0,0:0:0:0:
192,192,126552,1,0,0:0:0:0:
320,192,126615,1,0,0:0:0:0:
192,192,126677,5,0,0:0:0:0:
64,192,126677,1,0,0:0:0:0:
448,192,126677,1,0,0:0:0:0:
320,192,126740,1,0,0:0:0:0:
64,192,126802,1,0,0:0:0:0:
192,192,126865,1,0,0:0:0:0:
320,192,126927,1,0,0:0:0:0:
448,192,126927,1,0,0:0:0:0:
64,192,126927,1,0,0:0:0:0:
192,192,126990,1,0,0:0:0:0:
320,192,127052,1,0,0:0:0:0:
448,192,127113,1,0,0:0:0:0:
192,192,127176,1,0,0:0:0:0:
64,192,127176,1,0,0:0:0:0:
320,192,127176,1,0,0:0:0:0:
448,192,127238,1,0,0:0:0:0:
192,192,127301,1,0,0:0:0:0:
64,192,127301,1,0,0:0:0:0:
64,192,127426,1,0,0:0:0:0:
320,192,127426,1,0,0:0:0:0:
448,192,127426,1,0,0:0:0:0:
192,192,127551,1,0,0:0:0:0:
448,192,127551,1,0,0:0:0:0:
320,192,127675,5,0,0:0:0:0:
192,192,127675,1,0,0:0:0:0:
64,192,127675,1,0,0:0:0:0:
448,192,127737,1,0,0:0:0:0:
320,192,127800,1,0,0:0:0:0:
64,192,127800,1,0,0:0:0:0:
192,192,127862,1,0,0:0:0:0:
64,192,127925,1,0,0:0:0:0:
448,192,127925,1,0,0:0:0:0:
320,192,127925,1,0,0:0:0:0:
192,192,127987,1,0,0:0:0:0:
320,192,128050,1,0,0:0:0:0:
448,192,128050,1,0,0:0:0:0:
64,192,128111,1,0,0:0:0:0:
320,192,128173,1,0,0:0:0:0:
448,192,128173,1,0,0:0:0:0:
192,192,128173,1,0,0:0:0:0:
64,192,128236,1,0,0:0:0:0:
192,192,128298,1,0,0:0:0:0:
448,192,128298,1,0,0:0:0:0:
320,192,128361,1,0,0:0:0:0:
192,192,128423,1,0,0:0:0:0:
64,192,128423,1,0,0:0:0:0:
448,192,128423,1,0,0:0:0:0:
320,192,128486,1,0,0:0:0:0:
192,192,128548,1,0,0:0:0:0:
64,192,128548,1,0,0:0:0:0:
448,192,128610,1,0,0:0:0:0:
320,192,128672,1,0,0:0:0:0:
192,192,128672,1,0,0:0:0:0:
64,192,128672,1,0,0:0:0:0:
448,192,128735,1,0,0:0:0:0:
320,192,128797,1,0,0:0:0:0:
192,192,128797,1,0,0:0:0:0:
64,192,128860,1,0,0:0:0:0:
192,192,128922,1,0,0:0:0:0:
320,192,128922,1,0,0:0:0:0:
448,192,128922,1,0,0:0:0:0:
64,192,128985,1,0,0:0:0:0:
320,192,129047,1,0,0:0:0:0:
448,192,129047,1,0,0:0:0:0:
192,192,129110,1,0,0:0:0:0:
448,192,129171,1,0,0:0:0:0:
320,192,129171,1,0,0:0:0:0:
64,192,129171,1,0,0:0:0:0:
192,192,129233,1,0,0:0:0:0:
64,192,129296,1,0,0:0:0:0:
448,192,129296,1,0,0:0:0:0:
320,192,129358,1,0,0:0:0:0:
192,192,129421,1,0,0:0:0:0:
448,192,129421,1,0,0:0:0:0:
64,192,129421,1,0,0:0:0:0:
320,192,129483,1,0,0:0:0:0:
192,192,129546,1,0,0:0:0:0:
64,192,129546,1,0,0:0:0:0:
320,192,129608,1,0,0:0:0:0:
192,192,129670,1,0,0:0:0:0:
448,192,129670,1,0,0:0:0:0:
64,192,129670,1,0,0:0:0:0:
64,192,129753,1,0,0:0:0:0:
192,192,129753,1,0,0:0:0:0:
320,192,129836,1,0,0:0:0:0:
448,192,129836,1,0,0:0:0:0:
192,192,129920,1,0,0:0:0:0:
64,192,129920,1,0,0:0:0:0:
320,192,129920,1,0,0:0:0:0:
192,192,130002,1,0,0:0:0:0:
448,192,130002,1,0,0:0:0:0:
320,192,130086,1,0,0:0:0:0:
448,192,130086,1,0,0:0:0:0:
64,192,130168,1,0,0:0:0:0:
192,192,130168,1,0,0:0:0:0:
320,192,130168,1,0,0:0:0:0:
64,192,130252,1,0,0:0:0:0:
448,192,130252,1,0,0:0:0:0:
192,192,130335,1,0,0:0:0:0:
320,192,130335,1,0,0:0:0:0:
64,192,130418,1,0,0:0:0:0:
320,192,130418,1,0,0:0:0:0:
448,192,130418,1,0,0:0:0:0:
192,192,130501,1,0,0:0:0:0:
64,192,130501,1,0,0:0:0:0:
320,192,130585,1,0,0:0:0:0:
448,192,130585,1,0,0:0:0:0:
192,192,130668,1,0,0:0:0:0:
64,192,130668,1,0,0:0:0:0:
448,192,130668,1,0,0:0:0:0:
320,192,130917,1,0,0:0:0:0:
64,192,130917,1,0,0:0:0:0:
448,192,131167,1,0,0:0:0:0:
320,192,131167,1,0,0:0:0:0:
192,192,131167,1,0,0:0:0:0:
64,192,131167,1,0,0:0:0:0:
192,192,131416,1,0,0:0:0:0:
448,192,131416,1,0,0:0:0:0:
64,192,131416,1,0,0:0:0:0:
64,192,131666,1,0,0:0:0:0:
448,192,131666,1,0,0:0:0:0:
320,192,131666,1,0,0:0:0:0:
192,192,131666,1,0,0:0:0:0:
192,192,131790,1,0,0:0:0:0:
320,192,131790,1,0,0:0:0:0:
448,192,131790,1,0,0:0:0:0:
192,192,131915,1,0,0:0:0:0:
320,192,131915,1,0,0:0:0:0:
64,192,131915,1,0,0:0:0:0:
64,192,132040,1,0,0:0:0:0:
320,192,132040,1,0,0:0:0:0:
448,192,132040,1,0,0:0:0:0:
192,192,132165,1,0,0:0:0:0:
64,192,132165,1,0,0:0:0:0:
448,192,132165,1,0,0:0:0:0:
320,192,132288,1,0,0:0:0:0:
448,192,132288,1,0,0:0:0:0:
64,192,132288,1,0,0:0:0:0:
192,192,132351,1,0,0:0:0:0:
64,192,132413,1,0,0:0:0:0:
448,192,132413,1,0,0:0:0:0:
320,192,132476,1,0,0:0:0:0:
192,192,132538,1,0,0:0:0:0:
64,192,132538,1,0,0:0:0:0:
448,192,132601,1,0,0:0:0:0:
320,192,132663,1,0,0:0:0:0:
192,192,132663,1,0,0:0:0:0:
64,192,132663,1,0,0:0:0:0:
64,192,132787,1,0,0:0:0:0:
320,192,132787,1,0,0:0:0:0:
448,192,132787,1,0,0:0:0:0:
192,192,132850,1,0,0:0:0:0:
320,192,132912,1,0,0:0:0:0:
448,192,132912,1,0,0:0:0:0:
64,192,132912,1,0,0:0:0:0:
192,192,133037,1,0,0:0:0:0:
64,192,133037,1,0,0:0:0:0:
448,192,133037,1,0,0:0:0:0:
320,192,133100,1,0,0:0:0:0:
64,192,133162,1,0,0:0:0:0:
192,192,133162,1,0,0:0:0:0:
448,192,133162,1,0,0:0:0:0:
320,192,133225,1,0,0:0:0:0:
64,192,133286,1,0,0:0:0:0:
448,192,133286,1,0,0:0:0:0:
192,192,133348,1,0,0:0:0:0:
320,192,133411,1,0,0:0:0:0:
448,192,133411,1,0,0:0:0:0:
64,192,133473,1,0,0:0:0:0:
192,192,133536,1,0,0:0:0:0:
320,192,133536,1,0,0:0:0:0:
448,192,133598,1,0,0:0:0:0:
320,192,133661,1,0,0:0:0:0:
192,192,133661,1,0,0:0:0:0:
64,192,133661,1,0,0:0:0:0:
192,192,133785,1,0,0:0:0:0:
320,192,133785,1,0,0:0:0:0:
448,192,133785,1,0,0:0:0:0:
64,192,133910,1,0,0:0:0:0:
320,192,133910,1,0,0:0:0:0:
448,192,133910,1,0,0:0:0:0:
64,192,134035,1,0,0:0:0:0:
192,192,134035,1,0,0:0:0:0:
448,192,134035,1,0,0:0:0:0:
192,192,134160,1,0,0:0:0:0:
64,192,134160,1,0,0:0:0:0:
320,192,134222,1,0,0:0:0:0:
64,192,134283,1,0,0:0:0:0:
448,192,134283,1,0,0:0:0:0:
320,192,134346,1,0,0:0:0:0:
64,192,134408,1,0,0:0:0:0:
192,192,134408,1,0,0:0:0:0:
448,192,134440,1,0,0:0:0:0:
320,192,134471,1,0,0:0:0:0:
192,192,134502,1,0,0:0:0:0:
64,192,134533,1,0,0:0:0:0:
448,192,134565,1,0,0:0:0:0:
320,192,134596,1,0,0:0:0:0:
192,192,134627,1,0,0:0:0:0:
64,192,134658,1,0,0:0:0:0:
448,192,134658,1,0,0:0:0:0:
192,192,134721,1,0,0:0:0:0:
448,192,134783,1,0,0:0:0:0:
320,192,134783,1,0,0:0:0:0:
192,192,134907,1,0,0:0:0:0:
320,192,134907,1,0,0:0:0:0:
448,192,134907,1,0,0:0:0:0:
64,192,135032,1,0,0:0:0:0:
320,192,135032,1,0,0:0:0:0:
192,192,135032,1,0,0:0:0:0:
64,192,135157,1,0,0:0:0:0:
320,192,135157,1,0,0:0:0:0:
448,192,135157,1,0,0:0:0:0:
192,192,135282,1,0,0:0:0:0:
320,192,135282,1,0,0:0:0:0:
448,192,135282,1,0,0:0:0:0:
192,192,135406,1,0,0:0:0:0:
64,192,135406,1,0,0:0:0:0:
320,192,135406,1,0,0:0:0:0:
448,192,135406,1,0,0:0:0:0:
448,192,135531,1,0,0:0:0:0:
64,192,135531,1,0,0:0:0:0:
192,192,135531,1,0,0:0:0:0:
448,192,135656,1,0,0:0:0:0:
320,192,135656,1,0,0:0:0:0:
192,192,135718,1,0,0:0:0:0:
64,192,135718,1,0,0:0:0:0:
320,192,135781,1,0,0:0:0:0:
448,192,135781,1,0,0:0:0:0:
192,192,135842,1,0,0:0:0:0:
320,192,135905,1,0,0:0:0:0:
448,192,135905,1,0,0:0:0:0:
64,192,135905,1,0,0:0:0:0:
192,192,135967,1,0,0:0:0:0:
64,192,136030,1,0,0:0:0:0:
448,192,136030,1,0,0:0:0:0:
320,192,136092,1,0,0:0:0:0:
448,192,136155,1,0,0:0:0:0:
192,192,136155,1,0,0:0:0:0:
64,192,136155,1,0,0:0:0:0:
320,192,136217,1,0,0:0:0:0:
192,192,136280,1,0,0:0:0:0:
64,192,136280,1,0,0:0:0:0:
320,192,136342,1,0,0:0:0:0:
448,192,136342,1,0,0:0:0:0:
192,192,136403,1,0,0:0:0:0:
64,192,136403,1,0,0:0:0:0:
448,192,136466,1,0,0:0:0:0:
64,192,136528,1,0,0:0:0:0:
320,192,136528,1,0,0:0:0:0:
192,192,136591,1,0,0:0:0:0:
64,192,136653,1,0,0:0:0:0:
448,192,136653,1,0,0:0:0:0:
320,192,136653,1,0,0:0:0:0:
192,192,136716,1,0,0:0:0:0:
320,192,136778,1,0,0:0:0:0:
448,192,136778,1,0,0:0:0:0:
64,192,136841,1,0,0:0:0:0:
192,192,136902,1,0,0:0:0:0:
320,192,136902,1,0,0:0:0:0:
448,192,136902,1,0,0:0:0:0:
64,192,136965,1,0,0:0:0:0:
320,192,137027,1,0,0:0:0:0:
448,192,137027,1,0,0:0:0:0:
192,192,137090,1,0,0:0:0:0:
64,192,137152,1,0,0:0:0:0:
448,192,137152,1,0,0:0:0:0:
320,192,137152,1,0,0:0:0:0:
192,192,137215,1,0,0:0:0:0:
64,192,137277,1,0,0:0:0:0:
448,192,137277,1,0,0:0:0:0:
320,192,137340,1,0,0:0:0:0:
64,192,137401,1,0,0:0:0:0:
192,192,137401,1,0,0:0:0:0:
320,192,137463,1,0,0:0:0:0:
448,192,137526,1,0,0:0:0:0:
64,192,137526,1,0,0:0:0:0:
192,192,137588,1,0,0:0:0:0:
64,192,137651,1,0,0:0:0:0:
320,192,137651,1,0,0:0:0:0:
448,192,137651,1,0,0:0:0:0:
192,192,137713,1,0,0:0:0:0:
320,192,137776,1,0,0:0:0:0:
448,192,137776,1,0,0:0:0:0:
192,192,137838,1,0,0:0:0:0:
320,192,137900,1,0,0:0:0:0:
448,192,137900,1,0,0:0:0:0:
64,192,137900,1,0,0:0:0:0:
192,192,138025,1,0,0:0:0:0:
320,192,138025,1,0,0:0:0:0:
64,192,138025,1,0,0:0:0:0:
192,192,138150,1,0,0:0:0:0:
64,192,138150,1,0,0:0:0:0:
448,192,138150,1,0,0:0:0:0:
320,192,138212,1,0,0:0:0:0:
192,192,138275,1,0,0:0:0:0:
64,192,138275,1,0,0:0:0:0:
448,192,138275,1,0,0:0:0:0:
320,192,138337,1,0,0:0:0:0:
192,192,138400,1,0,0:0:0:0:
64,192,138400,1,0,0:0:0:0:
448,192,138461,1,0,0:0:0:0:
320,192,138523,1,0,0:0:0:0:
192,192,138523,1,0,0:0:0:0:
64,192,138586,1,0,0:0:0:0:
320,192,138648,1,0,0:0:0:0:
192,192,138648,1,0,0:0:0:0:
448,192,138648,1,0,0:0:0:0:
64,192,138711,1,0,0:0:0:0:
448,192,138773,1,0,0:0:0:0:
320,192,138836,1,0,0:0:0:0:
192,192,138898,1,0,0:0:0:0:
64,192,138898,1,0,0:0:0:0:
448,192,138898,1,0,0:0:0:0:
320,192,138960,1,0,0:0:0:0:
64,192,139022,1,0,0:0:0:0:
448,192,139022,1,0,0:0:0:0:
192,192,139085,1,0,0:0:0:0:
64,192,139147,1,0,0:0:0:0:
320,192,139147,1,0,0:0:0:0:
448,192,139147,1,0,0:0:0:0:
320,192,139272,1,0,0:0:0:0:
192,192,139272,1,0,0:0:0:0:
448,192,139272,1,0,0:0:0:0:
64,192,139397,1,0,0:0:0:0:
448,192,139397,1,0,0:0:0:0:
192,192,139397,1,0,0:0:0:0:
320,192,139521,1,0,0:0:0:0:
64,192,139521,1,0,0:0:0:0:
192,192,139646,1,0,0:0:0:0:
64,192,139646,1,0,0:0:0:0:
320,192,139646,1,0,0:0:0:0:
448,192,139708,1,0,0:0:0:0:
192,192,139771,1,0,0:0:0:0:
320,192,139833,1,0,0:0:0:0:
448,192,139896,1,0,0:0:0:0:
192,192,139896,1,0,0:0:0:0:
64,192,139896,1,0,0:0:0:0:
320,192,139957,1,0,0:0:0:0:
64,192,140020,1,0,0:0:0:0:
192,192,140082,1,0,0:0:0:0:
320,192,140145,1,0,0:0:0:0:
448,192,140145,1,0,0:0:0:0:
64,192,140145,1,0,0:0:0:0:
192,192,140207,1,0,0:0:0:0:
448,192,140270,1,0,0:0:0:0:
192,192,140332,1,0,0:0:0:0:
320,192,140395,1,0,0:0:0:0:
448,192,140395,1,0,0:0:0:0:
64,192,140395,1,0,0:0:0:0:
192,192,140457,1,0,0:0:0:0:
448,192,140518,1,0,0:0:0:0:
64,192,140518,1,0,0:0:0:0:
320,192,140581,1,0,0:0:0:0:
192,192,140643,1,0,0:0:0:0:
64,192,140643,1,0,0:0:0:0:
448,192,140643,1,0,0:0:0:0:
320,192,140706,1,0,0:0:0:0:
192,192,140768,1,0,0:0:0:0:
64,192,140831,1,0,0:0:0:0:
192,192,140893,1,0,0:0:0:0:
320,192,140893,1,0,0:0:0:0:
448,192,140893,1,0,0:0:0:0:
64,192,140956,1,0,0:0:0:0:
320,192,141017,1,0,0:0:0:0:
448,192,141080,1,0,0:0:0:0:
192,192,141142,1,0,0:0:0:0:
320,192,141142,1,0,0:0:0:0:
64,192,141142,1,0,0:0:0:0:
448,192,141205,1,0,0:0:0:0:
64,192,141267,1,0,0:0:0:0:
192,192,141330,1,0,0:0:0:0:
320,192,141392,1,0,0:0:0:0:
448,192,141392,1,0,0:0:0:0:
64,192,141392,1,0,0:0:0:0:
192,192,141455,1,0,0:0:0:0:
448,192,141516,1,0,0:0:0:0:
64,192,141578,1,0,0:0:0:0:
320,192,141641,1,0,0:0:0:0:
192,192,141641,1,0,0:0:0:0:
448,192,141641,1,0,0:0:0:0:
64,192,141703,1,0,0:0:0:0:
192,192,141766,1,0,0:0:0:0:
320,192,141828,1,0,0:0:0:0:
448,192,141891,1,0,0:0:0:0:
192,192,141891,1,0,0:0:0:0:
64,192,141891,1,0,0:0:0:0:
320,192,141953,1,0,0:0:0:0:
448,192,142016,1,0,0:0:0:0:
64,192,142016,1,0,0:0:0:0:
320,192,142077,1,0,0:0:0:0:
64,192,142140,1,0,0:0:0:0:
448,192,142140,1,0,0:0:0:0:
192,192,142140,1,0,0:0:0:0:
320,192,142202,1,0,0:0:0:0:
192,192,142265,1,0,0:0:0:0:
448,192,142265,1,0,0:0:0:0:
64,192,142327,1,0,0:0:0:0:
192,192,142390,1,0,0:0:0:0:
320,192,142390,1,0,0:0:0:0:
448,192,142390,1,0,0:0:0:0:
64,192,142452,1,0,0:0:0:0:
320,192,142515,1,0,0:0:0:0:
64,192,142576,1,0,0:0:0:0:
192,192,142638,1,0,0:0:0:0:
320,192,142638,1,0,0:0:0:0:
448,192,142638,1,0,0:0:0:0:
320,192,142763,1,0,0:0:0:0:
448,192,142763,1,0,0:0:0:0:
192,192,142763,1,0,0:0:0:0:
64,192,142888,1,0,0:0:0:0:
192,192,142888,1,0,0:0:0:0:
320,192,142951,1,0,0:0:0:0:
64,192,143013,1,0,0:0:0:0:
448,192,143013,1,0,0:0:0:0:
192,192,143013,1,0,0:0:0:0:
320,192,143075,1,0,0:0:0:0:
64,192,143137,1,0,0:0:0:0:
192,192,143137,1,0,0:0:0:0:
448,192,143137,1,0,0:0:0:0:
320,192,143200,1,0,0:0:0:0:
448,192,143262,1,0,0:0:0:0:
64,192,143262,1,0,0:0:0:0:
192,192,143325,1,0,0:0:0:0:
320,192,143387,1,0,0:0:0:0:
64,192,143387,1,0,0:0:0:0:
448,192,143387,1,0,0:0:0:0:
192,192,143450,1,0,0:0:0:0:
320,192,143512,1,0,0:0:0:0:
448,192,143512,1,0,0:0:0:0:
192,192,143573,1,0,0:0:0:0:
64,192,143573,1,0,0:0:0:0:
448,192,143636,1,0,0:0:0:0:
320,192,143636,1,0,0:0:0:0:
64,192,143698,1,0,0:0:0:0:
192,192,143761,1,0,0:0:0:0:
320,192,143761,1,0,0:0:0:0:
448,192,143823,1,0,0:0:0:0:
192,192,143886,1,0,0:0:0:0:
64,192,143886,1,0,0:0:0:0:
448,192,143948,1,0,0:0:0:0:
320,192,144011,1,0,0:0:0:0:
192,192,144011,1,0,0:0:0:0:
448,192,144073,1,0,0:0:0:0:
64,192,144073,1,0,0:0:0:0:
192,192,144135,1,0,0:0:0:0:
320,192,144135,1,0,0:0:0:0:
64,192,144197,1,0,0:0:0:0:
320,192,144260,1,0,0:0:0:0:
448,192,144260,1,0,0:0:0:0:
192,192,144322,1,0,0:0:0:0:
320,192,144385,1,0,0:0:0:0:
448,192,144385,1,0,0:0:0:0:
64,192,144385,1,0,0:0:0:0:
192,192,144447,1,0,0:0:0:0:
64,192,144510,1,0,0:0:0:0:
448,192,144510,1,0,0:0:0:0:
320,192,144572,1,0,0:0:0:0:
192,192,144572,1,0,0:0:0:0:
448,192,144633,1,0,0:0:0:0:
64,192,144633,1,0,0:0:0:0:
320,192,144696,1,0,0:0:0:0:
192,192,144758,1,0,0:0:0:0:
64,192,144758,1,0,0:0:0:0:
320,192,144821,1,0,0:0:0:0:
448,192,144883,1,0,0:0:0:0:
192,192,144883,1,0,0:0:0:0:
64,192,144883,1,0,0:0:0:0:
320,192,144946,1,0,0:0:0:0:
448,192,145008,1,0,0:0:0:0:
64,192,145008,1,0,0:0:0:0:
192,192,145071,1,0,0:0:0:0:
64,192,145132,1,0,0:0:0:0:
320,192,145132,1,0,0:0:0:0:
448,192,145132,1,0,0:0:0:0:
192,192,145195,1,0,0:0:0:0:
320,192,145257,1,0,0:0:0:0:
448,192,145257,1,0,0:0:0:0:
192,192,145320,1,0,0:0:0:0:
64,192,145382,1,0,0:0:0:0:
320,192,145382,1,0,0:0:0:0:
448,192,145382,1,0,0:0:0:0:
192,192,145445,1,0,0:0:0:0:
64,192,145507,1,0,0:0:0:0:
320,192,145507,1,0,0:0:0:0:
448,192,145570,1,0,0:0:0:0:
192,192,145631,1,0,0:0:0:0:
320,192,145631,1,0,0:0:0:0:
64,192,145631,1,0,0:0:0:0:
448,192,145693,1,0,0:0:0:0:
64,192,145756,1,0,0:0:0:0:
448,192,145818,1,0,0:0:0:0:
320,192,145881,1,0,0:0:0:0:
192,192,145881,1,0,0:0:0:0:
64,192,145881,1,0,0:0:0:0:
448,192,145943,1,0,0:0:0:0:
320,192,146006,1,0,0:0:0:0:
192,192,146068,1,0,0:0:0:0:
64,192,146131,1,0,0:0:0:0:
320,192,146131,1,0,0:0:0:0:
448,192,146131,1,0,0:0:0:0:
192,192,146192,1,0,0:0:0:0:
448,192,146255,1,0,0:0:0:0:
192,192,146317,1,0,0:0:0:0:
320,192,146380,1,0,0:0:0:0:
448,192,146380,1,0,0:0:0:0:
64,192,146380,1,0,0:0:0:0:
192,192,146442,1,0,0:0:0:0:
320,192,146505,1,0,0:0:0:0:
448,192,146505,1,0,0:0:0:0:
64,192,146567,1,0,0:0:0:0:
320,192,146630,1,0,0:0:0:0:
192,192,146630,1,0,0:0:0:0:
448,192,146630,1,0,0:0:0:0:
192,192,146753,1,0,0:0:0:0:
64,192,146753,1,0,0:0:0:0:
320,192,146878,1,0,0:0:0:0:
448,192,146878,1,0,0:0:0:0:
64,192,146878,1,0,0:0:0:0:
320,192,147003,1,0,0:0:0:0:
192,192,147003,1,0,0:0:0:0:
448,192,147003,1,0,0:0:0:0:
320,192,147128,1,0,0:0:0:0:
64,192,147128,1,0,0:0:0:0:
448,192,147128,1,0,0:0:0:0:
192,192,147128,1,0,0:0:0:0:
64,192,147252,1,0,0:0:0:0:
320,192,147252,1,0,0:0:0:0:
192,192,147377,1,0,0:0:0:0:
64,192,147377,1,0,0:0:0:0:
448,192,147377,1,0,0:0:0:0:
192,192,147502,1,0,0:0:0:0:
320,192,147502,1,0,0:0:0:0:
64,192,147627,1,0,0:0:0:0:
320,192,147627,1,0,0:0:0:0:
448,192,147627,1,0,0:0:0:0:
192,192,147690,1,0,0:0:0:0:
320,192,147751,1,0,0:0:0:0:
448,192,147751,1,0,0:0:0:0:
64,192,147813,1,0,0:0:0:0:
192,192,147876,1,0,0:0:0:0:
320,192,147876,1,0,0:0:0:0:
448,192,147876,1,0,0:0:0:0:
64,192,147938,1,0,0:0:0:0:
320,192,148001,1,0,0:0:0:0:
448,192,148001,1,0,0:0:0:0:
192,192,148063,1,0,0:0:0:0:
64,192,148126,1,0,0:0:0:0:
448,192,148126,1,0,0:0:0:0:
320,192,148126,1,0,0:0:0:0:
192,192,148188,1,0,0:0:0:0:
320,192,148250,1,0,0:0:0:0:
448,192,148250,1,0,0:0:0:0:
64,192,148312,1,0,0:0:0:0:
192,192,148375,1,0,0:0:0:0:
320,192,148375,1,0,0:0:0:0:
448,192,148437,1,0,0:0:0:0:
64,192,148500,1,0,0:0:0:0:
192,192,148500,1,0,0:0:0:0:
320,192,148562,1,0,0:0:0:0:
448,192,148625,1,0,0:0:0:0:
192,192,148625,1,0,0:0:0:0:
64,192,148625,1,0,0:0:0:0:
320,192,148687,1,0,0:0:0:0:
64,192,148748,1,0,0:0:0:0:
192,192,148748,1,0,0:0:0:0:
448,192,148811,1,0,0:0:0:0:
320,192,148873,1,0,0:0:0:0:
192,192,148873,1,0,0:0:0:0:
64,192,148873,1,0,0:0:0:0:
448,192,148936,1,0,0:0:0:0:
192,192,148998,1,0,0:0:0:0:
64,192,148998,1,0,0:0:0:0:
448,192,149061,1,0,0:0:0:0:
320,192,149123,1,0,0:0:0:0:
192,192,149123,1,0,0:0:0:0:
64,192,149123,1,0,0:0:0:0:
448,192,149186,1,0,0:0:0:0:
320,192,149247,1,0,0:0:0:0:
192,192,149247,1,0,0:0:0:0:
64,192,149310,1,0,0:0:0:0:
192,192,149372,1,0,0:0:0:0:
320,192,149372,1,0,0:0:0:0:
448,192,149372,1,0,0:0:0:0:
64,192,149435,1,0,0:0:0:0:
320,192,149497,1,0,0:0:0:0:
448,192,149497,1,0,0:0:0:0:
192,192,149560,1,0,0:0:0:0:
64,192,149622,1,0,0:0:0:0:
320,192,149622,1,0,0:0:0:0:
448,192,149622,1,0,0:0:0:0:
192,192,149685,1,0,0:0:0:0:
64,192,149747,1,0,0:0:0:0:
448,192,149747,1,0,0:0:0:0:
192,192,149808,1,0,0:0:0:0:
64,192,149871,1,0,0:0:0:0:
320,192,149871,1,0,0:0:0:0:
448,192,149871,1,0,0:0:0:0:
192,192,149933,1,0,0:0:0:0:
320,192,149996,1,0,0:0:0:0:
448,192,149996,1,0,0:0:0:0:
192,192,150058,1,0,0:0:0:0:
64,192,150121,1,0,0:0:0:0:
320,192,150121,1,0,0:0:0:0:
448,192,150121,1,0,0:0:0:0:
192,192,150183,1,0,0:0:0:0:
64,192,150246,1,0,0:0:0:0:
320,192,150246,1,0,0:0:0:0:
448,192,150307,1,0,0:0:0:0:
64,192,150370,1,0,0:0:0:0:
192,192,150401,1,0,0:0:0:0:
320,192,150432,1,0,0:0:0:0:
448,192,150463,1,0,0:0:0:0:
192,192,150495,1,0,0:0:0:0:
64,192,150526,1,0,0:0:0:0:
448,192,150557,1,0,0:0:0:0:
320,192,150588,1,0,0:0:0:0:
192,192,150620,1,0,0:0:0:0:
64,192,150620,1,0,0:0:0:0:
320,192,150682,1,0,0:0:0:0:
448,192,150682,1,0,0:0:0:0:
192,192,150745,1,0,0:0:0:0:
64,192,150745,1,0,0:0:0:0:
448,192,150806,1,0,0:0:0:0:
320,192,150806,1,0,0:0:0:0:
192,192,150868,1,0,0:0:0:0:
64,192,150868,1,0,0:0:0:0:
64,192,150993,1,0,0:0:0:0:
320,192,150993,1,0,0:0:0:0:
192,192,151118,1,0,0:0:0:0:
320,192,151118,1,0,0:0:0:0:
448,192,151118,1,0,0:0:0:0:
320,192,151243,1,0,0:0:0:0:
192,192,151243,1,0,0:0:0:0:
448,192,151243,1,0,0:0:0:0:
192,192,151367,1,0,0:0:0:0:
64,192,151367,1,0,0:0:0:0:
448,192,151367,1,0,0:0:0:0:
64,192,151492,1,0,0:0:0:0:
320,192,151492,1,0,0:0:0:0:
64,192,151617,1,0,0:0:0:0:
192,192,151617,1,0,0:0:0:0:
448,192,151617,1,0,0:0:0:0:
320,192,151680,1,0,0:0:0:0:
192,192,151742,1,0,0:0:0:0:
64,192,151742,1,0,0:0:0:0:
448,192,151805,1,0,0:0:0:0:
320,192,151866,1,0,0:0:0:0:
192,192,151866,1,0,0:0:0:0:
64,192,151928,1,0,0:0:0:0:
320,192,151991,1,0,0:0:0:0:
448,192,151991,1,0,0:0:0:0:
192,192,152053,1,0,0:0:0:0:
64,192,152116,1,0,0:0:0:0:
320,192,152116,1,0,0:0:0:0:
448,192,152116,1,0,0:0:0:0:
192,192,152178,1,0,0:0:0:0:
64,192,152241,1,0,0:0:0:0:
448,192,152241,1,0,0:0:0:0:
320,192,152303,1,0,0:0:0:0:
192,192,152365,1,0,0:0:0:0:
448,192,152365,1,0,0:0:0:0:
64,192,152427,1,0,0:0:0:0:
320,192,152490,1,0,0:0:0:0:
192,192,152490,1,0,0:0:0:0:
448,192,152552,1,0,0:0:0:0:
320,192,152615,1,0,0:0:0:0:
64,192,152615,1,0,0:0:0:0:
192,192,152615,1,0,0:0:0:0:
448,192,152677,1,0,0:0:0:0:
320,192,152740,1,0,0:0:0:0:
64,192,152740,1,0,0:0:0:0:
192,192,152802,1,0,0:0:0:0:
64,192,152863,1,0,0:0:0:0:
448,192,152863,1,0,0:0:0:0:
320,192,152863,1,0,0:0:0:0:
192,192,152926,1,0,0:0:0:0:
320,192,152988,1,0,0:0:0:0:
448,192,152988,1,0,0:0:0:0:
64,192,153051,1,0,0:0:0:0:
192,192,153113,1,0,0:0:0:0:
320,192,153113,1,0,0:0:0:0:
448,192,153113,1,0,0:0:0:0:
64,192,153176,1,0,0:0:0:0:
192,192,153238,1,0,0:0:0:0:
448,192,153238,1,0,0:0:0:0:
320,192,153301,1,0,0:0:0:0:
192,192,153363,1,0,0:0:0:0:
64,192,153363,1,0,0:0:0:0:
448,192,153363,1,0,0:0:0:0:
320,192,153425,1,0,0:0:0:0:
192,192,153487,1,0,0:0:0:0:
64,192,153487,1,0,0:0:0:0:
448,192,153550,1,0,0:0:0:0:
320,192,153612,1,0,0:0:0:0:
192,192,153612,1,0,0:0:0:0:
64,192,153612,1,0,0:0:0:0:
448,192,153675,1,0,0:0:0:0:
64,192,153737,1,0,0:0:0:0:
192,192,153737,1,0,0:0:0:0:
320,192,153800,1,0,0:0:0:0:
448,192,153862,1,0,0:0:0:0:
64,192,153862,1,0,0:0:0:0:
192,192,153862,1,0,0:0:0:0:
320,192,153986,1,0,0:0:0:0:
64,192,153986,1,0,0:0:0:0:
448,192,153986,1,0,0:0:0:0:
64,192,154111,1,0,0:0:0:0:
448,192,154111,1,0,0:0:0:0:
320,192,154111,1,0,0:0:0:0:
192,192,154173,1,0,0:0:0:0:
64,192,154236,1,0,0:0:0:0:
448,192,154236,1,0,0:0:0:0:
320,192,154298,1,0,0:0:0:0:
192,192,154361,1,0,0:0:0:0:
64,192,154361,1,0,0:0:0:0:
448,192,154361,1,0,0:0:0:0:
320,192,154422,1,0,0:0:0:0:
64,192,154485,1,0,0:0:0:0:
448,192,154485,1,0,0:0:0:0:
192,192,154547,1,0,0:0:0:0:
64,192,154610,1,0,0:0:0:0:
320,192,154610,1,0,0:0:0:0:
448,192,154610,1,0,0:0:0:0:
192,192,154672,1,0,0:0:0:0:
320,192,154735,1,0,0:0:0:0:
448,192,154797,1,0,0:0:0:0:
192,192,154860,1,0,0:0:0:0:
64,192,154860,1,0,0:0:0:0:
320,192,154860,1,0,0:0:0:0:
448,192,154921,1,0,0:0:0:0:
192,192,154983,1,0,0:0:0:0:
320,192,155046,1,0,0:0:0:0:
64,192,155108,1,0,0:0:0:0:
192,192,155108,1,0,0:0:0:0:
448,192,155108,1,0,0:0:0:0:
320,192,155233,1,0,0:0:0:0:
64,192,155358,1,0,0:0:0:0:
192,192,155358,1,0,0:0:0:0:
192,192,155482,1,0,0:0:0:0:
64,192,155607,1,0,0:0:0:0:
320,192,155607,1,0,0:0:0:0:
448,192,155607,1,0,0:0:0:0:
192,192,155670,1,0,0:0:0:0:
320,192,155732,1,0,0:0:0:0:
448,192,155732,1,0,0:0:0:0:
64,192,155795,1,0,0:0:0:0:
192,192,155857,1,0,0:0:0:0:
320,192,155857,1,0,0:0:0:0:
448,192,155857,1,0,0:0:0:0:
64,192,155920,1,0,0:0:0:0:
320,192,155981,1,0,0:0:0:0:
448,192,155981,1,0,0:0:0:0:
192,192,156043,1,0,0:0:0:0:
64,192,156106,1,0,0:0:0:0:
320,192,156106,1,0,0:0:0:0:
448,192,156106,1,0,0:0:0:0:
192,192,156168,1,0,0:0:0:0:
64,192,156231,1,0,0:0:0:0:
448,192,156231,1,0,0:0:0:0:
320,192,156293,1,0,0:0:0:0:
192,192,156356,1,0,0:0:0:0:
64,192,156356,1,0,0:0:0:0:
448,192,156356,1,0,0:0:0:0:
320,192,156418,1,0,0:0:0:0:
64,192,156480,1,0,0:0:0:0:
448,192,156480,1,0,0:0:0:0:
320,192,156542,1,0,0:0:0:0:
192,192,156605,1,0,0:0:0:0:
64,192,156605,1,0,0:0:0:0:
448,192,156605,1,0,0:0:0:0:
320,192,156667,1,0,0:0:0:0:
192,192,156730,1,0,0:0:0:0:
64,192,156730,1,0,0:0:0:0:
448,192,156792,1,0,0:0:0:0:
320,192,156855,1,0,0:0:0:0:
64,192,156855,1,0,0:0:0:0:
192,192,156855,1,0,0:0:0:0:
448,192,156917,1,0,0:0:0:0:
192,192,156978,1,0,0:0:0:0:
64,192,156978,1,0,0:0:0:0:
320,192,157041,1,0,0:0:0:0:
64,192,157103,1,0,0:0:0:0:
192,192,157103,1,0,0:0:0:0:
448,192,157103,1,0,0:0:0:0:
320,192,157166,1,0,0:0:0:0:
64,192,157228,1,0,0:0:0:0:
192,192,157228,1,0,0:0:0:0:
320,192,157291,1,0,0:0:0:0:
192,192,157353,1,0,0:0:0:0:
64,192,157353,1,0,0:0:0:0:
448,192,157353,1,0,0:0:0:0:
320,192,157416,1,0,0:0:0:0:
64,192,157478,1,0,0:0:0:0:
448,192,157478,1,0,0:0:0:0:
320,192,157540,1,0,0:0:0:0:
448,192,157602,1,0,0:0:0:0:
64,192,157602,1,0,0:0:0:0:
192,192,157602,1,0,0:0:0:0:
64,192,157727,1,0,0:0:0:0:
320,192,157727,1,0,0:0:0:0:
320,192,157852,1,0,0:0:0:0:
448,192,157852,1,0,0:0:0:0:
64,192,157852,1,0,0:0:0:0:
448,192,157977,1,0,0:0:0:0:
64,192,157977,1,0,0:0:0:0:
320,192,157977,1,0,0:0:0:0:
192,192,157977,1,0,0:0:0:0:
64,192,158101,1,0,0:0:0:0:
320,192,158101,1,0,0:0:0:0:
448,192,158101,1,0,0:0:0:0:
192,192,158163,1,0,0:0:0:0:
320,192,158226,1,0,0:0:0:0:
64,192,158226,1,0,0:0:0:0:
448,192,158288,1,0,0:0:0:0:
64,192,158351,1,0,0:0:0:0:
192,192,158382,1,0,0:0:0:0:
448,192,158413,1,0,0:0:0:0:
320,192,158445,1,0,0:0:0:0:
192,192,158476,1,0,0:0:0:0:
64,192,158507,1,0,0:0:0:0:
448,192,158537,1,0,0:0:0:0:
320,192,158568,1,0,0:0:0:0:
192,192,158600,1,0,0:0:0:0:
64,192,158600,1,0,0:0:0:0:
320,192,158662,1,0,0:0:0:0:
448,192,158725,1,0,0:0:0:0:
64,192,158725,1,0,0:0:0:0:
192,192,158725,1,0,0:0:0:0:
448,192,158850,1,0,0:0:0:0:
192,192,158850,1,0,0:0:0:0:
320,192,158850,1,0,0:0:0:0:
448,192,158975,1,0,0:0:0:0:
64,192,158975,1,0,0:0:0:0:
320,192,158975,1,0,0:0:0:0:
192,192,159098,1,0,0:0:0:0:
320,192,159098,1,0,0:0:0:0:
64,192,159098,1,0,0:0:0:0:
64,192,159223,1,0,0:0:0:0:
448,192,159223,1,0,0:0:0:0:
192,192,159223,1,0,0:0:0:0:
320,192,159348,1,0,0:0:0:0:
192,192,159348,1,0,0:0:0:0:
448,192,159348,1,0,0:0:0:0:
64,192,159348,1,0,0:0:0:0:
320,192,159473,1,0,0:0:0:0:
448,192,159473,1,0,0:0:0:0:
192,192,159597,1,0,0:0:0:0:
448,192,159597,1,0,0:0:0:0:
64,192,159597,1,0,0:0:0:0:
320,192,159660,1,0,0:0:0:0:
192,192,159722,1,0,0:0:0:0:
64,192,159785,1,0,0:0:0:0:
192,192,159847,1,0,0:0:0:0:
320,192,159847,1,0,0:0:0:0:
448,192,159847,1,0,0:0:0:0:
64,192,159910,1,0,0:0:0:0:
448,192,159972,1,0,0:0:0:0:
64,192,160035,1,0,0:0:0:0:
320,192,160096,1,0,0:0:0:0:
448,192,160096,1,0,0:0:0:0:
192,192,160096,1,0,0:0:0:0:
64,192,160158,1,0,0:0:0:0:
448,192,160221,1,0,0:0:0:0:
192,192,160283,1,0,0:0:0:0:
320,192,160346,1,0,0:0:0:0:
448,192,160346,1,0,0:0:0:0:
64,192,160346,1,0,0:0:0:0:
192,192,160408,1,0,0:0:0:0:
448,192,160471,1,0,0:0:0:0:
192,192,160533,1,0,0:0:0:0:
64,192,160595,1,0,0:0:0:0:
320,192,160595,1,0,0:0:0:0:
448,192,160595,1,0,0:0:0:0:
192,192,160657,1,0,0:0:0:0:
64,192,160720,1,0,0:0:0:0:
192,192,160782,1,0,0:0:0:0:
64,192,160845,1,0,0:0:0:0:
448,192,160845,1,0,0:0:0:0:
320,192,160845,1,0,0:0:0:0:
192,192,160907,1,0,0:0:0:0:
320,192,160970,1,0,0:0:0:0:
64,192,160970,1,0,0:0:0:0:
448,192,161032,1,0,0:0:0:0:
320,192,161095,1,0,0:0:0:0:
192,192,161095,1,0,0:0:0:0:
64,192,161095,1,0,0:0:0:0:
448,192,161156,1,0,0:0:0:0:
192,192,161218,1,0,0:0:0:0:
448,192,161281,1,0,0:0:0:0:
320,192,161343,1,0,0:0:0:0:
192,192,161343,1,0,0:0:0:0:
64,192,161343,1,0,0:0:0:0:
448,192,161406,1,0,0:0:0:0:
192,192,161468,1,0,0:0:0:0:
64,192,161468,1,0,0:0:0:0:
448,192,161531,1,0,0:0:0:0:
320,192,161531,1,0,0:0:0:0:
192,192,161593,1,0,0:0:0:0:
64,192,161593,1,0,0:0:0:0:
320,192,161655,1,0,0:0:0:0:
64,192,161717,1,0,0:0:0:0:
320,192,161780,1,0,0:0:0:0:
192,192,161842,1,0,0:0:0:0:
448,192,161842,1,0,0:0:0:0:
64,192,161842,1,0,0:0:0:0:
320,192,161905,1,0,0:0:0:0:
64,192,161967,1,0,0:0:0:0:
448,192,162030,1,0,0:0:0:0:
320,192,162092,1,0,0:0:0:0:
192,192,162092,1,0,0:0:0:0:
64,192,162092,1,0,0:0:0:0:
448,192,162153,1,0,0:0:0:0:
320,192,162216,1,0,0:0:0:0:
192,192,162216,1,0,0:0:0:0:
64,192,162278,1,0,0:0:0:0:
192,192,162341,1,0,0:0:0:0:
320,192,162341,1,0,0:0:0:0:
448,192,162341,1,0,0:0:0:0:
64,192,162403,1,0,0:0:0:0:
448,192,162466,1,0,0:0:0:0:
192,192,162528,1,0,0:0:0:0:
64,192,162591,1,0,0:0:0:0:
448,192,162591,1,0,0:0:0:0:
320,192,162591,1,0,0:0:0:0:
64,192,162715,1,0,0:0:0:0:
320,192,162715,1,0,0:0:0:0:
448,192,162715,1,0,0:0:0:0:
64,192,162840,1,0,0:0:0:0:
448,192,162840,1,0,0:0:0:0:
192,192,162840,1,0,0:0:0:0:
320,192,162965,1,0,0:0:0:0:
192,192,162965,1,0,0:0:0:0:
192,192,163090,1,0,0:0:0:0:
64,192,163090,1,0,0:0:0:0:
448,192,163090,1,0,0:0:0:0:
320,192,163090,1,0,0:0:0:0:
64,192,163213,1,0,0:0:0:0:
448,192,163213,1,0,0:0:0:0:
192,192,163338,1,0,0:0:0:0:
320,192,163338,1,0,0:0:0:0:
448,192,163338,1,0,0:0:0:0:
64,192,163338,1,0,0:0:0:0:
320,192,163463,1,0,0:0:0:0:
448,192,163463,1,0,0:0:0:0:
64,192,163463,1,0,0:0:0:0:
192,192,163588,128,0,165583:0:0:0:0:
320,192,163588,128,0,167578:0:0:0:0:
448,192,163588,128,0,169573:0:0:0:0:
64,192,163588,1,0,0:0:0:0:
64,192,165583,128,0,169200:0:0:0:0:
192,192,167578,128,0,169325:0:0:0:0:
64,192,169325,128,0,171443:0:0:0:0:
192,192,169448,128,0,171443:0:0:0:0:
320,192,169573,128,0,171443:0:0:0:0:
64,192,171568,5,0,0:0:0:0:
192,192,171568,1,0,0:0:0:0:
320,192,171568,1,0,0:0:0:0:
448,192,171568,1,0,0:0:0:0:
64,192,171693,1,0,0:0:0:0:
192,192,171818,1,0,0:0:0:0:
320,192,171942,1,0,0:0:0:0:
448,192,172067,1,0,0:0:0:0:
64,192,172192,1,0,0:0:0:0:
320,192,172317,1,0,0:0:0:0:
448,192,172442,1,0,0:0:0:0:
192,192,172566,1,0,0:0:0:0:
64,192,172691,1,0,0:0:0:0:
192,192,172816,1,0,0:0:0:0:
320,192,172941,1,0,0:0:0:0:
192,192,173065,1,0,0:0:0:0:
64,192,173190,1,0,0:0:0:0:
320,192,173315,1,0,0:0:0:0:
448,192,173440,1,0,0:0:0:0:
192,192,173563,1,0,0:0:0:0:
64,192,173688,1,0,0:0:0:0:
192,192,173813,1,0,0:0:0:0:
320,192,173938,1,0,0:0:0:0:
448,192,174062,1,0,0:0:0:0:
64,192,174187,1,0,0:0:0:0:
320,192,174312,1,0,0:0:0:0:
192,192,174437,1,0,0:0:0:0:
448,192,174561,1,0,0:0:0:0:
64,192,174686,1,0,0:0:0:0:
192,192,174811,1,0,0:0:0:0:
320,192,174936,1,0,0:0:0:0:
448,192,175060,1,0,0:0:0:0:
64,192,175185,1,0,0:0:0:0:
320,192,175310,1,0,0:0:0:0:
192,192,175435,1,0,0:0:0:0:
64,192,175558,1,0,0:0:0:0:
448,192,175683,1,0,0:0:0:0:
320,191,175808,1,0,0:0:0:0:
192,192,175933,1,0,0:0:0:0:
64,191,176058,1,0,0:0:0:0:
448,192,176182,1,0,0:0:0:0:
192,192,176307,1,0,0:0:0:0:
64,191,176432,1,0,0:0:0:0:
320,191,176557,1,0,0:0:0:0:
448,192,176681,1,0,0:0:0:0:
320,191,176806,1,0,0:0:0:0:
192,192,176931,1,0,0:0:0:0:
64,191,177056,1,0,0:0:0:0:
448,192,177180,1,0,0:0:0:0:
192,192,177305,1,0,0:0:0:0:
320,191,177430,1,0,0:0:0:0:
192,192,177555,1,0,0:0:0:0:
64,192,177678,1,0,0:0:0:0:
192,192,177803,1,0,0:0:0:0:
320,192,177928,1,0,0:0:0:0:
448,192,178053,1,0,0:0:0:0:
64,192,178177,1,0,0:0:0:0:
320,192,178302,1,0,0:0:0:0:
448,192,178427,1,0,0:0:0:0:
192,192,178552,1,0,0:0:0:0:
64,192,178676,1,0,0:0:0:0:
448,192,178801,1,0,0:0:0:0:
320,192,178926,1,0,0:0:0:0:
192,192,179051,1,0,0:0:0:0:
64,192,179175,1,0,0:0:0:0:
320,192,179300,1,0,0:0:0:0:
192,192,179425,1,0,0:0:0:0:
320,192,179550,1,0,0:0:0:0:
448,192,179673,1,0,0:0:0:0:
320,192,179798,1,0,0:0:0:0:
192,192,179923,1,0,0:0:0:0:
64,192,180048,1,0,0:0:0:0:
448,192,180173,1,0,0:0:0:0:
192,192,180297,1,0,0:0:0:0:
64,192,180422,1,0,0:0:0:0:
320,192,180547,1,0,0:0:0:0:
448,192,180672,1,0,0:0:0:0:
320,192,180796,1,0,0:0:0:0:
192,192,180921,1,0,0:0:0:0:
64,192,181046,1,0,0:0:0:0:
448,192,181171,1,0,0:0:0:0:
192,192,181295,1,0,0:0:0:0:
320,192,181420,1,0,0:0:0:0:
192,192,181545,1,0,0:0:0:0:
64,192,181670,1,0,0:0:0:0:
192,192,181793,1,0,0:0:0:0:
320,192,181918,1,0,0:0:0:0:
448,192,182043,1,0,0:0:0:0:
64,192,182168,1,0,0:0:0:0:
320,192,182292,1,0,0:0:0:0:
448,192,182417,1,0,0:0:0:0:
192,192,182542,1,0,0:0:0:0:
64,192,182667,1,0,0:0:0:0:
192,192,182791,1,0,0:0:0:0:
320,192,182916,1,0,0:0:0:0:
448,192,183041,1,0,0:0:0:0:
64,192,183166,1,0,0:0:0:0:
320,192,183290,1,0,0:0:0:0:
192,192,183415,1,0,0:0:0:0:
320,192,183540,1,0,0:0:0:0:
64,192,183665,1,0,0:0:0:0:
448,192,183790,1,0,0:0:0:0:
320,192,183913,1,0,0:0:0:0:
192,192,184038,1,0,0:0:0:0:
64,192,184163,1,0,0:0:0:0:
320,192,184288,1,0,0:0:0:0:
192,192,184412,1,0,0:0:0:0:
64,192,184537,1,0,0:0:0:0:
320,192,184662,1,0,0:0:0:0:
192,192,184787,1,0,0:0:0:0:
320,192,184911,1,0,0:0:0:0:
448,192,185036,1,0,0:0:0:0:
64,192,185161,1,0,0:0:0:0:
320,192,185286,1,0,0:0:0:0:
192,192,185410,1,0,0:0:0:0:
64,192,185535,1,0,0:0:0:0:
320,192,185535,1,0,0:0:0:0:
448,192,185535,1,0,0:0:0:0:
192,192,185535,1,0,0:0:0:0:
64,192,185660,1,0,0:0:0:0:
192,192,185660,1,0,0:0:0:0:
320,192,185785,1,0,0:0:0:0:
448,192,185785,1,0,0:0:0:0:
192,192,185847,1,0,0:0:0:0:
64,192,185847,1,0,0:0:0:0:
320,192,185908,1,0,0:0:0:0:
448,192,185908,1,0,0:0:0:0:
192,192,185971,1,0,0:0:0:0:
320,192,186033,1,0,0:0:0:0:
448,192,186033,1,0,0:0:0:0:
64,192,186033,1,0,0:0:0:0:
64,192,186158,1,0,0:0:0:0:
64,192,186283,1,0,0:0:0:0:
192,192,186315,1,0,0:0:0:0:
320,192,186346,1,0,0:0:0:0:
448,192,186377,1,0,0:0:0:0:
64,192,186407,1,0,0:0:0:0:
192,192,186438,1,0,0:0:0:0:
448,192,186470,1,0,0:0:0:0:
320,192,186501,1,0,0:0:0:0:
192,192,186532,1,0,0:0:0:0:
64,192,186532,1,0,0:0:0:0:
320,192,186616,1,0,0:0:0:0:
192,192,186698,1,0,0:0:0:0:
320,192,186782,1,0,0:0:0:0:
448,192,186782,1,0,0:0:0:0:
64,192,186906,1,0,0:0:0:0:
448,192,186906,1,0,0:0:0:0:
192,192,186968,1,0,0:0:0:0:
64,192,187031,1,0,0:0:0:0:
320,192,187031,1,0,0:0:0:0:
320,192,187156,1,0,0:0:0:0:
192,192,187281,1,0,0:0:0:0:
448,192,187281,1,0,0:0:0:0:
64,192,187406,1,0,0:0:0:0:
320,192,187406,1,0,0:0:0:0:
192,192,187530,1,0,0:0:0:0:
448,192,187530,1,0,0:0:0:0:
64,192,187530,1,0,0:0:0:0:
320,192,187530,1,0,0:0:0:0:
320,192,187655,1,0,0:0:0:0:
192,192,187655,1,0,0:0:0:0:
64,192,187780,1,0,0:0:0:0:
448,192,187780,1,0,0:0:0:0:
320,192,187780,1,0,0:0:0:0:
192,192,187905,1,0,0:0:0:0:
64,192,187905,1,0,0:0:0:0:
320,192,188028,1,0,0:0:0:0:
448,192,188028,1,0,0:0:0:0:
192,192,188028,1,0,0:0:0:0:
448,192,188153,1,0,0:0:0:0:
64,192,188153,1,0,0:0:0:0:
448,192,188278,1,0,0:0:0:0:
320,192,188310,1,0,0:0:0:0:
192,192,188341,1,0,0:0:0:0:
64,192,188372,1,0,0:0:0:0:
320,192,188403,1,0,0:0:0:0:
192,192,188465,1,0,0:0:0:0:
320,192,188527,1,0,0:0:0:0:
448,192,188527,1,0,0:0:0:0:
64,192,188590,1,0,0:0:0:0:
192,192,188652,1,0,0:0:0:0:
320,192,188715,1,0,0:0:0:0:
448,192,188777,1,0,0:0:0:0:
192,192,188840,1,0,0:0:0:0:
448,192,188902,1,0,0:0:0:0:
192,192,188963,1,0,0:0:0:0:
448,192,189026,1,0,0:0:0:0:
320,192,189026,1,0,0:0:0:0:
64,192,189026,1,0,0:0:0:0:
320,192,189151,1,0,0:0:0:0:
192,192,189276,1,0,0:0:0:0:
448,192,189276,1,0,0:0:0:0:
320,192,189338,1,0,0:0:0:0:
64,192,189401,1,0,0:0:0:0:
192,192,189401,1,0,0:0:0:0:
320,192,189463,1,0,0:0:0:0:
192,192,189525,1,0,0:0:0:0:
64,192,189525,1,0,0:0:0:0:
448,192,189525,1,0,0:0:0:0:
64,192,189650,1,0,0:0:0:0:
320,192,189650,1,0,0:0:0:0:
192,192,189775,1,0,0:0:0:0:
320,192,189775,1,0,0:0:0:0:
448,192,189775,1,0,0:0:0:0:
192,192,189900,1,0,0:0:0:0:
64,192,189900,1,0,0:0:0:0:
448,192,189900,1,0,0:0:0:0:
64,192,190023,1,0,0:0:0:0:
320,192,190023,1,0,0:0:0:0:
448,192,190023,1,0,0:0:0:0:
320,192,190148,1,0,0:0:0:0:
192,192,190148,1,0,0:0:0:0:
448,192,190148,1,0,0:0:0:0:
192,192,190273,1,0,0:0:0:0:
64,192,190273,1,0,0:0:0:0:
320,192,190305,1,0,0:0:0:0:
448,192,190336,1,0,0:0:0:0:
64,192,190398,1,0,0:0:0:0:
192,192,190430,1,0,0:0:0:0:
320,192,190461,1,0,0:0:0:0:
448,192,190492,1,0,0:0:0:0:
192,192,190522,1,0,0:0:0:0:
64,192,190522,1,0,0:0:0:0:
320,192,190585,1,0,0:0:0:0:
64,192,190647,1,0,0:0:0:0:
192,192,190647,1,0,0:0:0:0:
320,192,190710,1,0,0:0:0:0:
64,192,190772,1,0,0:0:0:0:
192,192,190772,1,0,0:0:0:0:
448,192,190772,1,0,0:0:0:0:
320,192,190835,1,0,0:0:0:0:
448,192,190897,1,0,0:0:0:0:
192,192,190897,1,0,0:0:0:0:
320,192,190960,1,0,0:0:0:0:
64,192,191021,1,0,0:0:0:0:
448,192,191021,1,0,0:0:0:0:
192,192,191021,1,0,0:0:0:0:
448,192,191146,1,0,0:0:0:0:
64,192,191146,1,0,0:0:0:0:
192,192,191208,1,0,0:0:0:0:
320,192,191271,1,0,0:0:0:0:
448,192,191271,1,0,0:0:0:0:
64,192,191333,1,0,0:0:0:0:
192,192,191396,1,0,0:0:0:0:
320,192,191396,1,0,0:0:0:0:
448,192,191458,1,0,0:0:0:0:
192,192,191521,1,0,0:0:0:0:
64,192,191521,1,0,0:0:0:0:
448,192,191582,1,0,0:0:0:0:
64,192,191645,1,0,0:0:0:0:
192,192,191645,1,0,0:0:0:0:
448,192,191707,1,0,0:0:0:0:
192,192,191770,1,0,0:0:0:0:
64,192,191770,1,0,0:0:0:0:
320,192,191832,1,0,0:0:0:0:
64,192,191895,1,0,0:0:0:0:
448,192,191895,1,0,0:0:0:0:
192,192,191957,1,0,0:0:0:0:
320,192,192020,1,0,0:0:0:0:
448,192,192020,1,0,0:0:0:0:
192,192,192081,1,0,0:0:0:0:
320,192,192143,1,0,0:0:0:0:
448,192,192143,1,0,0:0:0:0:
192,192,192206,1,0,0:0:0:0:
448,192,192268,1,0,0:0:0:0:
320,192,192300,1,0,0:0:0:0:
192,192,192331,1,0,0:0:0:0:
64,192,192362,1,0,0:0:0:0:
448,192,192393,1,0,0:0:0:0:
320,192,192393,1,0,0:0:0:0:
192,192,192456,1,0,0:0:0:0:
64,192,192456,1,0,0:0:0:0:
448,192,192518,1,0,0:0:0:0:
320,192,192518,1,0,0:0:0:0:
64,192,192580,1,0,0:0:0:0:
192,192,192642,1,0,0:0:0:0:
448,192,192642,1,0,0:0:0:0:
320,192,192705,1,0,0:0:0:0:
192,192,192767,1,0,0:0:0:0:
64,192,192767,1,0,0:0:0:0:
448,192,192830,1,0,0:0:0:0:
64,192,192892,1,0,0:0:0:0:
192,192,192892,1,0,0:0:0:0:
320,192,192955,1,0,0:0:0:0:
448,192,193017,1,0,0:0:0:0:
192,192,193017,1,0,0:0:0:0:
64,192,193080,1,0,0:0:0:0:
320,192,193141,1,0,0:0:0:0:
448,192,193141,1,0,0:0:0:0:
64,192,193203,1,0,0:0:0:0:
320,192,193266,1,0,0:0:0:0:
448,192,193266,1,0,0:0:0:0:
192,192,193328,1,0,0:0:0:0:
320,192,193391,1,0,0:0:0:0:
448,192,193391,1,0,0:0:0:0:
64,192,193453,1,0,0:0:0:0:
192,192,193516,1,0,0:0:0:0:
320,192,193516,1,0,0:0:0:0:
448,192,193516,1,0,0:0:0:0:
64,192,193578,1,0,0:0:0:0:
192,192,193640,1,0,0:0:0:0:
320,192,193702,1,0,0:0:0:0:
192,192,193765,1,0,0:0:0:0:
64,192,193765,1,0,0:0:0:0:
448,192,193765,1,0,0:0:0:0:
320,192,193827,1,0,0:0:0:0:
192,192,193890,1,0,0:0:0:0:
64,192,193890,1,0,0:0:0:0:
448,192,193952,1,0,0:0:0:0:
192,192,194015,1,0,0:0:0:0:
64,192,194015,1,0,0:0:0:0:
320,192,194015,1,0,0:0:0:0:
448,192,194077,1,0,0:0:0:0:
64,192,194138,1,0,0:0:0:0:
192,192,194201,1,0,0:0:0:0:
448,192,194263,1,0,0:0:0:0:
320,192,194263,1,0,0:0:0:0:
64,192,194295,1,0,0:0:0:0:
192,192,194326,1,0,0:0:0:0:
320,192,194357,1,0,0:0:0:0:
448,192,194388,1,0,0:0:0:0:
64,192,194451,1,0,0:0:0:0:
320,192,194513,1,0,0:0:0:0:
192,192,194513,1,0,0:0:0:0:
448,192,194513,1,0,0:0:0:0:
64,192,194576,1,0,0:0:0:0:
448,192,194637,1,0,0:0:0:0:
320,192,194637,1,0,0:0:0:0:
64,192,194700,1,0,0:0:0:0:
192,192,194700,1,0,0:0:0:0:
320,192,194762,1,0,0:0:0:0:
448,192,194762,1,0,0:0:0:0:
64,192,194825,1,0,0:0:0:0:
192,192,194887,1,0,0:0:0:0:
320,192,194887,1,0,0:0:0:0:
448,192,194950,1,0,0:0:0:0:
192,192,195012,1,0,0:0:0:0:
64,192,195012,1,0,0:0:0:0:
448,192,195075,1,0,0:0:0:0:
320,192,195137,1,0,0:0:0:0:
64,192,195137,1,0,0:0:0:0:
192,192,195198,1,0,0:0:0:0:
320,192,195261,1,0,0:0:0:0:
448,192,195261,1,0,0:0:0:0:
192,192,195323,1,0,0:0:0:0:
64,192,195386,1,0,0:0:0:0:
448,192,195386,1,0,0:0:0:0:
320,192,195448,1,0,0:0:0:0:
192,192,195511,1,0,0:0:0:0:
64,192,195511,1,0,0:0:0:0:
448,192,195511,1,0,0:0:0:0:
320,192,195573,1,0,0:0:0:0:
192,192,195636,1,0,0:0:0:0:
64,192,195636,1,0,0:0:0:0:
448,192,195636,1,0,0:0:0:0:
320,192,195697,1,0,0:0:0:0:
192,192,195760,1,0,0:0:0:0:
64,192,195760,1,0,0:0:0:0:
448,192,195822,1,0,0:0:0:0:
192,192,195885,1,0,0:0:0:0:
320,192,195885,1,0,0:0:0:0:
64,192,195885,1,0,0:0:0:0:
448,192,195947,1,0,0:0:0:0:
320,192,196010,1,0,0:0:0:0:
192,192,196010,1,0,0:0:0:0:
64,192,196010,1,0,0:0:0:0:
448,192,196072,1,0,0:0:0:0:
64,192,196135,1,0,0:0:0:0:
192,192,196135,1,0,0:0:0:0:
320,192,196196,1,0,0:0:0:0:
448,192,196258,1,0,0:0:0:0:
64,192,196258,1,0,0:0:0:0:
192,192,196290,1,0,0:0:0:0:
320,192,196321,1,0,0:0:0:0:
448,192,196352,1,0,0:0:0:0:
64,192,196383,1,0,0:0:0:0:
192,192,196446,1,0,0:0:0:0:
64,192,196508,1,0,0:0:0:0:
448,192,196508,1,0,0:0:0:0:
320,192,196508,1,0,0:0:0:0:
192,192,196571,1,0,0:0:0:0:
64,192,196633,1,0,0:0:0:0:
448,192,196633,1,0,0:0:0:0:
320,192,196633,1,0,0:0:0:0:
192,192,196695,1,0,0:0:0:0:
448,192,196757,1,0,0:0:0:0:
320,192,196757,1,0,0:0:0:0:
64,192,196820,1,0,0:0:0:0:
320,192,196882,1,0,0:0:0:0:
448,192,196882,1,0,0:0:0:0:
192,192,196882,1,0,0:0:0:0:
64,192,196945,1,0,0:0:0:0:
320,192,197007,1,0,0:0:0:0:
192,192,197007,1,0,0:0:0:0:
448,192,197007,1,0,0:0:0:0:
64,192,197070,1,0,0:0:0:0:
320,192,197132,1,0,0:0:0:0:
448,192,197132,1,0,0:0:0:0:
192,192,197195,1,0,0:0:0:0:
64,192,197256,1,0,0:0:0:0:
320,192,197256,1,0,0:0:0:0:
448,192,197256,1,0,0:0:0:0:
192,192,197318,1,0,0:0:0:0:
64,192,197381,1,0,0:0:0:0:
448,192,197381,1,0,0:0:0:0:
320,192,197443,1,0,0:0:0:0:
192,192,197506,1,0,0:0:0:0:
64,192,197506,1,0,0:0:0:0:
448,192,197506,1,0,0:0:0:0:
320,192,197568,1,0,0:0:0:0:
192,192,197631,1,0,0:0:0:0:
64,192,197631,1,0,0:0:0:0:
320,192,197693,1,0,0:0:0:0:
448,192,197693,1,0,0:0:0:0:
192,192,197755,1,0,0:0:0:0:
64,192,197755,1,0,0:0:0:0:
448,192,197817,1,0,0:0:0:0:
320,192,197817,1,0,0:0:0:0:
64,192,197880,1,0,0:0:0:0:
192,192,197880,1,0,0:0:0:0:
320,192,197942,1,0,0:0:0:0:
448,192,197942,1,0,0:0:0:0:
192,192,198005,1,0,0:0:0:0:
64,192,198005,1,0,0:0:0:0:
320,192,198067,1,0,0:0:0:0:
448,192,198067,1,0,0:0:0:0:
192,192,198130,1,0,0:0:0:0:
64,192,198130,1,0,0:0:0:0:
320,192,198192,1,0,0:0:0:0:
448,192,198192,1,0,0:0:0:0:
64,192,198253,1,0,0:0:0:0:
192,192,198285,1,0,0:0:0:0:
320,192,198316,1,0,0:0:0:0:
448,192,198347,1,0,0:0:0:0:
64,192,198378,1,0,0:0:0:0:
192,192,198410,1,0,0:0:0:0:
320,192,198441,1,0,0:0:0:0:
448,192,198472,1,0,0:0:0:0:
192,192,198503,1,0,0:0:0:0:
64,192,198503,1,0,0:0:0:0:
320,192,198566,1,0,0:0:0:0:
448,192,198566,1,0,0:0:0:0:
192,192,198628,1,0,0:0:0:0:
64,192,198628,1,0,0:0:0:0:
320,192,198691,1,0,0:0:0:0:
448,192,198691,1,0,0:0:0:0:
192,192,198753,1,0,0:0:0:0:
64,192,198753,1,0,0:0:0:0:
448,192,198815,1,0,0:0:0:0:
320,192,198877,1,0,0:0:0:0:
192,192,198877,1,0,0:0:0:0:
64,192,198940,1,0,0:0:0:0:
320,192,199002,1,0,0:0:0:0:
448,192,199002,1,0,0:0:0:0:
192,192,199065,1,0,0:0:0:0:
64,192,199065,1,0,0:0:0:0:
320,192,199127,1,0,0:0:0:0:
448,192,199127,1,0,0:0:0:0:
64,192,199190,1,0,0:0:0:0:
192,192,199252,1,0,0:0:0:0:
320,192,199252,1,0,0:0:0:0:
448,192,199313,1,0,0:0:0:0:
64,192,199376,1,0,0:0:0:0:
192,192,199376,1,0,0:0:0:0:
320,192,199438,1,0,0:0:0:0:
448,192,199501,1,0,0:0:0:0:
64,192,199501,1,0,0:0:0:0:
320,192,199563,1,0,0:0:0:0:
192,192,199563,1,0,0:0:0:0:
448,192,199626,1,0,0:0:0:0:
64,192,199626,1,0,0:0:0:0:
192,192,199688,1,0,0:0:0:0:
64,192,199751,1,0,0:0:0:0:
320,192,199751,1,0,0:0:0:0:
192,192,199812,1,0,0:0:0:0:
448,192,199812,1,0,0:0:0:0:
64,192,199875,1,0,0:0:0:0:
320,192,199875,1,0,0:0:0:0:
192,192,199937,1,0,0:0:0:0:
64,192,200000,1,0,0:0:0:0:
448,192,200000,1,0,0:0:0:0:
320,192,200062,1,0,0:0:0:0:
192,192,200062,1,0,0:0:0:0:
64,192,200125,1,0,0:0:0:0:
448,192,200125,1,0,0:0:0:0:
320,192,200187,1,0,0:0:0:0:
64,192,200250,1,0,0:0:0:0:
192,192,200281,1,0,0:0:0:0:
320,192,200311,1,0,0:0:0:0:
448,192,200342,1,0,0:0:0:0:
64,192,200373,1,0,0:0:0:0:
192,192,200405,1,0,0:0:0:0:
448,192,200436,1,0,0:0:0:0:
320,192,200467,1,0,0:0:0:0:
192,192,200498,1,0,0:0:0:0:
64,192,200498,1,0,0:0:0:0:
448,192,200561,1,0,0:0:0:0:
320,192,200561,1,0,0:0:0:0:
192,192,200623,1,0,0:0:0:0:
64,192,200623,1,0,0:0:0:0:
320,192,200686,1,0,0:0:0:0:
448,192,200686,1,0,0:0:0:0:
192,192,200748,1,0,0:0:0:0:
64,192,200748,1,0,0:0:0:0:
320,192,200811,1,0,0:0:0:0:
448,192,200811,1,0,0:0:0:0:
192,192,200872,1,0,0:0:0:0:
64,192,200872,1,0,0:0:0:0:
320,192,200935,1,0,0:0:0:0:
64,192,200997,1,0,0:0:0:0:
448,192,200997,1,0,0:0:0:0:
320,192,201060,1,0,0:0:0:0:
192,192,201060,1,0,0:0:0:0:
64,192,201122,1,0,0:0:0:0:
448,192,201122,1,0,0:0:0:0:
320,192,201185,1,0,0:0:0:0:
192,192,201185,1,0,0:0:0:0:
64,192,201247,1,0,0:0:0:0:
448,192,201247,1,0,0:0:0:0:
320,192,201310,1,0,0:0:0:0:
192,192,201310,1,0,0:0:0:0:
448,192,201371,1,0,0:0:0:0:
64,192,201371,1,0,0:0:0:0:
192,192,201433,1,0,0:0:0:0:
320,192,201496,5,0,0:0:0:0:
448,192,201496,1,0,0:0:0:0:
64,192,201558,1,0,0:0:0:0:
192,192,201558,1,0,0:0:0:0:
320,192,201621,1,0,0:0:0:0:
448,192,201621,1,0,0:0:0:0:
192,192,201683,1,0,0:0:0:0:
64,192,201683,1,0,0:0:0:0:
320,192,201746,1,0,0:0:0:0:
448,192,201746,1,0,0:0:0:0:
192,192,201808,1,0,0:0:0:0:
64,192,201808,1,0,0:0:0:0:
320,192,201870,1,0,0:0:0:0:
448,192,201870,1,0,0:0:0:0:
192,192,201932,1,0,0:0:0:0:
64,192,201932,1,0,0:0:0:0:
320,192,201995,1,0,0:0:0:0:
448,192,201995,1,0,0:0:0:0:
192,192,202057,1,0,0:0:0:0:
64,192,202057,1,0,0:0:0:0:
320,192,202120,1,0,0:0:0:0:
448,192,202120,1,0,0:0:0:0:
64,192,202182,1,0,0:0:0:0:
192,192,202245,1,0,0:0:0:0:
448,192,202245,1,0,0:0:0:0:
320,192,202276,1,0,0:0:0:0:
64,192,202307,1,0,0:0:0:0:
448,192,202338,1,0,0:0:0:0:
192,192,202368,1,0,0:0:0:0:
320,192,202431,1,0,0:0:0:0:
448,192,202493,1,0,0:0:0:0:
192,192,202493,1,0,0:0:0:0:
64,192,202493,1,0,0:0:0:0:
320,192,202618,1,0,0:0:0:0:
448,192,202618,1,0,0:0:0:0:
320,192,202743,1,0,0:0:0:0:
192,192,202743,1,0,0:0:0:0:
192,192,202868,1,0,0:0:0:0:
64,192,202868,1,0,0:0:0:0:
64,192,202992,1,0,0:0:0:0:
320,192,202992,1,0,0:0:0:0:
448,192,202992,1,0,0:0:0:0:
192,192,203117,1,0,0:0:0:0:
448,192,203117,1,0,0:0:0:0:
64,192,203242,1,0,0:0:0:0:
320,192,203242,1,0,0:0:0:0:
192,192,203367,1,0,0:0:0:0:
320,192,203367,1,0,0:0:0:0:
192,192,203491,1,0,0:0:0:0:
320,192,203491,1,0,0:0:0:0:
64,192,203491,1,0,0:0:0:0:
448,192,203491,1,0,0:0:0:0:
192,192,203616,1,0,0:0:0:0:
448,192,203616,1,0,0:0:0:0:
64,192,203616,1,0,0:0:0:0:
320,192,203741,1,0,0:0:0:0:
448,192,203741,1,0,0:0:0:0:
64,192,203741,1,0,0:0:0:0:
192,192,203741,1,0,0:0:0:0:
192,192,203866,1,0,0:0:0:0:
320,192,203866,1,0,0:0:0:0:
448,192,203866,1,0,0:0:0:0:
320,192,203990,1,0,0:0:0:0:
448,192,203990,1,0,0:0:0:0:
64,192,203990,1,0,0:0:0:0:
192,192,204052,1,0,0:0:0:0:
448,192,204115,1,0,0:0:0:0:
320,192,204115,1,0,0:0:0:0:
64,192,204115,1,0,0:0:0:0:
448,192,204240,1,0,0:0:0:0:
192,192,204240,1,0,0:0:0:0:
64,192,204240,1,0,0:0:0:0:
320,192,204240,1,0,0:0:0:0:
64,192,204365,1,0,0:0:0:0:
448,192,204365,1,0,0:0:0:0:
192,192,204365,1,0,0:0:0:0:
320,192,204427,1,0,0:0:0:0:
64,192,204488,1,0,0:0:0:0:
448,192,204488,1,0,0:0:0:0:
192,192,204488,1,0,0:0:0:0:
320,192,204613,1,0,0:0:0:0:
448,192,204613,1,0,0:0:0:0:
64,192,204613,1,0,0:0:0:0:
64,192,204738,1,0,0:0:0:0:
192,192,204738,1,0,0:0:0:0:
320,192,204801,1,0,0:0:0:0:
448,192,204801,1,0,0:0:0:0:
192,192,204863,1,0,0:0:0:0:
64,192,204863,1,0,0:0:0:0:
192,192,204987,1,0,0:0:0:0:
64,192,204987,1,0,0:0:0:0:
320,192,204987,1,0,0:0:0:0:
448,192,204987,1,0,0:0:0:0:
320,192,205112,1,0,0:0:0:0:
448,192,205112,1,0,0:0:0:0:
64,192,205112,1,0,0:0:0:0:
448,192,205237,1,0,0:0:0:0:
320,192,205237,1,0,0:0:0:0:
64,192,205300,1,0,0:0:0:0:
192,192,205300,1,0,0:0:0:0:
448,192,205362,1,0,0:0:0:0:
320,192,205393,1,0,0:0:0:0:
192,192,205425,1,0,0:0:0:0:
64,192,205456,1,0,0:0:0:0:
448,192,205486,1,0,0:0:0:0:
320,192,205486,1,0,0:0:0:0:
64,192,205548,1,0,0:0:0:0:
320,192,205611,1,0,0:0:0:0:
448,192,205611,1,0,0:0:0:0:
192,192,205673,1,0,0:0:0:0:
64,192,205673,1,0,0:0:0:0:
448,192,205736,1,0,0:0:0:0:
320,192,205798,1,0,0:0:0:0:
64,192,205798,1,0,0:0:0:0:
192,192,205861,1,0,0:0:0:0:
448,192,205861,1,0,0:0:0:0:
64,192,205923,1,0,0:0:0:0:
192,192,205985,1,0,0:0:0:0:
320,192,205985,1,0,0:0:0:0:
448,192,205985,1,0,0:0:0:0:
64,192,206047,1,0,0:0:0:0:
448,192,206110,1,0,0:0:0:0:
320,192,206110,1,0,0:0:0:0:
192,192,206172,1,0,0:0:0:0:
448,192,206235,1,0,0:0:0:0:
320,192,206235,1,0,0:0:0:0:
64,192,206235,1,0,0:0:0:0:
192,192,206297,1,0,0:0:0:0:
448,192,206360,1,0,0:0:0:0:
64,192,206360,1,0,0:0:0:0:
320,192,206422,1,0,0:0:0:0:
192,192,206485,1,0,0:0:0:0:
64,192,206485,1,0,0:0:0:0:
320,192,206546,1,0,0:0:0:0:
448,192,206546,1,0,0:0:0:0:
192,192,206608,1,0,0:0:0:0:
64,192,206608,1,0,0:0:0:0:
320,192,206671,1,0,0:0:0:0:
448,192,206671,1,0,0:0:0:0:
64,192,206733,1,0,0:0:0:0:
192,192,206733,1,0,0:0:0:0:
320,192,206858,1,0,0:0:0:0:
64,192,206858,1,0,0:0:0:0:
448,192,206858,1,0,0:0:0:0:
320,192,206983,1,0,0:0:0:0:
448,192,206983,1,0,0:0:0:0:
192,192,207045,1,0,0:0:0:0:
64,192,207045,1,0,0:0:0:0:
448,192,207107,1,0,0:0:0:0:
320,192,207107,1,0,0:0:0:0:
192,192,207170,1,0,0:0:0:0:
64,192,207170,1,0,0:0:0:0:
448,192,207232,1,0,0:0:0:0:
320,192,207232,1,0,0:0:0:0:
64,192,207295,1,0,0:0:0:0:
192,192,207295,1,0,0:0:0:0:
320,192,207357,1,0,0:0:0:0:
448,192,207357,1,0,0:0:0:0:
64,192,207420,1,0,0:0:0:0:
192,192,207482,1,0,0:0:0:0:
448,192,207482,1,0,0:0:0:0:
320,192,207482,1,0,0:0:0:0:
64,192,207543,1,0,0:0:0:0:
192,192,207606,1,0,0:0:0:0:
448,192,207606,1,0,0:0:0:0:
64,192,207668,1,0,0:0:0:0:
320,192,207668,1,0,0:0:0:0:
192,192,207731,1,0,0:0:0:0:
448,192,207731,1,0,0:0:0:0:
320,192,207793,1,0,0:0:0:0:
64,192,207856,1,0,0:0:0:0:
192,192,207856,1,0,0:0:0:0:
320,192,207918,1,0,0:0:0:0:
448,192,207918,1,0,0:0:0:0:
192,192,207981,1,0,0:0:0:0:
64,192,207981,1,0,0:0:0:0:
320,192,208043,1,0,0:0:0:0:
448,192,208105,1,0,0:0:0:0:
64,192,208105,1,0,0:0:0:0:
320,192,208167,1,0,0:0:0:0:
192,192,208167,1,0,0:0:0:0:
64,192,208230,1,0,0:0:0:0:
448,192,208230,1,0,0:0:0:0:
192,192,208292,1,0,0:0:0:0:
320,192,208292,1,0,0:0:0:0:
64,192,208355,1,0,0:0:0:0:
448,192,208355,1,0,0:0:0:0:
320,192,208417,1,0,0:0:0:0:
192,192,208480,1,0,0:0:0:0:
64,192,208480,1,0,0:0:0:0:
448,192,208480,1,0,0:0:0:0:
192,192,208603,1,0,0:0:0:0:
64,192,208603,1,0,0:0:0:0:
320,192,208603,1,0,0:0:0:0:
192,192,208728,1,0,0:0:0:0:
320,192,208728,1,0,0:0:0:0:
448,192,208728,1,0,0:0:0:0:
64,192,208853,1,0,0:0:0:0:
320,192,208853,1,0,0:0:0:0:
448,192,208853,1,0,0:0:0:0:
64,192,208978,1,0,0:0:0:0:
192,192,208978,1,0,0:0:0:0:
448,192,208978,1,0,0:0:0:0:
320,192,209041,1,0,0:0:0:0:
64,192,209102,1,0,0:0:0:0:
192,192,209102,1,0,0:0:0:0:
320,192,209165,1,0,0:0:0:0:
192,192,209227,1,0,0:0:0:0:
64,192,209227,1,0,0:0:0:0:
448,192,209290,1,0,0:0:0:0:
320,192,209352,1,0,0:0:0:0:
192,192,209352,1,0,0:0:0:0:
64,192,209383,1,0,0:0:0:0:
448,192,209415,1,0,0:0:0:0:
320,192,209446,1,0,0:0:0:0:
192,192,209477,1,0,0:0:0:0:
64,192,209477,1,0,0:0:0:0:
320,192,209540,1,0,0:0:0:0:
448,192,209540,1,0,0:0:0:0:
64,192,209601,1,0,0:0:0:0:
192,192,209601,1,0,0:0:0:0:
320,192,209663,1,0,0:0:0:0:
64,192,209726,1,0,0:0:0:0:
448,192,209726,1,0,0:0:0:0:
192,192,209726,1,0,0:0:0:0:
320,192,209788,1,0,0:0:0:0:
448,192,209851,1,0,0:0:0:0:
64,192,209851,1,0,0:0:0:0:
192,192,209913,1,0,0:0:0:0:
64,192,209976,1,0,0:0:0:0:
320,192,209976,1,0,0:0:0:0:
448,192,209976,1,0,0:0:0:0:
192,192,210038,1,0,0:0:0:0:
320,192,210101,1,0,0:0:0:0:
448,192,210101,1,0,0:0:0:0:
64,192,210162,1,0,0:0:0:0:
192,192,210162,1,0,0:0:0:0:
320,192,210225,1,0,0:0:0:0:
448,192,210225,1,0,0:0:0:0:
192,192,210287,1,0,0:0:0:0:
64,192,210350,1,0,0:0:0:0:
448,192,210350,1,0,0:0:0:0:
320,192,210412,1,0,0:0:0:0:
192,192,210475,1,0,0:0:0:0:
64,192,210475,1,0,0:0:0:0:
448,192,210475,1,0,0:0:0:0:
448,192,210600,1,0,0:0:0:0:
64,192,210600,1,0,0:0:0:0:
320,192,210600,1,0,0:0:0:0:
192,192,210661,1,0,0:0:0:0:
64,192,210723,1,0,0:0:0:0:
320,192,210723,1,0,0:0:0:0:
448,192,210723,1,0,0:0:0:0:
448,192,210848,1,0,0:0:0:0:
64,192,210848,1,0,0:0:0:0:
192,192,210848,1,0,0:0:0:0:
320,192,210911,1,0,0:0:0:0:
192,192,210973,1,0,0:0:0:0:
64,192,210973,1,0,0:0:0:0:
448,192,210973,1,0,0:0:0:0:
192,192,211098,1,0,0:0:0:0:
320,192,211098,1,0,0:0:0:0:
448,192,211160,1,0,0:0:0:0:
192,192,211222,1,0,0:0:0:0:
64,192,211222,1,0,0:0:0:0:
448,192,211285,1,0,0:0:0:0:
320,192,211285,1,0,0:0:0:0:
64,192,211347,1,0,0:0:0:0:
192,192,211347,1,0,0:0:0:0:
448,192,211410,1,0,0:0:0:0:
320,192,211472,1,0,0:0:0:0:
64,192,211472,1,0,0:0:0:0:
192,192,211472,1,0,0:0:0:0:
64,192,211597,1,0,0:0:0:0:
448,192,211597,1,0,0:0:0:0:
320,192,211597,1,0,0:0:0:0:
192,192,211721,1,0,0:0:0:0:
64,192,211721,1,0,0:0:0:0:
448,192,211721,1,0,0:0:0:0:
320,192,211846,1,0,0:0:0:0:
448,192,211846,1,0,0:0:0:0:
192,192,211846,1,0,0:0:0:0:
64,192,211846,1,0,0:0:0:0:
320,192,211971,1,0,0:0:0:0:
448,192,211971,1,0,0:0:0:0:
64,192,211971,1,0,0:0:0:0:
192,192,212033,1,0,0:0:0:0:
448,192,212096,1,0,0:0:0:0:
64,192,212096,1,0,0:0:0:0:
448,192,212220,1,0,0:0:0:0:
64,192,212220,1,0,0:0:0:0:
192,192,212220,1,0,0:0:0:0:
320,192,212220,1,0,0:0:0:0:
64,192,212345,1,0,0:0:0:0:
320,192,212345,1,0,0:0:0:0:
192,192,212407,1,0,0:0:0:0:
64,192,212470,1,0,0:0:0:0:
320,192,212470,1,0,0:0:0:0:
448,192,212470,1,0,0:0:0:0:
320,192,212595,1,0,0:0:0:0:
448,192,212595,1,0,0:0:0:0:
192,192,212595,1,0,0:0:0:0:
64,192,212718,1,0,0:0:0:0:
192,192,212718,1,0,0:0:0:0:
448,192,212718,1,0,0:0:0:0:
320,192,212781,1,0,0:0:0:0:
64,192,212843,1,0,0:0:0:0:
448,192,212843,1,0,0:0:0:0:
192,192,212843,1,0,0:0:0:0:
64,192,212968,1,0,0:0:0:0:
192,192,212968,1,0,0:0:0:0:
320,192,212968,1,0,0:0:0:0:
448,192,212968,1,0,0:0:0:0:
64,192,213093,1,0,0:0:0:0:
192,192,213093,1,0,0:0:0:0:
320,192,213156,1,0,0:0:0:0:
448,192,213156,1,0,0:0:0:0:
64,192,213217,1,0,0:0:0:0:
192,192,213248,1,0,0:0:0:0:
320,192,213280,1,0,0:0:0:0:
448,192,213311,1,0,0:0:0:0:
64,192,213342,1,0,0:0:0:0:
192,192,213373,1,0,0:0:0:0:
448,192,213405,1,0,0:0:0:0:
320,192,213436,1,0,0:0:0:0:
192,192,213467,1,0,0:0:0:0:
64,192,213467,1,0,0:0:0:0:
320,192,213530,1,0,0:0:0:0:
448,192,213530,1,0,0:0:0:0:
192,192,213592,1,0,0:0:0:0:
64,192,213592,1,0,0:0:0:0:
320,192,213655,1,0,0:0:0:0:
448,192,213655,1,0,0:0:0:0:
192,192,213717,1,0,0:0:0:0:
64,192,213717,1,0,0:0:0:0:
320,192,213778,1,0,0:0:0:0:
64,192,213841,1,0,0:0:0:0:
448,192,213841,1,0,0:0:0:0:
192,192,213903,1,0,0:0:0:0:
64,192,213966,1,0,0:0:0:0:
320,192,213966,1,0,0:0:0:0:
448,192,213966,1,0,0:0:0:0:
192,192,214091,1,0,0:0:0:0:
320,192,214091,1,0,0:0:0:0:
448,192,214091,1,0,0:0:0:0:
192,192,214216,1,0,0:0:0:0:
64,192,214216,1,0,0:0:0:0:
320,192,214216,1,0,0:0:0:0:
448,192,214216,1,0,0:0:0:0:
64,192,214340,1,0,0:0:0:0:
448,192,214340,1,0,0:0:0:0:
192,192,214340,1,0,0:0:0:0:
64,192,214465,1,0,0:0:0:0:
320,192,214465,1,0,0:0:0:0:
448,192,214465,1,0,0:0:0:0:
192,192,214527,1,0,0:0:0:0:
320,192,214590,1,0,0:0:0:0:
448,192,214590,1,0,0:0:0:0:
192,192,214652,1,0,0:0:0:0:
64,192,214652,1,0,0:0:0:0:
320,192,214715,1,0,0:0:0:0:
448,192,214715,1,0,0:0:0:0:
192,192,214838,1,0,0:0:0:0:
448,192,214838,1,0,0:0:0:0:
64,192,214838,1,0,0:0:0:0:
64,192,214963,1,0,0:0:0:0:
192,192,214963,1,0,0:0:0:0:
448,192,214963,1,0,0:0:0:0:
320,192,214963,1,0,0:0:0:0:
320,192,215088,1,0,0:0:0:0:
448,192,215088,1,0,0:0:0:0:
192,192,215151,1,0,0:0:0:0:
64,192,215151,1,0,0:0:0:0:
448,192,215213,1,0,0:0:0:0:
320,192,215213,1,0,0:0:0:0:
192,192,215255,1,0,0:0:0:0:
64,192,215296,1,0,0:0:0:0:
448,192,215337,1,0,0:0:0:0:
320,192,215380,1,0,0:0:0:0:
192,192,215421,1,0,0:0:0:0:
64,192,215462,1,0,0:0:0:0:
320,192,215462,1,0,0:0:0:0:
448,192,215462,1,0,0:0:0:0:
192,192,215525,1,0,0:0:0:0:
64,192,215587,1,0,0:0:0:0:
448,192,215587,1,0,0:0:0:0:
320,192,215650,1,0,0:0:0:0:
448,192,215712,1,0,0:0:0:0:
192,192,215712,1,0,0:0:0:0:
64,192,215712,1,0,0:0:0:0:
320,192,215775,1,0,0:0:0:0:
192,192,215836,1,0,0:0:0:0:
448,192,215836,1,0,0:0:0:0:
64,192,215898,1,0,0:0:0:0:
320,192,215898,1,0,0:0:0:0:
192,192,215961,1,0,0:0:0:0:
448,192,215961,1,0,0:0:0:0:
64,192,216023,1,0,0:0:0:0:
320,192,216086,1,0,0:0:0:0:
448,192,216086,1,0,0:0:0:0:
64,192,216148,1,0,0:0:0:0:
192,192,216211,1,0,0:0:0:0:
320,192,216211,1,0,0:0:0:0:
448,192,216211,1,0,0:0:0:0:
64,192,216273,1,0,0:0:0:0:
192,192,216335,1,0,0:0:0:0:
448,192,216335,1,0,0:0:0:0:
320,192,216397,1,0,0:0:0:0:
64,192,216397,1,0,0:0:0:0:
448,192,216460,1,0,0:0:0:0:
192,192,216460,1,0,0:0:0:0:
320,192,216522,1,0,0:0:0:0:
192,192,216585,1,0,0:0:0:0:
64,192,216585,1,0,0:0:0:0:
320,192,216647,1,0,0:0:0:0:
448,192,216647,1,0,0:0:0:0:
192,192,216710,1,0,0:0:0:0:
64,192,216710,1,0,0:0:0:0:
320,192,216772,1,0,0:0:0:0:
448,192,216772,1,0,0:0:0:0:
192,192,216833,1,0,0:0:0:0:
64,192,216833,1,0,0:0:0:0:
448,192,216896,1,0,0:0:0:0:
320,192,216958,1,0,0:0:0:0:
64,192,216958,1,0,0:0:0:0:
192,192,216958,1,0,0:0:0:0:
448,192,217021,1,0,0:0:0:0:
320,192,217083,1,0,0:0:0:0:
64,192,217083,1,0,0:0:0:0:
192,192,217146,1,0,0:0:0:0:
320,192,217208,1,0,0:0:0:0:
448,192,217208,1,0,0:0:0:0:
64,192,217208,1,0,0:0:0:0:
192,192,217271,1,0,0:0:0:0:
448,192,217332,1,0,0:0:0:0:
320,192,217363,1,0,0:0:0:0:
192,192,217395,1,0,0:0:0:0:
64,192,217426,1,0,0:0:0:0:
448,192,217457,1,0,0:0:0:0:
320,192,217457,1,0,0:0:0:0:
192,192,217520,1,0,0:0:0:0:
64,192,217582,1,0,0:0:0:0:
448,192,217582,1,0,0:0:0:0:
320,192,217645,1,0,0:0:0:0:
192,192,217707,1,0,0:0:0:0:
64,192,217707,1,0,0:0:0:0:
448,192,217770,1,0,0:0:0:0:
192,192,217832,1,0,0:0:0:0:
64,192,217832,1,0,0:0:0:0:
320,192,217893,1,0,0:0:0:0:
448,192,217956,1,0,0:0:0:0:
64,192,217956,1,0,0:0:0:0:
192,192,218018,1,0,0:0:0:0:
320,192,218018,1,0,0:0:0:0:
64,192,218081,1,0,0:0:0:0:
448,192,218081,1,0,0:0:0:0:
192,192,218143,1,0,0:0:0:0:
320,192,218206,1,0,0:0:0:0:
448,192,218206,1,0,0:0:0:0:
64,192,218268,1,0,0:0:0:0:
320,192,218331,1,0,0:0:0:0:
448,192,218331,1,0,0:0:0:0:
192,192,218392,1,0,0:0:0:0:
64,192,218455,1,0,0:0:0:0:
448,192,218455,1,0,0:0:0:0:
320,192,218497,1,0,0:0:0:0:
192,192,218538,1,0,0:0:0:0:
448,192,218580,1,0,0:0:0:0:
320,192,218621,1,0,0:0:0:0:
64,192,218705,1,0,0:0:0:0:
448,192,218705,1,0,0:0:0:0:
192,192,218746,1,0,0:0:0:0:
320,192,218787,1,0,0:0:0:0:
64,192,218830,1,0,0:0:0:0:
192,192,218871,1,0,0:0:0:0:
64,192,218953,1,0,0:0:0:0:
320,192,218953,1,0,0:0:0:0:
448,192,218953,1,0,0:0:0:0:
192,192,219078,1,0,0:0:0:0:
64,192,219203,1,0,0:0:0:0:
192,192,219203,1,0,0:0:0:0:
320,192,219203,1,0,0:0:0:0:
448,192,219203,1,0,0:0:0:0:
448,192,219328,1,0,0:0:0:0:
64,192,219452,1,0,0:0:0:0:
192,192,219483,1,0,0:0:0:0:
320,192,219515,1,0,0:0:0:0:
448,192,219546,1,0,0:0:0:0:
192,192,219577,1,0,0:0:0:0:
64,192,219577,1,0,0:0:0:0:
320,192,219640,1,0,0:0:0:0:
448,192,219640,1,0,0:0:0:0:
64,192,219702,1,0,0:0:0:0:
192,192,219733,1,0,0:0:0:0:
448,192,219765,1,0,0:0:0:0:
320,192,219796,1,0,0:0:0:0:
192,192,219827,1,0,0:0:0:0:
64,192,219827,1,0,0:0:0:0:
320,192,219890,1,0,0:0:0:0:
192,192,219951,1,0,0:0:0:0:
64,192,219951,1,0,0:0:0:0:
448,192,219951,1,0,0:0:0:0:
448,192,220076,1,0,0:0:0:0:
320,192,220076,1,0,0:0:0:0:
192,192,220138,1,0,0:0:0:0:
64,192,220138,1,0,0:0:0:0:
448,192,220201,1,0,0:0:0:0:
320,192,220232,1,0,0:0:0:0:
192,192,220263,1,0,0:0:0:0:
64,192,220295,1,0,0:0:0:0:
448,192,220326,1,0,0:0:0:0:
320,192,220326,1,0,0:0:0:0:
192,192,220388,1,0,0:0:0:0:
64,192,220388,1,0,0:0:0:0:
448,192,220450,1,0,0:0:0:0:
320,192,220481,1,0,0:0:0:0:
192,192,220512,1,0,0:0:0:0:
64,192,220543,1,0,0:0:0:0:
320,192,220575,1,0,0:0:0:0:
448,192,220575,1,0,0:0:0:0:
192,192,220637,1,0,0:0:0:0:
64,192,220637,1,0,0:0:0:0:
448,192,220700,1,0,0:0:0:0:
320,192,220731,1,0,0:0:0:0:
64,192,220762,1,0,0:0:0:0:
192,192,220793,1,0,0:0:0:0:
320,192,220825,1,0,0:0:0:0:
448,192,220825,1,0,0:0:0:0:
192,192,220887,1,0,0:0:0:0:
64,192,220948,1,0,0:0:0:0:
448,192,220948,1,0,0:0:0:0:
320,192,220948,1,0,0:0:0:0:
448,192,221073,1,0,0:0:0:0:
320,192,221105,1,0,0:0:0:0:
192,192,221136,1,0,0:0:0:0:
448,192,221198,1,0,0:0:0:0:
320,192,221230,1,0,0:0:0:0:
192,192,221261,1,0,0:0:0:0:
64,192,221292,1,0,0:0:0:0:
448,192,221323,1,0,0:0:0:0:
320,192,221323,1,0,0:0:0:0:
192,192,221386,1,0,0:0:0:0:
64,192,221386,1,0,0:0:0:0:
448,192,221448,1,0,0:0:0:0:
320,192,221478,1,0,0:0:0:0:
192,192,221510,1,0,0:0:0:0:
320,192,221572,1,0,0:0:0:0:
192,192,221603,1,0,0:0:0:0:
64,192,221635,1,0,0:0:0:0:
448,192,221697,1,0,0:0:0:0:
320,192,221728,1,0,0:0:0:0:
192,192,221760,1,0,0:0:0:0:
64,192,221791,1,0,0:0:0:0:
448,192,221822,1,0,0:0:0:0:
320,192,221853,1,0,0:0:0:0:
192,192,221885,1,0,0:0:0:0:
64,192,221916,1,0,0:0:0:0:
320,192,221947,1,0,0:0:0:0:
448,192,221947,1,0,0:0:0:0:
64,192,222071,1,0,0:0:0:0:
192,192,222071,1,0,0:0:0:0:
320,192,222133,1,0,0:0:0:0:
448,192,222133,1,0,0:0:0:0:
64,192,222196,1,0,0:0:0:0:
192,192,222227,1,0,0:0:0:0:
320,192,222258,1,0,0:0:0:0:
448,192,222290,1,0,0:0:0:0:
64,192,222321,1,0,0:0:0:0:
192,192,222321,1,0,0:0:0:0:
320,192,222383,1,0,0:0:0:0:
448,192,222383,1,0,0:0:0:0:
64,192,222446,1,0,0:0:0:0:
192,192,222477,1,0,0:0:0:0:
320,192,222507,1,0,0:0:0:0:
192,192,222570,1,0,0:0:0:0:
320,192,222601,1,0,0:0:0:0:
448,192,222632,1,0,0:0:0:0:
64,192,222695,1,0,0:0:0:0:
192,192,222726,1,0,0:0:0:0:
448,192,222757,1,0,0:0:0:0:
320,192,222788,1,0,0:0:0:0:
192,192,222820,1,0,0:0:0:0:
64,192,222851,1,0,0:0:0:0:
320,192,222882,1,0,0:0:0:0:
448,192,222913,1,0,0:0:0:0:
192,192,222945,1,0,0:0:0:0:
64,192,222945,1,0,0:0:0:0:
320,192,223068,1,0,0:0:0:0:
192,192,223068,1,0,0:0:0:0:
320,192,223131,1,0,0:0:0:0:
448,192,223193,1,0,0:0:0:0:
64,192,223193,1,0,0:0:0:0:
64,192,223318,1,0,0:0:0:0:
448,192,223318,1,0,0:0:0:0:
64,192,223443,1,0,0:0:0:0:
192,192,223475,1,0,0:0:0:0:
320,192,223506,1,0,0:0:0:0:
448,192,223536,1,0,0:0:0:0:
192,192,223567,1,0,0:0:0:0:
64,192,223567,1,0,0:0:0:0:
320,192,223630,1,0,0:0:0:0:
448,192,223630,1,0,0:0:0:0:
192,192,223692,1,0,0:0:0:0:
64,192,223723,1,0,0:0:0:0:
448,192,223755,1,0,0:0:0:0:
320,192,223786,1,0,0:0:0:0:
192,192,223817,1,0,0:0:0:0:
64,192,223817,1,0,0:0:0:0:
320,192,223880,1,0,0:0:0:0:
64,192,223942,1,0,0:0:0:0:
192,192,223942,1,0,0:0:0:0:
448,192,223942,1,0,0:0:0:0:
448,192,224066,1,0,0:0:0:0:
320,192,224097,1,0,0:0:0:0:
192,192,224128,1,0,0:0:0:0:
64,192,224191,1,0,0:0:0:0:
192,192,224222,1,0,0:0:0:0:
320,192,224253,1,0,0:0:0:0:
448,192,224285,1,0,0:0:0:0:
192,192,224316,1,0,0:0:0:0:
64,192,224316,1,0,0:0:0:0:
320,192,224378,1,0,0:0:0:0:
448,192,224378,1,0,0:0:0:0:
64,192,224441,1,0,0:0:0:0:
192,192,224472,1,0,0:0:0:0:
448,192,224503,1,0,0:0:0:0:
320,192,224535,1,0,0:0:0:0:
192,192,224565,1,0,0:0:0:0:
64,192,224565,1,0,0:0:0:0:
448,192,224627,1,0,0:0:0:0:
320,192,224627,1,0,0:0:0:0:
192,192,224690,1,0,0:0:0:0:
64,192,224721,1,0,0:0:0:0:
320,192,224752,1,0,0:0:0:0:
448,192,224783,1,0,0:0:0:0:
192,192,224815,1,0,0:0:0:0:
64,192,224815,1,0,0:0:0:0:
320,192,224877,1,0,0:0:0:0:
192,192,224940,1,0,0:0:0:0:
64,192,224940,1,0,0:0:0:0:
448,192,224940,1,0,0:0:0:0:
320,192,225065,1,0,0:0:0:0:
448,192,225065,1,0,0:0:0:0:
192,192,225126,1,0,0:0:0:0:
64,192,225126,1,0,0:0:0:0:
448,192,225188,1,0,0:0:0:0:
320,192,225220,1,0,0:0:0:0:
64,192,225251,1,0,0:0:0:0:
192,192,225282,1,0,0:0:0:0:
320,192,225313,1,0,0:0:0:0:
448,192,225313,1,0,0:0:0:0:
192,192,225376,1,0,0:0:0:0:
64,192,225376,1,0,0:0:0:0:
448,192,225438,1,0,0:0:0:0:
320,192,225470,1,0,0:0:0:0:
192,192,225501,1,0,0:0:0:0:
320,192,225563,1,0,0:0:0:0:
192,192,225593,1,0,0:0:0:0:
64,192,225625,1,0,0:0:0:0:
448,192,225687,1,0,0:0:0:0:
320,192,225718,1,0,0:0:0:0:
192,192,225750,1,0,0:0:0:0:
64,192,225781,1,0,0:0:0:0:
320,192,225812,1,0,0:0:0:0:
448,192,225812,1,0,0:0:0:0:
64,192,225875,1,0,0:0:0:0:
320,192,225937,1,0,0:0:0:0:
448,192,225937,1,0,0:0:0:0:
192,192,225937,1,0,0:0:0:0:
192,192,226062,1,0,0:0:0:0:
64,192,226062,1,0,0:0:0:0:
320,192,226123,1,0,0:0:0:0:
448,192,226123,1,0,0:0:0:0:
64,192,226186,1,0,0:0:0:0:
192,192,226217,1,0,0:0:0:0:
320,192,226248,1,0,0:0:0:0:
448,192,226280,1,0,0:0:0:0:
64,192,226311,1,0,0:0:0:0:
192,192,226311,1,0,0:0:0:0:
320,192,226373,1,0,0:0:0:0:
192,192,226436,1,0,0:0:0:0:
448,192,226436,1,0,0:0:0:0:
64,192,226436,1,0,0:0:0:0:
320,192,226498,1,0,0:0:0:0:
192,192,226561,1,0,0:0:0:0:
64,192,226622,1,0,0:0:0:0:
320,192,226622,1,0,0:0:0:0:
448,192,226622,1,0,0:0:0:0:
192,192,226685,1,0,0:0:0:0:
320,192,226747,1,0,0:0:0:0:
448,192,226810,1,0,0:0:0:0:
192,192,226810,1,0,0:0:0:0:
64,192,226810,1,0,0:0:0:0:
320,192,226872,1,0,0:0:0:0:
192,192,226935,1,0,0:0:0:0:
64,192,226935,1,0,0:0:0:0:
448,192,226935,1,0,0:0:0:0:
320,192,226997,1,0,0:0:0:0:
64,192,227060,1,0,0:0:0:0:
192,192,227091,1,0,0:0:0:0:
320,192,227122,1,0,0:0:0:0:
448,192,227152,1,0,0:0:0:0:
64,192,227183,1,0,0:0:0:0:
192,192,227183,1,0,0:0:0:0:
320,192,227246,1,0,0:0:0:0:
448,192,227246,1,0,0:0:0:0:
192,192,227308,1,0,0:0:0:0:
64,192,227308,1,0,0:0:0:0:
320,192,227371,1,0,0:0:0:0:
448,192,227371,1,0,0:0:0:0:
192,192,227433,1,0,0:0:0:0:
448,192,227433,1,0,0:0:0:0:
64,192,227433,1,0,0:0:0:0:
320,192,227433,1,0,0:0:0:0:
192,192,227558,1,0,0:0:0:0:
64,192,227558,1,0,0:0:0:0:
448,192,227558,1,0,0:0:0:0:
64,192,227682,1,0,0:0:0:0:
320,192,227682,1,0,0:0:0:0:
192,192,227682,1,0,0:0:0:0:
448,192,227682,1,0,0:0:0:0:
64,192,227807,1,0,0:0:0:0:
192,192,227807,1,0,0:0:0:0:
448,192,227807,1,0,0:0:0:0:
320,192,227807,1,0,0:0:0:0:
64,192,227932,1,0,0:0:0:0:
320,192,227932,1,0,0:0:0:0:
448,192,227932,1,0,0:0:0:0:
192,192,227932,1,0,0:0:0:0:
64,192,228057,1,0,0:0:0:0:
320,192,228057,1,0,0:0:0:0:
448,192,228057,1,0,0:0:0:0:
64,192,228181,1,0,0:0:0:0:
192,192,228181,1,0,0:0:0:0:
320,192,228181,1,0,0:0:0:0:
448,192,228181,1,0,0:0:0:0:
64,192,228306,1,0,0:0:0:0:
320,192,228306,1,0,0:0:0:0:
192,192,228306,1,0,0:0:0:0:
448,192,228306,1,0,0:0:0:0:
64,192,228431,1,0,0:0:0:0:
192,192,228431,1,0,0:0:0:0:
320,192,228431,1,0,0:0:0:0:
448,192,228431,1,0,0:0:0:0:
64,192,228556,1,0,0:0:0:0:
192,192,228556,1,0,0:0:0:0:
320,192,228556,1,0,0:0:0:0:
64,192,228680,1,0,0:0:0:0:
192,192,228680,1,0,0:0:0:0:
320,192,228680,1,0,0:0:0:0:
448,192,228680,1,0,0:0:0:0:
64,192,228805,1,0,0:0:0:0:
192,192,228805,1,0,0:0:0:0:
448,192,228805,1,0,0:0:0:0:
320,192,228805,1,0,0:0:0:0:
448,192,228930,1,0,0:0:0:0:
320,192,228930,1,0,0:0:0:0:
64,192,228971,1,0,0:0:0:0:
192,192,229013,1,0,0:0:0:0:
448,192,229055,1,0,0:0:0:0:
320,192,229096,1,0,0:0:0:0:
192,192,229137,1,0,0:0:0:0:
448,192,229180,1,0,0:0:0:0:
64,192,229180,1,0,0:0:0:0:
320,192,229210,1,0,0:0:0:0:
192,192,229241,1,0,0:0:0:0:
64,192,229272,1,0,0:0:0:0:
448,192,229303,1,0,0:0:0:0:
320,192,229335,1,0,0:0:0:0:
192,192,229366,1,0,0:0:0:0:
64,192,229366,1,0,0:0:0:0:
192,192,229428,1,0,0:0:0:0:
64,192,229428,1,0,0:0:0:0:
448,192,229428,1,0,0:0:0:0:
320,192,229428,1,0,0:0:0:0:
192,192,229553,1,0,0:0:0:0:
320,192,229553,1,0,0:0:0:0:
448,192,229553,1,0,0:0:0:0:
64,192,229678,1,0,0:0:0:0:
192,192,229678,1,0,0:0:0:0:
320,192,229678,1,0,0:0:0:0:
448,192,229678,1,0,0:0:0:0:
64,192,229802,1,0,0:0:0:0:
192,192,229802,1,0,0:0:0:0:
320,192,229802,1,0,0:0:0:0:
448,192,229802,1,0,0:0:0:0:
64,192,229927,5,0,0:0:0:0:
320,192,229927,1,0,0:0:0:0:
448,192,229927,1,0,0:0:0:0:
192,192,229927,1,0,0:0:0:0:
64,192,230052,1,0,0:0:0:0:
320,192,230052,1,0,0:0:0:0:
448,192,230052,1,0,0:0:0:0:
64,192,230177,1,0,0:0:0:0:
448,192,230177,1,0,0:0:0:0:
320,192,230177,1,0,0:0:0:0:
192,192,230177,1,0,0:0:0:0:
64,192,230301,1,0,0:0:0:0:
192,192,230301,1,0,0:0:0:0:
320,192,230301,1,0,0:0:0:0:
448,192,230301,1,0,0:0:0:0:
64,192,230426,1,0,0:0:0:0:
320,192,230426,1,0,0:0:0:0:
448,192,230426,1,0,0:0:0:0:
192,192,230488,1,0,0:0:0:0:
448,192,230551,1,0,0:0:0:0:
320,192,230551,1,0,0:0:0:0:
64,192,230592,1,0,0:0:0:0:
192,192,230633,1,0,0:0:0:0:
320,192,230676,1,0,0:0:0:0:
448,192,230676,1,0,0:0:0:0:
64,192,230717,1,0,0:0:0:0:
192,192,230758,1,0,0:0:0:0:
320,192,230800,1,0,0:0:0:0:
448,192,230800,1,0,0:0:0:0:
64,192,230842,1,0,0:0:0:0:
192,192,230883,1,0,0:0:0:0:
320,192,230925,1,0,0:0:0:0:
448,192,230956,1,0,0:0:0:0:
64,192,230987,1,0,0:0:0:0:
192,192,231018,1,0,0:0:0:0:
448,192,231050,1,0,0:0:0:0:
320,192,231081,1,0,0:0:0:0:
192,192,231112,1,0,0:0:0:0:
64,192,231143,1,0,0:0:0:0:
320,192,231175,1,0,0:0:0:0:
448,192,231206,1,0,0:0:0:0:
64,192,231237,1,0,0:0:0:0:
192,192,231267,1,0,0:0:0:0:
320,192,231298,1,0,0:0:0:0:
448,192,231330,1,0,0:0:0:0:
64,192,231361,1,0,0:0:0:0:
192,192,231392,1,0,0:0:0:0:
320,192,231423,5,0,0:0:0:0:
448,192,231423,1,0,0:0:0:0:
192,192,231486,1,0,0:0:0:0:
64,192,231486,1,0,0:0:0:0:
320,192,231548,1,0,0:0:0:0:
448,192,231548,1,0,0:0:0:0:
192,192,231611,1,0,0:0:0:0:
64,192,231611,1,0,0:0:0:0:
320,192,231673,1,0,0:0:0:0:
448,192,231673,1,0,0:0:0:0:
192,192,231736,1,0,0:0:0:0:
64,192,231736,1,0,0:0:0:0:
320,192,231797,1,0,0:0:0:0:
448,192,231828,1,0,0:0:0:0:
64,192,231860,1,0,0:0:0:0:
192,192,231891,1,0,0:0:0:0:
320,192,231922,1,0,0:0:0:0:
448,192,231922,1,0,0:0:0:0:
192,192,231985,1,0,0:0:0:0:
64,192,231985,1,0,0:0:0:0:
320,192,232047,1,0,0:0:0:0:
448,192,232047,1,0,0:0:0:0:
192,192,232110,1,0,0:0:0:0:
64,192,232110,1,0,0:0:0:0:
448,192,232172,1,0,0:0:0:0:
320,192,232203,1,0,0:0:0:0:
192,192,232235,1,0,0:0:0:0:
64,192,232266,1,0,0:0:0:0:
320,192,232296,1,0,0:0:0:0:
448,192,232296,1,0,0:0:0:0:
192,192,232358,1,0,0:0:0:0:
64,192,232421,1,0,0:0:0:0:
448,192,232421,1,0,0:0:0:0:
320,192,232483,1,0,0:0:0:0:
192,192,232483,1,0,0:0:0:0:
448,192,232546,1,0,0:0:0:0:
64,192,232546,1,0,0:0:0:0:
320,192,232608,1,0,0:0:0:0:
192,192,232608,1,0,0:0:0:0:
64,192,232671,1,0,0:0:0:0:
448,192,232671,1,0,0:0:0:0:
320,192,232733,1,0,0:0:0:0:
64,192,232796,1,0,0:0:0:0:
192,192,232826,1,0,0:0:0:0:
320,192,232857,1,0,0:0:0:0:
448,192,232888,1,0,0:0:0:0:
64,192,232920,1,0,0:0:0:0:
192,192,232920,1,0,0:0:0:0:
320,192,232982,1,0,0:0:0:0:
448,192,232982,1,0,0:0:0:0:
64,192,233045,1,0,0:0:0:0:
192,192,233045,1,0,0:0:0:0:
320,192,233107,1,0,0:0:0:0:
448,192,233107,1,0,0:0:0:0:
192,192,233170,1,0,0:0:0:0:
64,192,233201,1,0,0:0:0:0:
448,192,233232,1,0,0:0:0:0:
320,192,233263,1,0,0:0:0:0:
64,192,233295,1,0,0:0:0:0:
192,192,233325,1,0,0:0:0:0:
320,192,233356,1,0,0:0:0:0:
448,192,233387,1,0,0:0:0:0:
192,192,233418,1,0,0:0:0:0:
64,192,233461,1,0,0:0:0:0:
448,192,233502,1,0,0:0:0:0:
192,192,233543,1,0,0:0:0:0:
320,192,233585,1,0,0:0:0:0:
64,192,233627,1,0,0:0:0:0:
192,192,233668,1,0,0:0:0:0:
320,192,233710,1,0,0:0:0:0:
448,192,233751,1,0,0:0:0:0:
64,192,233793,1,0,0:0:0:0:
320,192,233835,1,0,0:0:0:0:
192,192,233876,1,0,0:0:0:0:
448,192,233917,1,0,0:0:0:0:
320,192,233960,1,0,0:0:0:0:
192,192,234001,1,0,0:0:0:0:
64,192,234042,1,0,0:0:0:0:
448,192,234083,1,0,0:0:0:0:
192,192,234126,1,0,0:0:0:0:
64,192,234167,1,0,0:0:0:0:
448,192,234208,1,0,0:0:0:0:
192,192,234250,1,0,0:0:0:0:
320,192,234292,1,0,0:0:0:0:
64,192,234333,1,0,0:0:0:0:
448,192,234375,1,0,0:0:0:0:
320,192,234416,1,0,0:0:0:0:
64,192,234416,1,0,0:0:0:0:
192,192,234416,1,0,0:0:0:0:
192,192,234541,1,0,0:0:0:0:
320,192,234666,1,0,0:0:0:0:
64,192,234666,1,0,0:0:0:0:
320,192,234791,1,0,0:0:0:0:
448,192,234915,1,0,0:0:0:0:
192,192,234915,1,0,0:0:0:0:
64,192,235040,1,0,0:0:0:0:
192,192,235165,1,0,0:0:0:0:
320,192,235165,1,0,0:0:0:0:
448,192,235290,1,0,0:0:0:0:
64,192,235290,1,0,0:0:0:0:
64,192,235413,1,0,0:0:0:0:
192,192,235413,1,0,0:0:0:0:
320,192,235413,1,0,0:0:0:0:
448,192,235413,1,0,0:0:0:0:
64,192,235663,1,0,0:0:0:0:
192,192,235912,1,0,0:0:0:0:
320,192,236162,1,0,0:0:0:0:
192,192,236412,1,0,0:0:0:0:
320,192,236661,1,0,0:0:0:0:
64,192,236911,1,0,0:0:0:0:
320,192,237160,1,0,0:0:0:0:
192,192,237410,1,0,0:0:0:0:
448,192,237410,1,0,0:0:0:0:
64,192,237908,1,0,0:0:0:0:
448,192,237908,1,0,0:0:0:0:
64,192,238906,1,0,0:0:0:0:
320,192,238906,1,0,0:0:0:0:
64,192,239405,1,0,0:0:0:0:
192,192,239405,1,0,0:0:0:0:
448,192,239405,1,0,0:0:0:0:
320,192,239653,1,0,0:0:0:0:
192,192,239903,1,0,0:0:0:0:
64,192,240152,1,0,0:0:0:0:
448,192,240402,1,0,0:0:0:0:
320,192,240402,1,0,0:0:0:0:
192,192,240651,1,0,0:0:0:0:
320,192,240901,1,0,0:0:0:0:
64,192,241150,1,0,0:0:0:0:
192,192,241400,1,0,0:0:0:0:
64,192,242397,1,0,0:0:0:0:
192,192,242397,1,0,0:0:0:0:
64,192,242896,1,0,0:0:0:0:
64,192,243395,1,0,0:0:0:0:
320,192,243395,1,0,0:0:0:0:
64,192,245515,1,0,0:0:0:0:
448,192,245515,1,0,0:0:0:0:
64,192,247883,1,0,0:0:0:0:
448,192,247883,1,0,0:0:0:0:
192,192,247926,1,0,0:0:0:0:
320,192,247967,1,0,0:0:0:0:
64,192,248008,1,0,0:0:0:0:
192,192,248050,1,0,0:0:0:0:
320,192,248092,1,0,0:0:0:0:
448,192,248092,1,0,0:0:0:0:
