osu file format v14

[General]
AudioFilename: Fallen Symphony.ogg
AudioLeadIn: 0
PreviewTime: 424314
Countdown: 0
SampleSet: Soft
StackLeniency: 0.7
Mode: 3
LetterboxInBreaks: 0
SpecialStyle: 0
WidescreenStoryboard: 0

[Editor]
Bookmarks: 80634,95994,111354,119034,142314,157434,172794,188154,218874,234234,249594,257274,272634,287994,311034,326394,357114,387834,395514,410874,472314,487674,508794,532074,539514,547194,550194
DistanceSpacing: 0.3
BeatDivisor: 4
GridSize: 16
TimelineZoom: 4.500012

[Metadata]
Title:Fallen Symphony
TitleUnicode:Fallen Symphony
Artist:Ludicin
ArtistUnicode:Ludicin
Creator:riunosk
Version:Incomprehensible Musicality
Source:
Tags:famoss breakcore gothic hardcore melodic metal orchestral speedcore marathon instrumental electronic ln long notes
BeatmapID:3976253
BeatmapSetID:1925721

[Difficulty]
HPDrainRate:9
CircleSize:4
OverallDifficulty:8
ApproachRate:5
SliderMultiplier:1.4
SliderTickRate:1

[Events]
//Background and Video events
0,0,"Fallen_Symphony_AlexDunk_edit.jpg",0,0
//Break Periods
2,203714,217674
2,341954,355914
2,388034,394314
//Storyboard Layer 0 (Background)
//Storyboard Layer 1 (Fail)
//Storyboard Layer 2 (Pass)
//Storyboard Layer 3 (Foreground)
//Storyboard Layer 4 (Overlay)
//Storyboard Sound Samples
Sample,149034,0,"CrashR.wav",70
Sample,156714,0,"CrashR.wav",70
Sample,174474,0,"fill_snare_high.wav",70
Sample,174714,0,"CrashL.wav",70
Sample,175434,0,"CrashL.wav",70
Sample,175434,0,"fill_snare_high.wav",70
Sample,175914,0,"fill_snare_high.wav",70
Sample,178314,0,"fill_snare_high.wav",70
Sample,178554,0,"CrashL.wav",70
Sample,179274,0,"CrashL.wav",70
Sample,179274,0,"fill_snare_high.wav",70
Sample,179754,0,"fill_snare_high.wav",70
Sample,179994,0,"fill_snare_high.wav",70
Sample,182154,0,"fill_snare_high.wav",70
Sample,182394,0,"CrashL.wav",70
Sample,183114,0,"CrashL.wav",70
Sample,183114,0,"fill_snare_high.wav",70
Sample,183594,0,"fill_snare_high.wav",70
Sample,185994,0,"fill_snare_high.wav",70
Sample,186234,0,"CrashL.wav",70
Sample,186474,0,"fill_snare_high.wav",70
Sample,186954,0,"fill_snare_high.wav",70
Sample,201594,0,"CrashL.wav",70
Sample,201834,0,"CrashL.wav",70
Sample,202074,0,"CrashL.wav",70
Sample,202314,0,"CrashL.wav",70
Sample,298794,0,"CrashR.wav",70
Sample,299274,0,"CrashR.wav",70
Sample,306474,0,"CrashR.wav",70
Sample,306954,0,"CrashR.wav",70
Sample,341034,0,"CrashL.wav",70
Sample,419754,0,"VEC3 Snares 003.wav",70
Sample,421674,0,"VEC3 Snares 003.wav",70
Sample,422634,0,"VEC3 Snares 003.wav",70
Sample,423114,0,"VEC3 Snares 003.wav",70
Sample,423354,0,"fill_snare_low.wav",70
Sample,456174,0,"CrashL.wav",70
Sample,472554,0,"CrashL.wav",70
Sample,487434,0,"CrashL.wav",70
Sample,498714,0,"fill_snare_low.wav",70
Sample,503034,0,"CrashL.wav",70
Sample,504474,0,"Kick 19.wav",70
Sample,506394,0,"Kick 19.wav",70
Sample,545034,0,"CrashR.wav",70
Sample,548994,0,"fill_snare_high.wav",70
Sample,550914,0,"fill_snare_high.wav",70
Sample,552534,0,"fill_snare_high.wav",70
Sample,552654,0,"fill_snare_high.wav",70
Sample,554394,0,"fill_snare_high.wav",70

[TimingPoints]
65274,240,4,2,1,50,1,0
126714,-100,4,2,1,50,0,1
203514,-100,4,2,1,50,0,0
295674,-100,4,2,1,50,0,1
341754,-100,4,2,1,50,0,0
426234,-100,4,2,1,50,0,1
495354,-100,4,2,1,50,0,0
516714,-100,4,2,1,50,0,1
554874,-100,4,2,1,50,0,0

[HitObjects]
64,192,65274,5,0,0:0:0:70:Kick 19.wav
192,192,65274,1,0,0:0:0:0:
448,192,65394,1,0,0:0:0:0:
320,192,65514,1,0,0:0:0:0:
64,192,65634,1,0,0:0:0:0:
320,192,65754,1,0,0:0:0:0:
448,192,65874,1,0,0:0:0:0:
192,192,65994,1,0,0:0:0:0:
320,192,66114,1,0,0:0:0:0:
64,192,66234,1,0,0:0:0:0:
192,192,66354,1,0,0:0:0:0:
320,192,66474,1,0,0:0:0:0:
64,192,66594,1,0,0:0:0:0:
320,192,66714,1,0,0:0:0:0:
448,192,66834,1,0,0:0:0:0:
192,192,66954,1,0,0:0:0:0:
320,192,67074,1,0,0:0:0:0:
192,192,67194,1,0,0:0:0:0:
64,192,67314,1,0,0:0:0:0:
320,192,67434,1,0,0:0:0:0:
448,192,67554,1,0,0:0:0:0:
192,192,67674,1,0,0:0:0:0:
320,192,67794,1,0,0:0:0:0:
64,192,67914,1,0,0:0:0:0:
192,192,68034,1,0,0:0:0:0:
320,192,68154,1,0,0:0:0:0:
64,192,68274,1,0,0:0:0:0:
192,192,68394,1,0,0:0:0:0:
320,192,68514,1,0,0:0:0:0:
448,192,68634,1,0,0:0:0:0:
192,192,68754,1,0,0:0:0:0:
320,192,68874,1,0,0:0:0:0:
64,192,68994,1,0,0:0:0:0:
192,192,69114,1,0,0:0:0:0:
448,192,69234,1,0,0:0:0:0:
320,192,69354,1,0,0:0:0:0:
192,192,69474,1,0,0:0:0:0:
64,192,69594,1,0,0:0:0:0:
192,192,69714,1,0,0:0:0:0:
320,192,69834,1,0,0:0:0:0:
64,192,69954,1,0,0:0:0:0:
448,192,70074,1,0,0:0:0:0:
192,192,70194,1,0,0:0:0:0:
64,192,70314,1,0,0:0:0:0:
192,192,70434,1,0,0:0:0:0:
320,192,70554,1,0,0:0:0:0:
448,192,70674,1,0,0:0:0:0:
64,192,70794,1,0,0:0:0:0:
320,192,70914,1,0,0:0:0:0:
192,192,71034,1,0,0:0:0:0:
448,192,71154,1,0,0:0:0:0:
320,192,71274,1,0,0:0:0:0:
192,192,71394,1,0,0:0:0:0:
64,192,71514,1,0,0:0:0:0:
320,192,71634,1,0,0:0:0:0:
192,192,71754,1,0,0:0:0:0:
320,192,71874,1,0,0:0:0:0:
64,192,71994,1,0,0:0:0:0:
192,192,72114,1,0,0:0:0:0:
320,192,72234,1,0,0:0:0:0:
448,192,72354,1,0,0:0:0:0:
192,192,72474,1,0,0:0:0:0:
320,192,72594,1,0,0:0:0:0:
64,192,72714,1,0,0:0:0:0:
448,192,72834,1,0,0:0:0:0:
64,192,72954,1,0,0:0:0:0:
192,192,72984,1,0,0:0:0:0:
320,192,73074,1,0,0:0:0:0:
448,192,73194,1,0,0:0:0:0:
64,192,73314,1,0,0:0:0:0:
192,192,73434,1,0,0:0:0:0:
448,192,73554,1,0,0:0:0:0:
320,192,73674,1,0,0:0:0:0:
192,192,73794,1,0,0:0:0:0:
320,192,73914,1,0,0:0:0:0:
448,192,73944,1,0,0:0:0:0:
192,192,74034,1,0,0:0:0:0:
64,192,74154,1,0,0:0:0:0:
192,192,74274,1,0,0:0:0:0:
320,192,74394,1,0,0:0:0:0:
448,192,74514,1,0,0:0:0:0:
192,192,74634,1,0,0:0:0:0:
320,192,74754,1,0,0:0:0:0:
64,192,74874,1,0,0:0:0:0:
192,192,74904,1,0,0:0:0:0:
320,192,74994,1,0,0:0:0:0:
64,192,75114,1,0,0:0:0:0:
192,192,75234,1,0,0:0:0:0:
320,192,75354,1,0,0:0:0:0:
448,192,75474,1,0,0:0:0:0:
192,192,75594,1,0,0:0:0:0:
320,192,75714,1,0,0:0:0:0:
64,192,75834,1,0,0:0:0:0:
192,192,75864,1,0,0:0:0:0:
448,192,75954,1,0,0:0:0:0:
320,192,76074,1,0,0:0:0:0:
64,192,76194,1,0,0:0:0:0:
320,192,76314,1,0,0:0:0:0:
448,192,76434,1,0,0:0:0:0:
192,192,76554,1,0,0:0:0:0:
64,192,76674,1,0,0:0:0:0:
320,192,76794,1,0,0:0:0:0:
448,192,76824,1,0,0:0:0:0:
192,192,76914,1,0,0:0:0:0:
320,192,77034,1,0,0:0:0:0:
192,192,77154,1,0,0:0:0:0:
64,192,77274,1,0,0:0:0:0:
320,192,77394,1,0,0:0:0:0:
448,192,77514,1,0,0:0:0:0:
64,192,77634,1,0,0:0:0:0:
192,192,77754,1,0,0:0:0:0:
320,192,77784,1,0,0:0:0:0:
448,192,77874,1,0,0:0:0:0:
64,192,77994,1,0,0:0:0:0:
320,192,78114,1,0,0:0:0:0:
192,192,78234,1,0,0:0:0:0:
448,192,78354,1,0,0:0:0:0:
320,192,78474,1,0,0:0:0:0:
64,192,78594,1,0,0:0:0:0:
192,192,78714,1,0,0:0:0:0:
320,192,78744,1,0,0:0:0:0:
448,192,78834,1,0,0:0:0:0:
64,192,78954,1,0,0:0:0:0:
192,192,79074,1,0,0:0:0:0:
320,192,79194,1,0,0:0:0:0:
192,192,79314,1,0,0:0:0:0:
64,192,79434,1,0,0:0:0:0:
448,192,79554,1,0,0:0:0:0:
192,192,79674,1,0,0:0:0:0:
320,192,79704,1,0,0:0:0:0:
64,192,79794,1,0,0:0:0:0:
320,192,79914,1,0,0:0:0:0:
448,192,80034,1,0,0:0:0:0:
64,192,80154,1,0,0:0:0:0:
192,192,80274,1,0,0:0:0:0:
320,192,80394,1,0,0:0:0:0:
192,192,80514,1,0,0:0:0:0:
64,192,80634,1,0,0:0:0:0:
192,192,80664,1,0,0:0:0:0:
320,192,80754,1,0,0:0:0:0:
448,192,80874,1,0,0:0:0:0:
64,192,80994,1,0,0:0:0:0:
192,192,81114,1,0,0:0:0:0:
320,192,81234,1,0,0:0:0:0:
448,192,81354,1,0,0:0:0:0:
64,192,81474,1,0,0:0:0:0:
192,192,81594,1,0,0:0:0:0:
320,192,81624,1,0,0:0:0:0:
448,192,81714,1,0,0:0:0:0:
320,192,81834,1,0,0:0:0:0:
192,192,81954,1,0,0:0:0:0:
64,192,82074,1,0,0:0:0:0:
320,192,82194,1,0,0:0:0:0:
64,192,82314,1,0,0:0:0:0:
192,192,82434,1,0,0:0:0:0:
320,192,82554,1,0,0:0:0:0:
448,192,82584,1,0,0:0:0:0:
192,192,82674,1,0,0:0:0:0:
320,192,82794,1,0,0:0:0:0:
448,192,82914,1,0,0:0:0:0:
64,192,83034,1,0,0:0:0:0:
320,192,83154,1,0,0:0:0:0:
192,192,83274,1,0,0:0:0:0:
448,192,83394,1,0,0:0:0:0:
64,192,83514,1,0,0:0:0:0:
192,192,83544,1,0,0:0:0:0:
320,192,83634,1,0,0:0:0:0:
448,192,83754,1,0,0:0:0:0:
192,192,83874,1,0,0:0:0:0:
320,192,83994,1,0,0:0:0:0:
192,192,84114,1,0,0:0:0:0:
64,192,84234,1,0,0:0:0:0:
448,192,84354,1,0,0:0:0:0:
64,192,84474,1,0,0:0:0:0:
192,192,84504,1,0,0:0:0:0:
320,192,84594,1,0,0:0:0:0:
448,192,84714,1,0,0:0:0:0:
64,192,84834,1,0,0:0:0:0:
192,192,84954,1,0,0:0:0:0:
320,192,85074,1,0,0:0:0:0:
192,192,85194,1,0,0:0:0:0:
64,192,85314,1,0,0:0:0:0:
320,192,85434,1,0,0:0:0:0:
448,192,85464,1,0,0:0:0:0:
192,192,85554,1,0,0:0:0:0:
320,192,85674,1,0,0:0:0:0:
448,192,85794,1,0,0:0:0:0:
192,192,85914,1,0,0:0:0:0:
320,192,86034,1,0,0:0:0:0:
64,192,86154,1,0,0:0:0:0:
192,192,86274,1,0,0:0:0:0:
320,192,86394,1,0,0:0:0:0:
448,192,86424,1,0,0:0:0:0:
192,192,86514,1,0,0:0:0:0:
64,192,86634,1,0,0:0:0:0:
448,192,86754,1,0,0:0:0:0:
320,192,86874,1,0,0:0:0:0:
64,192,86994,1,0,0:0:0:0:
192,192,87114,1,0,0:0:0:0:
448,192,87234,1,0,0:0:0:0:
64,192,87354,1,0,0:0:0:0:
192,192,87384,1,0,0:0:0:0:
320,192,87474,1,0,0:0:0:0:
448,192,87594,1,0,0:0:0:0:
192,192,87714,1,0,0:0:0:0:
320,192,87834,1,0,0:0:0:0:
192,192,87954,1,0,0:0:0:0:
64,192,88074,1,0,0:0:0:0:
448,192,88194,1,0,0:0:0:0:
192,192,88314,1,0,0:0:0:0:
320,192,88344,1,0,0:0:0:0:
64,192,88434,1,0,0:0:0:0:
320,192,88554,1,0,0:0:0:0:
448,192,88554,1,0,0:0:0:0:
192,192,88674,1,0,0:0:0:0:
320,192,88794,1,0,0:0:0:0:
64,192,88854,1,0,0:0:0:0:
192,192,88854,1,0,0:0:0:0:
448,192,88914,1,0,0:0:0:0:
64,192,89034,1,0,0:0:0:0:
192,192,89034,1,0,0:0:0:0:
448,192,89154,1,0,0:0:0:0:
192,192,89274,1,0,0:0:0:0:
320,192,89304,1,0,0:0:0:0:
64,192,89394,1,0,0:0:0:0:
320,192,89514,1,0,0:0:0:0:
448,192,89514,1,0,0:0:0:0:
192,192,89634,1,0,0:0:0:0:
64,192,89754,1,0,0:0:0:0:
320,192,89814,1,0,0:0:0:0:
448,192,89874,1,0,0:0:0:0:
64,192,89994,1,0,0:0:0:0:
192,192,89994,1,0,0:0:0:0:
448,192,90114,1,0,0:0:0:0:
192,192,90234,1,0,0:0:0:0:
320,192,90264,1,0,0:0:0:0:
64,192,90354,1,0,0:0:0:0:
320,192,90474,1,0,0:0:0:0:
448,192,90474,1,0,0:0:0:0:
192,192,90594,1,0,0:0:0:0:
448,192,90714,1,0,0:0:0:0:
64,192,90774,1,0,0:0:0:0:
192,192,90774,1,0,0:0:0:0:
320,192,90834,1,0,0:0:0:0:
64,192,90954,1,0,0:0:0:0:
192,192,90954,1,0,0:0:0:0:
320,192,91074,1,0,0:0:0:0:
64,192,91194,1,0,0:0:0:0:
192,192,91224,1,0,0:0:0:0:
320,192,91314,1,0,0:0:0:0:
64,192,91434,1,0,0:0:0:0:
192,192,91434,1,0,0:0:0:0:
320,192,91554,1,0,0:0:0:0:
192,192,91614,1,0,0:0:0:0:
64,192,91674,1,0,0:0:0:0:
320,192,91734,1,0,0:0:0:0:
448,192,91794,1,0,0:0:0:0:
64,192,91914,1,0,0:0:0:0:
192,192,91914,1,0,0:0:0:0:
448,192,92034,1,0,0:0:0:0:
192,192,92154,1,0,0:0:0:0:
320,192,92184,1,0,0:0:0:0:
64,192,92274,1,0,0:0:0:0:
320,192,92394,1,0,0:0:0:0:
448,192,92394,1,0,0:0:0:0:
192,192,92514,1,0,0:0:0:0:
64,192,92574,1,0,0:0:0:0:
192,192,92634,1,0,0:0:0:0:
320,192,92694,1,0,0:0:0:0:
448,192,92694,1,0,0:0:0:0:
64,192,92754,1,0,0:0:0:0:
320,192,92874,1,0,0:0:0:0:
448,192,92874,1,0,0:0:0:0:
64,192,92934,1,0,0:0:0:0:
192,192,92994,1,0,0:0:0:0:
320,192,93054,1,0,0:0:0:0:
64,192,93114,1,0,0:0:0:0:
192,192,93144,1,0,0:0:0:0:
448,192,93174,1,0,0:0:0:0:
320,192,93234,1,0,0:0:0:0:
64,192,93354,1,0,0:0:0:0:
192,192,93354,1,0,0:0:0:0:
320,192,93474,1,0,0:0:0:0:
192,192,93534,1,0,0:0:0:0:
448,192,93594,1,0,0:0:0:0:
64,192,93654,1,0,0:0:0:0:
320,192,93654,1,0,0:0:0:0:
192,192,93714,1,0,0:0:0:0:
320,192,93774,1,0,0:0:0:0:
64,192,93834,1,0,0:0:0:0:
448,192,93834,1,0,0:0:0:0:
192,192,93954,1,0,0:0:0:0:
320,192,94014,1,0,0:0:0:0:
64,192,94074,1,0,0:0:0:0:
192,192,94104,1,0,0:0:0:0:
320,192,94194,1,0,0:0:0:0:
64,192,94314,1,0,0:0:0:0:
448,192,94314,1,0,0:0:0:0:
192,192,94434,1,0,0:0:0:0:
320,192,94494,1,0,0:0:0:0:
192,192,94554,1,0,0:0:0:0:
64,192,94614,1,0,0:0:0:0:
448,192,94614,1,0,0:0:0:0:
320,192,94674,1,0,0:0:0:0:
192,192,94734,1,0,0:0:0:0:
64,192,94794,1,0,0:0:0:0:
448,192,94794,1,0,0:0:0:0:
320,192,94854,1,0,0:0:0:0:
64,192,94914,1,0,0:0:0:0:
192,192,94974,1,0,0:0:0:0:
320,192,95034,1,0,0:0:0:0:
448,192,95064,1,0,0:0:0:0:
64,192,95094,1,0,0:0:0:0:
192,192,95154,1,0,0:0:0:0:
320,192,95214,1,0,0:0:0:0:
64,192,95274,1,0,0:0:0:0:
448,192,95274,1,0,0:0:0:0:
192,192,95394,1,0,0:0:0:0:
320,192,95454,1,0,0:0:0:0:
64,192,95514,1,0,0:0:0:70:Kick 19.wav
192,192,95514,1,0,0:0:0:0:
64,192,95994,128,0,96054:0:0:0:70:Kick 19.wav
320,192,95994,128,0,96054:0:0:0:0:
448,192,95994,128,0,96054:0:0:0:0:
192,192,96114,1,0,0:0:0:0:
320,192,96114,1,0,0:0:0:0:
64,192,96234,1,0,0:0:0:0:
192,192,96234,1,0,0:0:0:0:
64,192,96354,1,0,0:0:0:0:
448,192,96354,1,0,0:0:0:0:
192,192,96474,1,0,0:0:0:0:
320,192,96474,1,0,0:0:0:0:
64,192,96534,1,0,0:0:0:0:
320,192,96594,1,0,0:0:0:0:
448,192,96594,1,0,0:0:0:0:
64,192,96714,1,0,0:0:0:0:
192,192,96714,1,0,0:0:0:0:
192,192,96834,1,0,0:0:0:0:
320,192,96834,1,0,0:0:0:0:
64,192,96954,1,0,0:0:0:0:
448,192,96954,1,0,0:0:0:0:
320,192,97074,1,0,0:0:0:0:
448,192,97074,1,0,0:0:0:0:
64,192,97194,1,0,0:0:0:0:
192,192,97194,1,0,0:0:0:0:
192,192,97314,1,0,0:0:0:0:
320,192,97314,1,0,0:0:0:0:
64,192,97374,1,0,0:0:0:0:
320,192,97434,1,0,0:0:0:0:
448,192,97434,1,0,0:0:0:0:
64,192,97494,1,0,0:0:0:0:
192,192,97554,1,0,0:0:0:0:
448,192,97554,1,0,0:0:0:0:
320,192,97614,1,0,0:0:0:0:
64,192,97674,1,0,0:0:0:0:
192,192,97674,1,0,0:0:0:0:
64,192,97794,1,0,0:0:0:0:
320,192,97914,128,0,97974:0:0:0:0:
448,192,97914,128,0,97974:0:0:0:0:
64,192,98034,1,0,0:0:0:0:
192,192,98034,1,0,0:0:0:0:
192,192,98154,1,0,0:0:0:0:
320,192,98154,1,0,0:0:0:0:
64,192,98274,1,0,0:0:0:0:
320,192,98274,1,0,0:0:0:0:
448,192,98334,1,0,0:0:0:0:
64,192,98394,1,0,0:0:0:0:
192,192,98394,1,0,0:0:0:0:
448,192,98454,1,0,0:0:0:0:
192,192,98514,1,0,0:0:0:0:
320,192,98514,1,0,0:0:0:0:
64,192,98574,1,0,0:0:0:0:
320,192,98634,1,0,0:0:0:0:
448,192,98634,1,0,0:0:0:0:
64,192,98754,1,0,0:0:0:0:
192,192,98754,1,0,0:0:0:0:
320,192,98814,1,0,0:0:0:0:
192,192,98874,1,0,0:0:0:0:
448,192,98874,1,0,0:0:0:0:
64,192,98994,1,0,0:0:0:0:
448,192,98994,1,0,0:0:0:0:
192,192,99114,1,0,0:0:0:0:
320,192,99114,1,0,0:0:0:0:
64,192,99234,1,0,0:0:0:0:
448,192,99234,1,0,0:0:0:0:
192,192,99294,1,0,0:0:0:0:
320,192,99354,128,0,99414:0:0:0:0:
448,192,99354,128,0,99414:0:0:0:0:
192,192,99414,1,0,0:0:0:0:
64,192,99474,1,0,0:0:0:0:
320,192,99474,1,0,0:0:0:0:
448,192,99534,1,0,0:0:0:0:
64,192,99594,1,0,0:0:0:0:
192,192,99594,1,0,0:0:0:0:
320,192,99714,1,0,0:0:0:0:
448,192,99774,1,0,0:0:0:0:
64,192,99834,128,0,99894:0:0:0:0:
192,192,99834,128,0,99894:0:0:0:0:
320,192,99954,1,0,0:0:0:0:
448,192,99954,1,0,0:0:0:0:
64,192,100074,1,0,0:0:0:0:
320,192,100074,1,0,0:0:0:0:
192,192,100194,1,0,0:0:0:0:
448,192,100194,1,0,0:0:0:0:
320,192,100254,1,0,0:0:0:0:
64,192,100314,1,0,0:0:0:0:
192,192,100314,1,0,0:0:0:0:
448,192,100374,1,0,0:0:0:0:
64,192,100434,1,0,0:0:0:0:
320,192,100434,1,0,0:0:0:0:
192,192,100554,1,0,0:0:0:0:
448,192,100554,1,0,0:0:0:0:
64,192,100674,1,0,0:0:0:0:
320,192,100674,1,0,0:0:0:0:
192,192,100734,1,0,0:0:0:0:
320,192,100794,1,0,0:0:0:0:
448,192,100794,1,0,0:0:0:0:
64,192,100914,1,0,0:0:0:0:
192,192,100914,1,0,0:0:0:0:
64,192,101034,1,0,0:0:0:0:
448,192,101034,1,0,0:0:0:0:
320,192,101154,1,0,0:0:0:0:
448,192,101154,1,0,0:0:0:0:
192,192,101214,1,0,0:0:0:0:
64,192,101274,1,0,0:0:0:0:
320,192,101274,1,0,0:0:0:0:
448,192,101334,1,0,0:0:0:0:
64,192,101394,1,0,0:0:0:0:
192,192,101394,1,0,0:0:0:0:
320,192,101454,1,0,0:0:0:0:
64,192,101514,1,0,0:0:0:0:
448,192,101514,1,0,0:0:0:0:
192,192,101634,1,0,0:0:0:0:
448,192,101694,1,0,0:0:0:0:
64,192,101754,128,0,101814:0:0:0:0:
320,192,101754,128,0,101814:0:0:0:0:
192,192,101874,1,0,0:0:0:0:
448,192,101874,1,0,0:0:0:0:
64,192,101994,1,0,0:0:0:0:
448,192,101994,1,0,0:0:0:0:
64,192,102114,1,0,0:0:0:0:
320,192,102114,1,0,0:0:0:0:
192,192,102174,1,0,0:0:0:0:
320,192,102234,1,0,0:0:0:0:
448,192,102234,1,0,0:0:0:0:
192,192,102294,1,0,0:0:0:0:
64,192,102354,1,0,0:0:0:0:
448,192,102354,1,0,0:0:0:0:
320,192,102414,1,0,0:0:0:0:
64,192,102474,1,0,0:0:0:0:
192,192,102474,1,0,0:0:0:0:
320,192,102594,1,0,0:0:0:0:
448,192,102594,1,0,0:0:0:0:
192,192,102654,1,0,0:0:0:0:
64,192,102714,128,0,102774:0:0:0:0:
320,192,102714,128,0,102774:0:0:0:0:
64,192,102834,1,0,0:0:0:0:
448,192,102834,1,0,0:0:0:0:
192,192,102954,1,0,0:0:0:0:
448,192,102954,1,0,0:0:0:0:
64,192,103074,1,0,0:0:0:0:
320,192,103074,1,0,0:0:0:0:
448,192,103134,1,0,0:0:0:0:
64,192,103194,128,0,103254:0:0:0:0:
192,192,103194,128,0,103254:0:0:0:0:
448,192,103254,1,0,0:0:0:0:
192,192,103314,1,0,0:0:0:0:
320,192,103314,1,0,0:0:0:0:
64,192,103374,1,0,0:0:0:0:
320,192,103434,1,0,0:0:0:0:
448,192,103434,1,0,0:0:0:0:
192,192,103554,1,0,0:0:0:0:
320,192,103614,1,0,0:0:0:0:
64,192,103674,128,0,103734:0:0:0:70:fill_snare.wav
448,192,103674,128,0,103734:0:0:0:0:
192,192,103794,1,0,0:0:0:0:
320,192,103794,1,0,0:0:0:0:
320,192,103914,1,0,0:0:0:70:fill_snare.wav
448,192,103914,1,0,0:0:0:0:
64,192,104034,1,0,0:0:0:0:
192,192,104034,1,0,0:0:0:0:
320,192,104094,1,0,0:0:0:0:
64,192,104154,1,0,0:0:0:70:fill_snare.wav
448,192,104154,1,0,0:0:0:0:
192,192,104214,1,0,0:0:0:0:
320,192,104274,1,0,0:0:0:0:
448,192,104274,1,0,0:0:0:0:
64,192,104394,1,0,0:0:0:70:fill_snare.wav
320,192,104394,1,0,0:0:0:0:
64,192,104514,1,0,0:0:0:0:
192,192,104514,1,0,0:0:0:0:
320,192,104634,128,0,104694:0:0:0:70:fill_snare.wav
448,192,104634,128,0,104694:0:0:0:0:
64,192,104754,1,0,0:0:0:0:
192,192,104754,1,0,0:0:0:0:
192,192,104874,1,0,0:0:0:70:fill_snare.wav
320,192,104874,1,0,0:0:0:0:
320,192,104994,1,0,0:0:0:0:
448,192,104994,1,0,0:0:0:0:
64,192,105054,1,0,0:0:0:0:
192,192,105114,1,0,0:0:0:70:fill_snare.wav
448,192,105114,1,0,0:0:0:0:
320,192,105174,1,0,0:0:0:0:
64,192,105234,1,0,0:0:0:0:
192,192,105294,1,0,0:0:0:0:
320,192,105354,1,0,0:0:0:70:fill_snare.wav
448,192,105354,1,0,0:0:0:0:
64,192,105414,1,0,0:0:0:0:
192,192,105474,1,0,0:0:0:0:
448,192,105474,1,0,0:0:0:0:
320,192,105534,1,0,0:0:0:0:
64,192,105594,128,0,105654:0:0:0:70:fill_snare.wav
192,192,105594,128,0,105654:0:0:0:0:
64,192,105714,1,0,0:0:0:0:
448,192,105714,1,0,0:0:0:0:
192,192,105834,1,0,0:0:0:70:fill_snare.wav
320,192,105834,1,0,0:0:0:0:
320,192,105954,1,0,0:0:0:0:
448,192,105954,1,0,0:0:0:0:
64,192,106014,1,0,0:0:0:0:
192,192,106074,1,0,0:0:0:70:fill_snare.wav
448,192,106074,1,0,0:0:0:0:
320,192,106134,1,0,0:0:0:0:
64,192,106194,1,0,0:0:0:0:
192,192,106194,1,0,0:0:0:0:
320,192,106314,1,0,0:0:0:70:fill_snare.wav
448,192,106314,1,0,0:0:0:0:
192,192,106374,1,0,0:0:0:0:
64,192,106434,1,0,0:0:0:0:
448,192,106434,1,0,0:0:0:0:
192,192,106554,128,0,106614:0:0:0:70:fill_snare.wav
320,192,106554,128,0,106614:0:0:0:0:
64,192,106674,1,0,0:0:0:0:
192,192,106674,1,0,0:0:0:0:
320,192,106734,1,0,0:0:0:0:
64,192,106794,1,0,0:0:0:70:fill_snare.wav
448,192,106794,1,0,0:0:0:0:
320,192,106914,1,0,0:0:0:0:
448,192,106914,1,0,0:0:0:0:
192,192,106974,1,0,0:0:0:0:
64,192,107034,1,0,0:0:0:70:fill_snare.wav
448,192,107034,1,0,0:0:0:0:
192,192,107154,1,0,0:0:0:0:
64,192,107214,1,0,0:0:0:0:
320,192,107274,1,0,0:0:0:70:fill_snare.wav
448,192,107274,1,0,0:0:0:0:
64,192,107334,1,0,0:0:0:0:
192,192,107394,1,0,0:0:0:0:
320,192,107454,1,0,0:0:0:0:
64,192,107514,128,0,107574:0:0:0:70:fill_snare.wav
448,192,107514,128,0,107574:0:0:0:0:
192,192,107634,1,0,0:0:0:0:
320,192,107634,1,0,0:0:0:0:
64,192,107754,1,0,0:0:0:70:fill_snare.wav
192,192,107754,1,0,0:0:0:0:
320,192,107874,1,0,0:0:0:0:
448,192,107874,1,0,0:0:0:0:
64,192,107934,1,0,0:0:0:0:
192,192,107994,1,0,0:0:0:70:fill_snare.wav
448,192,107994,1,0,0:0:0:0:
320,192,108054,1,0,0:0:0:0:
64,192,108114,1,0,0:0:0:0:
192,192,108114,1,0,0:0:0:0:
320,192,108174,1,0,0:0:0:0:
64,192,108234,1,0,0:0:0:70:fill_snare.wav
448,192,108234,1,0,0:0:0:0:
192,192,108354,1,0,0:0:0:0:
320,192,108354,1,0,0:0:0:0:
64,192,108414,1,0,0:0:0:0:
320,192,108474,1,0,0:0:0:70:fill_snare.wav
448,192,108474,1,0,0:0:0:0:
192,192,108594,1,0,0:0:0:0:
448,192,108594,1,0,0:0:0:0:
64,192,108714,1,0,0:0:0:70:fill_snare.wav
320,192,108714,1,0,0:0:0:0:
320,192,108834,1,0,0:0:0:0:
448,192,108834,1,0,0:0:0:0:
192,192,108894,1,0,0:0:0:0:
64,192,108954,1,0,0:0:0:70:fill_snare.wav
448,192,108954,1,0,0:0:0:0:
320,192,109014,1,0,0:0:0:0:
64,192,109074,1,0,0:0:0:0:
192,192,109074,1,0,0:0:0:0:
448,192,109134,1,0,0:0:0:0:
192,192,109194,1,0,0:0:0:70:Kick 19.wav
320,192,109194,1,0,0:0:0:0:
192,192,109314,1,0,0:0:0:70:Kick 19.wav
320,192,109314,1,0,0:0:0:0:
192,192,109434,1,0,0:0:0:70:Kick 19.wav
320,192,109434,1,0,0:0:0:0:
448,192,110394,128,0,110454:0:0:0:0:
448,192,110514,128,0,110574:0:0:0:0:
448,192,110634,128,0,110694:0:0:0:0:
64,192,110694,128,0,110754:0:0:0:0:
448,192,110754,128,0,110814:0:0:0:0:
64,192,110814,128,0,110874:0:0:0:0:
192,192,110874,1,0,0:0:0:70:fill_snare_low.wav
320,192,110874,1,0,0:0:0:0:
448,192,110874,1,0,0:0:0:0:
64,192,110934,1,0,0:0:0:70:fill_snare_low.wav
192,192,110994,1,0,0:0:0:70:fill_snare_low.wav
320,192,110994,1,0,0:0:0:0:
448,192,110994,1,0,0:0:0:0:
64,192,111114,1,0,0:0:0:70:fill_snare_high.wav
192,192,111114,1,0,0:0:0:0:
320,192,111114,1,0,0:0:0:0:
64,192,111234,1,0,0:0:0:70:fill_snare_low.wav
192,192,111234,1,0,0:0:0:0:
64,192,111354,128,0,111414:0:0:0:70:Kick 19.wav
192,192,111354,128,0,111534:0:0:0:70:CrashL.wav
320,192,111354,128,0,111534:0:0:0:0:
64,192,111474,128,0,111534:0:0:0:0:
64,192,111594,128,0,111774:0:0:0:70:Kick 19.wav
192,192,111594,128,0,111654:0:0:0:0:
320,192,111594,128,0,111654:0:0:0:0:
192,192,111714,128,0,111774:0:0:0:0:
320,192,111714,128,0,111774:0:0:0:0:
64,192,111834,128,0,111894:0:0:0:70:Kick 19.wav
192,192,111834,128,0,111894:0:0:0:0:
320,192,111834,128,0,112014:0:0:0:0:
64,192,111954,128,0,112014:0:0:0:0:
192,192,111954,128,0,112014:0:0:0:0:
64,192,112074,128,0,112254:0:0:0:70:Kick 19.wav
192,192,112074,128,0,112254:0:0:0:0:
320,192,112074,128,0,112134:0:0:0:0:
320,192,112194,128,0,112254:0:0:0:0:
192,192,112314,128,0,112494:0:0:0:70:Kick 19.wav
320,192,112314,128,0,112494:0:0:0:0:
448,192,112314,128,0,112374:0:0:0:0:
448,192,112434,128,0,112494:0:0:0:0:
192,192,112554,128,0,112614:0:0:0:70:Kick 19.wav
320,192,112554,128,0,112614:0:0:0:0:
448,192,112554,128,0,112734:0:0:0:0:
192,192,112674,128,0,112734:0:0:0:0:
320,192,112674,128,0,112734:0:0:0:0:
192,192,112794,128,0,112974:0:0:0:70:Kick 19.wav
320,192,112794,128,0,112974:0:0:0:0:
448,192,112794,128,0,112854:0:0:0:0:
448,192,112914,128,0,112974:0:0:0:0:
192,192,113034,128,0,113094:0:0:0:70:Kick 19.wav
320,192,113034,128,0,113094:0:0:0:0:
448,192,113034,128,0,113154:0:0:0:0:
192,192,113154,128,0,113214:0:0:0:70:fill_snare_low.wav
320,192,113154,128,0,113214:0:0:0:0:
448,192,113214,128,0,113274:0:0:0:70:fill_snare_low.wav
64,192,113274,128,0,113334:0:0:0:70:Kick 19.wav
192,192,113274,128,0,113334:0:0:0:0:
320,192,113274,128,0,113454:0:0:0:0:
64,192,113394,128,0,113454:0:0:0:70:fill_snare_low.wav
192,192,113394,128,0,113454:0:0:0:0:
448,192,113394,128,0,113454:0:0:0:0:
64,192,113514,128,0,113694:0:0:0:70:Kick 19.wav
192,192,113514,128,0,113574:0:0:0:0:
320,192,113514,128,0,113574:0:0:0:0:
192,192,113634,128,0,113694:0:0:0:0:
320,192,113634,128,0,113694:0:0:0:0:
64,192,113754,128,0,113814:0:0:0:70:Kick 19.wav
192,192,113754,128,0,113814:0:0:0:0:
320,192,113754,128,0,113934:0:0:0:0:
64,192,113874,128,0,113934:0:0:0:0:
192,192,113874,128,0,113934:0:0:0:0:
64,192,113994,128,0,114174:0:0:0:70:Kick 19.wav
192,192,113994,128,0,114174:0:0:0:0:
320,192,113994,128,0,114054:0:0:0:0:
320,192,114114,128,0,114174:0:0:0:0:
192,192,114234,128,0,114414:0:0:0:70:Kick 19.wav
320,192,114234,128,0,114414:0:0:0:0:
448,192,114234,128,0,114294:0:0:0:0:
448,192,114354,128,0,114414:0:0:0:0:
192,192,114474,128,0,114534:0:0:0:70:Kick 19.wav
320,192,114474,128,0,114534:0:0:0:0:
448,192,114474,128,0,114654:0:0:0:0:
192,192,114594,128,0,114654:0:0:0:0:
320,192,114594,128,0,114654:0:0:0:0:
192,192,114714,128,0,114894:0:0:0:70:Kick 19.wav
320,192,114714,128,0,114934:0:0:0:0:
448,192,114714,128,0,114774:0:0:0:0:
448,192,114834,128,0,114974:0:0:0:0:
192,192,114954,128,0,115014:0:0:0:70:Kick 19.wav
320,192,114994,128,0,115054:0:0:0:70:Kick 19.wav
448,192,115034,128,0,115094:0:0:0:70:Kick 19.wav
192,192,115074,128,0,115134:0:0:0:70:Kick 19.wav
320,192,115114,128,0,115174:0:0:0:70:Kick 19.wav
448,192,115154,128,0,115214:0:0:0:70:Kick 19.wav
64,192,115194,128,0,115254:0:0:0:70:Kick 19.wav
192,192,115194,128,0,115254:0:0:0:0:
64,192,115314,128,0,115374:0:0:0:0:
192,192,115314,128,0,115374:0:0:0:0:
64,192,115434,128,0,115614:0:0:0:70:Kick 19.wav
192,192,115434,128,0,115494:0:0:0:0:
320,192,115434,128,0,115494:0:0:0:0:
192,192,115554,128,0,115614:0:0:0:0:
320,192,115554,128,0,115614:0:0:0:0:
64,192,115674,128,0,115734:0:0:0:70:Kick 19.wav
192,192,115674,128,0,115734:0:0:0:0:
320,192,115674,128,0,115854:0:0:0:0:
64,192,115794,128,0,115854:0:0:0:0:
192,192,115794,128,0,115854:0:0:0:0:
64,192,115914,128,0,116094:0:0:0:70:Kick 19.wav
192,192,115914,128,0,116094:0:0:0:0:
320,192,115914,128,0,115974:0:0:0:0:
320,192,116034,128,0,116094:0:0:0:0:
192,192,116154,128,0,116334:0:0:0:70:Kick 19.wav
320,192,116154,128,0,116334:0:0:0:0:
448,192,116154,128,0,116214:0:0:0:0:
448,192,116274,128,0,116334:0:0:0:0:
192,192,116394,128,0,116454:0:0:0:70:Kick 19.wav
320,192,116394,128,0,116454:0:0:0:0:
448,192,116394,128,0,116574:0:0:0:0:
192,192,116514,128,0,116574:0:0:0:0:
320,192,116514,128,0,116574:0:0:0:0:
192,192,116634,128,0,116814:0:0:0:70:Kick 19.wav
320,192,116634,128,0,116814:0:0:0:0:
448,192,116634,128,0,116694:0:0:0:0:
448,192,116754,128,0,116814:0:0:0:0:
192,192,116874,128,0,116934:0:0:0:70:Kick 19.wav
320,192,116874,128,0,116934:0:0:0:0:
448,192,116874,128,0,116994:0:0:0:0:
192,192,116994,128,0,117054:0:0:0:70:fill_snare_low.wav
320,192,116994,128,0,117054:0:0:0:0:
448,192,117054,128,0,117114:0:0:0:70:fill_snare_low.wav
64,192,117114,128,0,117174:0:0:0:70:Kick 19.wav
192,192,117114,128,0,117174:0:0:0:0:
320,192,117114,128,0,117294:0:0:0:0:
64,192,117234,128,0,117294:0:0:0:70:fill_snare_low.wav
192,192,117234,128,0,117294:0:0:0:0:
64,192,117354,128,0,117534:0:0:0:70:Kick 19.wav
192,192,117354,128,0,117534:0:0:0:0:
320,192,117414,128,0,117474:0:0:0:70:fill_snare_high.wav
448,192,117474,128,0,117594:0:0:0:70:fill_snare_high.wav
320,192,117534,128,0,117594:0:0:0:70:fill_snare_high.wav
64,192,117594,128,0,117774:0:0:0:70:Kick 19.wav
192,192,117594,128,0,117654:0:0:0:0:
192,192,117714,128,0,117774:0:0:0:0:
320,192,117714,128,0,117774:0:0:0:0:
64,192,117834,128,0,118014:0:0:0:70:Kick 19.wav
192,192,117834,128,0,118014:0:0:0:0:
320,192,117834,128,0,117894:0:0:0:0:
320,192,117954,128,0,118014:0:0:0:0:
192,192,118074,128,0,118254:0:0:0:70:Kick 19.wav
320,192,118074,128,0,118254:0:0:0:0:
448,192,118074,128,0,118134:0:0:0:0:
448,192,118194,128,0,118254:0:0:0:0:
192,192,118314,128,0,118374:0:0:0:70:Kick 19.wav
320,192,118314,128,0,118374:0:0:0:0:
448,192,118314,128,0,118494:0:0:0:0:
192,192,118434,128,0,118494:0:0:0:0:
320,192,118434,128,0,118494:0:0:0:0:
320,192,118554,128,0,118614:0:0:0:70:Kick 19.wav
448,192,118554,128,0,118734:0:0:0:0:
320,192,118674,128,0,118734:0:0:0:70:fill_snare_low.wav
192,192,118714,128,0,118774:0:0:0:70:fill_snare_low.wav
64,192,118754,128,0,118814:0:0:0:70:fill_snare_low.wav
320,192,118794,128,0,118914:0:0:0:70:Kick 19.wav
448,192,118794,128,0,118974:0:0:0:0:
64,192,118914,128,0,118994:0:0:0:70:fill_snare_high.wav
192,192,118954,128,0,118994:0:0:0:0:
320,192,118994,128,0,119094:0:0:0:0:
64,192,119034,128,0,119094:0:0:0:70:Kick 19.wav
192,192,119034,128,0,119214:0:0:0:0:
448,192,119034,128,0,119094:0:0:0:0:
64,192,119154,128,0,119334:0:0:0:70:Kick 19.wav
320,192,119154,128,0,119214:0:0:0:0:
448,192,119154,128,0,119214:0:0:0:0:
192,192,119274,128,0,119454:0:0:0:70:Kick 19.wav
320,192,119274,128,0,119334:0:0:0:0:
448,192,119274,128,0,119334:0:0:0:0:
64,192,119394,128,0,119454:0:0:0:70:Kick 19.wav
320,192,119394,128,0,119454:0:0:0:0:
448,192,119394,128,0,119574:0:0:0:0:
64,192,119514,128,0,119574:0:0:0:70:Kick 19.wav
192,192,119514,128,0,119574:0:0:0:0:
320,192,119514,128,0,119694:0:0:0:0:
64,192,119634,128,0,119694:0:0:0:70:Kick 19.wav
192,192,119634,128,0,119694:0:0:0:0:
448,192,119634,128,0,119814:0:0:0:0:
64,192,119754,128,0,119814:0:0:0:70:Kick 19.wav
192,192,119754,128,0,119814:0:0:0:0:
320,192,119754,128,0,119934:0:0:0:0:
64,192,119874,128,0,120054:0:0:0:70:Kick 19.wav
192,192,119874,128,0,119934:0:0:0:0:
448,192,119874,128,0,119934:0:0:0:0:
192,192,119994,128,0,120174:0:0:0:70:Kick 19.wav
320,192,119994,128,0,120054:0:0:0:0:
448,192,119994,128,0,120054:0:0:0:0:
64,192,120114,128,0,120294:0:0:0:70:Kick 19.wav
320,192,120114,128,0,120174:0:0:0:0:
448,192,120114,128,0,120174:0:0:0:0:
192,192,120234,128,0,120414:0:0:0:70:Kick 19.wav
320,192,120234,128,0,120294:0:0:0:0:
448,192,120234,128,0,120294:0:0:0:0:
64,192,120354,128,0,120414:0:0:0:70:Kick 19.wav
320,192,120354,128,0,120414:0:0:0:0:
448,192,120354,128,0,120534:0:0:0:0:
64,192,120474,128,0,120534:0:0:0:70:Kick 19.wav
192,192,120474,128,0,120534:0:0:0:0:
320,192,120474,128,0,120654:0:0:0:0:
64,192,120594,128,0,120654:0:0:0:70:Kick 19.wav
192,192,120594,128,0,120654:0:0:0:0:
448,192,120594,128,0,120774:0:0:0:0:
64,192,120714,128,0,120774:0:0:0:70:Kick 19.wav
192,192,120714,128,0,120774:0:0:0:0:
320,192,120714,128,0,120834:0:0:0:0:
64,192,120834,128,0,120894:0:0:0:70:Kick 19.wav
192,192,120834,128,0,120894:0:0:0:0:
448,192,120834,128,0,120954:0:0:0:0:
320,192,120894,128,0,120984:0:0:0:0:
64,192,120954,128,0,121044:0:0:0:70:Kick 19.wav
192,192,120954,128,0,121014:0:0:0:0:
448,192,121014,128,0,121074:0:0:0:0:
320,192,121044,128,0,121104:0:0:0:0:
192,192,121074,128,0,121134:0:0:0:0:
64,192,121104,128,0,121134:0:0:0:0:
64,192,121194,128,0,121374:0:0:0:70:Kick 19.wav
192,192,121194,128,0,121254:0:0:0:0:
320,192,121194,128,0,121254:0:0:0:0:
192,192,121314,128,0,121494:0:0:0:70:Kick 19.wav
320,192,121314,128,0,121374:0:0:0:0:
448,192,121314,128,0,121374:0:0:0:0:
64,192,121434,128,0,121494:0:0:0:70:Kick 19.wav
320,192,121434,128,0,121614:0:0:0:0:
448,192,121434,128,0,121494:0:0:0:0:
64,192,121554,128,0,121614:0:0:0:70:Kick 19.wav
192,192,121554,128,0,121614:0:0:0:0:
448,192,121554,128,0,121734:0:0:0:0:
64,192,121674,128,0,121854:0:0:0:70:Kick 19.wav
192,192,121674,128,0,121734:0:0:0:0:
320,192,121674,128,0,121734:0:0:0:0:
192,192,121794,128,0,121974:0:0:0:70:Kick 19.wav
320,192,121794,128,0,121854:0:0:0:0:
448,192,121794,128,0,121854:0:0:0:0:
64,192,121914,128,0,121974:0:0:0:70:Kick 19.wav
320,192,121914,128,0,122094:0:0:0:0:
448,192,121914,128,0,121974:0:0:0:0:
64,192,122034,128,0,122094:0:0:0:70:Kick 19.wav
192,192,122034,128,0,122094:0:0:0:0:
448,192,122034,128,0,122214:0:0:0:0:
64,192,122154,128,0,122334:0:0:0:70:Kick 19.wav
192,192,122154,128,0,122214:0:0:0:0:
320,192,122154,128,0,122214:0:0:0:0:
192,192,122274,128,0,122454:0:0:0:70:Kick 19.wav
320,192,122274,128,0,122334:0:0:0:0:
448,192,122274,128,0,122334:0:0:0:0:
64,192,122394,128,0,122454:0:0:0:70:Kick 19.wav
320,192,122394,128,0,122574:0:0:0:0:
448,192,122394,128,0,122454:0:0:0:0:
64,192,122514,128,0,122574:0:0:0:70:Kick 19.wav
192,192,122514,128,0,122574:0:0:0:0:
448,192,122514,128,0,122694:0:0:0:0:
64,192,122634,128,0,122814:0:0:0:70:Kick 19.wav
192,192,122634,128,0,122694:0:0:0:0:
320,192,122634,128,0,122694:0:0:0:0:
192,192,122754,128,0,122814:0:0:0:70:Kick 19.wav
320,192,122754,128,0,122814:0:0:0:0:
448,192,122754,128,0,122814:0:0:0:0:
64,192,122874,128,0,122934:0:0:0:70:Kick 19.wav
320,192,122874,128,0,122934:0:0:0:0:
448,192,122874,128,0,122934:0:0:0:0:
192,192,122934,128,0,122994:0:0:0:0:
320,192,122994,128,0,123054:0:0:0:0:
192,192,123054,128,0,123114:0:0:0:0:
448,192,123114,1,0,0:0:0:0:
320,192,123144,1,0,0:0:0:0:
192,192,123174,1,0,0:0:0:0:
64,192,123204,1,0,0:0:0:0:
320,192,123234,128,0,123354:0:0:0:70:VEC3 Snares 003
448,192,123234,128,0,123294:0:0:0:0:
192,192,123294,128,0,123354:0:0:0:0:
64,192,123354,128,0,123414:0:0:0:70:Kick 19.wav
448,192,123354,128,0,123414:0:0:0:0:
320,192,123414,128,0,123474:0:0:0:0:
64,192,123474,128,0,123534:0:0:0:70:Kick 19.wav
192,192,123474,128,0,123534:0:0:0:0:
320,192,123534,128,0,123594:0:0:0:0:
64,192,123594,128,0,123654:0:0:0:70:VEC3 Snares 003
192,192,123594,128,0,123714:0:0:0:0:
448,192,123594,128,0,123654:0:0:0:0:
320,192,123654,128,0,123714:0:0:0:0:
64,192,123714,128,0,123774:0:0:0:70:Kick 19.wav
448,192,123714,128,0,123774:0:0:0:0:
192,192,123774,128,0,123834:0:0:0:0:
64,192,123834,128,0,123954:0:0:0:70:VEC3 Snares 003
320,192,123834,128,0,123894:0:0:0:0:
448,192,123834,128,0,123894:0:0:0:0:
192,192,123894,128,0,123954:0:0:0:0:
320,192,123954,128,0,124014:0:0:0:70:Kick 19.wav
448,192,123954,128,0,124014:0:0:0:0:
192,192,124014,128,0,124074:0:0:0:0:
64,192,124074,128,0,124134:0:0:0:70:Kick 19.wav
448,192,124074,128,0,124134:0:0:0:0:
320,192,124134,128,0,124194:0:0:0:0:
64,192,124194,128,0,124254:0:0:0:70:VEC3 Snares 003
192,192,124194,128,0,124254:0:0:0:0:
448,192,124194,128,0,124314:0:0:0:0:
320,192,124254,128,0,124314:0:0:0:0:
64,192,124314,128,0,124374:0:0:0:70:Kick 19.wav
192,192,124314,128,0,124374:0:0:0:0:
320,192,124374,128,0,124434:0:0:0:0:
64,192,124434,128,0,124494:0:0:0:70:Kick 19.wav
448,192,124434,128,0,124494:0:0:0:0:
192,192,124494,128,0,124554:0:0:0:0:
64,192,124554,128,0,124674:0:0:0:70:VEC3 Snares 003
320,192,124554,128,0,124614:0:0:0:0:
448,192,124554,128,0,124614:0:0:0:0:
192,192,124614,128,0,124674:0:0:0:0:
320,192,124674,128,0,124734:0:0:0:70:Kick 19.wav
448,192,124674,128,0,124734:0:0:0:0:
64,192,124734,128,0,124794:0:0:0:70:Kick 19.wav
192,192,124734,128,0,124794:0:0:0:0:
320,192,124794,128,0,124854:0:0:0:70:Kick 19.wav
448,192,124794,128,0,124854:0:0:0:0:
64,192,124914,128,0,125214:0:0:0:0:
192,192,124914,128,0,124974:0:0:0:0:
192,192,125034,128,0,125214:0:0:0:0:
320,192,125034,128,0,125094:0:0:0:0:
320,192,125154,128,0,125214:0:0:0:0:
448,192,125154,128,0,125214:0:0:0:0:
64,192,125274,128,0,125334:0:0:0:0:
448,192,125274,128,0,125334:0:0:0:0:
320,192,125334,128,0,125394:0:0:0:0:
64,192,125394,128,0,125454:0:0:0:0:
448,192,125394,128,0,125454:0:0:0:0:
192,192,125454,128,0,125514:0:0:0:0:
64,192,125514,128,0,125574:0:0:0:0:
448,192,125514,128,0,125574:0:0:0:0:
320,192,125574,128,0,125634:0:0:0:0:
64,192,125634,128,0,125694:0:0:0:0:
448,192,125634,128,0,125694:0:0:0:0:
192,192,125694,128,0,125754:0:0:0:0:
64,192,125754,128,0,125799:0:0:0:70:Kick 19.wav
320,192,125754,128,0,125799:0:0:0:0:
448,192,125754,128,0,125799:0:0:0:0:
192,192,125814,128,0,125859:0:0:0:0:
320,192,125874,128,0,125919:0:0:0:0:
192,192,125934,128,0,125979:0:0:0:0:
448,192,125994,128,0,126054:0:0:0:0:
64,192,126054,128,0,126114:0:0:0:0:
448,192,126114,128,0,126174:0:0:0:0:
64,192,126174,128,0,126234:0:0:0:0:
320,192,126234,128,0,126309:0:0:0:70:fill_snare_low.wav
192,192,126294,128,0,126369:0:0:0:0:
320,192,126354,128,0,126429:0:0:0:70:Kick 19.wav
192,192,126414,128,0,126489:0:0:0:0:
448,192,126474,128,0,126549:0:0:0:70:VEC3 Snares 003.wav
64,192,126534,128,0,126609:0:0:0:0:
448,192,126594,128,0,126669:0:0:0:70:fill_snare_low.wav
64,192,126654,128,0,126714:0:0:0:0:
192,192,126714,1,0,0:0:0:70:Kick 19.wav
320,192,126714,128,0,126774:0:0:0:70:CrashL.wav
448,192,126714,128,0,126774:0:0:0:0:
64,192,126774,1,0,0:0:0:0:
320,192,126834,1,0,0:0:0:70:Kick 19.wav
448,192,126834,1,0,0:0:0:0:
192,192,126894,128,0,126954:0:0:0:0:
320,192,126954,128,0,127014:0:0:0:70:Kick 19.wav
448,192,126954,128,0,127014:0:0:0:0:
64,192,127014,128,0,127074:0:0:0:0:
448,192,127074,128,0,127134:0:0:0:0:
64,192,127134,128,0,127194:0:0:0:0:
320,192,127194,128,0,127254:0:0:0:70:Kick 19.wav
448,192,127194,128,0,127254:0:0:0:0:
64,192,127254,128,0,127314:0:0:0:0:
320,192,127314,128,0,127374:0:0:0:0:
64,192,127374,128,0,127434:0:0:0:0:
192,192,127434,128,0,127494:0:0:0:70:Kick 19.wav
320,192,127434,128,0,127494:0:0:0:0:
448,192,127494,128,0,127554:0:0:0:0:
192,192,127554,128,0,127614:0:0:0:0:
448,192,127614,128,0,127674:0:0:0:0:
64,192,127674,128,0,127749:0:0:0:70:Kick 19.wav
192,192,127674,128,0,127749:0:0:0:0:
448,192,127734,128,0,127809:0:0:0:0:
64,192,127794,128,0,127869:0:0:0:0:
448,192,127854,128,0,127929:0:0:0:0:
64,192,127914,128,0,127989:0:0:0:70:Kick 19.wav
192,192,127914,128,0,127989:0:0:0:0:
320,192,127974,128,0,128049:0:0:0:0:
192,192,128034,128,0,128109:0:0:0:0:
320,192,128094,128,0,128169:0:0:0:0:
64,192,128154,128,0,128229:0:0:0:70:Kick 19.wav
192,192,128154,128,0,128229:0:0:0:0:
448,192,128214,128,0,128289:0:0:0:0:
64,192,128274,128,0,128349:0:0:0:0:
448,192,128334,128,0,128394:0:0:0:0:
64,192,128394,1,0,0:0:0:70:fill_snare_high.wav
192,192,128394,1,0,0:0:0:0:
320,192,128454,1,0,0:0:0:70:fill_snare_high.wav
192,192,128514,1,0,0:0:0:70:fill_snare_high.wav
320,192,128574,1,0,0:0:0:70:fill_snare_high.wav
64,192,128634,128,0,128694:0:0:0:70:Kick 19.wav
192,192,128634,128,0,128694:0:0:0:0:
448,192,128694,128,0,128754:0:0:0:0:
320,192,128754,128,0,128814:0:0:0:0:
192,192,128814,128,0,128874:0:0:0:0:
320,192,128874,128,0,128934:0:0:0:70:Kick 19.wav
448,192,128874,128,0,128934:0:0:0:0:
64,192,128934,128,0,128994:0:0:0:0:
448,192,128994,128,0,129054:0:0:0:0:
64,192,129054,128,0,129114:0:0:0:0:
320,192,129114,128,0,129174:0:0:0:70:Kick 19.wav
448,192,129114,128,0,129174:0:0:0:0:
64,192,129174,128,0,129234:0:0:0:0:
320,192,129234,128,0,129294:0:0:0:0:
64,192,129294,128,0,129354:0:0:0:0:
192,192,129354,128,0,129414:0:0:0:70:Kick 19.wav
320,192,129354,128,0,129414:0:0:0:0:
448,192,129414,128,0,129474:0:0:0:0:
192,192,129474,128,0,129534:0:0:0:0:
448,192,129534,128,0,129594:0:0:0:0:
64,192,129594,128,0,129639:0:0:0:70:Kick 19.wav
192,192,129594,128,0,129639:0:0:0:0:
320,192,129654,128,0,129699:0:0:0:0:
192,192,129714,128,0,129759:0:0:0:0:
320,192,129774,128,0,129819:0:0:0:0:
64,192,129834,128,0,129879:0:0:0:70:Kick 19.wav
192,192,129834,128,0,129879:0:0:0:0:
448,192,129894,128,0,129939:0:0:0:0:
64,192,129954,128,0,129999:0:0:0:0:
448,192,130014,128,0,130059:0:0:0:0:
64,192,130074,128,0,130119:0:0:0:70:Kick 19.wav
192,192,130074,128,0,130119:0:0:0:0:
320,192,130134,128,0,130179:0:0:0:0:
64,192,130194,128,0,130239:0:0:0:0:
320,192,130254,128,0,130314:0:0:0:0:
64,192,130314,128,0,130494:0:0:0:70:VEC3 Snares 003
192,192,130314,128,0,130494:0:0:0:0:
448,192,130314,128,0,130494:0:0:0:0:
64,192,130554,128,0,130614:0:0:0:70:Kick 19.wav
320,192,130554,128,0,130614:0:0:0:70:CrashL.wav
448,192,130554,128,0,130614:0:0:0:0:
192,192,130614,1,0,0:0:0:0:
320,192,130674,1,0,0:0:0:70:Kick 19.wav
448,192,130674,1,0,0:0:0:0:
192,192,130734,128,0,130794:0:0:0:0:
64,192,130794,128,0,130854:0:0:0:70:Kick 19.wav
448,192,130794,128,0,130854:0:0:0:0:
320,192,130854,128,0,130914:0:0:0:0:
64,192,130914,128,0,130974:0:0:0:0:
320,192,130974,128,0,131034:0:0:0:0:
64,192,131034,128,0,131094:0:0:0:70:Kick 19.wav
192,192,131034,128,0,131094:0:0:0:0:
448,192,131094,128,0,131154:0:0:0:0:
64,192,131154,128,0,131214:0:0:0:0:
448,192,131214,128,0,131274:0:0:0:0:
64,192,131274,128,0,131334:0:0:0:70:Kick 19.wav
192,192,131274,128,0,131334:0:0:0:0:
320,192,131334,128,0,131394:0:0:0:0:
192,192,131394,128,0,131454:0:0:0:0:
320,192,131454,128,0,131514:0:0:0:0:
64,192,131514,128,0,131589:0:0:0:70:Kick 19.wav
448,192,131514,128,0,131589:0:0:0:0:
192,192,131574,128,0,131649:0:0:0:0:
448,192,131634,128,0,131709:0:0:0:0:
192,192,131694,128,0,131769:0:0:0:0:
320,192,131754,128,0,131829:0:0:0:70:Kick 19.wav
448,192,131754,128,0,131829:0:0:0:0:
64,192,131814,128,0,131889:0:0:0:0:
448,192,131874,128,0,131949:0:0:0:0:
64,192,131934,128,0,132009:0:0:0:0:
192,192,131994,128,0,132069:0:0:0:70:Kick 19.wav
320,192,131994,128,0,132069:0:0:0:0:
448,192,132054,128,0,132129:0:0:0:0:
192,192,132114,128,0,132189:0:0:0:0:
448,192,132174,128,0,132234:0:0:0:0:
64,192,132234,128,0,132279:0:0:0:0:
192,192,132264,128,0,132309:0:0:0:0:
320,192,132294,128,0,132339:0:0:0:0:
448,192,132324,128,0,132369:0:0:0:0:
192,192,132354,128,0,132399:0:0:0:0:
64,192,132384,128,0,132429:0:0:0:0:
320,192,132414,128,0,132459:0:0:0:0:
448,192,132444,128,0,132489:0:0:0:0:
64,192,132474,128,0,132534:0:0:0:70:Kick 19.wav
192,192,132474,128,0,132534:0:0:0:0:
320,192,132534,128,0,132594:0:0:0:0:
64,192,132594,128,0,132654:0:0:0:0:
192,192,132654,128,0,132714:0:0:0:0:
320,192,132714,128,0,132774:0:0:0:70:Kick 19.wav
448,192,132714,128,0,132774:0:0:0:0:
64,192,132774,128,0,132834:0:0:0:0:
320,192,132834,128,0,132894:0:0:0:0:
64,192,132894,128,0,132954:0:0:0:0:
320,192,132954,128,0,133014:0:0:0:70:Kick 19.wav
448,192,132954,128,0,133014:0:0:0:0:
192,192,133014,128,0,133074:0:0:0:0:
448,192,133074,128,0,133134:0:0:0:0:
192,192,133134,128,0,133194:0:0:0:0:
320,192,133194,128,0,133254:0:0:0:70:Kick 19.wav
448,192,133194,128,0,133254:0:0:0:0:
192,192,133254,128,0,133314:0:0:0:0:
320,192,133314,128,0,133374:0:0:0:0:
192,192,133374,128,0,133434:0:0:0:0:
64,192,133434,128,0,133554:0:0:0:70:VEC3 Snares 003
320,192,133434,128,0,133554:0:0:0:0:
448,192,133434,128,0,133554:0:0:0:0:
192,192,133554,128,0,133734:0:0:0:70:Kick 19.wav
64,192,133614,128,0,133734:0:0:0:70:VEC3 Snares 003
320,192,133614,128,0,133674:0:0:0:0:
448,192,133614,128,0,133734:0:0:0:0:
320,192,133734,128,0,133854:0:0:0:70:Kick 19.wav
64,192,133794,128,0,133974:0:0:0:70:VEC3 Snares 003
192,192,133794,128,0,133854:0:0:0:0:
448,192,133794,128,0,133974:0:0:0:0:
192,192,133914,128,0,134094:0:0:0:70:fill_snare_low.wav
320,192,133914,128,0,133974:0:0:0:0:
64,192,134034,128,0,134094:0:0:0:70:Kick 19.wav
320,192,134034,128,0,134154:0:0:0:0:
448,192,134034,128,0,134154:0:0:0:0:
64,192,134154,128,0,134214:0:0:0:70:Kick 19.wav
192,192,134154,128,0,134214:0:0:0:0:
320,192,134214,128,0,134274:0:0:0:70:Kick 19.wav
448,192,134214,128,0,134274:0:0:0:0:
64,192,134274,128,0,134334:0:0:0:70:Kick 19.wav
192,192,134274,128,0,134334:0:0:0:0:
320,192,134334,128,0,134394:0:0:0:70:Kick 19.wav
448,192,134334,128,0,134394:0:0:0:0:
64,192,134394,128,0,134454:0:0:0:70:Kick 19.wav
192,192,134394,128,0,134454:0:0:0:70:CrashL.wav
320,192,134454,1,0,0:0:0:0:
64,192,134514,1,0,0:0:0:70:Kick 19.wav
192,192,134514,1,0,0:0:0:0:
320,192,134574,128,0,134634:0:0:0:0:
64,192,134634,128,0,134694:0:0:0:70:VEC3 Snares 003
192,192,134634,128,0,134694:0:0:0:70:Kick 19.wav
448,192,134634,128,0,134694:0:0:0:0:
320,192,134694,128,0,134754:0:0:0:0:
192,192,134754,128,0,134814:0:0:0:0:
320,192,134814,128,0,134874:0:0:0:0:
64,192,134874,128,0,134934:0:0:0:70:Kick 19.wav
192,192,134874,128,0,134934:0:0:0:0:
448,192,134934,128,0,134994:0:0:0:0:
64,192,134994,128,0,135054:0:0:0:0:
448,192,135054,128,0,135114:0:0:0:0:
64,192,135114,128,0,135174:0:0:0:70:VEC3 Snares 003
192,192,135114,128,0,135174:0:0:0:70:Kick 19.wav
320,192,135114,128,0,135174:0:0:0:0:
448,192,135174,128,0,135234:0:0:0:0:
192,192,135234,128,0,135294:0:0:0:0:
448,192,135294,128,0,135354:0:0:0:0:
192,192,135354,128,0,135429:0:0:0:70:Kick 19.wav
320,192,135354,128,0,135429:0:0:0:0:
64,192,135414,128,0,135489:0:0:0:0:
320,192,135474,128,0,135549:0:0:0:0:
64,192,135534,128,0,135609:0:0:0:0:
192,192,135594,128,0,135669:0:0:0:70:VEC3 Snares 003
320,192,135594,128,0,135669:0:0:0:70:Kick 19.wav
448,192,135594,128,0,135669:0:0:0:0:
64,192,135654,128,0,135729:0:0:0:0:
448,192,135714,128,0,135789:0:0:0:0:
64,192,135774,128,0,135849:0:0:0:0:
192,192,135834,128,0,135909:0:0:0:70:Kick 19.wav
320,192,135834,128,0,135909:0:0:0:0:
448,192,135894,128,0,135954:0:0:0:0:
192,192,135954,128,0,136029:0:0:0:0:
448,192,136014,128,0,136074:0:0:0:0:
64,192,136074,1,0,0:0:0:70:fill_snare_high.wav
192,192,136074,1,0,0:0:0:0:
320,192,136134,1,0,0:0:0:70:fill_snare_high.wav
192,192,136194,1,0,0:0:0:70:fill_snare_high.wav
320,192,136254,1,0,0:0:0:70:fill_snare_high.wav
64,192,136314,128,0,136374:0:0:0:70:Kick 19.wav
448,192,136314,128,0,136374:0:0:0:0:
192,192,136374,1,0,0:0:0:0:
320,192,136434,1,0,0:0:0:0:
192,192,136494,128,0,136554:0:0:0:0:
64,192,136554,128,0,136614:0:0:0:70:VEC3 Snares 003
320,192,136554,128,0,136614:0:0:0:70:Kick 19.wav
448,192,136554,128,0,136614:0:0:0:0:
192,192,136614,128,0,136674:0:0:0:0:
448,192,136674,128,0,136734:0:0:0:0:
192,192,136734,128,0,136794:0:0:0:0:
64,192,136794,128,0,136854:0:0:0:70:Kick 19.wav
320,192,136794,128,0,136854:0:0:0:0:
448,192,136854,128,0,136914:0:0:0:0:
64,192,136914,128,0,136974:0:0:0:0:
448,192,136974,128,0,137034:0:0:0:0:
64,192,137034,128,0,137094:0:0:0:70:VEC3 Snares 003
192,192,137034,128,0,137094:0:0:0:70:Kick 19.wav
320,192,137034,128,0,137094:0:0:0:0:
448,192,137094,128,0,137154:0:0:0:0:
192,192,137154,128,0,137214:0:0:0:0:
448,192,137214,128,0,137274:0:0:0:0:
192,192,137274,128,0,137319:0:0:0:70:Kick 19.wav
320,192,137274,128,0,137319:0:0:0:0:
64,192,137334,128,0,137379:0:0:0:0:
320,192,137394,128,0,137439:0:0:0:0:
64,192,137454,128,0,137499:0:0:0:0:
192,192,137514,128,0,137559:0:0:0:70:VEC3 Snares 003
320,192,137514,128,0,137559:0:0:0:70:Kick 19.wav
448,192,137514,128,0,137559:0:0:0:0:
64,192,137574,128,0,137619:0:0:0:0:
448,192,137634,128,0,137679:0:0:0:0:
64,192,137694,128,0,137739:0:0:0:0:
320,192,137754,128,0,137799:0:0:0:70:Kick 19.wav
448,192,137754,128,0,137799:0:0:0:0:
192,192,137814,128,0,137859:0:0:0:0:
320,192,137874,128,0,137919:0:0:0:0:
192,192,137934,128,0,137994:0:0:0:0:
64,192,137994,128,0,138039:0:0:0:70:VEC3 Snares 003
448,192,137994,128,0,138039:0:0:0:0:
320,192,138024,128,0,138069:0:0:0:0:
192,192,138054,128,0,138099:0:0:0:0:
448,192,138084,128,0,138129:0:0:0:0:
64,192,138114,128,0,138159:0:0:0:0:
320,192,138144,128,0,138189:0:0:0:0:
192,192,138174,128,0,138219:0:0:0:0:
64,192,138204,128,0,138249:0:0:0:0:
320,192,138234,128,0,138294:0:0:0:70:CrashL.wav
448,192,138234,128,0,138294:0:0:0:70:Kick 19.wav
192,192,138294,1,0,0:0:0:0:
320,192,138354,1,0,0:0:0:70:Kick 19.wav
448,192,138354,1,0,0:0:0:0:
64,192,138414,128,0,138474:0:0:0:0:
192,192,138474,128,0,138534:0:0:0:70:VEC3 Snares 003
320,192,138474,128,0,138534:0:0:0:70:Kick 19.wav
448,192,138474,128,0,138534:0:0:0:0:
64,192,138534,128,0,138594:0:0:0:0:
320,192,138594,128,0,138654:0:0:0:0:
64,192,138654,128,0,138714:0:0:0:0:
320,192,138714,128,0,138774:0:0:0:70:Kick 19.wav
448,192,138714,128,0,138774:0:0:0:0:
192,192,138774,128,0,138834:0:0:0:0:
448,192,138834,128,0,138894:0:0:0:0:
192,192,138894,128,0,138954:0:0:0:0:
64,192,138954,128,0,139014:0:0:0:70:VEC3 Snares 003
320,192,138954,128,0,139014:0:0:0:70:Kick 19.wav
448,192,138954,128,0,139014:0:0:0:0:
192,192,139014,128,0,139074:0:0:0:0:
320,192,139074,128,0,139134:0:0:0:0:
192,192,139134,128,0,139194:0:0:0:0:
64,192,139194,128,0,139269:0:0:0:70:Kick 19.wav
448,192,139194,128,0,139269:0:0:0:0:
320,192,139254,128,0,139329:0:0:0:0:
64,192,139314,128,0,139389:0:0:0:0:
320,192,139374,128,0,139449:0:0:0:0:
64,192,139434,128,0,139509:0:0:0:70:VEC3 Snares 003
192,192,139434,128,0,139509:0:0:0:70:Kick 19.wav
448,192,139434,128,0,139509:0:0:0:0:
320,192,139494,128,0,139569:0:0:0:0:
192,192,139554,128,0,139629:0:0:0:0:
320,192,139614,128,0,139689:0:0:0:0:
64,192,139674,128,0,139749:0:0:0:70:Kick 19.wav
448,192,139674,128,0,139749:0:0:0:0:
192,192,139734,128,0,139809:0:0:0:0:
448,192,139794,128,0,139869:0:0:0:0:
192,192,139854,128,0,139914:0:0:0:0:
448,192,139914,128,0,139959:0:0:0:0:
320,192,139944,128,0,139989:0:0:0:0:
64,192,139974,128,0,140019:0:0:0:0:
192,192,140004,128,0,140049:0:0:0:0:
448,192,140034,128,0,140079:0:0:0:0:
320,192,140064,128,0,140109:0:0:0:0:
192,192,140094,128,0,140139:0:0:0:0:
64,192,140124,128,0,140169:0:0:0:0:
320,192,140154,128,0,140334:0:0:0:70:VEC3 Snares 003
448,192,140154,128,0,140334:0:0:0:0:
64,192,140394,1,0,0:0:0:70:Kick 19.wav
192,192,140394,1,0,0:0:0:0:
320,192,140454,1,0,0:0:0:70:fill_snare_high.wav
64,192,140514,1,0,0:0:0:70:fill_snare_high.wav
192,192,140544,1,0,0:0:0:70:fill_snare_high.wav
320,192,140574,1,0,0:0:0:70:fill_snare_high.wav
64,192,140634,128,0,140814:0:0:0:70:VEC3 Snares 003
192,192,140634,128,0,140814:0:0:0:0:
448,192,140634,128,0,140814:0:0:0:0:
320,192,140874,1,0,0:0:0:70:Kick 19.wav
448,192,140874,1,0,0:0:0:0:
192,192,140934,1,0,0:0:0:0:
320,192,140994,1,0,0:0:0:0:
192,192,141054,1,0,0:0:0:0:
64,192,141114,128,0,141174:0:0:0:70:VEC3 Snares 003
320,192,141114,128,0,141234:0:0:0:0:
448,192,141114,128,0,141234:0:0:0:0:
64,192,141234,128,0,141414:0:0:0:70:Kick 19.wav
192,192,141294,128,0,141414:0:0:0:70:VEC3 Snares 003
320,192,141294,128,0,141414:0:0:0:0:
448,192,141294,128,0,141354:0:0:0:0:
448,192,141414,128,0,141534:0:0:0:70:Kick 19.wav
64,192,141474,128,0,141654:0:0:0:70:VEC3 Snares 003
192,192,141474,128,0,141534:0:0:0:0:
320,192,141474,128,0,141534:0:0:0:0:
192,192,141594,128,0,141654:0:0:0:70:fill_snare_low.wav
320,192,141594,128,0,141654:0:0:0:0:
448,192,141594,128,0,141654:0:0:0:0:
64,192,141714,1,0,0:0:0:70:Kick 19.wav
448,192,141714,1,0,0:0:0:0:
192,192,141774,1,0,0:0:0:0:
320,192,141834,1,0,0:0:0:70:Kick 19.wav
448,192,141834,1,0,0:0:0:0:
192,192,141894,1,0,0:0:0:70:Kick 19.wav
320,192,141954,1,0,0:0:0:70:Kick 19.wav
448,192,141954,1,0,0:0:0:0:
192,192,142014,1,0,0:0:0:70:Kick 19.wav
64,192,142074,1,0,0:0:0:70:Kick 19.wav
448,192,142074,1,0,0:0:0:0:
320,192,142134,1,0,0:0:0:0:
192,192,142194,1,0,0:0:0:0:
320,192,142254,1,0,0:0:0:0:
64,192,142314,128,0,142374:0:0:0:70:VEC3 Snares 003
192,192,142314,128,0,142374:0:0:0:70:Kick 19.wav
448,192,142314,128,0,142374:0:0:0:70:CrashL.wav
320,192,142374,128,0,142434:0:0:0:0:
64,192,142434,128,0,142554:0:0:0:0:
448,192,142434,128,0,142494:0:0:0:0:
192,192,142494,128,0,142554:0:0:0:0:
320,192,142554,128,0,142674:0:0:0:70:Kick 19.wav
448,192,142554,128,0,142674:0:0:0:0:
192,192,142614,128,0,142674:0:0:0:0:
64,192,142674,128,0,142734:0:0:0:0:
320,192,142734,128,0,142794:0:0:0:0:
64,192,142794,128,0,142854:0:0:0:70:VEC3 Snares 003
192,192,142794,128,0,142854:0:0:0:70:Kick 19.wav
448,192,142794,128,0,142854:0:0:0:0:
320,192,142854,128,0,142914:0:0:0:0:
64,192,142914,128,0,143034:0:0:0:0:
448,192,142914,128,0,142974:0:0:0:0:
192,192,142974,128,0,143034:0:0:0:0:
320,192,143034,128,0,143154:0:0:0:70:Kick 19.wav
448,192,143034,128,0,143154:0:0:0:0:
192,192,143094,128,0,143154:0:0:0:0:
64,192,143154,128,0,143214:0:0:0:0:
320,192,143214,128,0,143274:0:0:0:0:
64,192,143274,128,0,143334:0:0:0:70:VEC3 Snares 003
192,192,143274,128,0,143334:0:0:0:70:Kick 19.wav
448,192,143274,128,0,143334:0:0:0:0:
320,192,143334,128,0,143394:0:0:0:0:
64,192,143394,128,0,143514:0:0:0:0:
192,192,143394,128,0,143454:0:0:0:0:
320,192,143454,128,0,143514:0:0:0:0:
192,192,143514,128,0,143634:0:0:0:70:Kick 19.wav
448,192,143514,128,0,143634:0:0:0:0:
64,192,143574,128,0,143634:0:0:0:0:
320,192,143634,128,0,143694:0:0:0:0:
448,192,143694,128,0,143754:0:0:0:0:
192,192,143754,1,0,0:0:0:70:fill_snare_high.wav
320,192,143814,1,0,0:0:0:70:fill_snare_high.wav
192,192,143874,1,0,0:0:0:70:fill_snare_high.wav
320,192,143934,1,0,0:0:0:70:fill_snare_high.wav
64,192,143994,128,0,144114:0:0:0:70:Kick 19.wav
192,192,143994,128,0,144054:0:0:0:0:
448,192,144054,128,0,144114:0:0:0:0:
320,192,144114,128,0,144174:0:0:0:0:
192,192,144174,128,0,144234:0:0:0:0:
64,192,144234,128,0,144294:0:0:0:70:VEC3 Snares 003
320,192,144234,128,0,144294:0:0:0:70:Kick 19.wav
448,192,144234,128,0,144294:0:0:0:70:CrashL.wav
192,192,144294,128,0,144354:0:0:0:0:
64,192,144354,128,0,144414:0:0:0:0:
448,192,144354,128,0,144474:0:0:0:0:
320,192,144414,128,0,144474:0:0:0:0:
64,192,144474,128,0,144594:0:0:0:70:Kick 19.wav
192,192,144474,128,0,144594:0:0:0:0:
320,192,144534,128,0,144594:0:0:0:0:
448,192,144594,128,0,144654:0:0:0:0:
320,192,144654,128,0,144714:0:0:0:0:
64,192,144714,128,0,144774:0:0:0:70:VEC3 Snares 003
192,192,144714,128,0,144774:0:0:0:70:Kick 19.wav
448,192,144714,128,0,144774:0:0:0:0:
320,192,144774,128,0,144834:0:0:0:0:
64,192,144834,128,0,144954:0:0:0:0:
192,192,144834,128,0,144894:0:0:0:0:
448,192,144894,128,0,144954:0:0:0:0:
192,192,144954,128,0,145074:0:0:0:70:Kick 19.wav
320,192,144954,128,0,145074:0:0:0:0:
64,192,145014,128,0,145074:0:0:0:0:
448,192,145074,128,0,145134:0:0:0:0:
192,192,145134,128,0,145194:0:0:0:0:
64,192,145194,128,0,145254:0:0:0:70:VEC3 Snares 003
320,192,145194,128,0,145254:0:0:0:70:Kick 19.wav
448,192,145194,128,0,145254:0:0:0:0:
192,192,145254,128,0,145314:0:0:0:0:
64,192,145314,128,0,145374:0:0:0:0:
448,192,145314,128,0,145434:0:0:0:0:
320,192,145374,128,0,145434:0:0:0:0:
64,192,145434,128,0,145554:0:0:0:70:Kick 19.wav
192,192,145434,128,0,145554:0:0:0:0:
448,192,145494,128,0,145554:0:0:0:0:
320,192,145554,128,0,145614:0:0:0:0:
192,192,145614,128,0,145674:0:0:0:0:
64,192,145674,128,0,145719:0:0:0:70:VEC3 Snares 003
448,192,145674,128,0,145719:0:0:0:70:Kick 19.wav
320,192,145704,128,0,145749:0:0:0:0:
192,192,145734,128,0,145779:0:0:0:0:
448,192,145764,128,0,145809:0:0:0:0:
64,192,145794,128,0,145839:0:0:0:0:
320,192,145824,128,0,145869:0:0:0:0:
192,192,145854,128,0,145899:0:0:0:0:
64,192,145884,128,0,145929:0:0:0:0:
320,192,145914,128,0,145974:0:0:0:70:Kick 19.wav
448,192,145914,128,0,145974:0:0:0:0:
192,192,145974,128,0,146034:0:0:0:0:
320,192,146034,128,0,146094:0:0:0:70:Kick 19.wav
448,192,146034,128,0,146094:0:0:0:0:
192,192,146094,128,0,146154:0:0:0:0:
64,192,146154,128,0,146214:0:0:0:70:VEC3 Snares 003
320,192,146154,128,0,146214:0:0:0:70:Kick 19.wav
448,192,146154,128,0,146214:0:0:0:70:CrashL.wav
192,192,146214,128,0,146274:0:0:0:0:
64,192,146274,128,0,146334:0:0:0:0:
320,192,146274,128,0,146394:0:0:0:0:
448,192,146334,128,0,146394:0:0:0:0:
64,192,146394,128,0,146514:0:0:0:70:Kick 19.wav
192,192,146394,128,0,146514:0:0:0:0:
320,192,146454,128,0,146514:0:0:0:0:
448,192,146514,128,0,146574:0:0:0:0:
192,192,146574,128,0,146634:0:0:0:0:
64,192,146634,128,0,146694:0:0:0:70:VEC3 Snares 003
320,192,146634,128,0,146694:0:0:0:70:Kick 19.wav
448,192,146634,128,0,146694:0:0:0:0:
192,192,146694,128,0,146754:0:0:0:0:
64,192,146754,128,0,146814:0:0:0:0:
448,192,146754,128,0,146874:0:0:0:0:
320,192,146814,128,0,146874:0:0:0:0:
64,192,146874,128,0,146994:0:0:0:70:Kick 19.wav
192,192,146874,128,0,146934:0:0:0:0:
320,192,146934,128,0,146994:0:0:0:0:
192,192,146994,128,0,147054:0:0:0:0:
448,192,147054,128,0,147114:0:0:0:0:
64,192,147114,128,0,147174:0:0:0:70:VEC3 Snares 003
192,192,147114,128,0,147174:0:0:0:70:Kick 19.wav
320,192,147114,128,0,147174:0:0:0:0:
448,192,147174,128,0,147234:0:0:0:0:
64,192,147234,128,0,147354:0:0:0:0:
320,192,147234,128,0,147294:0:0:0:0:
192,192,147294,128,0,147354:0:0:0:0:
320,192,147354,128,0,147474:0:0:0:70:Kick 19.wav
448,192,147354,128,0,147474:0:0:0:0:
192,192,147414,128,0,147474:0:0:0:0:
64,192,147474,128,0,147534:0:0:0:0:
320,192,147534,128,0,147594:0:0:0:0:
64,192,147594,1,0,0:0:0:0:
192,192,147624,1,0,0:0:0:0:
448,192,147654,1,0,0:0:0:0:
320,192,147684,1,0,0:0:0:0:
64,192,147714,128,0,147834:0:0:0:70:Kick 19.wav
192,192,147774,128,0,147834:0:0:0:70:Kick 19.wav
320,192,147834,128,0,147954:0:0:0:70:Kick 19.wav
448,192,147834,128,0,147894:0:0:0:0:
192,192,147894,128,0,147954:0:0:0:0:
64,192,147954,128,0,148014:0:0:0:70:Kick 19.wav
448,192,147954,128,0,148014:0:0:0:0:
320,192,148014,128,0,148074:0:0:0:0:
64,192,148074,128,0,148134:0:0:0:70:VEC3 Snares 003
192,192,148074,128,0,148134:0:0:0:70:Kick 19.wav
448,192,148074,128,0,148134:0:0:0:70:CrashR.wav
320,192,148134,128,0,148194:0:0:0:0:
64,192,148194,128,0,148254:0:0:0:0:
192,192,148194,128,0,148314:0:0:0:0:
448,192,148254,128,0,148314:0:0:0:0:
64,192,148314,128,0,148434:0:0:0:70:Kick 19.wav
320,192,148314,128,0,148374:0:0:0:0:
192,192,148374,128,0,148434:0:0:0:0:
320,192,148434,128,0,148494:0:0:0:0:
448,192,148434,128,0,148494:0:0:0:0:
192,192,148494,128,0,148554:0:0:0:0:
64,192,148554,128,0,148614:0:0:0:70:VEC3 Snares 003
320,192,148554,128,0,148614:0:0:0:70:Kick 19.wav
448,192,148554,128,0,148614:0:0:0:0:
192,192,148614,128,0,148674:0:0:0:0:
64,192,148674,128,0,148734:0:0:0:0:
448,192,148674,128,0,148794:0:0:0:0:
320,192,148734,128,0,148794:0:0:0:0:
64,192,148794,128,0,148914:0:0:0:70:Kick 19.wav
192,192,148794,128,0,148854:0:0:0:0:
448,192,148854,128,0,148914:0:0:0:0:
192,192,148914,128,0,148974:0:0:0:70:Kick 19.wav
320,192,148914,128,0,148974:0:0:0:0:
64,192,148974,128,0,149034:0:0:0:0:
320,192,149034,128,0,149094:0:0:0:70:VEC3 Snares 003
448,192,149034,128,0,149094:0:0:0:70:Kick 19.wav
64,192,149094,128,0,149154:0:0:0:70:Kick 19.wav
192,192,149094,128,0,149154:0:0:0:0:
320,192,149154,128,0,149214:0:0:0:70:Kick 19.wav
448,192,149154,128,0,149214:0:0:0:0:
64,192,149214,128,0,149274:0:0:0:70:Kick 19.wav
192,192,149214,128,0,149274:0:0:0:0:
320,192,149274,128,0,149394:0:0:0:70:Kick 19.wav
448,192,149274,128,0,149334:0:0:0:0:
192,192,149334,128,0,149394:0:0:0:0:
64,192,149394,128,0,149454:0:0:0:70:Kick 19.wav
448,192,149394,128,0,149454:0:0:0:0:
320,192,149454,128,0,149514:0:0:0:0:
64,192,149514,128,0,149574:0:0:0:70:VEC3 Snares 003
192,192,149514,128,0,149574:0:0:0:70:Kick 19.wav
448,192,149514,128,0,149694:0:0:0:70:CrashR.wav
320,192,149574,128,0,149694:0:0:0:0:
192,192,149634,128,0,149754:0:0:0:0:
64,192,149694,128,0,149754:0:0:0:0:
320,192,149754,128,0,149874:0:0:0:70:Kick 19.wav
448,192,149754,128,0,149934:0:0:0:0:
64,192,149814,128,0,149934:0:0:0:0:
192,192,149874,128,0,149934:0:0:0:0:
320,192,149934,128,0,149994:0:0:0:0:
64,192,149994,128,0,150054:0:0:0:70:VEC3 Snares 003
192,192,149994,128,0,150054:0:0:0:70:Kick 19.wav
448,192,149994,128,0,150054:0:0:0:70:CrashL.wav
320,192,150054,128,0,150114:0:0:0:0:
64,192,150114,128,0,150174:0:0:0:0:
192,192,150114,128,0,150234:0:0:0:0:
448,192,150174,128,0,150234:0:0:0:0:
64,192,150234,128,0,150354:0:0:0:70:Kick 19.wav
320,192,150234,128,0,150354:0:0:0:0:
192,192,150294,128,0,150354:0:0:0:0:
448,192,150354,128,0,150414:0:0:0:0:
320,192,150414,128,0,150474:0:0:0:0:
64,192,150474,128,0,150534:0:0:0:70:VEC3 Snares 003
192,192,150474,128,0,150534:0:0:0:70:Kick 19.wav
448,192,150474,128,0,150534:0:0:0:0:
320,192,150534,128,0,150594:0:0:0:0:
64,192,150594,128,0,150654:0:0:0:0:
192,192,150594,128,0,150714:0:0:0:0:
448,192,150654,128,0,150714:0:0:0:0:
64,192,150714,128,0,150834:0:0:0:70:Kick 19.wav
320,192,150714,128,0,150834:0:0:0:0:
192,192,150774,128,0,150834:0:0:0:0:
448,192,150834,128,0,150894:0:0:0:0:
320,192,150894,128,0,150954:0:0:0:0:
64,192,150954,128,0,151014:0:0:0:70:VEC3 Snares 003
192,192,150954,128,0,151014:0:0:0:70:Kick 19.wav
448,192,150954,128,0,151014:0:0:0:0:
320,192,151014,128,0,151074:0:0:0:0:
64,192,151074,128,0,151134:0:0:0:0:
192,192,151074,128,0,151194:0:0:0:0:
448,192,151134,128,0,151194:0:0:0:0:
64,192,151194,128,0,151314:0:0:0:70:Kick 19.wav
320,192,151194,128,0,151314:0:0:0:0:
192,192,151254,128,0,151314:0:0:0:0:
448,192,151314,128,0,151374:0:0:0:0:
320,192,151374,128,0,151434:0:0:0:0:
192,192,151434,1,0,0:0:0:70:fill_snare_high.wav
320,192,151494,1,0,0:0:0:70:fill_snare_high.wav
192,192,151554,1,0,0:0:0:70:fill_snare_high.wav
320,192,151614,1,0,0:0:0:70:fill_snare_high.wav
64,192,151674,128,0,151794:0:0:0:70:Kick 19.wav
448,192,151674,128,0,151794:0:0:0:0:
320,192,151734,128,0,151794:0:0:0:0:
192,192,151794,128,0,151854:0:0:0:0:
64,192,151854,128,0,151914:0:0:0:0:
192,192,151914,128,0,151974:0:0:0:70:VEC3 Snares 003
320,192,151914,128,0,151974:0:0:0:70:Kick 19.wav
448,192,151914,128,0,151974:0:0:0:70:CrashL.wav
64,192,151974,128,0,152034:0:0:0:0:
192,192,152034,128,0,152154:0:0:0:0:
448,192,152034,128,0,152094:0:0:0:0:
320,192,152094,128,0,152154:0:0:0:0:
64,192,152154,128,0,152274:0:0:0:70:Kick 19.wav
448,192,152154,128,0,152274:0:0:0:0:
192,192,152214,128,0,152274:0:0:0:0:
320,192,152274,128,0,152334:0:0:0:0:
192,192,152334,128,0,152394:0:0:0:0:
64,192,152394,128,0,152454:0:0:0:70:VEC3 Snares 003
320,192,152394,128,0,152454:0:0:0:70:Kick 19.wav
448,192,152394,128,0,152454:0:0:0:0:
192,192,152454,128,0,152514:0:0:0:0:
64,192,152514,128,0,152574:0:0:0:0:
448,192,152514,128,0,152634:0:0:0:0:
320,192,152574,128,0,152634:0:0:0:0:
64,192,152634,128,0,152754:0:0:0:70:Kick 19.wav
192,192,152634,128,0,152754:0:0:0:0:
448,192,152694,128,0,152754:0:0:0:0:
320,192,152754,128,0,152814:0:0:0:0:
64,192,152814,128,0,152874:0:0:0:0:
192,192,152874,128,0,152934:0:0:0:70:VEC3 Snares 003
320,192,152874,128,0,152934:0:0:0:70:Kick 19.wav
448,192,152874,128,0,152934:0:0:0:0:
64,192,152934,128,0,152994:0:0:0:0:
192,192,152994,128,0,153054:0:0:0:0:
448,192,152994,128,0,153114:0:0:0:0:
320,192,153054,128,0,153114:0:0:0:0:
64,192,153114,128,0,153234:0:0:0:70:Kick 19.wav
192,192,153114,128,0,153234:0:0:0:0:
448,192,153174,128,0,153234:0:0:0:0:
320,192,153234,128,0,153294:0:0:0:0:
192,192,153294,128,0,153354:0:0:0:0:
64,192,153354,128,0,153399:0:0:0:70:VEC3 Snares 003
448,192,153354,128,0,153399:0:0:0:70:Kick 19.wav
320,192,153384,128,0,153429:0:0:0:0:
192,192,153414,128,0,153459:0:0:0:0:
448,192,153444,128,0,153489:0:0:0:0:
64,192,153474,128,0,153519:0:0:0:0:
320,192,153504,128,0,153549:0:0:0:0:
192,192,153534,128,0,153579:0:0:0:0:
64,192,153564,128,0,153609:0:0:0:0:
320,192,153594,128,0,153654:0:0:0:70:Kick 19.wav
448,192,153594,128,0,153714:0:0:0:0:
192,192,153654,128,0,153714:0:0:0:0:
64,192,153714,128,0,153774:0:0:0:70:Kick 19.wav
320,192,153714,128,0,153774:0:0:0:0:
448,192,153774,128,0,153834:0:0:0:0:
64,192,153834,128,0,153894:0:0:0:70:VEC3 Snares 003
192,192,153834,128,0,153894:0:0:0:70:Kick 19.wav
320,192,153834,128,0,153894:0:0:0:70:CrashL.wav
448,192,153894,128,0,153954:0:0:0:0:
64,192,153954,128,0,154074:0:0:0:0:
192,192,153954,128,0,154014:0:0:0:0:
448,192,154014,128,0,154074:0:0:0:0:
192,192,154074,128,0,154194:0:0:0:70:Kick 19.wav
320,192,154074,128,0,154194:0:0:0:0:
64,192,154134,128,0,154194:0:0:0:0:
448,192,154194,128,0,154254:0:0:0:0:
320,192,154254,128,0,154314:0:0:0:0:
64,192,154314,128,0,154374:0:0:0:70:VEC3 Snares 003
192,192,154314,128,0,154374:0:0:0:70:Kick 19.wav
448,192,154314,128,0,154374:0:0:0:0:
320,192,154374,128,0,154434:0:0:0:0:
64,192,154434,128,0,154554:0:0:0:0:
448,192,154434,128,0,154494:0:0:0:0:
192,192,154494,128,0,154554:0:0:0:0:
320,192,154554,128,0,154674:0:0:0:70:Kick 19.wav
448,192,154554,128,0,154674:0:0:0:0:
64,192,154614,128,0,154674:0:0:0:0:
192,192,154674,128,0,154734:0:0:0:0:
320,192,154734,128,0,154794:0:0:0:0:
64,192,154794,128,0,154854:0:0:0:70:VEC3 Snares 003
192,192,154794,128,0,154854:0:0:0:70:Kick 19.wav
448,192,154794,128,0,154854:0:0:0:0:
320,192,154854,128,0,154914:0:0:0:0:
64,192,154914,128,0,155034:0:0:0:0:
448,192,154914,128,0,154974:0:0:0:0:
192,192,154974,128,0,155034:0:0:0:0:
320,192,155034,128,0,155154:0:0:0:70:Kick 19.wav
448,192,155034,128,0,155154:0:0:0:0:
64,192,155094,128,0,155154:0:0:0:0:
192,192,155154,128,0,155214:0:0:0:0:
320,192,155214,128,0,155274:0:0:0:0:
64,192,155274,1,0,0:0:0:0:
192,192,155304,1,0,0:0:0:0:
448,192,155334,1,0,0:0:0:0:
320,192,155364,1,0,0:0:0:0:
64,192,155394,128,0,155514:0:0:0:70:Kick 19.wav
192,192,155454,128,0,155514:0:0:0:70:Kick 19.wav
320,192,155514,128,0,155574:0:0:0:70:Kick 19.wav
448,192,155514,128,0,155574:0:0:0:0:
64,192,155574,128,0,155634:0:0:0:0:
320,192,155634,128,0,155694:0:0:0:70:Kick 19.wav
448,192,155634,128,0,155694:0:0:0:0:
64,192,155694,128,0,155754:0:0:0:0:
192,192,155754,128,0,155814:0:0:0:70:VEC3 Snares 003
320,192,155754,128,0,155814:0:0:0:70:Kick 19.wav
448,192,155754,128,0,155814:0:0:0:70:CrashR.wav
64,192,155814,128,0,155874:0:0:0:0:
192,192,155874,128,0,155934:0:0:0:0:
320,192,155874,128,0,155994:0:0:0:0:
448,192,155934,128,0,155994:0:0:0:0:
64,192,155994,128,0,156054:0:0:0:70:Kick 19.wav
192,192,155994,128,0,156114:0:0:0:0:
448,192,156054,128,0,156114:0:0:0:0:
64,192,156114,128,0,156174:0:0:0:0:
320,192,156114,128,0,156174:0:0:0:0:
192,192,156174,128,0,156234:0:0:0:0:
64,192,156234,128,0,156354:0:0:0:70:VEC3 Snares 003
320,192,156234,128,0,156294:0:0:0:70:Kick 19.wav
448,192,156234,128,0,156294:0:0:0:0:
192,192,156294,128,0,156354:0:0:0:0:
320,192,156354,128,0,156474:0:0:0:0:
448,192,156354,128,0,156414:0:0:0:0:
192,192,156414,128,0,156474:0:0:0:0:
64,192,156474,128,0,156534:0:0:0:70:Kick 19.wav
448,192,156474,128,0,156594:0:0:0:0:
320,192,156534,128,0,156594:0:0:0:0:
64,192,156594,128,0,156654:0:0:0:70:Kick 19.wav
192,192,156594,128,0,156654:0:0:0:0:
320,192,156654,128,0,156714:0:0:0:0:
64,192,156714,128,0,156774:0:0:0:70:VEC3 Snares 003
192,192,156714,128,0,156774:0:0:0:70:Kick 19.wav
320,192,156774,128,0,156834:0:0:0:70:Kick 19.wav
448,192,156774,128,0,156834:0:0:0:0:
64,192,156834,128,0,156894:0:0:0:70:Kick 19.wav
192,192,156834,128,0,156894:0:0:0:0:
320,192,156894,128,0,157134:0:0:0:70:Kick 19.wav
448,192,156894,128,0,157134:0:0:0:0:
64,192,156954,128,0,157014:0:0:0:70:Kick 19.wav
192,192,156954,128,0,157014:0:0:0:0:
64,192,157074,128,0,157314:0:0:0:70:Kick 19.wav
192,192,157074,128,0,157254:0:0:0:0:
448,192,157194,128,0,157374:0:0:0:0:
320,192,157254,128,0,157374:0:0:0:0:
192,192,157314,128,0,157374:0:0:0:0:
64,192,157374,128,0,157434:0:0:0:0:
192,192,157434,128,0,157494:0:0:0:70:Kick 19.wav
320,192,157434,128,0,157614:0:0:0:70:CrashR.wav
448,192,157434,128,0,157614:0:0:0:0:
192,192,157554,128,0,157614:0:0:0:70:fill_snare_low.wav
192,192,157674,128,0,157974:0:0:0:70:VEC3 Snares 003
320,192,157674,128,0,157734:0:0:0:0:
448,192,157674,128,0,157734:0:0:0:0:
320,192,157794,128,0,157974:0:0:0:70:Kick 19.wav
448,192,157794,128,0,157854:0:0:0:0:
448,192,157914,128,0,157974:0:0:0:70:fill_snare_low.wav
192,192,158034,128,0,158094:0:0:0:70:VEC3 Snares 003
320,192,158034,128,0,158094:0:0:0:0:
448,192,158034,128,0,158334:0:0:0:0:
192,192,158154,128,0,158214:0:0:0:70:Kick 19.wav
320,192,158154,128,0,158334:0:0:0:0:
192,192,158274,128,0,158334:0:0:0:70:fill_snare_low.wav
192,192,158394,128,0,158694:0:0:0:70:VEC3 Snares 003
320,192,158394,128,0,158454:0:0:0:0:
448,192,158394,128,0,158454:0:0:0:0:
64,192,158454,128,0,158514:0:0:0:70:fill_snare_low.wav
320,192,158514,128,0,158694:0:0:0:70:Kick 19.wav
448,192,158514,128,0,158574:0:0:0:0:
448,192,158634,128,0,158694:0:0:0:70:fill_snare_low.wav
192,192,158754,128,0,158814:0:0:0:70:VEC3 Snares 003
320,192,158754,128,0,158814:0:0:0:0:
448,192,158754,128,0,159054:0:0:0:0:
64,192,158814,128,0,158874:0:0:0:70:fill_snare_low.wav
192,192,158874,128,0,158934:0:0:0:70:Kick 19.wav
320,192,158874,128,0,159054:0:0:0:0:
192,192,158994,128,0,159174:0:0:0:70:fill_snare_low.wav
320,192,159114,128,0,159234:0:0:0:70:Kick 19.wav
448,192,159114,128,0,159294:0:0:0:0:
64,192,159174,128,0,159234:0:0:0:0:
192,192,159234,128,0,159354:0:0:0:0:
320,192,159294,128,0,159354:0:0:0:0:
64,192,159354,1,0,0:0:0:70:Kick 19.wav
448,192,159354,1,0,0:0:0:70:CrashR.wav
192,192,159474,1,0,0:0:0:70:fill_snare_low.wav
320,192,159474,1,0,0:0:0:0:
192,192,159594,1,0,0:0:0:70:fill_snare_low.wav
320,192,159594,1,0,0:0:0:0:
64,192,159714,1,0,0:0:0:70:Kick 19.wav
448,192,159714,1,0,0:0:0:0:
192,192,159834,1,0,0:0:0:70:fill_snare_low.wav
320,192,159834,1,0,0:0:0:0:
192,192,159954,1,0,0:0:0:70:fill_snare_low.wav
320,192,159954,1,0,0:0:0:0:
64,192,160074,1,0,0:0:0:70:Kick 19.wav
448,192,160074,1,0,0:0:0:0:
192,192,160194,1,0,0:0:0:70:fill_snare_low.wav
320,192,160194,1,0,0:0:0:0:
192,192,160314,1,0,0:0:0:70:fill_snare_low.wav
320,192,160314,1,0,0:0:0:0:
64,192,160374,1,0,0:0:0:70:fill_snare_low.wav
448,192,160374,1,0,0:0:0:0:
192,192,160434,1,0,0:0:0:70:Kick 19.wav
320,192,160434,1,0,0:0:0:0:
64,192,160554,1,0,0:0:0:70:fill_snare_low.wav
448,192,160554,1,0,0:0:0:0:
64,192,160674,1,0,0:0:0:70:fill_snare_low.wav
448,192,160674,1,0,0:0:0:0:
192,192,160734,1,0,0:0:0:70:fill_snare_low.wav
320,192,160734,1,0,0:0:0:0:
64,192,160794,1,0,0:0:0:70:Kick 19.wav
448,192,160794,1,0,0:0:0:0:
192,192,160914,1,0,0:0:0:70:fill_snare_low.wav
320,192,160914,1,0,0:0:0:0:
64,192,161034,1,0,0:0:0:70:Kick 19.wav
448,192,161034,1,0,0:0:0:0:
64,192,161154,1,0,0:0:0:70:Kick 19.wav
192,192,161154,1,0,0:0:0:0:
448,192,161214,1,0,0:0:0:70:Kick 19.wav
64,192,161274,128,0,161334:0:0:0:70:Kick 19.wav
192,192,161274,128,0,161334:0:0:0:70:CrashR.wav
320,192,161274,128,0,161454:0:0:0:0:
64,192,161394,128,0,161454:0:0:0:70:fill_snare_low.wav
192,192,161394,128,0,161454:0:0:0:0:
64,192,161514,128,0,161814:0:0:0:70:VEC3 Snares 003
192,192,161514,128,0,161574:0:0:0:0:
320,192,161514,128,0,161574:0:0:0:0:
192,192,161634,128,0,161814:0:0:0:70:Kick 19.wav
320,192,161634,128,0,161694:0:0:0:0:
320,192,161754,128,0,161814:0:0:0:70:fill_snare_low.wav
64,192,161874,128,0,161934:0:0:0:70:VEC3 Snares 003
192,192,161874,128,0,161934:0:0:0:0:
320,192,161874,128,0,162174:0:0:0:0:
64,192,161994,128,0,162054:0:0:0:70:Kick 19.wav
192,192,161994,128,0,162174:0:0:0:0:
64,192,162114,128,0,162174:0:0:0:70:fill_snare_low.wav
64,192,162234,128,0,162534:0:0:0:70:VEC3 Snares 003
192,192,162234,128,0,162294:0:0:0:0:
320,192,162234,128,0,162294:0:0:0:0:
448,192,162294,128,0,162354:0:0:0:70:fill_snare_low.wav
192,192,162354,128,0,162534:0:0:0:70:Kick 19.wav
320,192,162354,128,0,162414:0:0:0:0:
320,192,162474,128,0,162534:0:0:0:70:fill_snare_low.wav
64,192,162594,128,0,162654:0:0:0:70:VEC3 Snares 003
192,192,162594,128,0,162654:0:0:0:0:
320,192,162594,128,0,163014:0:0:0:0:
448,192,162654,128,0,162714:0:0:0:70:fill_snare_low.wav
64,192,162714,128,0,162774:0:0:0:70:Kick 19.wav
192,192,162714,128,0,162894:0:0:0:0:
64,192,162834,128,0,162894:0:0:0:70:fill_snare_low.wav
64,192,162954,128,0,163134:0:0:0:70:Kick 19.wav
192,192,162954,128,0,163074:0:0:0:0:
448,192,163014,128,0,163074:0:0:0:0:
320,192,163074,128,0,163194:0:0:0:0:
192,192,163134,128,0,163194:0:0:0:0:
64,192,163194,1,0,0:0:0:70:Kick 19.wav
448,192,163194,1,0,0:0:0:70:CrashR.wav
192,192,163314,1,0,0:0:0:70:fill_snare_low.wav
320,192,163314,1,0,0:0:0:0:
192,192,163434,1,0,0:0:0:70:fill_snare_low.wav
320,192,163434,1,0,0:0:0:0:
64,192,163554,1,0,0:0:0:70:Kick 19.wav
448,192,163554,1,0,0:0:0:0:
192,192,163674,1,0,0:0:0:70:fill_snare_low.wav
320,192,163674,1,0,0:0:0:0:
192,192,163794,1,0,0:0:0:70:fill_snare_low.wav
320,192,163794,1,0,0:0:0:0:
64,192,163854,1,0,0:0:0:70:fill_snare_low.wav
448,192,163854,1,0,0:0:0:0:
192,192,163914,1,0,0:0:0:70:Kick 19.wav
320,192,163914,1,0,0:0:0:0:
64,192,164034,1,0,0:0:0:70:fill_snare_low.wav
448,192,164034,1,0,0:0:0:0:
64,192,164154,1,0,0:0:0:70:fill_snare_low.wav
448,192,164154,1,0,0:0:0:0:
192,192,164214,1,0,0:0:0:70:fill_snare_low.wav
320,192,164214,1,0,0:0:0:0:
64,192,164274,1,0,0:0:0:70:Kick 19.wav
448,192,164274,1,0,0:0:0:0:
192,192,164394,1,0,0:0:0:70:fill_snare_low.wav
320,192,164394,1,0,0:0:0:0:
192,192,164514,1,0,0:0:0:70:fill_snare_low.wav
320,192,164514,1,0,0:0:0:0:
64,192,164574,1,0,0:0:0:70:fill_snare_low.wav
448,192,164574,1,0,0:0:0:0:
192,192,164634,1,0,0:0:0:70:Kick 19.wav
320,192,164634,1,0,0:0:0:0:
64,192,164754,1,0,0:0:0:70:fill_snare_low.wav
448,192,164754,1,0,0:0:0:0:
64,192,164874,128,0,165054:0:0:0:70:Kick 19.wav
448,192,164874,128,0,165054:0:0:0:0:
64,192,165114,128,0,165174:0:0:0:70:Kick 19.wav
448,192,165114,128,0,165294:0:0:0:70:CrashL.wav
320,192,165174,128,0,165234:0:0:0:0:
64,192,165234,128,0,165294:0:0:0:70:Kick 19.wav
192,192,165234,128,0,165294:0:0:0:0:
320,192,165294,128,0,165354:0:0:0:0:
64,192,165354,128,0,165534:0:0:0:70:Kick 19.wav
448,192,165354,128,0,165414:0:0:0:70:CrashL.wav
192,192,165414,128,0,165474:0:0:0:0:
320,192,165474,128,0,165534:0:0:0:70:Kick 19.wav
448,192,165474,128,0,165534:0:0:0:0:
192,192,165534,128,0,165594:0:0:0:0:
64,192,165594,128,0,165654:0:0:0:70:Kick 19.wav
448,192,165594,128,0,165774:0:0:0:70:CrashL.wav
320,192,165654,128,0,165714:0:0:0:0:
64,192,165714,128,0,165774:0:0:0:70:Kick 19.wav
192,192,165714,128,0,165774:0:0:0:0:
320,192,165774,128,0,165834:0:0:0:0:
64,192,165834,128,0,166014:0:0:0:70:Kick 19.wav
448,192,165834,128,0,165894:0:0:0:70:CrashL.wav
192,192,165894,128,0,165954:0:0:0:0:
320,192,165954,128,0,166014:0:0:0:70:Kick 19.wav
448,192,165954,128,0,166014:0:0:0:0:
192,192,166014,128,0,166074:0:0:0:0:
64,192,166074,128,0,166134:0:0:0:70:Kick 19.wav
448,192,166074,128,0,166254:0:0:0:70:CrashL.wav
320,192,166134,128,0,166194:0:0:0:0:
64,192,166194,128,0,166254:0:0:0:70:Kick 19.wav
192,192,166194,128,0,166254:0:0:0:0:
320,192,166254,128,0,166314:0:0:0:0:
64,192,166314,128,0,166494:0:0:0:70:Kick 19.wav
448,192,166314,128,0,166374:0:0:0:70:CrashL.wav
192,192,166374,128,0,166434:0:0:0:0:
320,192,166434,128,0,166494:0:0:0:70:Kick 19.wav
448,192,166434,128,0,166494:0:0:0:0:
192,192,166494,128,0,166554:0:0:0:0:
64,192,166554,128,0,166614:0:0:0:70:Kick 19.wav
448,192,166554,128,0,166734:0:0:0:70:CrashL.wav
320,192,166614,128,0,166674:0:0:0:0:
64,192,166674,128,0,166734:0:0:0:70:Kick 19.wav
192,192,166674,128,0,166734:0:0:0:0:
320,192,166734,128,0,166794:0:0:0:0:
64,192,166794,128,0,166839:0:0:0:70:Kick 19.wav
448,192,166794,128,0,166839:0:0:0:70:CrashL.wav
192,192,166824,128,0,166869:0:0:0:0:
320,192,166854,128,0,166899:0:0:0:0:
64,192,166884,128,0,166929:0:0:0:0:
448,192,166914,128,0,166959:0:0:0:0:
192,192,166944,128,0,166989:0:0:0:0:
320,192,166974,128,0,167019:0:0:0:0:
448,192,167004,128,0,167049:0:0:0:0:
64,192,167034,128,0,167094:0:0:0:70:Kick 19.wav
192,192,167034,128,0,167154:0:0:0:70:CrashL.wav
320,192,167094,128,0,167154:0:0:0:0:
64,192,167154,128,0,167274:0:0:0:70:Kick 19.wav
448,192,167154,128,0,167214:0:0:0:0:
192,192,167214,128,0,167274:0:0:0:0:
320,192,167274,128,0,167394:0:0:0:70:Kick 19.wav
448,192,167274,128,0,167334:0:0:0:70:CrashL.wav
192,192,167334,128,0,167394:0:0:0:0:
64,192,167394,128,0,167454:0:0:0:70:Kick 19.wav
448,192,167394,128,0,167514:0:0:0:0:
320,192,167454,128,0,167514:0:0:0:0:
64,192,167514,128,0,167574:0:0:0:70:Kick 19.wav
192,192,167514,128,0,167634:0:0:0:70:CrashL.wav
320,192,167574,128,0,167634:0:0:0:0:
64,192,167634,128,0,167754:0:0:0:70:Kick 19.wav
448,192,167634,128,0,167694:0:0:0:0:
192,192,167694,128,0,167754:0:0:0:0:
320,192,167754,128,0,167874:0:0:0:70:Kick 19.wav
448,192,167754,128,0,167814:0:0:0:70:CrashL.wav
192,192,167814,128,0,167874:0:0:0:0:
64,192,167874,128,0,167934:0:0:0:70:Kick 19.wav
448,192,167874,128,0,167994:0:0:0:0:
320,192,167934,128,0,167994:0:0:0:0:
64,192,167994,128,0,168054:0:0:0:70:Kick 19.wav
192,192,167994,128,0,168114:0:0:0:70:CrashL.wav
320,192,168054,128,0,168114:0:0:0:0:
64,192,168114,128,0,168234:0:0:0:70:Kick 19.wav
448,192,168114,128,0,168174:0:0:0:0:
192,192,168174,128,0,168234:0:0:0:0:
320,192,168234,128,0,168354:0:0:0:70:Kick 19.wav
448,192,168234,128,0,168294:0:0:0:70:CrashL.wav
192,192,168294,128,0,168354:0:0:0:0:
64,192,168354,128,0,168414:0:0:0:70:Kick 19.wav
448,192,168354,128,0,168474:0:0:0:0:
320,192,168414,128,0,168474:0:0:0:0:
64,192,168474,128,0,168534:0:0:0:70:Kick 19.wav
192,192,168474,128,0,168594:0:0:0:70:CrashL.wav
320,192,168534,128,0,168594:0:0:0:0:
64,192,168594,128,0,168714:0:0:0:70:Kick 19.wav
448,192,168594,128,0,168654:0:0:0:0:
192,192,168654,128,0,168714:0:0:0:0:
320,192,168714,1,0,0:0:0:70:Kick 19.wav
448,192,168714,1,0,0:0:0:70:CrashL.wav
64,192,168774,1,0,0:0:0:70:Kick 19.wav
192,192,168774,1,0,0:0:0:0:
320,192,168834,1,0,0:0:0:70:Kick 19.wav
448,192,168834,1,0,0:0:0:0:
192,192,168894,1,0,0:0:0:70:Kick 19.wav
64,192,168954,128,0,169014:0:0:0:70:VEC3 Snares 003
320,192,168954,128,0,169074:0:0:0:70:CrashR.wav
448,192,168954,128,0,169014:0:0:0:0:
192,192,169014,128,0,169134:0:0:0:0:
64,192,169074,128,0,169134:0:0:0:70:Kick 19.wav
448,192,169074,128,0,169254:0:0:0:0:
320,192,169134,128,0,169194:0:0:0:0:
64,192,169194,128,0,169254:0:0:0:70:Kick 19.wav
192,192,169194,128,0,169254:0:0:0:0:
320,192,169254,128,0,169314:0:0:0:0:
64,192,169314,128,0,169374:0:0:0:70:VEC3 Snares 003
192,192,169314,128,0,169434:0:0:0:70:CrashR.wav
448,192,169314,128,0,169374:0:0:0:0:
320,192,169374,128,0,169494:0:0:0:0:
64,192,169434,128,0,169614:0:0:0:70:Kick 19.wav
448,192,169434,128,0,169494:0:0:0:0:
192,192,169494,128,0,169554:0:0:0:0:
320,192,169554,128,0,169614:0:0:0:70:Kick 19.wav
448,192,169554,128,0,169614:0:0:0:0:
192,192,169614,128,0,169674:0:0:0:0:
64,192,169674,128,0,169854:0:0:0:70:VEC3 Snares 003
320,192,169674,128,0,169734:0:0:0:70:CrashR.wav
448,192,169674,128,0,169734:0:0:0:0:
192,192,169734,128,0,169794:0:0:0:0:
320,192,169794,128,0,169854:0:0:0:70:Kick 19.wav
448,192,169794,128,0,169854:0:0:0:0:
192,192,169854,128,0,169914:0:0:0:70:Kick 19.wav
64,192,169914,128,0,169974:0:0:0:70:VEC3 Snares 003
320,192,169914,128,0,170034:0:0:0:70:CrashR.wav
448,192,169914,128,0,169974:0:0:0:0:
192,192,169974,128,0,170094:0:0:0:0:
64,192,170034,128,0,170094:0:0:0:70:Kick 19.wav
448,192,170034,128,0,170214:0:0:0:0:
320,192,170094,128,0,170154:0:0:0:0:
64,192,170154,128,0,170214:0:0:0:70:Kick 19.wav
192,192,170154,128,0,170214:0:0:0:0:
320,192,170214,128,0,170274:0:0:0:0:
64,192,170274,128,0,170334:0:0:0:70:VEC3 Snares 003
192,192,170274,128,0,170394:0:0:0:70:CrashR.wav
448,192,170274,128,0,170334:0:0:0:0:
320,192,170334,128,0,170454:0:0:0:0:
64,192,170394,128,0,170574:0:0:0:70:Kick 19.wav
448,192,170394,128,0,170454:0:0:0:0:
192,192,170454,128,0,170514:0:0:0:0:
320,192,170514,128,0,170574:0:0:0:70:Kick 19.wav
448,192,170514,128,0,170574:0:0:0:0:
192,192,170574,128,0,170634:0:0:0:0:
64,192,170634,128,0,170694:0:0:0:70:VEC3 Snares 003
320,192,170634,128,0,170754:0:0:0:70:CrashR.wav
448,192,170634,128,0,170694:0:0:0:0:
192,192,170694,128,0,170814:0:0:0:70:Kick 19.wav
64,192,170754,128,0,170814:0:0:0:70:Kick 19.wav
448,192,170754,128,0,170874:0:0:0:0:
320,192,170814,128,0,170874:0:0:0:70:Kick 19.wav
64,192,170874,1,0,0:0:0:70:Kick 19.wav
192,192,170874,1,0,0:0:0:0:
320,192,170994,1,0,0:0:0:0:
448,192,170994,1,0,0:0:0:0:
64,192,171114,1,0,0:0:0:0:
448,192,171114,1,0,0:0:0:0:
192,192,171234,1,0,0:0:0:0:
320,192,171234,1,0,0:0:0:0:
320,192,171354,1,0,0:0:0:0:
448,192,171354,1,0,0:0:0:0:
64,192,171474,1,0,0:0:0:0:
192,192,171474,1,0,0:0:0:0:
192,192,171594,1,0,0:0:0:0:
320,192,171594,1,0,0:0:0:0:
64,192,171714,1,0,0:0:0:0:
448,192,171714,1,0,0:0:0:0:
192,192,171834,128,0,171879:0:0:0:70:Kick 19.wav
320,192,171834,128,0,171879:0:0:0:0:
192,192,171954,128,0,171999:0:0:0:0:
320,192,171954,128,0,171999:0:0:0:0:
192,192,172074,128,0,172134:0:0:0:0:
320,192,172074,128,0,172134:0:0:0:0:
192,192,172194,128,0,172254:0:0:0:0:
320,192,172194,128,0,172254:0:0:0:0:
192,192,172314,128,0,172389:0:0:0:0:
320,192,172314,128,0,172389:0:0:0:0:
64,192,172374,1,0,0:0:0:0:
192,192,172434,128,0,172509:0:0:0:70:Kick 19.wav
320,192,172434,128,0,172509:0:0:0:0:
448,192,172494,1,0,0:0:0:0:
192,192,172554,128,0,172644:0:0:0:70:fill_snare_high.wav
320,192,172554,128,0,172644:0:0:0:0:
64,192,172614,1,0,0:0:0:70:fill_snare_high.wav
448,192,172614,1,0,0:0:0:0:
192,192,172674,128,0,172794:0:0:0:70:fill_snare.wav
320,192,172674,128,0,172794:0:0:0:0:
64,192,172794,128,0,172974:0:0:0:70:Kick 19.wav
448,192,172794,128,0,172974:0:0:0:70:CrashL.wav
448,192,173034,128,0,173079:0:0:0:70:fill_snare_high.wav
320,192,173064,128,0,173109:0:0:0:0:
192,192,173094,128,0,173139:0:0:0:0:
448,192,173124,128,0,173169:0:0:0:0:
64,192,173154,128,0,173199:0:0:0:0:
320,192,173184,128,0,173229:0:0:0:0:
192,192,173214,128,0,173259:0:0:0:0:
64,192,173244,128,0,173289:0:0:0:0:
320,192,173274,128,0,173334:0:0:0:70:VEC3 Snares 003.wav
448,192,173274,128,0,173334:0:0:0:0:
192,192,173334,128,0,173394:0:0:0:0:
64,192,173394,128,0,173454:0:0:0:0:
320,192,173454,128,0,173514:0:0:0:0:
64,192,173514,128,0,173574:0:0:0:70:Kick 19.wav
192,192,173514,128,0,173574:0:0:0:70:fill_snare_high.wav
448,192,173574,128,0,173634:0:0:0:0:
64,192,173634,128,0,173679:0:0:0:0:
192,192,173664,128,0,173709:0:0:0:0:
320,192,173694,128,0,173739:0:0:0:0:
448,192,173754,128,0,173799:0:0:0:70:CrashL.wav
192,192,173784,128,0,173829:0:0:0:0:
64,192,173814,128,0,173859:0:0:0:0:
448,192,173874,128,0,173919:0:0:0:0:
320,192,173904,128,0,173949:0:0:0:0:
192,192,173934,128,0,173979:0:0:0:0:
64,192,173994,128,0,174054:0:0:0:70:Kick 19.wav
448,192,173994,128,0,174054:0:0:0:70:fill_snare_high.wav
320,192,174054,128,0,174114:0:0:0:0:
64,192,174114,128,0,174174:0:0:0:0:
320,192,174174,128,0,174234:0:0:0:0:
64,192,174234,128,0,174294:0:0:0:70:VEC3 Snares 003.wav
192,192,174234,128,0,174294:0:0:0:0:
448,192,174234,128,0,174294:0:0:0:0:
192,192,174354,128,0,174414:0:0:0:0:
320,192,174354,128,0,174414:0:0:0:0:
448,192,174474,128,0,174519:0:0:0:70:Kick 19.wav
320,192,174504,128,0,174549:0:0:0:0:
192,192,174534,128,0,174579:0:0:0:0:
448,192,174564,128,0,174609:0:0:0:0:
64,192,174594,128,0,174639:0:0:0:70:Kick 19.wav
320,192,174624,128,0,174669:0:0:0:0:
192,192,174654,128,0,174699:0:0:0:0:
64,192,174684,128,0,174729:0:0:0:0:
448,192,174714,128,0,174774:0:0:0:70:Kick 19.wav
320,192,174729,128,0,174789:0:0:0:0:
192,192,174744,128,0,174804:0:0:0:0:
448,192,174834,128,0,174894:0:0:0:0:
320,192,174849,128,0,174909:0:0:0:0:
192,192,174864,128,0,174924:0:0:0:0:
448,192,174954,128,0,175014:0:0:0:70:fill_snare_high.wav
320,192,174969,128,0,175029:0:0:0:0:
192,192,174984,128,0,175044:0:0:0:0:
448,192,175074,128,0,175134:0:0:0:0:
320,192,175089,128,0,175149:0:0:0:0:
192,192,175104,128,0,175164:0:0:0:0:
64,192,175194,128,0,175254:0:0:0:70:VEC3 Snares 003.wav
320,192,175194,128,0,175254:0:0:0:0:
448,192,175194,128,0,175254:0:0:0:0:
192,192,175314,128,0,175374:0:0:0:0:
320,192,175314,128,0,175374:0:0:0:0:
64,192,175434,128,0,175494:0:0:0:70:Kick 19.wav
192,192,175449,128,0,175509:0:0:0:0:
320,192,175464,128,0,175524:0:0:0:0:
64,192,175554,128,0,175614:0:0:0:0:
192,192,175569,128,0,175629:0:0:0:0:
320,192,175584,128,0,175644:0:0:0:0:
64,192,175674,128,0,175734:0:0:0:0:
192,192,175689,128,0,175749:0:0:0:0:
320,192,175704,128,0,175764:0:0:0:0:
64,192,175794,128,0,175854:0:0:0:0:
192,192,175809,128,0,175869:0:0:0:0:
320,192,175824,128,0,175884:0:0:0:0:
64,192,175914,128,0,175974:0:0:0:70:Kick 19.wav
192,192,175929,128,0,175989:0:0:0:0:
320,192,175944,128,0,176004:0:0:0:0:
64,192,176034,128,0,176094:0:0:0:0:
192,192,176049,128,0,176109:0:0:0:0:
320,192,176064,128,0,176124:0:0:0:0:
64,192,176154,128,0,176274:0:0:0:70:Kick 19.wav
448,192,176154,128,0,176274:0:0:0:70:CrashR.wav
192,192,176214,128,0,176274:0:0:0:0:
320,192,176274,128,0,176334:0:0:0:0:
64,192,176334,128,0,176454:0:0:0:70:Kick 19.wav
448,192,176334,128,0,176454:0:0:0:70:CrashR.wav
320,192,176394,128,0,176454:0:0:0:70:fill_snare_high.wav
192,192,176454,128,0,176514:0:0:0:0:
64,192,176514,128,0,176814:0:0:0:70:Kick 19.wav
448,192,176514,128,0,176574:0:0:0:70:CrashR.wav
192,192,176574,128,0,176814:0:0:0:0:
320,192,176634,128,0,176814:0:0:0:70:Kick 19.wav
448,192,176634,128,0,176814:0:0:0:70:CrashL.wav
64,192,176874,128,0,176919:0:0:0:70:fill_snare_high.wav
192,192,176904,128,0,176949:0:0:0:0:
320,192,176934,128,0,176979:0:0:0:0:
64,192,176964,128,0,177009:0:0:0:0:
448,192,176994,128,0,177039:0:0:0:0:
192,192,177024,128,0,177069:0:0:0:0:
320,192,177054,128,0,177099:0:0:0:0:
448,192,177084,128,0,177129:0:0:0:0:
64,192,177114,128,0,177174:0:0:0:70:VEC3 Snares 003.wav
192,192,177114,128,0,177174:0:0:0:0:
320,192,177174,128,0,177234:0:0:0:0:
64,192,177234,128,0,177294:0:0:0:0:
192,192,177294,128,0,177354:0:0:0:0:
320,192,177354,128,0,177414:0:0:0:70:Kick 19.wav
448,192,177354,128,0,177414:0:0:0:70:fill_snare_high.wav
64,192,177414,128,0,177474:0:0:0:0:
448,192,177474,128,0,177519:0:0:0:0:
320,192,177504,128,0,177549:0:0:0:0:
192,192,177534,128,0,177579:0:0:0:0:
64,192,177594,128,0,177639:0:0:0:70:CrashL.wav
320,192,177624,128,0,177669:0:0:0:0:
448,192,177654,128,0,177699:0:0:0:0:
64,192,177714,128,0,177759:0:0:0:0:
192,192,177744,128,0,177789:0:0:0:0:
320,192,177774,128,0,177819:0:0:0:0:
64,192,177834,128,0,177894:0:0:0:70:Kick 19.wav
448,192,177834,128,0,177894:0:0:0:70:fill_snare_high.wav
192,192,177894,128,0,177954:0:0:0:0:
448,192,177954,128,0,178014:0:0:0:0:
192,192,178014,128,0,178074:0:0:0:0:
64,192,178074,128,0,178134:0:0:0:70:VEC3 Snares 003.wav
320,192,178074,128,0,178134:0:0:0:0:
448,192,178074,128,0,178134:0:0:0:0:
192,192,178194,128,0,178254:0:0:0:0:
320,192,178194,128,0,178254:0:0:0:0:
64,192,178314,128,0,178359:0:0:0:70:Kick 19.wav
192,192,178344,128,0,178389:0:0:0:0:
320,192,178374,128,0,178419:0:0:0:0:
64,192,178404,128,0,178449:0:0:0:0:
448,192,178434,128,0,178479:0:0:0:70:Kick 19.wav
192,192,178464,128,0,178509:0:0:0:0:
320,192,178494,128,0,178539:0:0:0:0:
448,192,178524,128,0,178569:0:0:0:0:
64,192,178554,128,0,178614:0:0:0:70:Kick 19.wav
192,192,178569,128,0,178629:0:0:0:0:
320,192,178584,128,0,178644:0:0:0:0:
64,192,178674,128,0,178734:0:0:0:0:
192,192,178689,128,0,178749:0:0:0:0:
320,192,178704,128,0,178764:0:0:0:0:
64,192,178794,128,0,178854:0:0:0:70:fill_snare_high.wav
192,192,178809,128,0,178869:0:0:0:0:
320,192,178824,128,0,178884:0:0:0:0:
64,192,178914,128,0,178974:0:0:0:0:
192,192,178929,128,0,178989:0:0:0:0:
320,192,178944,128,0,179004:0:0:0:0:
64,192,179034,128,0,179094:0:0:0:70:VEC3 Snares 003.wav
192,192,179034,128,0,179094:0:0:0:0:
448,192,179034,128,0,179094:0:0:0:0:
192,192,179154,128,0,179214:0:0:0:0:
320,192,179154,128,0,179214:0:0:0:0:
448,192,179274,128,0,179334:0:0:0:70:Kick 19.wav
320,192,179289,128,0,179349:0:0:0:0:
192,192,179304,128,0,179364:0:0:0:0:
448,192,179394,128,0,179454:0:0:0:0:
320,192,179409,128,0,179469:0:0:0:0:
192,192,179424,128,0,179484:0:0:0:0:
448,192,179514,128,0,179574:0:0:0:70:CrashL.wav
320,192,179529,128,0,179589:0:0:0:0:
192,192,179544,128,0,179604:0:0:0:0:
448,192,179634,128,0,179694:0:0:0:0:
320,192,179649,128,0,179709:0:0:0:0:
192,192,179664,128,0,179724:0:0:0:0:
448,192,179754,128,0,179814:0:0:0:70:Kick 19.wav
320,192,179769,128,0,179829:0:0:0:0:
192,192,179784,128,0,179844:0:0:0:0:
448,192,179874,128,0,179934:0:0:0:0:
320,192,179889,128,0,179949:0:0:0:0:
192,192,179904,128,0,179964:0:0:0:0:
64,192,179994,128,0,180054:0:0:0:70:Kick 19.wav
448,192,179994,128,0,180054:0:0:0:70:CrashR.wav
320,192,180054,128,0,180114:0:0:0:0:
64,192,180114,128,0,180174:0:0:0:0:
320,192,180174,128,0,180234:0:0:0:0:
64,192,180234,128,0,180294:0:0:0:70:VEC3 Snares 003.wav
192,192,180234,128,0,180294:0:0:0:70:fill_snare_high.wav
448,192,180234,128,0,180294:0:0:0:0:
320,192,180294,128,0,180354:0:0:0:0:
192,192,180354,128,0,180414:0:0:0:0:
320,192,180414,128,0,180474:0:0:0:0:
64,192,180474,128,0,180714:0:0:0:70:Kick 19.wav
448,192,180474,128,0,180714:0:0:0:70:CrashR.wav
192,192,180714,128,0,180789:0:0:0:70:fill_snare_high.wav
320,192,180714,128,0,180789:0:0:0:0:
192,192,180834,128,0,180909:0:0:0:70:fill_snare_high.wav
320,192,180834,128,0,180909:0:0:0:0:
64,192,180894,128,0,180969:0:0:0:70:fill_snare_high.wav
448,192,180894,128,0,180969:0:0:0:0:
192,192,180954,128,0,181029:0:0:0:70:fill_snare_high.wav
320,192,180954,128,0,181029:0:0:0:0:
192,192,181074,128,0,181149:0:0:0:70:fill_snare_high.wav
320,192,181074,128,0,181149:0:0:0:0:
192,192,181194,128,0,181389:0:0:0:70:fill_snare_high.wav
320,192,181194,128,0,181389:0:0:0:0:
64,192,181434,1,0,0:0:0:70:Kick 19.wav
192,192,181434,1,0,0:0:0:70:CrashL.wav
448,192,181434,1,0,0:0:0:0:
320,192,181494,1,0,0:0:0:0:
64,192,181674,1,0,0:0:0:70:Kick 19.wav
320,192,181674,1,0,0:0:0:70:fill_snare_high.wav
448,192,181674,1,0,0:0:0:0:
192,192,181734,1,0,0:0:0:0:
320,192,181794,1,0,0:0:0:0:
192,192,181854,1,0,0:0:0:0:
64,192,181914,128,0,181974:0:0:0:70:VEC3 Snares 003.wav
320,192,181914,128,0,182094:0:0:0:0:
448,192,181914,128,0,182094:0:0:0:0:
64,192,182034,128,0,182094:0:0:0:0:
192,192,182034,128,0,182094:0:0:0:0:
64,192,182154,128,0,182199:0:0:0:70:Kick 19.wav
192,192,182184,128,0,182229:0:0:0:0:
320,192,182214,128,0,182259:0:0:0:0:
64,192,182244,128,0,182289:0:0:0:0:
448,192,182274,128,0,182319:0:0:0:70:Kick 19.wav
192,192,182304,128,0,182349:0:0:0:0:
320,192,182334,128,0,182379:0:0:0:0:
448,192,182364,128,0,182409:0:0:0:0:
64,192,182394,128,0,182454:0:0:0:70:Kick 19.wav
192,192,182409,128,0,182469:0:0:0:0:
320,192,182424,128,0,182484:0:0:0:0:
64,192,182514,128,0,182574:0:0:0:0:
192,192,182529,128,0,182589:0:0:0:0:
320,192,182544,128,0,182604:0:0:0:0:
64,192,182634,128,0,182694:0:0:0:70:fill_snare_high.wav
192,192,182649,128,0,182709:0:0:0:0:
320,192,182664,128,0,182724:0:0:0:0:
64,192,182754,128,0,182814:0:0:0:0:
192,192,182769,128,0,182829:0:0:0:0:
320,192,182784,128,0,182844:0:0:0:0:
64,192,182874,128,0,182934:0:0:0:70:VEC3 Snares 003.wav
192,192,182874,128,0,182934:0:0:0:0:
448,192,182874,128,0,182934:0:0:0:0:
192,192,182994,128,0,183054:0:0:0:0:
320,192,182994,128,0,183054:0:0:0:0:
448,192,183114,128,0,183174:0:0:0:70:Kick 19.wav
320,192,183129,128,0,183189:0:0:0:0:
192,192,183144,128,0,183204:0:0:0:0:
448,192,183234,128,0,183294:0:0:0:0:
320,192,183249,128,0,183309:0:0:0:0:
192,192,183264,128,0,183324:0:0:0:0:
448,192,183354,128,0,183414:0:0:0:0:
320,192,183369,128,0,183429:0:0:0:0:
192,192,183384,128,0,183444:0:0:0:0:
448,192,183474,128,0,183534:0:0:0:0:
320,192,183489,128,0,183549:0:0:0:0:
192,192,183504,128,0,183564:0:0:0:0:
448,192,183594,128,0,183654:0:0:0:70:Kick 19.wav
320,192,183609,128,0,183669:0:0:0:0:
192,192,183624,128,0,183684:0:0:0:0:
448,192,183714,128,0,183774:0:0:0:0:
320,192,183729,128,0,183789:0:0:0:0:
192,192,183744,128,0,183804:0:0:0:0:
64,192,183834,128,0,183954:0:0:0:70:Kick 19.wav
448,192,183834,128,0,183954:0:0:0:70:CrashR.wav
320,192,183894,128,0,183954:0:0:0:0:
192,192,183954,128,0,184014:0:0:0:0:
64,192,184014,128,0,184134:0:0:0:70:Kick 19.wav
448,192,184014,128,0,184134:0:0:0:70:CrashR.wav
192,192,184074,128,0,184134:0:0:0:70:fill_snare_high.wav
320,192,184134,128,0,184194:0:0:0:0:
64,192,184194,128,0,184254:0:0:0:70:Kick 19.wav
448,192,184194,128,0,184314:0:0:0:70:CrashR.wav
320,192,184254,128,0,184314:0:0:0:0:
64,192,184314,128,0,184494:0:0:0:70:Kick 19.wav
192,192,184314,128,0,184494:0:0:0:70:CrashL.wav
448,192,184554,128,0,184599:0:0:0:70:fill_snare_high.wav
320,192,184584,128,0,184629:0:0:0:0:
192,192,184614,128,0,184659:0:0:0:0:
448,192,184644,128,0,184689:0:0:0:0:
64,192,184674,128,0,184719:0:0:0:0:
320,192,184704,128,0,184749:0:0:0:0:
192,192,184734,128,0,184779:0:0:0:0:
64,192,184764,128,0,184809:0:0:0:0:
320,192,184794,128,0,184854:0:0:0:70:VEC3 Snares 003.wav
448,192,184794,128,0,184854:0:0:0:0:
192,192,184854,128,0,184914:0:0:0:0:
320,192,184914,128,0,184974:0:0:0:0:
448,192,184974,128,0,185034:0:0:0:0:
64,192,185034,128,0,185094:0:0:0:70:Kick 19.wav
192,192,185034,128,0,185094:0:0:0:70:fill_snare_high.wav
320,192,185094,128,0,185154:0:0:0:0:
448,192,185154,128,0,185199:0:0:0:0:
192,192,185184,128,0,185229:0:0:0:0:
64,192,185214,128,0,185259:0:0:0:0:
320,192,185274,128,0,185319:0:0:0:70:CrashL.wav
448,192,185304,128,0,185349:0:0:0:0:
64,192,185334,128,0,185379:0:0:0:0:
192,192,185394,128,0,185439:0:0:0:0:
320,192,185424,128,0,185469:0:0:0:0:
448,192,185454,128,0,185499:0:0:0:0:
64,192,185514,128,0,185574:0:0:0:70:Kick 19.wav
192,192,185514,128,0,185574:0:0:0:70:fill_snare_high.wav
320,192,185574,128,0,185634:0:0:0:0:
192,192,185634,128,0,185694:0:0:0:0:
320,192,185694,128,0,185754:0:0:0:0:
64,192,185754,128,0,185814:0:0:0:70:VEC3 Snares 003.wav
192,192,185754,128,0,185814:0:0:0:0:
448,192,185754,128,0,185814:0:0:0:0:
192,192,185874,128,0,185934:0:0:0:0:
320,192,185874,128,0,185934:0:0:0:0:
64,192,185994,128,0,186039:0:0:0:70:Kick 19.wav
192,192,186024,128,0,186069:0:0:0:0:
320,192,186054,128,0,186099:0:0:0:0:
64,192,186084,128,0,186129:0:0:0:0:
448,192,186114,128,0,186159:0:0:0:70:Kick 19.wav
192,192,186144,128,0,186189:0:0:0:0:
320,192,186174,128,0,186219:0:0:0:0:
448,192,186204,128,0,186249:0:0:0:0:
64,192,186234,128,0,186294:0:0:0:70:Kick 19.wav
192,192,186249,128,0,186309:0:0:0:0:
320,192,186264,128,0,186324:0:0:0:0:
64,192,186354,128,0,186414:0:0:0:0:
192,192,186369,128,0,186429:0:0:0:0:
320,192,186384,128,0,186444:0:0:0:0:
64,192,186474,128,0,186534:0:0:0:70:Kick 19.wav
192,192,186489,128,0,186549:0:0:0:0:
320,192,186504,128,0,186564:0:0:0:0:
64,192,186594,128,0,186654:0:0:0:0:
192,192,186609,128,0,186669:0:0:0:0:
320,192,186624,128,0,186684:0:0:0:0:
64,192,186714,128,0,186774:0:0:0:70:VEC3 Snares 003.wav
192,192,186714,128,0,186774:0:0:0:0:
448,192,186714,128,0,186774:0:0:0:0:
192,192,186834,128,0,186894:0:0:0:0:
320,192,186834,128,0,186894:0:0:0:0:
320,192,186954,128,0,187014:0:0:0:70:Kick 19.wav
448,192,186954,128,0,187014:0:0:0:70:CrashL.wav
320,192,187074,128,0,187134:0:0:0:70:Kick 19.wav
448,192,187074,128,0,187134:0:0:0:0:
64,192,187134,128,0,187194:0:0:0:70:Kick 19.wav
192,192,187134,128,0,187194:0:0:0:0:
320,192,187194,128,0,187254:0:0:0:70:Kick 19.wav
448,192,187194,128,0,187254:0:0:0:70:CrashL.wav
64,192,187254,128,0,187314:0:0:0:0:
192,192,187314,128,0,187374:0:0:0:70:Kick 19.wav
320,192,187314,128,0,187374:0:0:0:0:
448,192,187374,128,0,187434:0:0:0:0:
64,192,187434,128,0,187494:0:0:0:70:Kick 19.wav
192,192,187434,128,0,187494:0:0:0:70:fill_snare_high.wav
448,192,187494,128,0,187554:0:0:0:0:
192,192,187554,128,0,187614:0:0:0:70:Kick 19.wav
320,192,187554,128,0,187614:0:0:0:0:
64,192,187614,128,0,187674:0:0:0:0:
320,192,187674,128,0,187714:0:0:0:70:Kick 19.wav
448,192,187674,128,0,187714:0:0:0:0:
64,192,187754,128,0,187794:0:0:0:70:Kick 19.wav
192,192,187754,128,0,187794:0:0:0:0:
320,192,187794,128,0,187834:0:0:0:0:
64,192,187834,128,0,187874:0:0:0:70:Kick 19.wav
448,192,187834,128,0,187874:0:0:0:0:
192,192,187874,128,0,187914:0:0:0:0:
320,192,187914,128,0,187954:0:0:0:70:Kick 19.wav
448,192,187914,128,0,187954:0:0:0:0:
64,192,187954,128,0,187994:0:0:0:0:
192,192,187994,128,0,188034:0:0:0:70:Kick 19.wav
320,192,187994,128,0,188034:0:0:0:0:
448,192,188034,128,0,188074:0:0:0:0:
64,192,188074,128,0,188114:0:0:0:70:Kick 19.wav
192,192,188074,128,0,188114:0:0:0:0:
320,192,188154,128,0,188394:0:0:0:70:Kick 19.wav
448,192,188154,128,0,188394:0:0:0:70:CrashR.wav
64,192,188394,128,0,188439:0:0:0:0:
192,192,188424,128,0,188469:0:0:0:0:
320,192,188454,128,0,188499:0:0:0:0:
64,192,188484,128,0,188529:0:0:0:0:
448,192,188514,128,0,188559:0:0:0:0:
192,192,188544,128,0,188589:0:0:0:0:
320,192,188574,128,0,188619:0:0:0:0:
448,192,188604,128,0,188649:0:0:0:0:
64,192,188634,128,0,188754:0:0:0:0:
192,192,188694,128,0,188814:0:0:0:0:
320,192,188754,128,0,188874:0:0:0:0:
448,192,188814,128,0,188934:0:0:0:0:
64,192,188874,128,0,188919:0:0:0:0:
192,192,188904,128,0,188949:0:0:0:0:
320,192,188934,128,0,188979:0:0:0:0:
64,192,188994,128,0,189039:0:0:0:0:
192,192,189024,128,0,189069:0:0:0:0:
448,192,189054,128,0,189099:0:0:0:0:
320,192,189114,128,0,189159:0:0:0:70:CrashL.wav
192,192,189144,128,0,189189:0:0:0:0:
64,192,189174,128,0,189219:0:0:0:0:
448,192,189234,128,0,189279:0:0:0:0:
320,192,189264,128,0,189309:0:0:0:0:
192,192,189294,128,0,189339:0:0:0:0:
64,192,189354,128,0,189414:0:0:0:0:
448,192,189414,128,0,189474:0:0:0:0:
64,192,189474,128,0,189534:0:0:0:0:
448,192,189534,128,0,189594:0:0:0:0:
64,192,189594,128,0,189654:0:0:0:70:fill_snare_high.wav
192,192,189594,128,0,189654:0:0:0:0:
320,192,189654,128,0,189714:0:0:0:70:fill_snare_high.wav
192,192,189714,128,0,189774:0:0:0:70:fill_snare_high.wav
320,192,189774,128,0,189834:0:0:0:70:fill_snare_high.wav
64,192,189834,128,0,189879:0:0:0:70:Kick 19.wav
192,192,189864,128,0,189909:0:0:0:0:
320,192,189894,128,0,189939:0:0:0:0:
64,192,189924,128,0,189969:0:0:0:0:
448,192,189954,128,0,189999:0:0:0:0:
192,192,189984,128,0,190029:0:0:0:0:
320,192,190014,128,0,190059:0:0:0:0:
448,192,190044,128,0,190089:0:0:0:0:
64,192,190074,128,0,190314:0:0:0:70:Kick 19.wav
192,192,190074,128,0,190314:0:0:0:70:CrashL.wav
448,192,190314,128,0,190374:0:0:0:0:
320,192,190329,128,0,190389:0:0:0:0:
192,192,190344,128,0,190404:0:0:0:0:
448,192,190434,128,0,190494:0:0:0:0:
320,192,190449,128,0,190509:0:0:0:0:
192,192,190464,128,0,190524:0:0:0:0:
448,192,190554,128,0,190599:0:0:0:0:
192,192,190584,128,0,190629:0:0:0:0:
320,192,190614,128,0,190659:0:0:0:0:
64,192,190644,128,0,190689:0:0:0:0:
448,192,190674,128,0,190719:0:0:0:0:
320,192,190704,128,0,190749:0:0:0:0:
192,192,190734,128,0,190779:0:0:0:0:
64,192,190764,128,0,190809:0:0:0:0:
448,192,190794,128,0,190854:0:0:0:0:
320,192,190809,128,0,190869:0:0:0:0:
192,192,190824,128,0,190884:0:0:0:0:
448,192,190914,128,0,190974:0:0:0:0:
320,192,190929,128,0,190989:0:0:0:0:
192,192,190944,128,0,191004:0:0:0:0:
448,192,191034,128,0,191094:0:0:0:70:CrashL.wav
320,192,191049,128,0,191109:0:0:0:0:
192,192,191064,128,0,191124:0:0:0:0:
448,192,191154,128,0,191214:0:0:0:0:
320,192,191169,128,0,191229:0:0:0:0:
192,192,191184,128,0,191244:0:0:0:0:
448,192,191274,128,0,191334:0:0:0:0:
320,192,191289,128,0,191349:0:0:0:0:
192,192,191304,128,0,191364:0:0:0:0:
448,192,191394,128,0,191454:0:0:0:0:
320,192,191409,128,0,191469:0:0:0:0:
192,192,191424,128,0,191484:0:0:0:0:
64,192,191514,128,0,191694:0:0:0:0:
448,192,191514,128,0,191574:0:0:0:0:
192,192,191634,128,0,191694:0:0:0:0:
320,192,191634,128,0,191694:0:0:0:0:
64,192,191754,128,0,191814:0:0:0:70:Kick 19.wav
320,192,191754,128,0,191814:0:0:0:0:
448,192,191754,128,0,191934:0:0:0:0:
192,192,191874,128,0,191934:0:0:0:0:
320,192,191874,128,0,191934:0:0:0:0:
64,192,191994,128,0,192174:0:0:0:70:Kick 19.wav
192,192,191994,128,0,192174:0:0:0:70:CrashL.wav
448,192,191994,128,0,192174:0:0:0:0:
448,192,192234,128,0,192279:0:0:0:0:
320,192,192264,128,0,192309:0:0:0:0:
192,192,192294,128,0,192339:0:0:0:0:
448,192,192324,128,0,192369:0:0:0:0:
64,192,192354,128,0,192399:0:0:0:0:
320,192,192384,128,0,192429:0:0:0:0:
192,192,192414,128,0,192459:0:0:0:0:
64,192,192444,128,0,192489:0:0:0:0:
448,192,192474,128,0,192594:0:0:0:0:
320,192,192534,128,0,192654:0:0:0:0:
192,192,192594,128,0,192714:0:0:0:0:
64,192,192654,128,0,192774:0:0:0:0:
448,192,192714,128,0,192759:0:0:0:0:
320,192,192744,128,0,192789:0:0:0:0:
192,192,192774,128,0,192819:0:0:0:0:
448,192,192834,128,0,192879:0:0:0:0:
320,192,192864,128,0,192909:0:0:0:0:
64,192,192894,128,0,192939:0:0:0:0:
192,192,192954,128,0,192999:0:0:0:70:CrashL.wav
320,192,192984,128,0,193029:0:0:0:0:
448,192,193014,128,0,193059:0:0:0:0:
64,192,193074,128,0,193119:0:0:0:0:
192,192,193104,128,0,193149:0:0:0:0:
320,192,193134,128,0,193179:0:0:0:0:
64,192,193194,128,0,193254:0:0:0:0:
448,192,193254,128,0,193314:0:0:0:0:
64,192,193314,128,0,193374:0:0:0:0:
448,192,193374,128,0,193434:0:0:0:0:
64,192,193434,128,0,193494:0:0:0:70:fill_snare_high.wav
192,192,193434,128,0,193494:0:0:0:0:
320,192,193494,128,0,193554:0:0:0:70:fill_snare_high.wav
448,192,193494,128,0,193554:0:0:0:0:
64,192,193554,1,0,0:0:0:70:fill_snare_high.wav
192,192,193584,1,0,0:0:0:70:fill_snare_high.wav
448,192,193614,1,0,0:0:0:70:fill_snare_high.wav
320,192,193644,1,0,0:0:0:70:fill_snare_high.wav
64,192,193674,128,0,193719:0:0:0:70:Kick 19.wav
192,192,193674,128,0,193719:0:0:0:0:
448,192,193704,128,0,193749:0:0:0:0:
320,192,193734,128,0,193779:0:0:0:0:
192,192,193764,128,0,193809:0:0:0:0:
448,192,193794,128,0,193839:0:0:0:0:
64,192,193824,128,0,193869:0:0:0:0:
320,192,193854,128,0,193899:0:0:0:0:
192,192,193884,128,0,193929:0:0:0:0:
64,192,193914,128,0,194154:0:0:0:70:Kick 19.wav
448,192,193914,128,0,194154:0:0:0:70:CrashL.wav
192,192,194154,128,0,194214:0:0:0:0:
320,192,194154,128,0,194214:0:0:0:0:
320,192,194274,128,0,194334:0:0:0:0:
448,192,194274,128,0,194334:0:0:0:0:
64,192,194394,128,0,194454:0:0:0:0:
192,192,194394,128,0,194454:0:0:0:0:
64,192,194514,128,0,194574:0:0:0:0:
448,192,194514,128,0,194574:0:0:0:0:
192,192,194634,128,0,194694:0:0:0:0:
320,192,194634,128,0,194694:0:0:0:0:
320,192,194754,128,0,194814:0:0:0:0:
448,192,194754,128,0,194814:0:0:0:0:
64,192,194874,128,0,194934:0:0:0:70:Kick 19.wav
192,192,194874,128,0,194934:0:0:0:70:CrashL.wav
448,192,194874,128,0,195054:0:0:0:0:
320,192,194934,128,0,195054:0:0:0:0:
64,192,194994,128,0,195054:0:0:0:0:
192,192,194994,128,0,195054:0:0:0:0:
64,192,195114,128,0,195294:0:0:0:70:Kick 19.wav
320,192,195114,128,0,195174:0:0:0:0:
448,192,195114,128,0,195174:0:0:0:0:
192,192,195174,128,0,195294:0:0:0:0:
320,192,195234,128,0,195294:0:0:0:0:
448,192,195234,128,0,195294:0:0:0:0:
64,192,195354,128,0,195414:0:0:0:70:Kick 19.wav
192,192,195354,128,0,195414:0:0:0:0:
448,192,195354,128,0,195534:0:0:0:0:
320,192,195414,128,0,195534:0:0:0:0:
64,192,195474,128,0,195534:0:0:0:0:
192,192,195474,128,0,195534:0:0:0:0:
192,192,195594,128,0,195654:0:0:0:70:Kick 19.wav
320,192,195594,128,0,195654:0:0:0:0:
448,192,195594,128,0,195654:0:0:0:0:
64,192,195654,128,0,195774:0:0:0:0:
192,192,195714,128,0,195774:0:0:0:70:Kick 19.wav
320,192,195714,128,0,195774:0:0:0:0:
448,192,195714,128,0,195774:0:0:0:0:
64,192,195834,128,0,195954:0:0:0:70:Kick 19.wav
320,192,195834,128,0,195894:0:0:0:70:CrashL.wav
448,192,195834,128,0,195894:0:0:0:0:
192,192,195894,128,0,195954:0:0:0:0:
448,192,195954,128,0,196014:0:0:0:0:
320,192,196014,128,0,196074:0:0:0:0:
64,192,196074,128,0,196134:0:0:0:70:VEC3 Snares 003
192,192,196074,128,0,196134:0:0:0:70:Kick 19.wav
448,192,196074,128,0,196194:0:0:0:0:
320,192,196134,128,0,196194:0:0:0:0:
64,192,196194,128,0,196254:0:0:0:0:
192,192,196254,128,0,196314:0:0:0:0:
320,192,196314,128,0,196374:0:0:0:70:Kick 19.wav
448,192,196314,128,0,196434:0:0:0:70:CrashR.wav
192,192,196374,128,0,196434:0:0:0:0:
64,192,196434,128,0,196494:0:0:0:0:
320,192,196494,128,0,196554:0:0:0:0:
64,192,196554,128,0,196674:0:0:0:70:VEC3 Snares 003
192,192,196554,128,0,196614:0:0:0:70:Kick 19.wav
448,192,196554,128,0,196614:0:0:0:0:
320,192,196614,128,0,196674:0:0:0:0:
448,192,196674,128,0,196734:0:0:0:0:
192,192,196734,128,0,196794:0:0:0:0:
64,192,196794,128,0,196854:0:0:0:70:Kick 19.wav
320,192,196794,128,0,196914:0:0:0:70:CrashL.wav
448,192,196854,128,0,196914:0:0:0:0:
64,192,196914,128,0,196974:0:0:0:0:
192,192,196974,128,0,197034:0:0:0:0:
64,192,197034,128,0,197154:0:0:0:70:VEC3 Snares 003
320,192,197034,128,0,197094:0:0:0:70:Kick 19.wav
448,192,197034,128,0,197094:0:0:0:0:
192,192,197094,128,0,197154:0:0:0:0:
320,192,197154,128,0,197214:0:0:0:0:
448,192,197214,128,0,197274:0:0:0:0:
64,192,197274,128,0,197394:0:0:0:70:Kick 19.wav
192,192,197274,128,0,197334:0:0:0:70:CrashR.wav
320,192,197334,128,0,197394:0:0:0:0:
448,192,197394,128,0,197454:0:0:0:0:
192,192,197454,128,0,197514:0:0:0:0:
64,192,197514,128,0,197574:0:0:0:70:VEC3 Snares 003
320,192,197514,128,0,197574:0:0:0:70:Kick 19.wav
448,192,197514,128,0,197634:0:0:0:0:
192,192,197574,128,0,197634:0:0:0:0:
64,192,197634,128,0,197694:0:0:0:0:
320,192,197694,128,0,197754:0:0:0:0:
192,192,197754,128,0,197874:0:0:0:70:Kick 19.wav
448,192,197754,128,0,197814:0:0:0:70:CrashL.wav
64,192,197814,128,0,197874:0:0:0:0:
320,192,197874,128,0,197934:0:0:0:0:
192,192,197934,128,0,197994:0:0:0:0:
64,192,197994,128,0,198114:0:0:0:70:VEC3 Snares 003
320,192,197994,128,0,198054:0:0:0:70:Kick 19.wav
448,192,197994,128,0,198054:0:0:0:0:
192,192,198054,128,0,198114:0:0:0:0:
448,192,198114,128,0,198174:0:0:0:0:
320,192,198174,128,0,198234:0:0:0:0:
64,192,198234,128,0,198354:0:0:0:70:Kick 19.wav
192,192,198234,128,0,198294:0:0:0:70:CrashR.wav
448,192,198294,128,0,198354:0:0:0:0:
320,192,198354,128,0,198414:0:0:0:0:
192,192,198414,128,0,198474:0:0:0:0:
64,192,198474,128,0,198594:0:0:0:70:VEC3 Snares 003
320,192,198474,128,0,198534:0:0:0:70:Kick 19.wav
448,192,198474,128,0,198534:0:0:0:0:
192,192,198534,128,0,198594:0:0:0:0:
448,192,198594,128,0,198654:0:0:0:0:
320,192,198654,128,0,198714:0:0:0:0:
64,192,198714,128,0,198834:0:0:0:70:Kick 19.wav
192,192,198714,128,0,198774:0:0:0:70:CrashL.wav
320,192,198774,128,0,198834:0:0:0:0:
448,192,198834,128,0,198894:0:0:0:0:
192,192,198894,128,0,198954:0:0:0:0:
64,192,198954,128,0,199074:0:0:0:70:VEC3 Snares 003
320,192,198954,128,0,199014:0:0:0:70:Kick 19.wav
448,192,198954,128,0,199014:0:0:0:0:
192,192,199014,128,0,199074:0:0:0:0:
320,192,199074,128,0,199134:0:0:0:0:
448,192,199134,128,0,199194:0:0:0:0:
64,192,199194,128,0,199314:0:0:0:70:Kick 19.wav
192,192,199194,128,0,199254:0:0:0:70:CrashR.wav
448,192,199254,128,0,199314:0:0:0:0:
320,192,199314,128,0,199374:0:0:0:0:
192,192,199374,128,0,199434:0:0:0:0:
64,192,199434,128,0,199554:0:0:0:70:VEC3 Snares 003
320,192,199434,128,0,199494:0:0:0:70:Kick 19.wav
448,192,199434,128,0,199494:0:0:0:0:
192,192,199494,128,0,199554:0:0:0:0:
448,192,199554,128,0,199614:0:0:0:0:
320,192,199614,128,0,199674:0:0:0:0:
64,192,199674,128,0,199734:0:0:0:70:Kick 19.wav
192,192,199674,128,0,199734:0:0:0:70:CrashL.wav
448,192,199674,128,0,199794:0:0:0:0:
320,192,199734,128,0,199794:0:0:0:0:
64,192,199794,128,0,199854:0:0:0:70:Kick 19.wav
192,192,199794,128,0,199854:0:0:0:0:
448,192,199854,128,0,199914:0:0:0:0:
64,192,199914,128,0,199974:0:0:0:70:VEC3 Snares 003
192,192,199914,128,0,200034:0:0:0:70:Kick 19.wav
320,192,199914,128,0,199974:0:0:0:70:CrashR.wav
448,192,199974,128,0,200034:0:0:0:0:
64,192,200034,128,0,200094:0:0:0:70:Kick 19.wav
320,192,200034,128,0,200094:0:0:0:0:
192,192,200094,128,0,200154:0:0:0:0:
64,192,200154,128,0,200274:0:0:0:70:Kick 19.wav
320,192,200154,128,0,200214:0:0:0:70:CrashL.wav
448,192,200154,128,0,200214:0:0:0:0:
192,192,200214,128,0,200274:0:0:0:0:
320,192,200274,128,0,200334:0:0:0:70:Kick 19.wav
448,192,200274,128,0,200334:0:0:0:0:
64,192,200334,128,0,200394:0:0:0:0:
192,192,200394,128,0,200454:0:0:0:70:VEC3 Snares 003
320,192,200394,128,0,200514:0:0:0:70:Kick 19.wav
448,192,200394,128,0,200454:0:0:0:70:CrashR.wav
64,192,200454,128,0,200514:0:0:0:0:
192,192,200514,128,0,200574:0:0:0:70:Kick 19.wav
448,192,200514,128,0,200574:0:0:0:0:
320,192,200574,128,0,200634:0:0:0:0:
64,192,200634,128,0,200694:0:0:0:70:Kick 19.wav
192,192,200634,128,0,200694:0:0:0:70:CrashL.wav
448,192,200634,128,0,200754:0:0:0:0:
320,192,200694,128,0,200754:0:0:0:0:
64,192,200754,128,0,200814:0:0:0:70:Kick 19.wav
192,192,200754,128,0,200814:0:0:0:0:
448,192,200814,128,0,200874:0:0:0:0:
64,192,200874,128,0,200934:0:0:0:70:VEC3 Snares 003
192,192,200874,128,0,200994:0:0:0:70:Kick 19.wav
320,192,200874,128,0,200934:0:0:0:70:CrashR.wav
448,192,200934,128,0,200994:0:0:0:0:
64,192,200994,128,0,201054:0:0:0:70:Kick 19.wav
320,192,200994,128,0,201054:0:0:0:0:
192,192,201054,128,0,201114:0:0:0:0:
64,192,201114,128,0,201234:0:0:0:70:Kick 19.wav
320,192,201114,128,0,201174:0:0:0:70:CrashL.wav
448,192,201114,128,0,201174:0:0:0:0:
192,192,201174,128,0,201234:0:0:0:0:
320,192,201234,128,0,201294:0:0:0:70:Kick 19.wav
448,192,201234,128,0,201294:0:0:0:0:
64,192,201294,128,0,201354:0:0:0:0:
192,192,201354,128,0,201414:0:0:0:70:VEC3 Snares 003
320,192,201354,128,0,201474:0:0:0:70:Kick 19.wav
448,192,201354,128,0,201414:0:0:0:70:CrashR.wav
64,192,201414,128,0,201474:0:0:0:0:
192,192,201474,128,0,201534:0:0:0:70:Kick 19.wav
448,192,201474,128,0,201534:0:0:0:0:
320,192,201534,128,0,201594:0:0:0:0:
64,192,201594,128,0,201714:0:0:0:70:VEC3 Snares 003
192,192,201594,128,0,201654:0:0:0:70:Kick 19.wav
448,192,201654,128,0,201774:0:0:0:70:Kick 19.wav
192,192,201714,128,0,201894:0:0:0:70:Kick 19.wav
320,192,201714,128,0,201774:0:0:0:0:
64,192,201774,128,0,201834:0:0:0:70:Kick 19.wav
320,192,201834,128,0,201894:0:0:0:70:VEC3 Snares 003
448,192,201834,128,0,201954:0:0:0:70:Kick 19.wav
64,192,201894,128,0,202014:0:0:0:70:Kick 19.wav
192,192,201954,128,0,202014:0:0:0:70:Kick 19.wav
320,192,201954,128,0,202134:0:0:0:0:
448,192,202014,128,0,202074:0:0:0:70:Kick 19.wav
64,192,202074,128,0,202194:0:0:0:70:VEC3 Snares 003
192,192,202074,128,0,202134:0:0:0:70:Kick 19.wav
448,192,202134,128,0,202254:0:0:0:70:Kick 19.wav
192,192,202194,128,0,202374:0:0:0:70:Kick 19.wav
320,192,202194,128,0,202254:0:0:0:0:
64,192,202254,128,0,202314:0:0:0:70:Kick 19.wav
320,192,202314,128,0,202374:0:0:0:70:VEC3 Snares 003
448,192,202314,128,0,202434:0:0:0:70:Kick 19.wav
64,192,202374,128,0,202494:0:0:0:70:Kick 19.wav
192,192,202434,128,0,202494:0:0:0:70:Kick 19.wav
320,192,202434,128,0,202494:0:0:0:0:
448,192,202494,128,0,202614:0:0:0:70:Kick 19.wav
64,192,202554,128,0,202614:0:0:0:70:Kick 19.wav
192,192,202554,128,0,202614:0:0:0:70:CrashL.wav
320,192,202554,128,0,202614:0:0:0:0:
64,192,202674,128,0,202794:0:0:0:0:
192,192,202794,128,0,202914:0:0:0:0:
448,192,203034,128,0,203154:0:0:0:0:
320,192,203274,128,0,203394:0:0:0:0:
192,192,203394,128,0,203454:0:0:0:0:
64,192,203514,1,0,0:0:0:70:Kick 19.wav
192,192,203514,1,0,0:0:0:70:CrashL.wav
320,192,203514,1,0,0:0:0:0:
448,192,203514,1,0,0:0:0:0:
64,192,218874,5,0,0:0:0:70:Kick 19.wav
192,192,218874,1,0,0:0:0:70:CrashL.wav
320,192,218994,1,0,0:0:0:0:
448,192,219114,1,0,0:0:0:0:
192,192,219234,1,0,0:0:0:0:
320,192,219354,1,0,0:0:0:0:
64,192,219474,1,0,0:0:0:0:
448,192,219594,1,0,0:0:0:0:
320,192,219714,1,0,0:0:0:0:
192,192,219834,1,0,0:0:0:0:
64,192,219954,1,0,0:0:0:0:
320,192,220074,1,0,0:0:0:0:
448,192,220194,1,0,0:0:0:0:
192,192,220314,1,0,0:0:0:0:
320,192,220434,1,0,0:0:0:0:
64,192,220554,1,0,0:0:0:0:
192,192,220674,1,0,0:0:0:0:
320,192,220794,1,0,0:0:0:0:
448,192,220914,1,0,0:0:0:0:
192,192,221034,1,0,0:0:0:0:
64,192,221154,1,0,0:0:0:0:
320,192,221274,1,0,0:0:0:0:
448,192,221394,1,0,0:0:0:0:
64,192,221514,1,0,0:0:0:0:
320,192,221634,1,0,0:0:0:0:
192,192,221754,1,0,0:0:0:0:
448,192,221874,1,0,0:0:0:0:
320,192,221994,1,0,0:0:0:0:
192,192,222114,1,0,0:0:0:0:
64,192,222234,1,0,0:0:0:0:
448,192,222354,1,0,0:0:0:0:
192,192,222474,1,0,0:0:0:0:
320,192,222594,1,0,0:0:0:0:
64,192,222714,1,0,0:0:0:0:
192,192,222834,1,0,0:0:0:0:
448,192,222954,1,0,0:0:0:0:
64,192,223074,1,0,0:0:0:0:
320,192,223194,1,0,0:0:0:0:
448,192,223314,1,0,0:0:0:0:
192,192,223434,1,0,0:0:0:0:
320,192,223554,1,0,0:0:0:0:
64,192,223674,1,0,0:0:0:0:
192,192,223794,1,0,0:0:0:0:
320,192,223914,1,0,0:0:0:0:
448,192,224034,1,0,0:0:0:0:
320,192,224154,1,0,0:0:0:0:
192,192,224274,1,0,0:0:0:0:
448,192,224394,1,0,0:0:0:0:
64,192,224514,1,0,0:0:0:0:
192,192,224634,1,0,0:0:0:0:
320,192,224754,1,0,0:0:0:0:
64,192,224874,1,0,0:0:0:0:
192,192,224994,1,0,0:0:0:0:
448,192,225114,1,0,0:0:0:0:
320,192,225234,1,0,0:0:0:0:
192,192,225354,1,0,0:0:0:0:
64,192,225474,1,0,0:0:0:0:
320,192,225594,1,0,0:0:0:0:
192,192,225714,1,0,0:0:0:0:
320,192,225834,1,0,0:0:0:0:
448,192,225954,1,0,0:0:0:0:
64,192,226074,1,0,0:0:0:0:
192,192,226194,1,0,0:0:0:0:
320,192,226314,1,0,0:0:0:0:
192,192,226434,1,0,0:0:0:0:
448,192,226554,1,0,0:0:0:0:
64,192,226674,1,0,0:0:0:0:
320,192,226794,1,0,0:0:0:0:
192,192,226914,1,0,0:0:0:0:
64,192,227034,1,0,0:0:0:0:
448,192,227154,1,0,0:0:0:0:
192,192,227274,1,0,0:0:0:0:
320,192,227394,1,0,0:0:0:0:
448,192,227514,1,0,0:0:0:0:
192,192,227634,1,0,0:0:0:0:
320,192,227754,1,0,0:0:0:0:
64,192,227874,1,0,0:0:0:0:
192,192,227994,1,0,0:0:0:0:
320,192,228114,1,0,0:0:0:0:
448,192,228234,1,0,0:0:0:0:
192,192,228354,1,0,0:0:0:0:
320,192,228474,1,0,0:0:0:0:
64,192,228594,1,0,0:0:0:0:
192,192,228714,1,0,0:0:0:0:
320,192,228834,1,0,0:0:0:0:
448,192,228954,1,0,0:0:0:0:
192,192,229074,1,0,0:0:0:0:
64,192,229194,1,0,0:0:0:0:
320,192,229314,1,0,0:0:0:0:
448,192,229434,1,0,0:0:0:0:
64,192,229554,1,0,0:0:0:0:
320,192,229674,1,0,0:0:0:0:
192,192,229794,1,0,0:0:0:0:
448,192,229914,1,0,0:0:0:0:
64,192,230034,1,0,0:0:0:0:
320,192,230154,1,0,0:0:0:0:
192,192,230274,1,0,0:0:0:0:
64,192,230394,1,0,0:0:0:0:
320,192,230514,1,0,0:0:0:0:
448,192,230634,1,0,0:0:0:0:
64,192,230754,1,0,0:0:0:0:
320,192,230874,1,0,0:0:0:0:
192,192,231114,1,0,0:0:0:0:
64,192,231354,1,0,0:0:0:0:
320,192,231594,1,0,0:0:0:0:
192,192,231714,1,0,0:0:0:0:
320,192,231834,1,0,0:0:0:0:
64,192,232074,1,0,0:0:0:0:
448,192,232194,1,0,0:0:0:0:
192,192,232314,1,0,0:0:0:0:
320,192,232434,1,0,0:0:0:0:
192,192,232554,1,0,0:0:0:0:
64,192,232674,1,0,0:0:0:0:
320,192,232794,1,0,0:0:0:0:
192,192,232914,1,0,0:0:0:0:
448,192,233034,1,0,0:0:0:0:
320,192,233154,1,0,0:0:0:0:
64,192,233274,1,0,0:0:0:0:
192,192,233394,1,0,0:0:0:0:
320,192,233514,1,0,0:0:0:0:
64,192,233634,1,0,0:0:0:0:
448,192,233754,1,0,0:0:0:0:
320,192,233874,1,0,0:0:0:0:
192,192,233994,1,0,0:0:0:0:
64,192,234234,1,0,0:0:0:70:Kick 19.wav
320,192,234234,1,0,0:0:0:0:
448,192,234234,1,0,0:0:0:0:
192,192,234354,1,0,0:0:0:0:
320,192,234474,1,0,0:0:0:70:fill_snare.wav
448,192,234474,1,0,0:0:0:0:
192,192,234594,1,0,0:0:0:0:
320,192,234654,1,0,0:0:0:0:
192,192,234714,1,0,0:0:0:0:
64,192,234774,1,0,0:0:0:70:fill_snare.wav
448,192,234774,1,0,0:0:0:0:
320,192,234834,1,0,0:0:0:0:
192,192,234894,1,0,0:0:0:0:
64,192,234954,1,0,0:0:0:70:fill_snare.wav
448,192,234954,1,0,0:0:0:0:
320,192,235014,1,0,0:0:0:0:
64,192,235074,1,0,0:0:0:0:
192,192,235134,1,0,0:0:0:0:
320,192,235194,1,0,0:0:0:0:
192,192,235314,1,0,0:0:0:0:
320,192,235374,1,0,0:0:0:0:
64,192,235434,1,0,0:0:0:70:fill_snare.wav
448,192,235434,1,0,0:0:0:0:
192,192,235554,1,0,0:0:0:0:
320,192,235614,1,0,0:0:0:0:
192,192,235674,1,0,0:0:0:0:
64,192,235734,1,0,0:0:0:0:
448,192,235794,1,0,0:0:0:0:
320,192,235854,1,0,0:0:0:0:
64,192,235914,1,0,0:0:0:70:fill_snare.wav
192,192,235914,1,0,0:0:0:0:
64,192,236034,1,0,0:0:0:0:
192,192,236094,1,0,0:0:0:0:
320,192,236154,1,0,0:0:0:0:
192,192,236274,1,0,0:0:0:0:
320,192,236394,1,0,0:0:0:70:fill_snare.wav
448,192,236394,1,0,0:0:0:0:
192,192,236514,1,0,0:0:0:0:
320,192,236574,1,0,0:0:0:0:
64,192,236634,1,0,0:0:0:0:
192,192,236694,1,0,0:0:0:70:fill_snare.wav
448,192,236694,1,0,0:0:0:0:
320,192,236754,1,0,0:0:0:0:
192,192,236814,1,0,0:0:0:0:
64,192,236874,1,0,0:0:0:70:fill_snare.wav
448,192,236874,1,0,0:0:0:0:
320,192,236934,1,0,0:0:0:0:
64,192,236994,1,0,0:0:0:0:
192,192,237054,1,0,0:0:0:0:
320,192,237114,1,0,0:0:0:0:
448,192,237234,1,0,0:0:0:0:
320,192,237294,1,0,0:0:0:0:
64,192,237354,1,0,0:0:0:70:fill_snare.wav
192,192,237354,1,0,0:0:0:0:
320,192,237414,1,0,0:0:0:0:
192,192,237474,1,0,0:0:0:0:
64,192,237534,1,0,0:0:0:0:
320,192,237594,1,0,0:0:0:0:
192,192,237654,1,0,0:0:0:0:
448,192,237714,1,0,0:0:0:0:
320,192,237774,1,0,0:0:0:0:
64,192,237834,1,0,0:0:0:70:fill_snare.wav
192,192,237834,1,0,0:0:0:0:
64,192,237954,1,0,0:0:0:0:
192,192,238014,1,0,0:0:0:0:
320,192,238074,1,0,0:0:0:0:
64,192,238314,1,0,0:0:0:70:fill_snare.wav
448,192,238314,1,0,0:0:0:0:
192,192,238434,1,0,0:0:0:0:
320,192,238494,1,0,0:0:0:0:
64,192,238554,1,0,0:0:0:0:
192,192,238614,1,0,0:0:0:70:fill_snare.wav
448,192,238614,1,0,0:0:0:0:
320,192,238674,1,0,0:0:0:0:
192,192,238734,1,0,0:0:0:0:
64,192,238794,1,0,0:0:0:70:fill_snare.wav
448,192,238794,1,0,0:0:0:0:
320,192,238854,1,0,0:0:0:0:
192,192,238914,1,0,0:0:0:0:
64,192,238974,1,0,0:0:0:0:
320,192,239034,1,0,0:0:0:0:
192,192,239154,1,0,0:0:0:0:
64,192,239274,1,0,0:0:0:70:fill_snare.wav
448,192,239274,1,0,0:0:0:0:
320,192,239394,1,0,0:0:0:0:
192,192,239454,1,0,0:0:0:0:
448,192,239514,1,0,0:0:0:0:
64,192,239574,1,0,0:0:0:0:
192,192,239634,1,0,0:0:0:0:
320,192,239694,1,0,0:0:0:0:
64,192,239754,1,0,0:0:0:70:fill_snare.wav
448,192,239754,1,0,0:0:0:0:
192,192,239874,1,0,0:0:0:0:
320,192,239934,1,0,0:0:0:0:
448,192,239994,1,0,0:0:0:0:
192,192,240114,1,0,0:0:0:0:
64,192,240234,1,0,0:0:0:70:fill_snare.wav
320,192,240234,1,0,0:0:0:0:
448,192,240414,1,0,0:0:0:0:
320,192,240474,1,0,0:0:0:0:
64,192,240534,1,0,0:0:0:0:
192,192,240594,1,0,0:0:0:0:
320,192,240654,1,0,0:0:0:0:
64,192,240714,1,0,0:0:0:70:fill_snare.wav
448,192,240714,1,0,0:0:0:0:
320,192,240834,1,0,0:0:0:0:
192,192,240894,1,0,0:0:0:0:
64,192,240954,1,0,0:0:0:0:
448,192,241014,1,0,0:0:0:0:
320,192,241074,1,0,0:0:0:0:
192,192,241134,1,0,0:0:0:0:
64,192,241194,1,0,0:0:0:70:fill_snare.wav
448,192,241194,1,0,0:0:0:0:
320,192,241314,1,0,0:0:0:0:
64,192,241374,1,0,0:0:0:70:fill_snare.wav
192,192,241374,1,0,0:0:0:0:
448,192,241434,1,0,0:0:0:0:
64,192,241494,1,0,0:0:0:70:fill_snare.wav
320,192,241494,1,0,0:0:0:0:
192,192,241554,1,0,0:0:0:0:
320,192,241614,1,0,0:0:0:0:
64,192,241674,1,0,0:0:0:70:fill_snare.wav
448,192,241674,1,0,0:0:0:0:
320,192,241794,1,0,0:0:0:0:
448,192,241794,1,0,0:0:0:0:
64,192,241854,1,0,0:0:0:70:fill_snare.wav
192,192,241854,1,0,0:0:0:0:
320,192,241914,1,0,0:0:0:0:
192,192,242154,1,0,0:0:0:70:fill_snare.wav
448,192,242154,1,0,0:0:0:0:
64,192,242274,1,0,0:0:0:0:
320,192,242334,1,0,0:0:0:0:
192,192,242394,1,0,0:0:0:0:
64,192,242454,1,0,0:0:0:70:fill_snare.wav
448,192,242454,1,0,0:0:0:0:
320,192,242514,1,0,0:0:0:0:
192,192,242574,1,0,0:0:0:0:
64,192,242634,1,0,0:0:0:70:fill_snare.wav
448,192,242634,1,0,0:0:0:0:
320,192,242694,1,0,0:0:0:0:
192,192,242754,1,0,0:0:0:0:
320,192,242814,1,0,0:0:0:0:
448,192,242874,1,0,0:0:0:0:
64,192,242994,1,0,0:0:0:0:
192,192,243054,1,0,0:0:0:0:
320,192,243114,1,0,0:0:0:70:fill_snare.wav
448,192,243114,1,0,0:0:0:0:
192,192,243234,1,0,0:0:0:0:
64,192,243294,1,0,0:0:0:0:
320,192,243354,1,0,0:0:0:0:
448,192,243474,1,0,0:0:0:0:
320,192,243534,1,0,0:0:0:0:
64,192,243594,1,0,0:0:0:70:fill_snare.wav
192,192,243594,1,0,0:0:0:0:
448,192,243714,1,0,0:0:0:0:
320,192,243774,1,0,0:0:0:0:
192,192,243834,1,0,0:0:0:0:
64,192,244074,1,0,0:0:0:70:fill_snare.wav
448,192,244074,1,0,0:0:0:0:
320,192,244194,1,0,0:0:0:0:
192,192,244254,1,0,0:0:0:0:
320,192,244314,1,0,0:0:0:0:
64,192,244374,1,0,0:0:0:70:fill_snare.wav
448,192,244374,1,0,0:0:0:0:
192,192,244434,1,0,0:0:0:0:
320,192,244494,1,0,0:0:0:0:
64,192,244554,1,0,0:0:0:70:fill_snare.wav
448,192,244554,1,0,0:0:0:0:
192,192,244614,1,0,0:0:0:0:
320,192,244674,1,0,0:0:0:0:
192,192,244734,1,0,0:0:0:0:
64,192,244794,1,0,0:0:0:0:
320,192,244914,1,0,0:0:0:0:
192,192,244974,1,0,0:0:0:0:
320,192,245034,1,0,0:0:0:70:fill_snare.wav
448,192,245034,1,0,0:0:0:0:
192,192,245154,1,0,0:0:0:0:
320,192,245214,1,0,0:0:0:0:
64,192,245274,1,0,0:0:0:0:
192,192,245334,1,0,0:0:0:0:
320,192,245394,1,0,0:0:0:0:
448,192,245454,1,0,0:0:0:0:
64,192,245514,1,0,0:0:0:70:fill_snare.wav
192,192,245514,1,0,0:0:0:0:
320,192,245634,1,0,0:0:0:0:
192,192,245694,1,0,0:0:0:0:
64,192,245754,1,0,0:0:0:0:
320,192,245994,1,0,0:0:0:70:fill_snare.wav
448,192,245994,1,0,0:0:0:0:
192,192,246114,1,0,0:0:0:0:
64,192,246174,1,0,0:0:0:0:
320,192,246234,1,0,0:0:0:0:
448,192,246234,1,0,0:0:0:0:
64,192,246294,1,0,0:0:0:70:fill_snare.wav
192,192,246354,1,0,0:0:0:0:
320,192,246414,1,0,0:0:0:0:
64,192,246474,1,0,0:0:0:70:fill_snare.wav
448,192,246474,1,0,0:0:0:0:
192,192,246534,1,0,0:0:0:0:
320,192,246594,1,0,0:0:0:0:
448,192,246654,1,0,0:0:0:0:
192,192,246714,1,0,0:0:0:0:
320,192,246834,1,0,0:0:0:0:
64,192,246954,1,0,0:0:0:70:fill_snare.wav
448,192,246954,1,0,0:0:0:0:
192,192,247074,1,0,0:0:0:0:
320,192,247134,1,0,0:0:0:0:
192,192,247194,1,0,0:0:0:0:
64,192,247254,1,0,0:0:0:0:
320,192,247314,1,0,0:0:0:0:
192,192,247374,1,0,0:0:0:0:
64,192,247434,1,0,0:0:0:70:fill_snare.wav
448,192,247434,1,0,0:0:0:0:
320,192,247554,1,0,0:0:0:0:
192,192,247614,1,0,0:0:0:0:
64,192,247674,1,0,0:0:0:0:
192,192,247794,1,0,0:0:0:0:
320,192,247914,1,0,0:0:0:70:fill_snare.wav
448,192,247914,1,0,0:0:0:0:
192,192,248094,1,0,0:0:0:0:
320,192,248154,1,0,0:0:0:0:
448,192,248214,1,0,0:0:0:0:
64,192,248274,1,0,0:0:0:0:
192,192,248334,1,0,0:0:0:0:
320,192,248394,1,0,0:0:0:70:fill_snare.wav
448,192,248394,1,0,0:0:0:0:
192,192,248514,1,0,0:0:0:0:
64,192,248574,1,0,0:0:0:0:
320,192,248634,1,0,0:0:0:0:
192,192,248694,1,0,0:0:0:0:
448,192,248754,1,0,0:0:0:0:
320,192,248814,1,0,0:0:0:0:
64,192,248874,1,0,0:0:0:70:fill_snare.wav
192,192,248874,1,0,0:0:0:0:
320,192,248994,1,0,0:0:0:0:
64,192,249054,1,0,0:0:0:70:fill_snare.wav
192,192,249054,1,0,0:0:0:0:
448,192,249114,1,0,0:0:0:0:
64,192,249174,1,0,0:0:0:70:fill_snare.wav
320,192,249174,1,0,0:0:0:0:
192,192,249234,1,0,0:0:0:0:
320,192,249294,1,0,0:0:0:0:
64,192,249354,1,0,0:0:0:70:fill_snare.wav
448,192,249354,1,0,0:0:0:0:
320,192,249474,1,0,0:0:0:0:
64,192,249534,1,0,0:0:0:0:
192,192,249534,1,0,0:0:0:0:
320,192,249594,1,0,0:0:0:70:Kick 19.wav
448,192,249594,1,0,0:0:0:70:CrashL.wav
64,192,249714,1,0,0:0:0:0:
320,192,249834,1,0,0:0:0:0:
448,192,249834,1,0,0:0:0:0:
64,192,249954,1,0,0:0:0:0:
192,192,250074,1,0,0:0:0:0:
320,192,250194,1,0,0:0:0:0:
448,192,250194,1,0,0:0:0:0:
192,192,250314,1,0,0:0:0:0:
64,192,250434,1,0,0:0:0:0:
320,192,250434,1,0,0:0:0:0:
448,192,250554,1,0,0:0:0:0:
192,192,250674,1,0,0:0:0:0:
320,192,250794,1,0,0:0:0:0:
448,192,250794,1,0,0:0:0:0:
64,192,250914,1,0,0:0:0:0:
320,192,251034,1,0,0:0:0:0:
192,192,251154,1,0,0:0:0:0:
448,192,251154,1,0,0:0:0:0:
64,192,251274,1,0,0:0:0:0:
320,192,251394,1,0,0:0:0:0:
448,192,251394,1,0,0:0:0:0:
64,192,251514,1,0,0:0:0:0:
192,192,251634,1,0,0:0:0:0:
320,192,251754,1,0,0:0:0:0:
448,192,251754,1,0,0:0:0:0:
64,192,251874,1,0,0:0:0:0:
320,192,251994,1,0,0:0:0:0:
192,192,252114,1,0,0:0:0:0:
448,192,252114,1,0,0:0:0:0:
64,192,252234,1,0,0:0:0:0:
320,192,252354,1,0,0:0:0:0:
448,192,252354,1,0,0:0:0:0:
64,192,252474,1,0,0:0:0:0:
192,192,252594,1,0,0:0:0:0:
320,192,252714,1,0,0:0:0:0:
448,192,252714,1,0,0:0:0:0:
64,192,252834,1,0,0:0:0:0:
192,192,252954,1,0,0:0:0:0:
320,192,252954,1,0,0:0:0:0:
320,192,253074,1,0,0:0:0:0:
448,192,253074,1,0,0:0:0:0:
64,192,253194,1,0,0:0:0:70:Kick 19.wav
192,192,253194,1,0,0:0:0:0:
64,192,253314,1,0,0:0:0:70:Kick 19.wav
192,192,253314,1,0,0:0:0:0:
64,192,253434,1,0,0:0:0:70:CrashL.wav
320,192,253434,1,0,0:0:0:70:fill_snare_low.wav
448,192,253434,1,0,0:0:0:0:
448,192,253554,1,0,0:0:0:0:
64,192,253674,1,0,0:0:0:70:fill_snare_low.wav
320,192,253674,1,0,0:0:0:0:
448,192,253674,1,0,0:0:0:0:
320,192,253794,1,0,0:0:0:0:
64,192,253914,1,0,0:0:0:70:fill_snare_low.wav
192,192,253914,1,0,0:0:0:0:
448,192,253914,1,0,0:0:0:0:
64,192,254034,1,0,0:0:0:0:
64,192,254154,1,0,0:0:0:70:fill_snare_low.wav
192,192,254154,1,0,0:0:0:0:
448,192,254154,1,0,0:0:0:0:
192,192,254274,1,0,0:0:0:0:
64,192,254394,1,0,0:0:0:70:fill_snare_low.wav
320,192,254394,1,0,0:0:0:0:
448,192,254394,1,0,0:0:0:0:
448,192,254514,1,0,0:0:0:0:
64,192,254634,1,0,0:0:0:70:fill_snare_low.wav
320,192,254634,1,0,0:0:0:0:
448,192,254634,1,0,0:0:0:0:
320,192,254754,1,0,0:0:0:0:
64,192,254874,1,0,0:0:0:70:fill_snare_low.wav
192,192,254874,1,0,0:0:0:0:
448,192,254874,1,0,0:0:0:0:
64,192,254994,1,0,0:0:0:0:
64,192,255114,1,0,0:0:0:70:fill_snare_low.wav
192,192,255114,1,0,0:0:0:0:
448,192,255114,1,0,0:0:0:0:
192,192,255234,1,0,0:0:0:0:
64,192,255354,1,0,0:0:0:70:fill_snare_low.wav
320,192,255354,1,0,0:0:0:0:
448,192,255354,1,0,0:0:0:0:
64,192,255474,1,0,0:0:0:70:fill_snare_low.wav
320,192,255474,1,0,0:0:0:0:
448,192,255474,1,0,0:0:0:0:
64,192,255594,1,0,0:0:0:70:fill_snare_low.wav
192,192,255594,1,0,0:0:0:0:
448,192,255594,1,0,0:0:0:0:
64,192,255714,1,0,0:0:0:70:fill_snare_low.wav
192,192,255714,1,0,0:0:0:0:
448,192,255714,1,0,0:0:0:0:
64,192,255834,1,0,0:0:0:70:fill_snare_low.wav
320,192,255834,1,0,0:0:0:0:
448,192,255834,1,0,0:0:0:0:
64,192,255954,1,0,0:0:0:70:fill_snare_low.wav
320,192,255954,1,0,0:0:0:0:
448,192,255954,1,0,0:0:0:0:
64,192,256074,1,0,0:0:0:70:fill_snare_low.wav
192,192,256074,1,0,0:0:0:0:
448,192,256074,1,0,0:0:0:0:
64,192,256194,1,0,0:0:0:70:fill_snare_low.wav
192,192,256194,1,0,0:0:0:0:
448,192,256194,1,0,0:0:0:0:
192,192,256314,1,0,0:0:0:70:fill_snare_high.wav
320,192,256314,1,0,0:0:0:0:
64,192,256434,1,0,0:0:0:70:fill_snare_high.wav
448,192,256434,1,0,0:0:0:0:
192,192,256554,1,0,0:0:0:0:
448,192,256614,1,0,0:0:0:0:
64,192,256674,1,0,0:0:0:0:
320,192,256734,1,0,0:0:0:0:
64,192,256794,1,0,0:0:0:70:fill_snare_high.wav
192,192,256794,1,0,0:0:0:0:
320,192,256854,1,0,0:0:0:70:fill_snare_high.wav
64,192,256914,1,0,0:0:0:70:fill_snare_high.wav
448,192,256914,1,0,0:0:0:0:
192,192,256974,1,0,0:0:0:70:fill_snare_high.wav
320,192,257034,1,0,0:0:0:70:fill_snare.wav
448,192,257034,1,0,0:0:0:0:
192,192,257094,1,0,0:0:0:70:fill_snare.wav
64,192,257154,1,0,0:0:0:70:fill_snare.wav
448,192,257154,1,0,0:0:0:0:
320,192,257214,1,0,0:0:0:70:fill_snare.wav
64,192,257274,1,0,0:0:0:70:Kick 19.wav
192,192,257274,1,0,0:0:0:70:CrashL.wav
192,192,257394,1,0,0:0:0:70:VEC3 Snares 003.wav
320,192,257394,1,0,0:0:0:0:
448,192,257394,1,0,0:0:0:0:
64,192,257514,1,0,0:0:0:70:Kick 19.wav
448,192,257514,1,0,0:0:0:0:
320,192,257574,1,0,0:0:0:70:Kick 19.wav
64,192,257634,1,0,0:0:0:70:VEC3 Snares 003.wav
192,192,257634,1,0,0:0:0:0:
448,192,257634,1,0,0:0:0:0:
192,192,257754,1,0,0:0:0:70:Kick 19.wav
320,192,257754,1,0,0:0:0:0:
64,192,257874,1,0,0:0:0:70:VEC3 Snares 003.wav
320,192,257874,1,0,0:0:0:0:
448,192,257874,1,0,0:0:0:0:
64,192,257994,1,0,0:0:0:70:Kick 19.wav
192,192,257994,1,0,0:0:0:0:
320,192,258054,1,0,0:0:0:70:Kick 19.wav
64,192,258114,1,0,0:0:0:70:VEC3 Snares 003.wav
192,192,258114,1,0,0:0:0:0:
448,192,258114,1,0,0:0:0:0:
320,192,258234,1,0,0:0:0:70:Kick 19.wav
448,192,258234,1,0,0:0:0:0:
64,192,258354,1,0,0:0:0:70:VEC3 Snares 003.wav
192,192,258354,1,0,0:0:0:0:
320,192,258354,1,0,0:0:0:0:
64,192,258474,1,0,0:0:0:70:Kick 19.wav
448,192,258474,1,0,0:0:0:0:
192,192,258534,1,0,0:0:0:70:Kick 19.wav
64,192,258594,1,0,0:0:0:70:VEC3 Snares 003.wav
320,192,258594,1,0,0:0:0:0:
448,192,258594,1,0,0:0:0:0:
192,192,258714,1,0,0:0:0:70:Kick 19.wav
320,192,258714,1,0,0:0:0:0:
64,192,258834,1,0,0:0:0:70:VEC3 Snares 003.wav
192,192,258834,1,0,0:0:0:0:
448,192,258834,1,0,0:0:0:0:
320,192,258954,1,0,0:0:0:70:Kick 19.wav
448,192,258954,1,0,0:0:0:0:
64,192,259194,1,0,0:0:0:70:Kick 19.wav
192,192,259194,1,0,0:0:0:70:CrashL.wav
64,192,259314,1,0,0:0:0:70:VEC3 Snares 003.wav
320,192,259314,1,0,0:0:0:0:
448,192,259314,1,0,0:0:0:0:
192,192,259434,1,0,0:0:0:70:Kick 19.wav
448,192,259434,1,0,0:0:0:0:
320,192,259494,1,0,0:0:0:70:Kick 19.wav
64,192,259554,1,0,0:0:0:70:VEC3 Snares 003.wav
192,192,259554,1,0,0:0:0:0:
448,192,259554,1,0,0:0:0:0:
64,192,259674,1,0,0:0:0:70:Kick 19.wav
320,192,259674,1,0,0:0:0:0:
192,192,259794,1,0,0:0:0:70:VEC3 Snares 003.wav
320,192,259794,1,0,0:0:0:0:
448,192,259794,1,0,0:0:0:0:
64,192,259914,1,0,0:0:0:70:Kick 19.wav
192,192,259914,1,0,0:0:0:0:
320,192,259974,1,0,0:0:0:70:Kick 19.wav
64,192,260034,1,0,0:0:0:70:VEC3 Snares 003.wav
192,192,260034,1,0,0:0:0:0:
448,192,260034,1,0,0:0:0:0:
64,192,260154,1,0,0:0:0:70:Kick 19.wav
320,192,260154,1,0,0:0:0:0:
192,192,260274,1,0,0:0:0:70:VEC3 Snares 003.wav
320,192,260274,1,0,0:0:0:0:
448,192,260274,1,0,0:0:0:0:
64,192,260394,1,0,0:0:0:70:Kick 19.wav
448,192,260394,1,0,0:0:0:0:
320,192,260454,1,0,0:0:0:70:Kick 19.wav
64,192,260514,1,0,0:0:0:70:VEC3 Snares 003.wav
192,192,260514,1,0,0:0:0:0:
448,192,260514,1,0,0:0:0:0:
192,192,260634,1,0,0:0:0:70:Kick 19.wav
320,192,260634,1,0,0:0:0:0:
64,192,260754,1,0,0:0:0:70:VEC3 Snares 003.wav
320,192,260754,1,0,0:0:0:0:
448,192,260754,1,0,0:0:0:0:
192,192,260874,1,0,0:0:0:70:Kick 19.wav
448,192,260874,1,0,0:0:0:0:
320,192,260934,1,0,0:0:0:70:Kick 19.wav
64,192,260994,1,0,0:0:0:70:Kick 19.wav
192,192,260994,1,0,0:0:0:0:
320,192,261054,1,0,0:0:0:70:Kick 19.wav
64,192,261114,1,0,0:0:0:70:Kick 19.wav
448,192,261114,1,0,0:0:0:70:CrashL.wav
192,192,261234,1,0,0:0:0:70:VEC3 Snares 003.wav
320,192,261234,1,0,0:0:0:0:
448,192,261234,1,0,0:0:0:0:
64,192,261354,1,0,0:0:0:70:Kick 19.wav
192,192,261354,1,0,0:0:0:0:
448,192,261414,1,0,0:0:0:70:Kick 19.wav
64,192,261474,1,0,0:0:0:70:VEC3 Snares 003.wav
192,192,261474,1,0,0:0:0:0:
320,192,261474,1,0,0:0:0:0:
64,192,261594,1,0,0:0:0:70:Kick 19.wav
448,192,261594,1,0,0:0:0:0:
192,192,261714,1,0,0:0:0:70:VEC3 Snares 003.wav
320,192,261714,1,0,0:0:0:0:
448,192,261714,1,0,0:0:0:0:
64,192,261834,1,0,0:0:0:70:Kick 19.wav
192,192,261834,1,0,0:0:0:0:
320,192,261894,1,0,0:0:0:70:Kick 19.wav
64,192,261954,1,0,0:0:0:70:VEC3 Snares 003.wav
192,192,261954,1,0,0:0:0:0:
448,192,261954,1,0,0:0:0:0:
320,192,262074,1,0,0:0:0:70:Kick 19.wav
448,192,262074,1,0,0:0:0:0:
64,192,262194,1,0,0:0:0:70:VEC3 Snares 003.wav
192,192,262194,1,0,0:0:0:0:
320,192,262194,1,0,0:0:0:0:
64,192,262314,1,0,0:0:0:70:Kick 19.wav
448,192,262314,1,0,0:0:0:0:
192,192,262374,1,0,0:0:0:70:Kick 19.wav
64,192,262434,1,0,0:0:0:70:VEC3 Snares 003.wav
320,192,262434,1,0,0:0:0:0:
448,192,262434,1,0,0:0:0:0:
192,192,262554,1,0,0:0:0:70:Kick 19.wav
320,192,262554,1,0,0:0:0:0:
64,192,262674,1,0,0:0:0:70:VEC3 Snares 003.wav
192,192,262674,1,0,0:0:0:0:
448,192,262674,1,0,0:0:0:0:
320,192,262794,1,0,0:0:0:70:Kick 19.wav
448,192,262794,1,0,0:0:0:0:
64,192,262914,1,0,0:0:0:70:Kick 19.wav
192,192,262914,1,0,0:0:0:0:
320,192,263034,1,0,0:0:0:70:Kick 19.wav
448,192,263034,1,0,0:0:0:70:CrashL.wav
192,192,263094,1,0,0:0:0:70:Kick 19.wav
320,192,263154,1,0,0:0:0:70:Kick 19.wav
448,192,263154,1,0,0:0:0:0:
192,192,263214,1,0,0:0:0:70:Kick 19.wav
320,192,263274,1,0,0:0:0:70:Kick 19.wav
448,192,263274,1,0,0:0:0:70:CrashL.wav
64,192,263334,1,0,0:0:0:70:Kick 19.wav
320,192,263394,1,0,0:0:0:70:Kick 19.wav
448,192,263394,1,0,0:0:0:0:
64,192,263454,1,0,0:0:0:70:Kick 19.wav
320,192,263514,1,0,0:0:0:70:Kick 19.wav
448,192,263514,1,0,0:0:0:70:CrashL.wav
64,192,263574,1,0,0:0:0:70:Kick 19.wav
320,192,263634,1,0,0:0:0:70:Kick 19.wav
448,192,263634,1,0,0:0:0:0:
64,192,263694,1,0,0:0:0:70:Kick 19.wav
320,192,263754,1,0,0:0:0:70:Kick 19.wav
448,192,263754,1,0,0:0:0:70:CrashL.wav
64,192,263814,1,0,0:0:0:70:Kick 19.wav
320,192,263874,1,0,0:0:0:70:Kick 19.wav
448,192,263874,1,0,0:0:0:0:
64,192,263934,1,0,0:0:0:70:Kick 19.wav
192,192,263994,1,0,0:0:0:70:VEC3 Snares 003.wav
320,192,263994,1,0,0:0:0:70:CrashR.wav
448,192,263994,1,0,0:0:0:0:
64,192,264114,1,0,0:0:0:70:Kick 19.wav
192,192,264114,1,0,0:0:0:0:
320,192,264174,1,0,0:0:0:70:Kick 19.wav
64,192,264234,1,0,0:0:0:70:Kick 19.wav
192,192,264234,1,0,0:0:0:0:
64,192,264354,1,0,0:0:0:70:Kick 19.wav
192,192,264354,1,0,0:0:0:0:
64,192,264474,1,0,0:0:0:70:VEC3 Snares 003.wav
320,192,264474,1,0,0:0:0:70:CrashR.wav
448,192,264474,1,0,0:0:0:0:
192,192,264534,1,0,0:0:0:70:fill_snare_low.wav
448,192,264594,1,0,0:0:0:70:fill_snare_low.wav
320,192,264654,1,0,0:0:0:70:fill_snare_low.wav
64,192,264714,1,0,0:0:0:70:VEC3 Snares 003.wav
192,192,264714,1,0,0:0:0:70:CrashR.wav
448,192,264714,1,0,0:0:0:0:
320,192,264774,1,0,0:0:0:70:fill_snare_low.wav
64,192,264834,1,0,0:0:0:70:fill_snare_low.wav
192,192,264834,1,0,0:0:0:0:
320,192,264894,1,0,0:0:0:70:fill_snare_low.wav
64,192,264954,1,0,0:0:0:70:Kick 19.wav
192,192,264954,128,0,265014:0:0:0:70:CrashL.wav
448,192,264954,128,0,265014:0:0:0:0:
64,192,265074,128,0,265134:0:0:0:70:VEC3 Snares 003.wav
320,192,265074,128,0,265134:0:0:0:0:
448,192,265074,1,0,0:0:0:0:
64,192,265194,1,0,0:0:0:70:Kick 19.wav
192,192,265194,1,0,0:0:0:0:
320,192,265254,1,0,0:0:0:70:Kick 19.wav
64,192,265314,128,0,265374:0:0:0:70:VEC3 Snares 003.wav
192,192,265314,128,0,265374:0:0:0:0:
448,192,265314,1,0,0:0:0:0:
320,192,265434,128,0,265494:0:0:0:70:Kick 19.wav
448,192,265434,128,0,265494:0:0:0:0:
64,192,265554,1,0,0:0:0:70:VEC3 Snares 003.wav
192,192,265554,1,0,0:0:0:0:
320,192,265554,1,0,0:0:0:0:
64,192,265674,1,0,0:0:0:70:Kick 19.wav
448,192,265674,1,0,0:0:0:0:
192,192,265734,1,0,0:0:0:70:Kick 19.wav
64,192,265794,1,0,0:0:0:70:VEC3 Snares 003.wav
320,192,265794,128,0,265854:0:0:0:0:
448,192,265794,128,0,265854:0:0:0:0:
64,192,265914,128,0,265974:0:0:0:70:Kick 19.wav
192,192,265914,128,0,265974:0:0:0:0:
192,192,266034,1,0,0:0:0:70:VEC3 Snares 003.wav
320,192,266034,1,0,0:0:0:0:
448,192,266034,1,0,0:0:0:0:
64,192,266154,1,0,0:0:0:70:Kick 19.wav
448,192,266154,1,0,0:0:0:0:
320,192,266214,1,0,0:0:0:70:Kick 19.wav
64,192,266274,128,0,266334:0:0:0:70:VEC3 Snares 003.wav
192,192,266274,128,0,266334:0:0:0:0:
448,192,266274,1,0,0:0:0:0:
320,192,266394,128,0,266454:0:0:0:70:Kick 19.wav
448,192,266394,128,0,266454:0:0:0:0:
64,192,266514,1,0,0:0:0:70:VEC3 Snares 003.wav
192,192,266514,1,0,0:0:0:0:
320,192,266514,1,0,0:0:0:0:
64,192,266634,1,0,0:0:0:70:Kick 19.wav
192,192,266634,1,0,0:0:0:0:
320,192,266754,1,0,0:0:0:70:Kick 19.wav
448,192,266754,1,0,0:0:0:0:
192,192,266814,1,0,0:0:0:70:Kick 19.wav
320,192,266874,128,0,266934:0:0:0:70:Kick 19.wav
448,192,266874,128,0,266934:0:0:0:70:CrashL.wav
64,192,266994,128,0,267054:0:0:0:70:VEC3 Snares 003.wav
192,192,266994,128,0,267054:0:0:0:0:
448,192,266994,1,0,0:0:0:0:
192,192,267114,1,0,0:0:0:70:Kick 19.wav
320,192,267114,1,0,0:0:0:0:
448,192,267174,1,0,0:0:0:70:Kick 19.wav
64,192,267234,128,0,267294:0:0:0:70:VEC3 Snares 003.wav
192,192,267234,128,0,267294:0:0:0:0:
320,192,267234,1,0,0:0:0:0:
320,192,267354,128,0,267414:0:0:0:70:Kick 19.wav
448,192,267354,128,0,267414:0:0:0:0:
64,192,267474,1,0,0:0:0:70:VEC3 Snares 003.wav
192,192,267474,1,0,0:0:0:0:
448,192,267474,1,0,0:0:0:0:
64,192,267594,1,0,0:0:0:70:Kick 19.wav
320,192,267594,1,0,0:0:0:0:
192,192,267654,1,0,0:0:0:70:Kick 19.wav
64,192,267714,128,0,267774:0:0:0:70:VEC3 Snares 003.wav
320,192,267714,128,0,267774:0:0:0:0:
448,192,267714,1,0,0:0:0:0:
192,192,267834,128,0,267894:0:0:0:70:Kick 19.wav
448,192,267834,128,0,267894:0:0:0:0:
64,192,267954,1,0,0:0:0:70:VEC3 Snares 003.wav
192,192,267954,1,0,0:0:0:0:
320,192,267954,1,0,0:0:0:0:
64,192,268074,1,0,0:0:0:70:Kick 19.wav
448,192,268074,1,0,0:0:0:0:
320,192,268134,1,0,0:0:0:70:Kick 19.wav
64,192,268194,128,0,268254:0:0:0:70:VEC3 Snares 003.wav
192,192,268194,128,0,268254:0:0:0:0:
448,192,268194,1,0,0:0:0:0:
320,192,268314,128,0,268374:0:0:0:70:Kick 19.wav
448,192,268314,128,0,268374:0:0:0:0:
64,192,268434,1,0,0:0:0:70:VEC3 Snares 003.wav
192,192,268434,1,0,0:0:0:0:
320,192,268434,1,0,0:0:0:0:
192,192,268554,1,0,0:0:0:70:Kick 19.wav
448,192,268554,1,0,0:0:0:0:
64,192,268614,1,0,0:0:0:70:Kick 19.wav
320,192,268674,1,0,0:0:0:70:Kick 19.wav
448,192,268674,1,0,0:0:0:0:
192,192,268734,1,0,0:0:0:70:Kick 19.wav
64,192,268794,128,0,268854:0:0:0:70:Kick 19.wav
448,192,268794,128,0,268854:0:0:0:70:CrashL.wav
64,192,268914,128,0,268974:0:0:0:70:VEC3 Snares 003.wav
192,192,268914,128,0,268974:0:0:0:0:
320,192,268914,1,0,0:0:0:0:
320,192,269034,1,0,0:0:0:70:Kick 19.wav
448,192,269034,1,0,0:0:0:0:
192,192,269094,1,0,0:0:0:70:Kick 19.wav
64,192,269154,128,0,269214:0:0:0:70:VEC3 Snares 003.wav
320,192,269154,1,0,0:0:0:0:
448,192,269154,128,0,269214:0:0:0:0:
192,192,269274,128,0,269334:0:0:0:70:Kick 19.wav
320,192,269274,128,0,269334:0:0:0:0:
64,192,269394,1,0,0:0:0:70:VEC3 Snares 003.wav
192,192,269394,1,0,0:0:0:0:
448,192,269394,1,0,0:0:0:0:
320,192,269514,1,0,0:0:0:70:Kick 19.wav
448,192,269514,1,0,0:0:0:0:
192,192,269574,1,0,0:0:0:70:Kick 19.wav
64,192,269634,128,0,269694:0:0:0:70:VEC3 Snares 003.wav
320,192,269634,128,0,269694:0:0:0:0:
448,192,269634,1,0,0:0:0:0:
192,192,269754,128,0,269814:0:0:0:70:Kick 19.wav
448,192,269754,128,0,269814:0:0:0:0:
64,192,269874,1,0,0:0:0:70:VEC3 Snares 003.wav
192,192,269874,1,0,0:0:0:0:
320,192,269874,1,0,0:0:0:0:
64,192,269994,1,0,0:0:0:70:Kick 19.wav
448,192,269994,1,0,0:0:0:0:
192,192,270054,1,0,0:0:0:70:Kick 19.wav
64,192,270114,128,0,270174:0:0:0:70:VEC3 Snares 003.wav
320,192,270114,1,0,0:0:0:0:
448,192,270114,128,0,270174:0:0:0:0:
192,192,270234,128,0,270294:0:0:0:70:Kick 19.wav
320,192,270234,128,0,270294:0:0:0:0:
64,192,270354,1,0,0:0:0:70:VEC3 Snares 003.wav
192,192,270354,1,0,0:0:0:0:
448,192,270354,1,0,0:0:0:0:
320,192,270474,1,0,0:0:0:70:Kick 19.wav
448,192,270474,1,0,0:0:0:0:
320,192,270594,1,0,0:0:0:70:Kick 19.wav
448,192,270594,1,0,0:0:0:0:
64,192,270714,1,0,0:0:0:70:Kick 19.wav
192,192,270714,1,0,0:0:0:70:CrashL.wav
448,192,270774,1,0,0:0:0:70:Kick 19.wav
64,192,270834,1,0,0:0:0:70:Kick 19.wav
192,192,270834,1,0,0:0:0:0:
448,192,270894,1,0,0:0:0:70:Kick 19.wav
64,192,270954,1,0,0:0:0:70:Kick 19.wav
192,192,270954,1,0,0:0:0:70:CrashL.wav
320,192,271014,1,0,0:0:0:70:Kick 19.wav
64,192,271074,1,0,0:0:0:70:Kick 19.wav
192,192,271074,1,0,0:0:0:0:
320,192,271134,1,0,0:0:0:70:Kick 19.wav
64,192,271194,1,0,0:0:0:70:Kick 19.wav
192,192,271194,1,0,0:0:0:70:CrashL.wav
320,192,271254,1,0,0:0:0:70:Kick 19.wav
64,192,271314,1,0,0:0:0:70:Kick 19.wav
192,192,271314,1,0,0:0:0:0:
320,192,271374,1,0,0:0:0:70:Kick 19.wav
64,192,271434,1,0,0:0:0:70:Kick 19.wav
192,192,271434,1,0,0:0:0:70:CrashL.wav
320,192,271494,1,0,0:0:0:70:Kick 19.wav
64,192,271554,1,0,0:0:0:70:Kick 19.wav
192,192,271554,1,0,0:0:0:0:
320,192,271614,1,0,0:0:0:70:Kick 19.wav
64,192,271674,1,0,0:0:0:70:VEC3 Snares 003.wav
192,192,271674,1,0,0:0:0:70:CrashR.wav
448,192,271674,1,0,0:0:0:0:
320,192,271794,1,0,0:0:0:70:Kick 19.wav
448,192,271794,1,0,0:0:0:0:
192,192,271854,1,0,0:0:0:70:Kick 19.wav
320,192,271914,1,0,0:0:0:70:Kick 19.wav
448,192,271914,1,0,0:0:0:0:
320,192,272034,1,0,0:0:0:70:Kick 19.wav
448,192,272034,1,0,0:0:0:0:
64,192,272154,1,0,0:0:0:70:VEC3 Snares 003.wav
192,192,272154,1,0,0:0:0:70:CrashR.wav
448,192,272154,1,0,0:0:0:0:
64,192,272274,1,0,0:0:0:70:Kick 19.wav
192,192,272274,1,0,0:0:0:0:
64,192,272394,1,0,0:0:0:70:VEC3 Snares 003.wav
320,192,272394,1,0,0:0:0:70:CrashR.wav
448,192,272394,1,0,0:0:0:0:
192,192,272514,1,0,0:0:0:70:Kick 19.wav
320,192,272574,1,0,0:0:0:70:VEC3 Snares 003.wav
448,192,272574,1,0,0:0:0:70:CrashR.wav
64,192,272634,1,0,0:0:0:70:Kick 19.wav
192,192,272634,1,0,0:0:0:70:CrashL.wav
64,192,272754,1,0,0:0:0:70:VEC3 Snares 003.wav
320,192,272754,1,0,0:0:0:0:
448,192,272754,1,0,0:0:0:0:
192,192,272874,1,0,0:0:0:70:Kick 19.wav
320,192,272874,1,0,0:0:0:0:
64,192,272934,1,0,0:0:0:70:Kick 19.wav
192,192,272994,1,0,0:0:0:70:VEC3 Snares 003.wav
320,192,272994,1,0,0:0:0:0:
448,192,272994,1,0,0:0:0:0:
64,192,273114,1,0,0:0:0:70:Kick 19.wav
448,192,273114,1,0,0:0:0:70:CrashR.wav
64,192,273234,128,0,273294:0:0:0:70:VEC3 Snares 003.wav
320,192,273234,1,0,0:0:0:0:
448,192,273234,1,0,0:0:0:0:
192,192,273294,128,0,273354:0:0:0:0:
320,192,273354,128,0,273414:0:0:0:70:Kick 19.wav
448,192,273354,128,0,273414:0:0:0:0:
192,192,273414,1,0,0:0:0:70:Kick 19.wav
64,192,273474,128,0,273534:0:0:0:70:VEC3 Snares 003.wav
320,192,273474,128,0,273534:0:0:0:0:
448,192,273474,1,0,0:0:0:0:
192,192,273594,128,0,273654:0:0:0:70:Kick 19.wav
448,192,273594,128,0,273654:0:0:0:70:CrashL.wav
64,192,273714,128,0,273774:0:0:0:70:VEC3 Snares 003.wav
192,192,273714,128,0,273774:0:0:0:0:
320,192,273714,1,0,0:0:0:0:
320,192,273834,128,0,273894:0:0:0:70:Kick 19.wav
448,192,273834,128,0,273894:0:0:0:0:
192,192,273894,1,0,0:0:0:70:Kick 19.wav
64,192,273954,128,0,274014:0:0:0:70:VEC3 Snares 003.wav
320,192,273954,1,0,0:0:0:0:
448,192,273954,128,0,274014:0:0:0:0:
320,192,274074,128,0,274134:0:0:0:70:Kick 19.wav
448,192,274074,128,0,274134:0:0:0:70:CrashR.wav
64,192,274194,1,0,0:0:0:70:VEC3 Snares 003.wav
192,192,274194,128,0,274254:0:0:0:0:
320,192,274194,128,0,274254:0:0:0:0:
64,192,274314,128,0,274554:0:0:0:70:Kick 19.wav
192,192,274314,128,0,274554:0:0:0:0:
320,192,274554,1,0,0:0:0:70:Kick 19.wav
448,192,274554,1,0,0:0:0:70:CrashL.wav
64,192,274674,1,0,0:0:0:70:VEC3 Snares 003.wav
192,192,274674,1,0,0:0:0:0:
448,192,274674,1,0,0:0:0:0:
192,192,274794,1,0,0:0:0:70:Kick 19.wav
320,192,274794,1,0,0:0:0:0:
448,192,274854,1,0,0:0:0:70:Kick 19.wav
64,192,274914,1,0,0:0:0:70:VEC3 Snares 003.wav
192,192,274914,1,0,0:0:0:0:
320,192,274914,1,0,0:0:0:0:
64,192,275034,1,0,0:0:0:70:Kick 19.wav
448,192,275034,1,0,0:0:0:70:CrashR.wav
192,192,275154,128,0,275214:0:0:0:70:VEC3 Snares 003.wav
320,192,275154,128,0,275214:0:0:0:0:
448,192,275154,1,0,0:0:0:0:
64,192,275274,128,0,275334:0:0:0:70:Kick 19.wav
192,192,275274,128,0,275334:0:0:0:0:
320,192,275334,1,0,0:0:0:70:Kick 19.wav
64,192,275394,128,0,275454:0:0:0:70:VEC3 Snares 003.wav
192,192,275394,1,0,0:0:0:0:
448,192,275394,128,0,275454:0:0:0:0:
192,192,275514,128,0,275574:0:0:0:70:Kick 19.wav
320,192,275514,128,0,275574:0:0:0:70:CrashL.wav
64,192,275634,1,0,0:0:0:70:VEC3 Snares 003.wav
320,192,275634,128,0,275694:0:0:0:0:
448,192,275634,128,0,275694:0:0:0:0:
192,192,275754,128,0,275814:0:0:0:70:Kick 19.wav
320,192,275754,128,0,275814:0:0:0:0:
448,192,275814,1,0,0:0:0:70:Kick 19.wav
64,192,275874,128,0,275934:0:0:0:70:VEC3 Snares 003.wav
192,192,275874,128,0,275934:0:0:0:0:
320,192,275874,1,0,0:0:0:0:
64,192,275994,128,0,276054:0:0:0:70:Kick 19.wav
320,192,275994,128,0,276054:0:0:0:70:CrashR.wav
192,192,276114,128,0,276174:0:0:0:70:VEC3 Snares 003.wav
320,192,276114,1,0,0:0:0:0:
448,192,276114,128,0,276174:0:0:0:0:
64,192,276234,128,0,276294:0:0:0:70:Kick 19.wav
448,192,276234,128,0,276294:0:0:0:0:
320,192,276294,1,0,0:0:0:70:Kick 19.wav
64,192,276354,128,0,276414:0:0:0:70:Kick 19.wav
192,192,276354,128,0,276414:0:0:0:0:
320,192,276414,1,0,0:0:0:70:Kick 19.wav
64,192,276474,128,0,276534:0:0:0:70:Kick 19.wav
192,192,276474,128,0,276534:0:0:0:70:CrashL.wav
448,192,276474,1,0,0:0:0:0:
192,192,276594,128,0,276654:0:0:0:70:Kick 19.wav
320,192,276594,128,0,276654:0:0:0:0:
64,192,276714,1,0,0:0:0:70:VEC3 Snares 003.wav
320,192,276714,128,0,276774:0:0:0:0:
448,192,276714,128,0,276774:0:0:0:0:
64,192,276834,128,0,276894:0:0:0:70:Kick 19.wav
192,192,276834,128,0,276894:0:0:0:0:
192,192,276954,128,0,277014:0:0:0:70:Kick 19.wav
320,192,276954,128,0,277014:0:0:0:70:CrashR.wav
64,192,277074,128,0,277134:0:0:0:70:Kick 19.wav
448,192,277074,128,0,277134:0:0:0:0:
64,192,277194,128,0,277254:0:0:0:70:VEC3 Snares 003.wav
192,192,277194,128,0,277254:0:0:0:0:
320,192,277194,1,0,0:0:0:0:
320,192,277314,128,0,277374:0:0:0:70:Kick 19.wav
448,192,277314,128,0,277374:0:0:0:0:
192,192,277374,1,0,0:0:0:70:Kick 19.wav
64,192,277434,128,0,277494:0:0:0:70:Kick 19.wav
448,192,277434,128,0,277494:0:0:0:70:CrashL.wav
192,192,277554,128,0,277614:0:0:0:70:Kick 19.wav
320,192,277554,128,0,277614:0:0:0:0:
64,192,277674,128,0,277734:0:0:0:70:VEC3 Snares 003.wav
192,192,277674,128,0,277734:0:0:0:0:
448,192,277674,1,0,0:0:0:0:
320,192,277794,128,0,277854:0:0:0:70:Kick 19.wav
448,192,277794,128,0,277854:0:0:0:0:
64,192,277914,128,0,277974:0:0:0:70:Kick 19.wav
192,192,277914,128,0,277974:0:0:0:70:CrashR.wav
192,192,278034,128,0,278094:0:0:0:70:Kick 19.wav
448,192,278034,128,0,278094:0:0:0:0:
64,192,278154,1,0,0:0:0:70:VEC3 Snares 003.wav
320,192,278154,128,0,278214:0:0:0:0:
448,192,278154,128,0,278214:0:0:0:0:
192,192,278214,128,0,278274:0:0:0:0:
320,192,278274,1,0,0:0:0:70:Kick 19.wav
448,192,278274,1,0,0:0:0:0:
64,192,278394,128,0,278514:0:0:0:70:Kick 19.wav
192,192,278394,128,0,278454:0:0:0:70:CrashL.wav
320,192,278454,128,0,278514:0:0:0:70:Kick 19.wav
192,192,278514,128,0,278634:0:0:0:70:Kick 19.wav
448,192,278514,128,0,278574:0:0:0:0:
64,192,278574,128,0,278634:0:0:0:70:Kick 19.wav
320,192,278634,128,0,278694:0:0:0:70:Kick 19.wav
448,192,278634,128,0,278754:0:0:0:70:CrashL.wav
192,192,278694,128,0,278754:0:0:0:70:Kick 19.wav
64,192,278754,128,0,278814:0:0:0:70:Kick 19.wav
320,192,278754,128,0,278874:0:0:0:0:
448,192,278814,128,0,278874:0:0:0:70:Kick 19.wav
64,192,278874,128,0,278994:0:0:0:70:Kick 19.wav
192,192,278874,128,0,278934:0:0:0:70:CrashL.wav
320,192,278934,128,0,278994:0:0:0:70:Kick 19.wav
192,192,278994,128,0,279114:0:0:0:70:Kick 19.wav
448,192,278994,128,0,279054:0:0:0:0:
64,192,279054,128,0,279114:0:0:0:70:Kick 19.wav
320,192,279114,128,0,279234:0:0:0:70:Kick 19.wav
448,192,279114,128,0,279174:0:0:0:70:CrashL.wav
192,192,279174,128,0,279234:0:0:0:70:Kick 19.wav
64,192,279234,128,0,279294:0:0:0:70:Kick 19.wav
448,192,279234,128,0,279294:0:0:0:0:
320,192,279294,128,0,279354:0:0:0:70:Kick 19.wav
64,192,279354,128,0,279414:0:0:0:70:VEC3 Snares 003.wav
192,192,279354,128,0,279414:0:0:0:70:CrashR.wav
448,192,279354,1,0,0:0:0:0:
192,192,279474,128,0,279534:0:0:0:70:Kick 19.wav
320,192,279474,128,0,279534:0:0:0:0:
448,192,279534,1,0,0:0:0:70:Kick 19.wav
64,192,279594,128,0,279654:0:0:0:70:Kick 19.wav
320,192,279594,128,0,279654:0:0:0:0:
192,192,279714,128,0,279774:0:0:0:70:Kick 19.wav
448,192,279714,128,0,279774:0:0:0:0:
64,192,279834,1,0,0:0:0:70:VEC3 Snares 003.wav
320,192,279834,128,0,279894:0:0:0:70:CrashR.wav
448,192,279834,128,0,279894:0:0:0:0:
192,192,279954,128,0,280014:0:0:0:70:Kick 19.wav
320,192,279954,128,0,280014:0:0:0:0:
64,192,280074,128,0,280134:0:0:0:70:VEC3 Snares 003.wav
192,192,280074,128,0,280134:0:0:0:70:CrashR.wav
448,192,280074,1,0,0:0:0:0:
64,192,280194,128,0,280254:0:0:0:70:Kick 19.wav
448,192,280194,128,0,280254:0:0:0:0:
192,192,280254,1,0,0:0:0:70:VEC3 Snares 003.wav
320,192,280254,1,0,0:0:0:0:
64,192,280314,1,0,0:0:0:70:Kick 19.wav
448,192,280314,1,0,0:0:0:70:CrashL.wav
64,192,280434,1,0,0:0:0:70:VEC3 Snares 003.wav
192,192,280434,1,0,0:0:0:0:
320,192,280434,1,0,0:0:0:0:
320,192,280554,1,0,0:0:0:70:Kick 19.wav
448,192,280554,1,0,0:0:0:0:
192,192,280614,1,0,0:0:0:70:Kick 19.wav
64,192,280674,1,0,0:0:0:70:VEC3 Snares 003.wav
320,192,280674,1,0,0:0:0:0:
448,192,280674,1,0,0:0:0:0:
64,192,280794,1,0,0:0:0:70:Kick 19.wav
192,192,280794,1,0,0:0:0:70:CrashR.wav
192,192,280914,128,0,280974:0:0:0:70:VEC3 Snares 003.wav
320,192,280914,128,0,280974:0:0:0:0:
448,192,280914,1,0,0:0:0:0:
64,192,281034,128,0,281094:0:0:0:70:Kick 19.wav
448,192,281034,128,0,281094:0:0:0:0:
320,192,281094,1,0,0:0:0:70:Kick 19.wav
64,192,281154,128,0,281214:0:0:0:70:VEC3 Snares 003.wav
192,192,281154,128,0,281214:0:0:0:0:
448,192,281154,1,0,0:0:0:0:
192,192,281274,128,0,281334:0:0:0:70:Kick 19.wav
320,192,281274,128,0,281334:0:0:0:70:CrashL.wav
64,192,281394,128,0,281454:0:0:0:70:VEC3 Snares 003.wav
320,192,281394,128,0,281454:0:0:0:0:
448,192,281394,1,0,0:0:0:0:
64,192,281514,128,0,281574:0:0:0:70:Kick 19.wav
192,192,281514,128,0,281574:0:0:0:0:
320,192,281574,1,0,0:0:0:70:Kick 19.wav
64,192,281634,1,0,0:0:0:70:VEC3 Snares 003.wav
192,192,281634,128,0,281694:0:0:0:0:
448,192,281634,128,0,281694:0:0:0:0:
320,192,281754,128,0,281814:0:0:0:70:Kick 19.wav
448,192,281754,128,0,281814:0:0:0:70:CrashR.wav
64,192,281874,128,0,281934:0:0:0:70:VEC3 Snares 003.wav
192,192,281874,128,0,281934:0:0:0:0:
320,192,281874,1,0,0:0:0:0:
192,192,281994,128,0,282054:0:0:0:70:Kick 19.wav
448,192,281994,128,0,282054:0:0:0:0:
64,192,282114,1,0,0:0:0:70:VEC3 Snares 003.wav
320,192,282114,128,0,282174:0:0:0:0:
448,192,282114,128,0,282174:0:0:0:0:
192,192,282234,128,0,282294:0:0:0:70:Kick 19.wav
320,192,282234,128,0,282294:0:0:0:70:CrashL.wav
64,192,282354,128,0,282414:0:0:0:70:VEC3 Snares 003.wav
192,192,282354,128,0,282414:0:0:0:0:
448,192,282354,1,0,0:0:0:0:
320,192,282474,128,0,282534:0:0:0:70:Kick 19.wav
448,192,282474,128,0,282534:0:0:0:0:
192,192,282534,1,0,0:0:0:70:Kick 19.wav
64,192,282594,128,0,282654:0:0:0:70:VEC3 Snares 003.wav
320,192,282594,1,0,0:0:0:0:
448,192,282594,128,0,282654:0:0:0:0:
64,192,282714,128,0,282774:0:0:0:70:Kick 19.wav
192,192,282714,128,0,282774:0:0:0:70:CrashR.wav
320,192,282774,128,0,282834:0:0:0:0:
64,192,282834,128,0,282894:0:0:0:70:VEC3 Snares 003.wav
192,192,282834,1,0,0:0:0:0:
448,192,282834,128,0,282894:0:0:0:0:
192,192,282954,128,0,283014:0:0:0:70:Kick 19.wav
320,192,282954,128,0,283014:0:0:0:0:
64,192,283014,1,0,0:0:0:70:Kick 19.wav
192,192,283074,1,0,0:0:0:70:VEC3 Snares 003.wav
320,192,283074,128,0,283134:0:0:0:0:
448,192,283074,128,0,283134:0:0:0:0:
64,192,283194,128,0,283254:0:0:0:70:Kick 19.wav
448,192,283194,128,0,283254:0:0:0:70:CrashL.wav
64,192,283314,128,0,283374:0:0:0:70:VEC3 Snares 003.wav
192,192,283314,128,0,283374:0:0:0:0:
320,192,283314,1,0,0:0:0:0:
320,192,283434,128,0,283494:0:0:0:70:Kick 19.wav
448,192,283434,128,0,283494:0:0:0:0:
192,192,283494,1,0,0:0:0:70:Kick 19.wav
64,192,283554,128,0,283614:0:0:0:70:VEC3 Snares 003.wav
320,192,283554,1,0,0:0:0:0:
448,192,283554,128,0,283614:0:0:0:0:
192,192,283614,128,0,283674:0:0:0:0:
320,192,283674,128,0,283734:0:0:0:70:Kick 19.wav
448,192,283674,128,0,283734:0:0:0:70:CrashR.wav
64,192,283794,1,0,0:0:0:70:VEC3 Snares 003.wav
192,192,283794,128,0,283854:0:0:0:0:
448,192,283794,128,0,283854:0:0:0:0:
64,192,283914,128,0,283974:0:0:0:70:Kick 19.wav
320,192,283914,128,0,283974:0:0:0:0:
192,192,283974,1,0,0:0:0:70:Kick 19.wav
320,192,284034,128,0,284094:0:0:0:70:Kick 19.wav
448,192,284034,128,0,284094:0:0:0:0:
192,192,284094,1,0,0:0:0:70:Kick 19.wav
64,192,284154,128,0,284214:0:0:0:70:Kick 19.wav
320,192,284154,1,0,0:0:0:70:CrashL.wav
448,192,284154,128,0,284214:0:0:0:0:
64,192,284274,128,0,284334:0:0:0:70:Kick 19.wav
192,192,284274,128,0,284334:0:0:0:0:
192,192,284394,128,0,284454:0:0:0:70:VEC3 Snares 003.wav
320,192,284394,128,0,284454:0:0:0:0:
448,192,284394,1,0,0:0:0:0:
64,192,284514,128,0,284574:0:0:0:70:Kick 19.wav
448,192,284514,128,0,284574:0:0:0:0:
192,192,284634,1,0,0:0:0:0:
64,192,284754,128,0,284814:0:0:0:70:Kick 19.wav
192,192,284754,128,0,284814:0:0:0:0:
64,192,284874,1,0,0:0:0:70:VEC3 Snares 003.wav
320,192,284874,128,0,284934:0:0:0:0:
448,192,284874,128,0,284934:0:0:0:0:
192,192,284994,128,0,285054:0:0:0:70:Kick 19.wav
320,192,284994,128,0,285054:0:0:0:0:
64,192,285114,1,0,0:0:0:70:Kick 19.wav
448,192,285114,1,0,0:0:0:70:CrashL.wav
64,192,285234,128,0,285294:0:0:0:70:Kick 19.wav
320,192,285234,128,0,285294:0:0:0:0:
192,192,285354,128,0,285414:0:0:0:70:VEC3 Snares 003.wav
320,192,285354,128,0,285414:0:0:0:0:
448,192,285354,1,0,0:0:0:0:
64,192,285474,128,0,285534:0:0:0:70:Kick 19.wav
448,192,285474,128,0,285534:0:0:0:0:
192,192,285594,128,0,285654:0:0:0:70:CrashR.wav
320,192,285594,128,0,285654:0:0:0:0:
320,192,285714,128,0,285774:0:0:0:70:Kick 19.wav
448,192,285714,128,0,285774:0:0:0:0:
64,192,285834,128,0,285894:0:0:0:70:VEC3 Snares 003.wav
192,192,285834,1,0,0:0:0:0:
448,192,285834,128,0,285894:0:0:0:0:
320,192,285894,128,0,285954:0:0:0:0:
64,192,285954,128,0,286014:0:0:0:70:Kick 19.wav
192,192,285954,128,0,286014:0:0:0:0:
320,192,286074,128,0,286134:0:0:0:70:Kick 19.wav
448,192,286074,128,0,286194:0:0:0:70:CrashL.wav
192,192,286134,128,0,286194:0:0:0:70:Kick 19.wav
64,192,286194,128,0,286254:0:0:0:70:Kick 19.wav
320,192,286194,128,0,286314:0:0:0:0:
448,192,286254,128,0,286314:0:0:0:70:Kick 19.wav
64,192,286314,128,0,286434:0:0:0:70:Kick 19.wav
192,192,286314,128,0,286374:0:0:0:70:CrashL.wav
320,192,286374,128,0,286434:0:0:0:70:Kick 19.wav
192,192,286434,128,0,286554:0:0:0:70:Kick 19.wav
448,192,286434,128,0,286494:0:0:0:0:
64,192,286494,128,0,286554:0:0:0:70:Kick 19.wav
320,192,286554,128,0,286614:0:0:0:70:Kick 19.wav
448,192,286554,128,0,286674:0:0:0:70:CrashL.wav
192,192,286614,128,0,286674:0:0:0:70:Kick 19.wav
64,192,286674,128,0,286734:0:0:0:70:Kick 19.wav
320,192,286674,128,0,286794:0:0:0:0:
448,192,286734,128,0,286794:0:0:0:70:Kick 19.wav
64,192,286794,128,0,286854:0:0:0:70:Kick 19.wav
192,192,286794,128,0,286914:0:0:0:70:CrashL.wav
320,192,286854,128,0,286914:0:0:0:70:Kick 19.wav
64,192,286914,128,0,286974:0:0:0:70:Kick 19.wav
448,192,286914,128,0,286974:0:0:0:0:
192,192,286974,128,0,287034:0:0:0:70:Kick 19.wav
64,192,287034,1,0,0:0:0:70:VEC3 Snares 003.wav
320,192,287034,128,0,287094:0:0:0:70:CrashR.wav
448,192,287034,128,0,287094:0:0:0:0:
192,192,287154,128,0,287214:0:0:0:70:Kick 19.wav
320,192,287154,128,0,287214:0:0:0:0:
448,192,287214,1,0,0:0:0:70:Kick 19.wav
64,192,287274,128,0,287334:0:0:0:70:Kick 19.wav
192,192,287274,128,0,287334:0:0:0:0:
192,192,287394,128,0,287454:0:0:0:70:Kick 19.wav
320,192,287394,128,0,287454:0:0:0:0:
64,192,287514,1,0,0:0:0:70:VEC3 Snares 003.wav
320,192,287514,128,0,287574:0:0:0:70:CrashR.wav
448,192,287514,128,0,287574:0:0:0:0:
64,192,287634,128,0,287694:0:0:0:70:Kick 19.wav
192,192,287634,128,0,287694:0:0:0:0:
192,192,287754,1,0,0:0:0:70:VEC3 Snares 003.wav
320,192,287754,128,0,287814:0:0:0:70:CrashR.wav
448,192,287754,128,0,287814:0:0:0:0:
64,192,287874,128,0,287934:0:0:0:70:Kick 19.wav
192,192,287874,128,0,287934:0:0:0:0:
320,192,287934,1,0,0:0:0:70:VEC3 Snares 003.wav
64,192,287994,1,0,0:0:0:70:VEC3 Snares 003.wav
192,192,287994,1,0,0:0:0:70:CrashL.wav
448,192,287994,1,0,0:0:0:0:
64,192,288114,1,0,0:0:0:70:Kick 19.wav
192,192,288114,1,0,0:0:0:0:
320,192,288234,1,0,0:0:0:70:Kick 19.wav
448,192,288234,1,0,0:0:0:0:
192,192,288294,1,0,0:0:0:70:Kick 19.wav
64,192,288354,1,0,0:0:0:70:VEC3 Snares 003.wav
320,192,288354,1,0,0:0:0:0:
448,192,288354,1,0,0:0:0:0:
320,192,288594,1,0,0:0:0:70:Kick 19.wav
448,192,288594,1,0,0:0:0:0:
64,192,288714,1,0,0:0:0:70:VEC3 Snares 003.wav
192,192,288714,1,0,0:0:0:0:
448,192,288714,1,0,0:0:0:0:
64,192,288834,1,0,0:0:0:70:Kick 19.wav
192,192,288834,1,0,0:0:0:0:
64,192,288954,1,0,0:0:0:70:VEC3 Snares 003.wav
320,192,288954,1,0,0:0:0:0:
448,192,288954,1,0,0:0:0:0:
320,192,289074,1,0,0:0:0:70:Kick 19.wav
448,192,289074,1,0,0:0:0:0:
320,192,289194,1,0,0:0:0:70:Kick 19.wav
448,192,289194,1,0,0:0:0:0:
64,192,289314,1,0,0:0:0:70:VEC3 Snares 003.wav
192,192,289314,1,0,0:0:0:70:CrashR.wav
448,192,289314,1,0,0:0:0:0:
320,192,289374,1,0,0:0:0:70:Kick 19.wav
64,192,289554,1,0,0:0:0:70:Kick 19.wav
192,192,289554,1,0,0:0:0:0:
64,192,289674,1,0,0:0:0:70:VEC3 Snares 003.wav
320,192,289674,1,0,0:0:0:0:
448,192,289674,1,0,0:0:0:0:
320,192,289794,1,0,0:0:0:70:Kick 19.wav
448,192,289794,1,0,0:0:0:0:
64,192,289914,1,0,0:0:0:70:VEC3 Snares 003.wav
192,192,289914,1,0,0:0:0:0:
448,192,289914,1,0,0:0:0:0:
320,192,289974,1,0,0:0:0:70:Kick 19.wav
64,192,290034,1,0,0:0:0:70:Kick 19.wav
192,192,290034,1,0,0:0:0:0:
320,192,290154,1,0,0:0:0:70:Kick 19.wav
448,192,290154,1,0,0:0:0:0:
192,192,290214,1,0,0:0:0:70:Kick 19.wav
64,192,290274,1,0,0:0:0:70:VEC3 Snares 003.wav
320,192,290274,1,0,0:0:0:0:
448,192,290274,1,0,0:0:0:0:
320,192,290514,1,0,0:0:0:70:Kick 19.wav
448,192,290514,1,0,0:0:0:0:
64,192,290634,1,0,0:0:0:70:VEC3 Snares 003.wav
192,192,290634,1,0,0:0:0:0:
448,192,290634,1,0,0:0:0:0:
64,192,290754,1,0,0:0:0:70:Kick 19.wav
192,192,290754,1,0,0:0:0:0:
64,192,290874,1,0,0:0:0:70:VEC3 Snares 003.wav
320,192,290874,1,0,0:0:0:0:
448,192,290874,1,0,0:0:0:0:
320,192,290994,1,0,0:0:0:70:Kick 19.wav
448,192,290994,1,0,0:0:0:0:
320,192,291114,1,0,0:0:0:70:Kick 19.wav
448,192,291114,1,0,0:0:0:0:
64,192,291234,1,0,0:0:0:70:VEC3 Snares 003.wav
192,192,291234,1,0,0:0:0:0:
448,192,291234,1,0,0:0:0:0:
320,192,291294,1,0,0:0:0:70:Kick 19.wav
64,192,291474,1,0,0:0:0:70:Kick 19.wav
192,192,291474,1,0,0:0:0:0:
64,192,291594,1,0,0:0:0:70:VEC3 Snares 003.wav
320,192,291594,1,0,0:0:0:0:
448,192,291594,1,0,0:0:0:0:
64,192,291714,1,0,0:0:0:70:Kick 19.wav
320,192,291714,1,0,0:0:0:70:VEC3 Snares 003.wav
448,192,291714,1,0,0:0:0:0:
64,192,291834,1,0,0:0:0:70:Kick 19.wav
192,192,291834,1,0,0:0:0:70:VEC3 Snares 003.wav
448,192,291834,1,0,0:0:0:70:CrashL.wav
192,192,291954,1,0,0:0:0:70:Kick 19.wav
320,192,291954,1,0,0:0:0:0:
192,192,292074,1,0,0:0:0:70:Kick 19.wav
320,192,292074,1,0,0:0:0:0:
64,192,292194,1,0,0:0:0:70:Kick 19.wav
320,192,292194,1,0,0:0:0:70:VEC3 Snares 003.wav
448,192,292194,1,0,0:0:0:0:
192,192,292314,1,0,0:0:0:70:Kick 19.wav
320,192,292314,1,0,0:0:0:0:
192,192,292434,1,0,0:0:0:70:Kick 19.wav
320,192,292434,1,0,0:0:0:0:
64,192,292554,1,0,0:0:0:70:Kick 19.wav
192,192,292554,1,0,0:0:0:70:VEC3 Snares 003.wav
448,192,292554,1,0,0:0:0:0:
320,192,292674,1,0,0:0:0:70:Kick 19.wav
448,192,292674,1,0,0:0:0:0:
192,192,292734,1,0,0:0:0:70:Kick 19.wav
64,192,292794,1,0,0:0:0:70:Kick 19.wav
320,192,292794,1,0,0:0:0:70:VEC3 Snares 003.wav
448,192,292794,1,0,0:0:0:0:
192,192,292914,1,0,0:0:0:70:Kick 19.wav
320,192,292914,1,0,0:0:0:0:
192,192,293034,1,0,0:0:0:70:Kick 19.wav
320,192,293034,1,0,0:0:0:0:
64,192,293154,1,0,0:0:0:70:Kick 19.wav
192,192,293154,1,0,0:0:0:70:VEC3 Snares 003.wav
448,192,293154,1,0,0:0:0:70:CrashR.wav
192,192,293274,1,0,0:0:0:70:Kick 19.wav
320,192,293274,1,0,0:0:0:0:
192,192,293394,1,0,0:0:0:70:Kick 19.wav
320,192,293394,1,0,0:0:0:0:
64,192,293514,1,0,0:0:0:70:Kick 19.wav
320,192,293514,1,0,0:0:0:70:VEC3 Snares 003.wav
448,192,293514,1,0,0:0:0:0:
64,192,293634,1,0,0:0:0:70:Kick 19.wav
192,192,293634,1,0,0:0:0:0:
320,192,293694,1,0,0:0:0:70:Kick 19.wav
64,192,293754,1,0,0:0:0:70:VEC3 Snares 003.wav
192,192,293754,1,0,0:0:0:0:
448,192,293754,1,0,0:0:0:0:
320,192,293874,1,0,0:0:0:70:Kick 19.wav
64,192,293934,1,0,0:0:0:70:VEC3 Snares 003.wav
192,192,293934,1,0,0:0:0:0:
448,192,293934,1,0,0:0:0:0:
192,192,294054,1,0,0:0:0:70:Kick 19.wav
64,192,294114,1,0,0:0:0:70:VEC3 Snares 003.wav
320,192,294114,1,0,0:0:0:0:
448,192,294114,1,0,0:0:0:0:
192,192,294174,1,0,0:0:0:70:Kick 19.wav
64,192,294234,1,0,0:0:0:70:VEC3 Snares 003.wav
320,192,294234,1,0,0:0:0:0:
448,192,294234,1,0,0:0:0:0:
320,192,294354,1,0,0:0:0:70:Kick 19.wav
64,192,294414,1,0,0:0:0:70:VEC3 Snares 003.wav
192,192,294414,1,0,0:0:0:0:
448,192,294414,1,0,0:0:0:0:
320,192,294534,1,0,0:0:0:70:Kick 19.wav
64,192,294594,1,0,0:0:0:70:VEC3 Snares 003.wav
192,192,294594,1,0,0:0:0:0:
448,192,294594,1,0,0:0:0:0:
320,192,294654,1,0,0:0:0:70:Kick 19.wav
64,192,294714,1,0,0:0:0:70:Kick 19.wav
192,192,294714,1,0,0:0:0:70:VEC3 Snares 003.wav
448,192,294714,1,0,0:0:0:70:CrashL.wav
64,192,294834,1,0,0:0:0:70:Kick 19.wav
320,192,294834,1,0,0:0:0:70:VEC3 Snares 003.wav
448,192,294834,1,0,0:0:0:0:
64,192,294954,1,0,0:0:0:70:Kick 19.wav
192,192,294954,1,0,0:0:0:70:VEC3 Snares 003.wav
448,192,294954,1,0,0:0:0:0:
64,192,295074,1,0,0:0:0:70:Kick 19.wav
320,192,295074,1,0,0:0:0:70:VEC3 Snares 003.wav
448,192,295074,1,0,0:0:0:0:
192,192,295194,1,0,0:0:0:70:Kick 19.wav
320,192,295194,1,0,0:0:0:0:
64,192,295674,128,0,295734:0:0:0:70:Kick 19.wav
192,192,295674,1,0,0:0:0:70:CrashL.wav
448,192,295674,128,0,295734:0:0:0:0:
64,192,295794,128,0,295854:0:0:0:70:Kick 19.wav
448,192,295794,128,0,295854:0:0:0:0:
64,192,295914,1,0,0:0:0:70:VEC3 Snares 003
320,192,295914,1,0,0:0:0:0:
448,192,295914,1,0,0:0:0:0:
192,192,295974,1,0,0:0:0:0:
320,192,296034,1,0,0:0:0:0:
192,192,296094,1,0,0:0:0:0:
64,192,296154,1,0,0:0:0:70:Kick 19.wav
448,192,296154,1,0,0:0:0:0:
320,192,296214,1,0,0:0:0:0:
64,192,296274,1,0,0:0:0:0:
320,192,296334,1,0,0:0:0:0:
64,192,296394,1,0,0:0:0:70:VEC3 Snares 003
192,192,296394,1,0,0:0:0:0:
448,192,296394,1,0,0:0:0:0:
320,192,296454,1,0,0:0:0:0:
192,192,296514,1,0,0:0:0:0:
320,192,296574,1,0,0:0:0:0:
64,192,296634,128,0,296679:0:0:0:70:Kick 19.wav
448,192,296634,128,0,296679:0:0:0:0:
192,192,296664,128,0,296709:0:0:0:0:
320,192,296694,128,0,296739:0:0:0:0:
64,192,296724,128,0,296769:0:0:0:0:
448,192,296754,128,0,296799:0:0:0:0:
192,192,296784,128,0,296829:0:0:0:0:
320,192,296814,128,0,296859:0:0:0:0:
448,192,296844,128,0,296889:0:0:0:0:
64,192,296874,1,0,0:0:0:70:VEC3 Snares 003
192,192,296874,1,0,0:0:0:0:
320,192,296934,1,0,0:0:0:0:
64,192,296994,1,0,0:0:0:0:
320,192,297054,1,0,0:0:0:0:
192,192,297114,1,0,0:0:0:70:Kick 19.wav
448,192,297114,1,0,0:0:0:0:
64,192,297174,1,0,0:0:0:0:
448,192,297234,1,0,0:0:0:0:
64,192,297294,1,0,0:0:0:0:
192,192,297354,1,0,0:0:0:70:VEC3 Snares 003
320,192,297354,1,0,0:0:0:0:
448,192,297354,1,0,0:0:0:0:
64,192,297414,1,0,0:0:0:0:
320,192,297474,1,0,0:0:0:0:
64,192,297534,1,0,0:0:0:0:
192,192,297594,128,0,297654:0:0:0:70:Kick 19.wav
320,192,297594,128,0,297654:0:0:0:0:
192,192,297714,128,0,297774:0:0:0:0:
320,192,297714,128,0,297774:0:0:0:0:
64,192,297834,1,0,0:0:0:70:VEC3 Snares 003
448,192,297834,1,0,0:0:0:70:CrashL.wav
192,192,297864,1,0,0:0:0:0:
320,192,297894,1,0,0:0:0:0:
64,192,297924,1,0,0:0:0:0:
448,192,297954,1,0,0:0:0:0:
64,192,298074,1,0,0:0:0:70:Kick 19.wav
448,192,298074,1,0,0:0:0:0:
192,192,298104,1,0,0:0:0:0:
320,192,298134,1,0,0:0:0:0:
64,192,298164,1,0,0:0:0:0:
448,192,298194,1,0,0:0:0:0:
64,192,298314,1,0,0:0:0:70:VEC3 Snares 003
448,192,298314,1,0,0:0:0:0:
192,192,298344,1,0,0:0:0:0:
320,192,298374,1,0,0:0:0:0:
64,192,298404,1,0,0:0:0:0:
448,192,298434,1,0,0:0:0:0:
64,192,298554,128,0,298599:0:0:0:70:Kick 19.wav
448,192,298554,128,0,298599:0:0:0:0:
320,192,298584,128,0,298629:0:0:0:0:
192,192,298614,128,0,298659:0:0:0:0:
448,192,298644,128,0,298689:0:0:0:0:
64,192,298674,128,0,298719:0:0:0:0:
320,192,298704,128,0,298749:0:0:0:0:
192,192,298734,128,0,298779:0:0:0:0:
64,192,298764,128,0,298809:0:0:0:0:
320,192,298794,1,0,0:0:0:70:VEC3 Snares 003
448,192,298794,1,0,0:0:0:70:Kick 19.wav
192,192,298914,1,0,0:0:0:70:Kick 19.wav
320,192,298914,1,0,0:0:0:0:
64,192,299034,1,0,0:0:0:70:Kick 19.wav
192,192,299034,1,0,0:0:0:70:CrashL.wav
192,192,299154,1,0,0:0:0:70:Kick 19.wav
320,192,299154,1,0,0:0:0:0:
64,192,299274,128,0,299319:0:0:0:70:VEC3 Snares 003
448,192,299274,128,0,299319:0:0:0:70:Kick 19.wav
192,192,299304,128,0,299349:0:0:0:0:
320,192,299334,128,0,299379:0:0:0:0:
448,192,299364,128,0,299409:0:0:0:0:
64,192,299394,128,0,299439:0:0:0:70:Kick 19.wav
192,192,299394,128,0,299439:0:0:0:0:
320,192,299424,128,0,299469:0:0:0:0:
448,192,299454,128,0,299499:0:0:0:0:
64,192,299514,128,0,299574:0:0:0:70:Kick 19.wav
192,192,299514,128,0,299574:0:0:0:70:CrashL.wav
64,192,299634,128,0,299694:0:0:0:70:Kick 19.wav
192,192,299634,128,0,299694:0:0:0:0:
64,192,299754,1,0,0:0:0:70:VEC3 Snares 003
192,192,299754,1,0,0:0:0:0:
448,192,299754,1,0,0:0:0:0:
320,192,299814,1,0,0:0:0:0:
64,192,299874,1,0,0:0:0:0:
320,192,299934,1,0,0:0:0:0:
64,192,299994,1,0,0:0:0:70:Kick 19.wav
448,192,299994,1,0,0:0:0:0:
192,192,300054,1,0,0:0:0:0:
448,192,300114,1,0,0:0:0:0:
192,192,300174,1,0,0:0:0:0:
64,192,300234,1,0,0:0:0:70:VEC3 Snares 003
320,192,300234,1,0,0:0:0:0:
448,192,300234,1,0,0:0:0:0:
192,192,300294,1,0,0:0:0:0:
320,192,300354,1,0,0:0:0:0:
192,192,300414,1,0,0:0:0:0:
64,192,300474,128,0,300519:0:0:0:70:Kick 19.wav
448,192,300474,128,0,300519:0:0:0:0:
320,192,300504,128,0,300549:0:0:0:0:
192,192,300534,128,0,300579:0:0:0:0:
448,192,300564,128,0,300609:0:0:0:0:
64,192,300594,128,0,300639:0:0:0:0:
320,192,300624,128,0,300669:0:0:0:0:
192,192,300654,128,0,300699:0:0:0:0:
64,192,300684,128,0,300729:0:0:0:0:
320,192,300714,1,0,0:0:0:70:VEC3 Snares 003
448,192,300714,1,0,0:0:0:0:
64,192,300774,1,0,0:0:0:0:
320,192,300834,1,0,0:0:0:0:
64,192,300894,1,0,0:0:0:0:
320,192,300954,1,0,0:0:0:70:Kick 19.wav
448,192,300954,1,0,0:0:0:0:
192,192,301014,1,0,0:0:0:0:
448,192,301074,1,0,0:0:0:0:
192,192,301134,1,0,0:0:0:0:
64,192,301194,1,0,0:0:0:70:VEC3 Snares 003
320,192,301194,1,0,0:0:0:0:
448,192,301194,1,0,0:0:0:0:
192,192,301254,1,0,0:0:0:0:
320,192,301314,1,0,0:0:0:0:
192,192,301374,1,0,0:0:0:0:
320,192,301434,128,0,301494:0:0:0:70:Kick 19.wav
448,192,301434,128,0,301494:0:0:0:0:
320,192,301554,128,0,301614:0:0:0:70:Kick 19.wav
448,192,301554,128,0,301614:0:0:0:0:
64,192,301674,1,0,0:0:0:70:VEC3 Snares 003
448,192,301674,1,0,0:0:0:70:CrashR.wav
320,192,301704,1,0,0:0:0:0:
192,192,301734,1,0,0:0:0:0:
448,192,301764,1,0,0:0:0:0:
64,192,301794,1,0,0:0:0:0:
64,192,301914,1,0,0:0:0:70:Kick 19.wav
448,192,301914,1,0,0:0:0:0:
320,192,301944,1,0,0:0:0:0:
192,192,301974,1,0,0:0:0:0:
448,192,302004,1,0,0:0:0:0:
64,192,302034,1,0,0:0:0:0:
64,192,302154,1,0,0:0:0:70:Kick 19.wav
448,192,302154,1,0,0:0:0:0:
320,192,302184,1,0,0:0:0:0:
192,192,302214,1,0,0:0:0:0:
448,192,302244,1,0,0:0:0:0:
64,192,302274,1,0,0:0:0:0:
320,192,302274,1,0,0:0:0:0:
64,192,302394,128,0,302514:0:0:0:70:VEC3 Snares 003
192,192,302394,128,0,302514:0:0:0:70:CrashR.wav
448,192,302394,128,0,302454:0:0:0:0:
320,192,302514,128,0,302574:0:0:0:70:Kick 19.wav
448,192,302514,128,0,302574:0:0:0:0:
192,192,302574,128,0,302634:0:0:0:70:Kick 19.wav
64,192,302634,128,0,302694:0:0:0:70:VEC3 Snares 003
320,192,302634,128,0,302754:0:0:0:70:CrashR.wav
448,192,302634,128,0,302754:0:0:0:0:
64,192,302754,128,0,302814:0:0:0:70:Kick 19.wav
192,192,302754,128,0,302814:0:0:0:0:
320,192,302814,128,0,302874:0:0:0:70:Kick 19.wav
64,192,302874,128,0,302994:0:0:0:70:VEC3 Snares 003
192,192,302874,128,0,302994:0:0:0:70:CrashR.wav
448,192,302874,128,0,302934:0:0:0:0:
320,192,302994,128,0,303054:0:0:0:70:Kick 19.wav
448,192,302994,128,0,303054:0:0:0:0:
192,192,303054,128,0,303114:0:0:0:70:Kick 19.wav
64,192,303114,128,0,303159:0:0:0:70:VEC3 Snares 003
448,192,303114,128,0,303159:0:0:0:70:CrashR.wav
320,192,303144,128,0,303189:0:0:0:0:
192,192,303174,128,0,303219:0:0:0:0:
448,192,303204,128,0,303249:0:0:0:0:
64,192,303234,128,0,303279:0:0:0:0:
320,192,303264,128,0,303309:0:0:0:0:
192,192,303294,128,0,303339:0:0:0:0:
64,192,303324,128,0,303369:0:0:0:0:
320,192,303354,128,0,303414:0:0:0:70:Kick 19.wav
448,192,303354,128,0,303414:0:0:0:70:CrashL.wav
64,192,303474,128,0,303534:0:0:0:70:Kick 19.wav
448,192,303474,128,0,303534:0:0:0:0:
64,192,303594,1,0,0:0:0:70:VEC3 Snares 003
192,192,303594,1,0,0:0:0:0:
320,192,303594,1,0,0:0:0:0:
448,192,303654,1,0,0:0:0:0:
64,192,303714,1,0,0:0:0:0:
448,192,303774,1,0,0:0:0:0:
64,192,303834,1,0,0:0:0:70:Kick 19.wav
320,192,303834,1,0,0:0:0:0:
192,192,303894,1,0,0:0:0:0:
320,192,303954,1,0,0:0:0:0:
192,192,304014,1,0,0:0:0:0:
64,192,304074,1,0,0:0:0:70:VEC3 Snares 003
320,192,304074,1,0,0:0:0:0:
448,192,304074,1,0,0:0:0:0:
192,192,304134,1,0,0:0:0:0:
448,192,304194,1,0,0:0:0:0:
192,192,304254,1,0,0:0:0:0:
64,192,304314,128,0,304359:0:0:0:70:Kick 19.wav
448,192,304314,128,0,304359:0:0:0:0:
320,192,304344,128,0,304389:0:0:0:0:
192,192,304374,128,0,304419:0:0:0:0:
448,192,304404,128,0,304449:0:0:0:0:
64,192,304434,128,0,304479:0:0:0:0:
320,192,304464,128,0,304509:0:0:0:0:
192,192,304494,128,0,304539:0:0:0:0:
448,192,304524,128,0,304569:0:0:0:0:
64,192,304554,1,0,0:0:0:70:VEC3 Snares 003
320,192,304554,1,0,0:0:0:0:
192,192,304614,1,0,0:0:0:0:
448,192,304674,1,0,0:0:0:0:
192,192,304734,1,0,0:0:0:0:
64,192,304794,1,0,0:0:0:70:Kick 19.wav
448,192,304794,1,0,0:0:0:0:
320,192,304854,1,0,0:0:0:0:
64,192,304914,1,0,0:0:0:0:
320,192,304974,1,0,0:0:0:0:
64,192,305034,1,0,0:0:0:70:VEC3 Snares 003
192,192,305034,1,0,0:0:0:0:
448,192,305034,1,0,0:0:0:0:
320,192,305094,1,0,0:0:0:0:
192,192,305154,1,0,0:0:0:0:
320,192,305214,1,0,0:0:0:0:
64,192,305274,128,0,305334:0:0:0:70:Kick 19.wav
192,192,305274,128,0,305334:0:0:0:0:
64,192,305394,128,0,305454:0:0:0:70:Kick 19.wav
448,192,305394,128,0,305454:0:0:0:0:
64,192,305514,1,0,0:0:0:70:VEC3 Snares 003
448,192,305514,1,0,0:0:0:70:CrashL.wav
192,192,305544,1,0,0:0:0:0:
320,192,305574,1,0,0:0:0:0:
64,192,305604,1,0,0:0:0:0:
448,192,305634,1,0,0:0:0:0:
64,192,305754,1,0,0:0:0:70:Kick 19.wav
448,192,305754,1,0,0:0:0:0:
320,192,305784,1,0,0:0:0:0:
192,192,305814,1,0,0:0:0:0:
448,192,305844,1,0,0:0:0:0:
64,192,305874,1,0,0:0:0:0:
64,192,305994,1,0,0:0:0:70:VEC3 Snares 003
448,192,305994,1,0,0:0:0:0:
192,192,306024,1,0,0:0:0:0:
320,192,306054,1,0,0:0:0:0:
64,192,306084,1,0,0:0:0:0:
448,192,306114,1,0,0:0:0:0:
64,192,306234,128,0,306279:0:0:0:70:Kick 19.wav
448,192,306234,128,0,306279:0:0:0:0:
320,192,306264,128,0,306309:0:0:0:0:
192,192,306294,128,0,306339:0:0:0:0:
448,192,306324,128,0,306369:0:0:0:0:
64,192,306354,128,0,306399:0:0:0:0:
320,192,306384,128,0,306429:0:0:0:0:
192,192,306414,128,0,306459:0:0:0:0:
64,192,306444,128,0,306489:0:0:0:0:
320,192,306474,1,0,0:0:0:70:VEC3 Snares 003
448,192,306474,1,0,0:0:0:70:Kick 19.wav
64,192,306594,1,0,0:0:0:70:Kick 19.wav
448,192,306594,1,0,0:0:0:0:
64,192,306714,1,0,0:0:0:70:Kick 19.wav
192,192,306714,1,0,0:0:0:70:CrashL.wav
64,192,306834,1,0,0:0:0:70:Kick 19.wav
448,192,306834,1,0,0:0:0:0:
64,192,306954,128,0,306999:0:0:0:70:VEC3 Snares 003
448,192,306954,128,0,306999:0:0:0:70:Kick 19.wav
192,192,306984,128,0,307029:0:0:0:0:
320,192,307014,128,0,307059:0:0:0:0:
448,192,307044,128,0,307089:0:0:0:0:
64,192,307074,128,0,307119:0:0:0:70:Kick 19.wav
192,192,307074,128,0,307119:0:0:0:0:
320,192,307104,128,0,307149:0:0:0:0:
448,192,307134,128,0,307179:0:0:0:0:
64,192,307194,128,0,307254:0:0:0:70:Kick 19.wav
192,192,307194,128,0,307254:0:0:0:70:CrashL.wav
64,192,307314,128,0,307374:0:0:0:70:Kick 19.wav
448,192,307314,128,0,307374:0:0:0:0:
64,192,307434,1,0,0:0:0:70:VEC3 Snares 003
320,192,307434,1,0,0:0:0:70:CrashL.wav
448,192,307434,1,0,0:0:0:0:
192,192,307494,1,0,0:0:0:0:
448,192,307554,1,0,0:0:0:0:
192,192,307614,1,0,0:0:0:0:
64,192,307674,1,0,0:0:0:70:Kick 19.wav
448,192,307674,1,0,0:0:0:0:
320,192,307734,1,0,0:0:0:0:
64,192,307794,1,0,0:0:0:0:
320,192,307854,1,0,0:0:0:0:
64,192,307914,1,0,0:0:0:70:VEC3 Snares 003
192,192,307914,1,0,0:0:0:0:
448,192,307914,1,0,0:0:0:0:
320,192,307974,1,0,0:0:0:0:
192,192,308034,1,0,0:0:0:0:
320,192,308094,1,0,0:0:0:0:
64,192,308154,128,0,308199:0:0:0:70:Kick 19.wav
448,192,308154,128,0,308199:0:0:0:0:
192,192,308184,128,0,308229:0:0:0:0:
320,192,308214,128,0,308259:0:0:0:0:
64,192,308244,128,0,308289:0:0:0:0:
448,192,308274,128,0,308319:0:0:0:0:
192,192,308304,128,0,308349:0:0:0:0:
320,192,308334,128,0,308379:0:0:0:0:
448,192,308364,128,0,308409:0:0:0:0:
64,192,308394,1,0,0:0:0:70:VEC3 Snares 003
192,192,308394,1,0,0:0:0:0:
320,192,308454,1,0,0:0:0:0:
64,192,308514,1,0,0:0:0:0:
320,192,308574,1,0,0:0:0:0:
192,192,308634,1,0,0:0:0:70:Kick 19.wav
448,192,308634,1,0,0:0:0:0:
64,192,308694,1,0,0:0:0:0:
448,192,308754,1,0,0:0:0:0:
64,192,308814,1,0,0:0:0:0:
192,192,308874,1,0,0:0:0:70:VEC3 Snares 003
320,192,308874,1,0,0:0:0:0:
448,192,308874,1,0,0:0:0:0:
64,192,308934,1,0,0:0:0:0:
320,192,308994,1,0,0:0:0:0:
64,192,309054,1,0,0:0:0:0:
192,192,309114,1,0,0:0:0:70:Kick 19.wav
320,192,309114,1,0,0:0:0:70:CrashL.wav
192,192,309234,1,0,0:0:0:70:Kick 19.wav
320,192,309234,1,0,0:0:0:0:
64,192,309354,1,0,0:0:0:70:VEC3 Snares 003
192,192,309354,1,0,0:0:0:70:CrashR.wav
448,192,309354,1,0,0:0:0:0:
320,192,309474,1,0,0:0:0:0:
192,192,309489,1,0,0:0:0:0:
64,192,309594,1,0,0:0:0:70:Kick 19.wav
448,192,309594,1,0,0:0:0:70:CrashL.wav
192,192,309714,1,0,0:0:0:0:
320,192,309729,1,0,0:0:0:0:
64,192,309834,1,0,0:0:0:70:Kick 19.wav
448,192,309834,1,0,0:0:0:70:CrashL.wav
320,192,309954,1,0,0:0:0:0:
192,192,309969,1,0,0:0:0:0:
64,192,310074,1,0,0:0:0:70:VEC3 Snares 003
320,192,310074,1,0,0:0:0:70:Kick 19.wav
448,192,310074,1,0,0:0:0:70:CrashR.wav
64,192,310194,1,0,0:0:0:70:Kick 19.wav
192,192,310194,1,0,0:0:0:0:
320,192,310254,1,0,0:0:0:70:Kick 19.wav
64,192,310314,1,0,0:0:0:70:VEC3 Snares 003
192,192,310314,1,0,0:0:0:70:Kick 19.wav
448,192,310314,1,0,0:0:0:70:CrashR.wav
320,192,310434,1,0,0:0:0:70:Kick 19.wav
448,192,310434,1,0,0:0:0:0:
192,192,310494,1,0,0:0:0:70:Kick 19.wav
64,192,310554,1,0,0:0:0:70:VEC3 Snares 003
320,192,310554,1,0,0:0:0:70:Kick 19.wav
448,192,310554,1,0,0:0:0:70:CrashR.wav
64,192,310674,1,0,0:0:0:70:Kick 19.wav
192,192,310674,1,0,0:0:0:0:
320,192,310734,1,0,0:0:0:70:Kick 19.wav
64,192,310794,128,0,310839:0:0:0:70:VEC3 Snares 003
192,192,310794,128,0,310839:0:0:0:70:CrashR.wav
448,192,310824,128,0,310869:0:0:0:0:
320,192,310854,128,0,310899:0:0:0:0:
192,192,310884,128,0,310929:0:0:0:0:
448,192,310914,128,0,310959:0:0:0:0:
64,192,310944,128,0,310989:0:0:0:0:
320,192,310974,128,0,311019:0:0:0:0:
192,192,311004,128,0,311049:0:0:0:0:
64,192,311034,128,0,311214:0:0:0:70:Kick 19.wav
448,192,311034,128,0,311214:0:0:0:70:CrashL.wav
192,192,311154,128,0,311214:0:0:0:70:Kick 19.wav
320,192,311154,128,0,311334:0:0:0:0:
64,192,311274,128,0,311394:0:0:0:70:VEC3 Snares 003
192,192,311274,128,0,311394:0:0:0:0:
448,192,311274,128,0,311334:0:0:0:0:
320,192,311394,128,0,311454:0:0:0:70:Kick 19.wav
448,192,311394,128,0,311454:0:0:0:0:
64,192,311454,128,0,311514:0:0:0:70:Kick 19.wav
192,192,311454,128,0,311514:0:0:0:0:
320,192,311514,128,0,311694:0:0:0:70:Kick 19.wav
448,192,311514,128,0,311694:0:0:0:0:
64,192,311634,128,0,311814:0:0:0:70:Kick 19.wav
192,192,311634,128,0,311694:0:0:0:0:
192,192,311754,128,0,311934:0:0:0:70:VEC3 Snares 003
320,192,311754,128,0,311934:0:0:0:0:
448,192,311754,128,0,311814:0:0:0:0:
64,192,311874,128,0,312054:0:0:0:70:Kick 19.wav
448,192,311874,128,0,312054:0:0:0:0:
192,192,311994,128,0,312174:0:0:0:70:Kick 19.wav
320,192,311994,128,0,312174:0:0:0:0:
64,192,312114,128,0,312294:0:0:0:70:Kick 19.wav
448,192,312114,128,0,312174:0:0:0:0:
192,192,312234,128,0,312294:0:0:0:70:VEC3 Snares 003
320,192,312234,128,0,312414:0:0:0:0:
448,192,312234,128,0,312414:0:0:0:0:
64,192,312354,128,0,312414:0:0:0:70:Kick 19.wav
192,192,312354,128,0,312414:0:0:0:0:
320,192,312474,128,0,312654:0:0:0:70:Kick 19.wav
448,192,312474,128,0,312654:0:0:0:0:
64,192,312594,128,0,312654:0:0:0:70:Kick 19.wav
192,192,312594,128,0,312654:0:0:0:0:
64,192,312714,128,0,312894:0:0:0:70:VEC3 Snares 003
192,192,312714,128,0,312894:0:0:0:0:
448,192,312714,128,0,312774:0:0:0:0:
320,192,312834,128,0,312894:0:0:0:70:Kick 19.wav
448,192,312834,128,0,313014:0:0:0:0:
192,192,312954,128,0,313134:0:0:0:70:Kick 19.wav
320,192,312954,128,0,313134:0:0:0:0:
64,192,313074,128,0,313134:0:0:0:70:Kick 19.wav
448,192,313074,128,0,313254:0:0:0:0:
64,192,313194,128,0,313374:0:0:0:70:VEC3 Snares 003
192,192,313194,128,0,313374:0:0:0:0:
320,192,313194,128,0,313254:0:0:0:0:
320,192,313314,128,0,313374:0:0:0:70:Kick 19.wav
448,192,313314,128,0,313374:0:0:0:0:
64,192,313434,128,0,313614:0:0:0:70:Kick 19.wav
192,192,313434,128,0,313494:0:0:0:0:
192,192,313554,128,0,313734:0:0:0:70:Kick 19.wav
320,192,313554,128,0,313614:0:0:0:0:
64,192,313674,128,0,313854:0:0:0:70:VEC3 Snares 003
320,192,313674,128,0,313734:0:0:0:0:
448,192,313674,128,0,313854:0:0:0:0:
192,192,313794,128,0,313854:0:0:0:70:Kick 19.wav
320,192,313794,128,0,313974:0:0:0:0:
64,192,313914,128,0,314094:0:0:0:70:Kick 19.wav
192,192,313914,128,0,314094:0:0:0:0:
320,192,314034,128,0,314094:0:0:0:70:Kick 19.wav
448,192,314034,128,0,314214:0:0:0:0:
64,192,314154,128,0,314214:0:0:0:70:VEC3 Snares 003
192,192,314154,128,0,314214:0:0:0:0:
320,192,314154,128,0,314334:0:0:0:0:
64,192,314274,128,0,314454:0:0:0:70:Kick 19.wav
192,192,314274,128,0,314454:0:0:0:0:
320,192,314394,128,0,314574:0:0:0:70:Kick 19.wav
448,192,314394,128,0,314574:0:0:0:0:
64,192,314514,128,0,314574:0:0:0:70:Kick 19.wav
192,192,314514,128,0,314694:0:0:0:0:
64,192,314634,128,0,314694:0:0:0:70:VEC3 Snares 003
320,192,314634,128,0,314754:0:0:0:0:
448,192,314634,128,0,314754:0:0:0:0:
64,192,314754,128,0,314814:0:0:0:70:Kick 19.wav
192,192,314754,128,0,314814:0:0:0:0:
320,192,314814,128,0,314874:0:0:0:70:Kick 19.wav
448,192,314814,128,0,314874:0:0:0:0:
64,192,314874,128,0,315054:0:0:0:70:Kick 19.wav
192,192,314874,128,0,315054:0:0:0:0:
320,192,314994,128,0,315054:0:0:0:70:Kick 19.wav
448,192,314994,128,0,315054:0:0:0:0:
64,192,315114,128,0,315294:0:0:0:70:VEC3 Snares 003
192,192,315114,128,0,315174:0:0:0:0:
448,192,315114,128,0,315294:0:0:0:0:
192,192,315234,128,0,315294:0:0:0:70:Kick 19.wav
320,192,315234,128,0,315414:0:0:0:0:
64,192,315354,128,0,315534:0:0:0:70:Kick 19.wav
192,192,315354,128,0,315534:0:0:0:0:
320,192,315474,128,0,315534:0:0:0:70:Kick 19.wav
448,192,315474,128,0,315654:0:0:0:0:
64,192,315594,128,0,315654:0:0:0:70:VEC3 Snares 003
192,192,315594,128,0,315774:0:0:0:0:
320,192,315594,128,0,315774:0:0:0:0:
64,192,315714,128,0,315894:0:0:0:70:Kick 19.wav
448,192,315714,128,0,315894:0:0:0:0:
192,192,315834,128,0,316014:0:0:0:70:Kick 19.wav
320,192,315834,128,0,315894:0:0:0:0:
320,192,315954,128,0,316014:0:0:0:70:Kick 19.wav
448,192,315954,128,0,316014:0:0:0:0:
64,192,316074,128,0,316254:0:0:0:70:VEC3 Snares 003
192,192,316074,128,0,316134:0:0:0:0:
448,192,316074,128,0,316254:0:0:0:0:
192,192,316194,128,0,316254:0:0:0:70:Kick 19.wav
320,192,316194,128,0,316374:0:0:0:0:
64,192,316314,128,0,316494:0:0:0:70:Kick 19.wav
192,192,316314,128,0,316494:0:0:0:0:
320,192,316434,128,0,316494:0:0:0:70:Kick 19.wav
448,192,316434,128,0,316614:0:0:0:0:
64,192,316554,128,0,316614:0:0:0:70:VEC3 Snares 003
192,192,316554,128,0,316734:0:0:0:0:
320,192,316554,128,0,316734:0:0:0:0:
64,192,316674,128,0,316854:0:0:0:70:Kick 19.wav
448,192,316674,128,0,316854:0:0:0:0:
192,192,316794,128,0,316854:0:0:0:70:Kick 19.wav
320,192,316794,128,0,316974:0:0:0:0:
64,192,316914,128,0,316974:0:0:0:70:Kick 19.wav
192,192,316914,128,0,316974:0:0:0:0:
64,192,317034,128,0,317214:0:0:0:70:VEC3 Snares 003
320,192,317034,128,0,317214:0:0:0:0:
448,192,317034,128,0,317094:0:0:0:0:
192,192,317154,128,0,317214:0:0:0:70:Kick 19.wav
448,192,317154,128,0,317334:0:0:0:0:
64,192,317274,128,0,317454:0:0:0:70:Kick 19.wav
192,192,317274,128,0,317454:0:0:0:0:
320,192,317394,128,0,317574:0:0:0:70:Kick 19.wav
448,192,317394,128,0,317454:0:0:0:0:
64,192,317514,128,0,317694:0:0:0:70:VEC3 Snares 003
192,192,317514,128,0,317574:0:0:0:0:
448,192,317514,128,0,317694:0:0:0:0:
192,192,317634,128,0,317814:0:0:0:70:Kick 19.wav
320,192,317634,128,0,317694:0:0:0:0:
64,192,317754,128,0,317814:0:0:0:70:VEC3 Snares 003
320,192,317754,128,0,317874:0:0:0:70:CrashR.wav
448,192,317754,128,0,317874:0:0:0:0:
64,192,317874,128,0,317934:0:0:0:70:Kick 19.wav
192,192,317874,128,0,317934:0:0:0:0:
448,192,317934,128,0,318054:0:0:0:70:Kick 19.wav
64,192,317994,128,0,318114:0:0:0:70:VEC3 Snares 003
192,192,317994,128,0,318114:0:0:0:70:CrashR.wav
320,192,317994,128,0,318054:0:0:0:0:
320,192,318114,128,0,318174:0:0:0:70:Kick 19.wav
448,192,318114,128,0,318174:0:0:0:0:
64,192,318174,128,0,318294:0:0:0:70:Kick 19.wav
192,192,318234,128,0,318294:0:0:0:70:VEC3 Snares 003
320,192,318234,128,0,318354:0:0:0:70:CrashR.wav
448,192,318234,128,0,318414:0:0:0:0:
64,192,318354,128,0,318414:0:0:0:70:Kick 19.wav
192,192,318354,128,0,318414:0:0:0:0:
320,192,318414,128,0,318474:0:0:0:70:Kick 19.wav
64,192,318474,128,0,318534:0:0:0:70:VEC3 Snares 003
192,192,318474,128,0,318594:0:0:0:70:CrashR.wav
448,192,318474,128,0,318534:0:0:0:0:
320,192,318534,128,0,318594:0:0:0:70:Kick 19.wav
64,192,318594,128,0,318654:0:0:0:70:Kick 19.wav
448,192,318594,128,0,318654:0:0:0:0:
192,192,318654,128,0,318714:0:0:0:70:Kick 19.wav
64,192,318714,128,0,318894:0:0:0:70:Kick 19.wav
320,192,318714,128,0,318774:0:0:0:70:CrashL.wav
448,192,318714,128,0,318894:0:0:0:0:
192,192,318834,128,0,318894:0:0:0:70:Kick 19.wav
320,192,318834,128,0,319014:0:0:0:0:
64,192,318954,128,0,319014:0:0:0:70:VEC3 Snares 003
192,192,318954,128,0,319014:0:0:0:0:
448,192,318954,128,0,319014:0:0:0:0:
64,192,319074,128,0,319134:0:0:0:70:Kick 19.wav
448,192,319074,128,0,319134:0:0:0:0:
192,192,319134,128,0,319194:0:0:0:70:Kick 19.wav
320,192,319134,128,0,319194:0:0:0:0:
64,192,319194,128,0,319374:0:0:0:70:Kick 19.wav
448,192,319194,128,0,319374:0:0:0:0:
192,192,319314,128,0,319374:0:0:0:70:Kick 19.wav
320,192,319314,128,0,319494:0:0:0:0:
64,192,319434,128,0,319614:0:0:0:70:VEC3 Snares 003
192,192,319434,128,0,319614:0:0:0:0:
448,192,319434,128,0,319494:0:0:0:0:
320,192,319554,128,0,319734:0:0:0:70:Kick 19.wav
448,192,319554,128,0,319734:0:0:0:0:
64,192,319674,128,0,319734:0:0:0:70:Kick 19.wav
192,192,319674,128,0,319854:0:0:0:0:
64,192,319794,128,0,319974:0:0:0:70:Kick 19.wav
448,192,319794,128,0,319854:0:0:0:0:
192,192,319914,128,0,319974:0:0:0:70:VEC3 Snares 003
320,192,319914,128,0,320094:0:0:0:0:
448,192,319914,128,0,320094:0:0:0:0:
64,192,320034,128,0,320094:0:0:0:70:Kick 19.wav
192,192,320034,128,0,320094:0:0:0:0:
64,192,320154,128,0,320334:0:0:0:70:Kick 19.wav
192,192,320154,128,0,320334:0:0:0:0:
320,192,320274,128,0,320334:0:0:0:70:Kick 19.wav
448,192,320274,128,0,320454:0:0:0:0:
64,192,320394,128,0,320574:0:0:0:70:VEC3 Snares 003
192,192,320394,128,0,320454:0:0:0:0:
320,192,320394,128,0,320574:0:0:0:0:
192,192,320514,128,0,320694:0:0:0:70:Kick 19.wav
448,192,320514,128,0,320694:0:0:0:0:
64,192,320634,128,0,320694:0:0:0:70:Kick 19.wav
320,192,320634,128,0,320814:0:0:0:0:
64,192,320754,128,0,320934:0:0:0:70:Kick 19.wav
448,192,320754,128,0,320814:0:0:0:0:
192,192,320874,128,0,320934:0:0:0:70:VEC3 Snares 003
320,192,320874,128,0,321054:0:0:0:0:
448,192,320874,128,0,321054:0:0:0:0:
64,192,320994,128,0,321054:0:0:0:70:Kick 19.wav
192,192,320994,128,0,321174:0:0:0:0:
64,192,321114,128,0,321294:0:0:0:70:Kick 19.wav
448,192,321114,128,0,321294:0:0:0:0:
192,192,321234,128,0,321414:0:0:0:70:Kick 19.wav
320,192,321234,128,0,321294:0:0:0:0:
64,192,321354,128,0,321534:0:0:0:70:VEC3 Snares 003
320,192,321354,128,0,321534:0:0:0:0:
448,192,321354,128,0,321414:0:0:0:0:
192,192,321474,128,0,321534:0:0:0:70:Kick 19.wav
448,192,321474,128,0,321654:0:0:0:0:
64,192,321594,128,0,321654:0:0:0:70:Kick 19.wav
320,192,321594,128,0,321774:0:0:0:0:
64,192,321714,128,0,321894:0:0:0:70:Kick 19.wav
192,192,321714,128,0,321774:0:0:0:0:
192,192,321834,128,0,322014:0:0:0:70:VEC3 Snares 003
320,192,321834,128,0,322014:0:0:0:0:
448,192,321834,128,0,321894:0:0:0:0:
64,192,321954,128,0,322014:0:0:0:70:Kick 19.wav
448,192,321954,128,0,322014:0:0:0:0:
64,192,322074,128,0,322254:0:0:0:70:Kick 19.wav
192,192,322074,128,0,322254:0:0:0:0:
320,192,322194,128,0,322374:0:0:0:70:Kick 19.wav
448,192,322194,128,0,322254:0:0:0:0:
64,192,322314,128,0,322434:0:0:0:70:VEC3 Snares 003
192,192,322314,128,0,322374:0:0:0:0:
448,192,322314,128,0,322434:0:0:0:0:
192,192,322434,128,0,322494:0:0:0:70:Kick 19.wav
320,192,322434,128,0,322494:0:0:0:0:
64,192,322494,128,0,322554:0:0:0:70:Kick 19.wav
448,192,322494,128,0,322734:0:0:0:0:
192,192,322554,128,0,322614:0:0:0:70:VEC3 Snares 003
320,192,322554,128,0,322734:0:0:0:0:
64,192,322674,128,0,322734:0:0:0:70:Kick 19.wav
192,192,322674,128,0,322734:0:0:0:0:
64,192,322794,128,0,322974:0:0:0:70:VEC3 Snares 003
320,192,322794,128,0,322854:0:0:0:0:
448,192,322794,128,0,322974:0:0:0:0:
192,192,322914,128,0,322974:0:0:0:70:Kick 19.wav
320,192,322914,128,0,322974:0:0:0:0:
64,192,323034,128,0,323214:0:0:0:70:VEC3 Snares 003
192,192,323034,128,0,323214:0:0:0:0:
448,192,323034,128,0,323094:0:0:0:0:
320,192,323154,128,0,323214:0:0:0:70:Kick 19.wav
448,192,323154,128,0,323334:0:0:0:0:
64,192,323274,128,0,323334:0:0:0:70:VEC3 Snares 003
192,192,323274,128,0,323334:0:0:0:0:
320,192,323274,128,0,323334:0:0:0:0:
64,192,323394,128,0,323454:0:0:0:70:VEC3 Snares 003
192,192,323394,128,0,323454:0:0:0:0:
448,192,323394,128,0,323454:0:0:0:0:
320,192,323454,128,0,323514:0:0:0:70:Kick 19.wav
64,192,323514,128,0,323694:0:0:0:70:VEC3 Snares 003
192,192,323514,128,0,323694:0:0:0:0:
448,192,323514,128,0,323574:0:0:0:0:
320,192,323634,128,0,323694:0:0:0:70:Kick 19.wav
448,192,323634,128,0,323694:0:0:0:0:
64,192,323754,128,0,323934:0:0:0:70:VEC3 Snares 003
192,192,323754,128,0,323814:0:0:0:0:
320,192,323754,128,0,323934:0:0:0:0:
192,192,323874,128,0,324054:0:0:0:70:Kick 19.wav
448,192,323874,128,0,323934:0:0:0:0:
64,192,323994,128,0,324054:0:0:0:70:VEC3 Snares 003
320,192,323994,128,0,324174:0:0:0:0:
448,192,323994,128,0,324174:0:0:0:0:
64,192,324114,128,0,324294:0:0:0:70:Kick 19.wav
192,192,324114,128,0,324174:0:0:0:0:
192,192,324234,128,0,324294:0:0:0:70:VEC3 Snares 003
320,192,324234,128,0,324294:0:0:0:0:
448,192,324234,128,0,324294:0:0:0:0:
64,192,324354,128,0,324414:0:0:0:70:VEC3 Snares 003
320,192,324354,128,0,324414:0:0:0:0:
448,192,324354,128,0,324414:0:0:0:0:
192,192,324414,128,0,324474:0:0:0:70:Kick 19.wav
64,192,324474,128,0,324534:0:0:0:70:VEC3 Snares 003
320,192,324474,128,0,324654:0:0:0:0:
448,192,324474,128,0,324654:0:0:0:0:
64,192,324594,128,0,324654:0:0:0:70:Kick 19.wav
192,192,324594,128,0,324654:0:0:0:0:
64,192,324714,128,0,324894:0:0:0:70:VEC3 Snares 003
320,192,324714,128,0,324774:0:0:0:0:
448,192,324714,128,0,324894:0:0:0:0:
192,192,324834,128,0,324894:0:0:0:70:Kick 19.wav
320,192,324834,128,0,325014:0:0:0:0:
64,192,324954,128,0,325134:0:0:0:70:VEC3 Snares 003
192,192,324954,128,0,325134:0:0:0:0:
448,192,324954,128,0,325014:0:0:0:0:
320,192,325074,128,0,325134:0:0:0:70:Kick 19.wav
448,192,325074,128,0,325254:0:0:0:0:
64,192,325194,128,0,325254:0:0:0:70:VEC3 Snares 003
192,192,325194,128,0,325254:0:0:0:0:
320,192,325194,128,0,325254:0:0:0:0:
64,192,325314,128,0,325374:0:0:0:70:VEC3 Snares 003
192,192,325314,128,0,325374:0:0:0:0:
448,192,325314,128,0,325374:0:0:0:0:
320,192,325374,128,0,325434:0:0:0:70:Kick 19.wav
64,192,325434,128,0,325614:0:0:0:70:VEC3 Snares 003
192,192,325434,128,0,325494:0:0:0:0:
448,192,325434,128,0,325614:0:0:0:0:
192,192,325554,128,0,325614:0:0:0:70:Kick 19.wav
320,192,325554,128,0,325614:0:0:0:0:
64,192,325674,128,0,325734:0:0:0:70:VEC3 Snares 003
320,192,325674,128,0,325854:0:0:0:70:CrashR.wav
448,192,325674,128,0,325854:0:0:0:0:
64,192,325794,128,0,325854:0:0:0:70:Kick 19.wav
192,192,325794,128,0,325854:0:0:0:0:
192,192,325914,128,0,326094:0:0:0:70:VEC3 Snares 003
320,192,325914,128,0,326094:0:0:0:70:CrashR.wav
448,192,325914,128,0,325974:0:0:0:0:
64,192,326034,128,0,326094:0:0:0:70:Kick 19.wav
448,192,326034,128,0,326094:0:0:0:0:
64,192,326154,128,0,326214:0:0:0:70:fill_snare_high.wav
192,192,326154,128,0,326214:0:0:0:0:
320,192,326214,128,0,326274:0:0:0:70:fill_snare_high.wav
64,192,326274,128,0,326334:0:0:0:70:fill_snare_high.wav
192,192,326274,128,0,326334:0:0:0:0:
320,192,326334,128,0,326394:0:0:0:70:fill_snare_high.wav
64,192,326394,128,0,326574:0:0:0:70:VEC3 Snares 003
192,192,326394,128,0,326574:0:0:0:70:CrashL.wav
448,192,326394,128,0,326454:0:0:0:0:
320,192,326514,128,0,326574:0:0:0:70:Kick 19.wav
448,192,326514,128,0,326574:0:0:0:0:
64,192,326634,128,0,326694:0:0:0:70:VEC3 Snares 003
192,192,326634,128,0,326814:0:0:0:0:
320,192,326634,128,0,326814:0:0:0:0:
64,192,326754,128,0,326934:0:0:0:70:Kick 19.wav
448,192,326754,128,0,326814:0:0:0:0:
192,192,326874,128,0,327054:0:0:0:70:VEC3 Snares 003
320,192,326874,128,0,326934:0:0:0:0:
448,192,326874,128,0,327054:0:0:0:0:
64,192,326994,128,0,327054:0:0:0:70:Kick 19.wav
320,192,326994,128,0,327174:0:0:0:0:
64,192,327114,128,0,327294:0:0:0:70:VEC3 Snares 003
192,192,327114,128,0,327174:0:0:0:0:
448,192,327114,128,0,327294:0:0:0:0:
192,192,327234,128,0,327294:0:0:0:70:Kick 19.wav
320,192,327234,128,0,327294:0:0:0:0:
64,192,327354,128,0,327414:0:0:0:70:VEC3 Snares 003
320,192,327354,128,0,327534:0:0:0:0:
448,192,327354,128,0,327534:0:0:0:0:
64,192,327474,128,0,327534:0:0:0:70:Kick 19.wav
192,192,327474,128,0,327534:0:0:0:0:
192,192,327594,128,0,327774:0:0:0:70:VEC3 Snares 003
320,192,327594,128,0,327774:0:0:0:0:
448,192,327594,128,0,327654:0:0:0:0:
64,192,327714,128,0,327774:0:0:0:70:Kick 19.wav
448,192,327714,128,0,327894:0:0:0:0:
64,192,327834,128,0,328014:0:0:0:70:VEC3 Snares 003
192,192,327834,128,0,328014:0:0:0:0:
320,192,327834,128,0,327894:0:0:0:0:
320,192,327954,128,0,328014:0:0:0:70:Kick 19.wav
448,192,327954,128,0,328014:0:0:0:0:
64,192,328074,128,0,328134:0:0:0:70:VEC3 Snares 003
192,192,328074,128,0,328134:0:0:0:0:
448,192,328074,128,0,328134:0:0:0:0:
320,192,328134,128,0,328194:0:0:0:70:Kick 19.wav
64,192,328194,128,0,328254:0:0:0:70:VEC3 Snares 003
192,192,328194,128,0,328254:0:0:0:0:
448,192,328194,128,0,328254:0:0:0:0:
320,192,328254,128,0,328314:0:0:0:70:Kick 19.wav
64,192,328314,128,0,328494:0:0:0:70:VEC3 Snares 003
192,192,328314,128,0,328374:0:0:0:70:CrashR.wav
448,192,328314,128,0,328494:0:0:0:0:
192,192,328434,128,0,328494:0:0:0:70:Kick 19.wav
320,192,328434,128,0,328494:0:0:0:0:
64,192,328554,128,0,328614:0:0:0:70:VEC3 Snares 003
320,192,328554,128,0,328734:0:0:0:0:
448,192,328554,128,0,328734:0:0:0:0:
64,192,328674,128,0,328854:0:0:0:70:Kick 19.wav
192,192,328674,128,0,328734:0:0:0:0:
192,192,328794,128,0,328974:0:0:0:70:VEC3 Snares 003
320,192,328794,128,0,328974:0:0:0:0:
448,192,328794,128,0,328854:0:0:0:0:
64,192,328914,128,0,328974:0:0:0:70:Kick 19.wav
448,192,328914,128,0,329094:0:0:0:0:
64,192,329034,128,0,329214:0:0:0:70:VEC3 Snares 003
192,192,329034,128,0,329214:0:0:0:0:
320,192,329034,128,0,329094:0:0:0:0:
320,192,329154,128,0,329214:0:0:0:70:Kick 19.wav
448,192,329154,128,0,329214:0:0:0:0:
64,192,329274,128,0,329454:0:0:0:70:VEC3 Snares 003
192,192,329274,128,0,329334:0:0:0:0:
448,192,329274,128,0,329454:0:0:0:0:
192,192,329394,128,0,329574:0:0:0:70:Kick 19.wav
320,192,329394,128,0,329454:0:0:0:0:
64,192,329514,128,0,329574:0:0:0:70:VEC3 Snares 003
320,192,329514,128,0,329694:0:0:0:70:CrashR.wav
448,192,329514,128,0,329694:0:0:0:0:
64,192,329634,128,0,329694:0:0:0:70:Kick 19.wav
192,192,329634,128,0,329694:0:0:0:0:
64,192,329754,128,0,329874:0:0:0:70:CrashR.wav
320,192,329754,128,0,329814:0:0:0:70:fill_snare_high.wav
448,192,329754,128,0,329934:0:0:0:0:
192,192,329814,128,0,329994:0:0:0:70:fill_snare_high.wav
320,192,329874,128,0,330054:0:0:0:70:fill_snare_high.wav
64,192,329934,128,0,330174:0:0:0:70:fill_snare_high.wav
448,192,329994,128,0,330114:0:0:0:70:fill_snare.wav
192,192,330054,128,0,330174:0:0:0:70:fill_snare.wav
320,192,330114,128,0,330234:0:0:0:70:fill_snare.wav
448,192,330174,128,0,330234:0:0:0:70:fill_snare.wav
64,192,330234,128,0,330414:0:0:0:70:Kick 19.wav
192,192,330234,128,0,330294:0:0:0:70:CrashL.wav
192,192,330354,128,0,330414:0:0:0:70:Kick 19.wav
320,192,330354,128,0,330414:0:0:0:0:
64,192,330474,128,0,330534:0:0:0:70:VEC3 Snares 003
320,192,330474,128,0,330654:0:0:0:0:
448,192,330474,128,0,330654:0:0:0:0:
64,192,330594,128,0,330774:0:0:0:70:Kick 19.wav
192,192,330594,128,0,330774:0:0:0:0:
320,192,330714,128,0,330774:0:0:0:70:Kick 19.wav
448,192,330714,128,0,330774:0:0:0:0:
64,192,330834,128,0,330894:0:0:0:70:Kick 19.wav
448,192,330834,128,0,330894:0:0:0:0:
64,192,330954,128,0,331134:0:0:0:70:VEC3 Snares 003
192,192,330954,128,0,331134:0:0:0:0:
320,192,330954,128,0,331014:0:0:0:0:
320,192,331074,128,0,331254:0:0:0:70:Kick 19.wav
448,192,331074,128,0,331254:0:0:0:0:
64,192,331194,128,0,331374:0:0:0:70:Kick 19.wav
192,192,331194,128,0,331254:0:0:0:0:
192,192,331314,128,0,331374:0:0:0:70:Kick 19.wav
320,192,331314,128,0,331374:0:0:0:0:
64,192,331434,128,0,331614:0:0:0:70:VEC3 Snares 003
320,192,331434,128,0,331494:0:0:0:0:
448,192,331434,128,0,331614:0:0:0:0:
192,192,331554,128,0,331734:0:0:0:70:Kick 19.wav
320,192,331554,128,0,331734:0:0:0:0:
64,192,331674,128,0,331734:0:0:0:70:Kick 19.wav
448,192,331674,128,0,331734:0:0:0:0:
192,192,331794,128,0,331974:0:0:0:70:Kick 19.wav
320,192,331794,128,0,331854:0:0:0:0:
64,192,331914,128,0,332094:0:0:0:70:VEC3 Snares 003
320,192,331914,128,0,332094:0:0:0:0:
448,192,331914,128,0,331974:0:0:0:0:
192,192,332034,128,0,332094:0:0:0:70:Kick 19.wav
448,192,332034,128,0,332214:0:0:0:0:
64,192,332154,128,0,332334:0:0:0:70:Kick 19.wav
192,192,332154,128,0,332334:0:0:0:0:
320,192,332274,128,0,332334:0:0:0:70:Kick 19.wav
448,192,332274,128,0,332334:0:0:0:0:
64,192,332394,128,0,332574:0:0:0:70:VEC3 Snares 003
192,192,332394,128,0,332454:0:0:0:0:
448,192,332394,128,0,332574:0:0:0:0:
192,192,332514,128,0,332694:0:0:0:70:Kick 19.wav
320,192,332514,128,0,332694:0:0:0:0:
64,192,332634,128,0,332694:0:0:0:70:Kick 19.wav
448,192,332634,128,0,332814:0:0:0:0:
64,192,332754,128,0,332934:0:0:0:70:Kick 19.wav
320,192,332754,128,0,332814:0:0:0:0:
192,192,332874,128,0,332934:0:0:0:70:VEC3 Snares 003
320,192,332874,128,0,333054:0:0:0:0:
448,192,332874,128,0,333054:0:0:0:0:
64,192,332994,128,0,333054:0:0:0:70:Kick 19.wav
192,192,332994,128,0,333054:0:0:0:0:
64,192,333114,128,0,333234:0:0:0:70:VEC3 Snares 003
320,192,333114,128,0,333174:0:0:0:70:CrashR.wav
448,192,333114,128,0,333174:0:0:0:0:
320,192,333234,128,0,333294:0:0:0:70:Kick 19.wav
448,192,333234,128,0,333294:0:0:0:0:
192,192,333294,128,0,333414:0:0:0:70:Kick 19.wav
64,192,333354,128,0,333414:0:0:0:70:VEC3 Snares 003
320,192,333354,128,0,333474:0:0:0:70:CrashR.wav
448,192,333354,128,0,333474:0:0:0:0:
64,192,333474,128,0,333534:0:0:0:70:Kick 19.wav
192,192,333474,128,0,333534:0:0:0:0:
320,192,333534,128,0,333654:0:0:0:70:Kick 19.wav
64,192,333594,128,0,333714:0:0:0:70:VEC3 Snares 003
192,192,333594,128,0,333714:0:0:0:70:CrashR.wav
448,192,333594,128,0,333654:0:0:0:0:
320,192,333714,128,0,333774:0:0:0:70:Kick 19.wav
448,192,333714,128,0,333774:0:0:0:0:
192,192,333774,128,0,333834:0:0:0:70:Kick 19.wav
320,192,333834,128,0,333894:0:0:0:70:VEC3 Snares 003
448,192,333834,128,0,333894:0:0:0:0:
64,192,333894,128,0,333954:0:0:0:70:VEC3 Snares 003
192,192,333894,128,0,333954:0:0:0:0:
320,192,333954,128,0,334014:0:0:0:70:VEC3 Snares 003
448,192,333954,128,0,334014:0:0:0:0:
192,192,334014,128,0,334074:0:0:0:70:VEC3 Snares 003
64,192,334074,128,0,334134:0:0:0:70:VEC3 Snares 003
320,192,334074,128,0,334254:0:0:0:70:CrashL.wav
448,192,334074,128,0,334254:0:0:0:0:
64,192,334194,128,0,334254:0:0:0:70:Kick 19.wav
192,192,334194,128,0,334254:0:0:0:0:
192,192,334314,128,0,334494:0:0:0:70:VEC3 Snares 003
320,192,334314,128,0,334494:0:0:0:0:
448,192,334314,128,0,334374:0:0:0:0:
64,192,334434,128,0,334494:0:0:0:70:Kick 19.wav
448,192,334434,128,0,334614:0:0:0:0:
64,192,334554,128,0,334734:0:0:0:70:VEC3 Snares 003
192,192,334554,128,0,334734:0:0:0:0:
320,192,334554,128,0,334614:0:0:0:0:
320,192,334674,128,0,334734:0:0:0:70:Kick 19.wav
448,192,334674,128,0,334734:0:0:0:0:
64,192,334794,128,0,334974:0:0:0:70:VEC3 Snares 003
192,192,334794,128,0,334854:0:0:0:0:
448,192,334794,128,0,334974:0:0:0:0:
192,192,334914,128,0,334974:0:0:0:70:Kick 19.wav
320,192,334914,128,0,334974:0:0:0:0:
64,192,335034,128,0,335094:0:0:0:70:VEC3 Snares 003
320,192,335034,128,0,335214:0:0:0:0:
448,192,335034,128,0,335214:0:0:0:0:
64,192,335154,128,0,335214:0:0:0:70:Kick 19.wav
192,192,335154,128,0,335214:0:0:0:0:
192,192,335274,128,0,335454:0:0:0:70:VEC3 Snares 003
320,192,335274,128,0,335454:0:0:0:0:
448,192,335274,128,0,335334:0:0:0:0:
64,192,335394,128,0,335454:0:0:0:70:Kick 19.wav
448,192,335394,128,0,335574:0:0:0:0:
64,192,335514,128,0,335694:0:0:0:70:VEC3 Snares 003
192,192,335514,128,0,335694:0:0:0:0:
320,192,335514,128,0,335574:0:0:0:0:
320,192,335634,128,0,335694:0:0:0:70:Kick 19.wav
448,192,335634,128,0,335694:0:0:0:0:
64,192,335754,128,0,335814:0:0:0:70:VEC3 Snares 003
192,192,335754,128,0,335814:0:0:0:0:
448,192,335754,128,0,335814:0:0:0:0:
320,192,335814,128,0,335874:0:0:0:70:Kick 19.wav
64,192,335874,128,0,335934:0:0:0:70:VEC3 Snares 003
192,192,335874,128,0,335934:0:0:0:0:
448,192,335874,128,0,335934:0:0:0:0:
320,192,335934,128,0,335994:0:0:0:70:Kick 19.wav
64,192,335994,128,0,336174:0:0:0:70:VEC3 Snares 003
192,192,335994,128,0,336054:0:0:0:0:
448,192,335994,128,0,336174:0:0:0:0:
192,192,336114,128,0,336174:0:0:0:70:Kick 19.wav
320,192,336114,128,0,336174:0:0:0:0:
64,192,336234,128,0,336294:0:0:0:70:VEC3 Snares 003
320,192,336234,128,0,336414:0:0:0:0:
448,192,336234,128,0,336414:0:0:0:0:
64,192,336354,128,0,336534:0:0:0:70:Kick 19.wav
192,192,336354,128,0,336414:0:0:0:0:
192,192,336474,128,0,336654:0:0:0:70:VEC3 Snares 003
320,192,336474,128,0,336654:0:0:0:0:
448,192,336474,128,0,336534:0:0:0:0:
64,192,336594,128,0,336654:0:0:0:70:Kick 19.wav
448,192,336594,128,0,336774:0:0:0:0:
64,192,336714,128,0,336894:0:0:0:70:VEC3 Snares 003
192,192,336714,128,0,336894:0:0:0:0:
320,192,336714,128,0,336774:0:0:0:0:
320,192,336834,128,0,336894:0:0:0:70:Kick 19.wav
448,192,336834,128,0,336894:0:0:0:0:
64,192,336954,128,0,337014:0:0:0:70:VEC3 Snares 003
192,192,336954,128,0,337134:0:0:0:0:
448,192,336954,128,0,337134:0:0:0:0:
64,192,337074,128,0,337134:0:0:0:70:Kick 19.wav
320,192,337074,128,0,337134:0:0:0:0:
192,192,337194,128,0,337374:0:0:0:70:VEC3 Snares 003
320,192,337194,128,0,337374:0:0:0:70:CrashR.wav
448,192,337194,128,0,337254:0:0:0:0:
64,192,337314,128,0,337374:0:0:0:70:Kick 19.wav
448,192,337314,128,0,337494:0:0:0:0:
64,192,337434,128,0,337614:0:0:0:70:VEC3 Snares 003
192,192,337434,128,0,337614:0:0:0:70:CrashL.wav
320,192,337434,128,0,337494:0:0:0:0:
320,192,337554,128,0,337614:0:0:0:70:Kick 19.wav
448,192,337554,128,0,337614:0:0:0:0:
64,192,337674,128,0,337854:0:0:0:70:VEC3 Snares 003
192,192,337674,128,0,337854:0:0:0:70:CrashR.wav
320,192,337794,128,0,337854:0:0:0:0:
64,192,337914,128,0,337974:0:0:0:70:VEC3 Snares 003
320,192,337914,128,0,338334:0:0:0:70:CrashL.wav
448,192,337914,128,0,338214:0:0:0:0:
64,192,338034,128,0,338094:0:0:0:70:Kick 19.wav
192,192,338034,128,0,338094:0:0:0:0:
64,192,338154,128,0,338214:0:0:0:70:Kick 19.wav
192,192,338154,128,0,338214:0:0:0:0:
64,192,338274,128,0,338574:0:0:0:70:VEC3 Snares 003
192,192,338274,128,0,338694:0:0:0:70:CrashL.wav
448,192,338274,128,0,338334:0:0:0:0:
320,192,338394,128,0,338454:0:0:0:70:Kick 19.wav
448,192,338394,128,0,338454:0:0:0:0:
320,192,338514,128,0,338574:0:0:0:70:Kick 19.wav
448,192,338514,128,0,338574:0:0:0:0:
64,192,338634,128,0,338694:0:0:0:70:VEC3 Snares 003
320,192,338634,128,0,338754:0:0:0:70:CrashL.wav
448,192,338634,128,0,338754:0:0:0:0:
64,192,338754,128,0,338814:0:0:0:70:Kick 19.wav
192,192,338754,128,0,338814:0:0:0:0:
320,192,338814,128,0,338934:0:0:0:70:Kick 19.wav
64,192,338874,128,0,339174:0:0:0:70:VEC3 Snares 003
192,192,338874,128,0,339174:0:0:0:70:CrashL.wav
448,192,338874,128,0,338934:0:0:0:0:
320,192,338994,128,0,339054:0:0:0:70:Kick 19.wav
448,192,338994,128,0,339054:0:0:0:0:
320,192,339114,128,0,339534:0:0:0:70:Kick 19.wav
448,192,339114,128,0,339174:0:0:0:0:
64,192,339234,128,0,339294:0:0:0:70:VEC3 Snares 003
192,192,339234,128,0,339294:0:0:0:70:CrashL.wav
448,192,339234,128,0,339534:0:0:0:0:
64,192,339354,128,0,339414:0:0:0:70:Kick 19.wav
192,192,339354,128,0,339414:0:0:0:0:
64,192,339474,128,0,339534:0:0:0:70:Kick 19.wav
192,192,339474,128,0,339714:0:0:0:0:
64,192,339594,128,0,339714:0:0:0:70:VEC3 Snares 003
320,192,339594,128,0,339654:0:0:0:70:CrashL.wav
448,192,339594,128,0,339654:0:0:0:0:
320,192,339714,128,0,339774:0:0:0:70:Kick 19.wav
448,192,339714,128,0,339774:0:0:0:0:
192,192,339774,128,0,339954:0:0:0:70:Kick 19.wav
64,192,339834,128,0,339954:0:0:0:70:VEC3 Snares 003
320,192,339834,128,0,339894:0:0:0:70:CrashR.wav
448,192,339834,128,0,339954:0:0:0:0:
320,192,339954,128,0,340134:0:0:0:70:Kick 19.wav
64,192,340014,128,0,340134:0:0:0:70:VEC3 Snares 003
192,192,340014,128,0,340074:0:0:0:70:CrashR.wav
448,192,340014,128,0,340134:0:0:0:0:
192,192,340134,128,0,340194:0:0:0:70:Kick 19.wav
64,192,340194,128,0,340254:0:0:0:70:VEC3 Snares 003
320,192,340194,128,0,340254:0:0:0:70:CrashR.wav
448,192,340194,128,0,340254:0:0:0:0:
192,192,340254,128,0,340434:0:0:0:70:Kick 19.wav
64,192,340314,128,0,340434:0:0:0:70:VEC3 Snares 003
320,192,340314,128,0,340374:0:0:0:70:CrashR.wav
448,192,340314,128,0,340434:0:0:0:0:
320,192,340434,128,0,340614:0:0:0:70:Kick 19.wav
64,192,340494,128,0,340614:0:0:0:70:VEC3 Snares 003
192,192,340494,128,0,340554:0:0:0:70:CrashR.wav
448,192,340494,128,0,340614:0:0:0:0:
192,192,340614,128,0,340674:0:0:0:70:Kick 19.wav
64,192,340674,128,0,340734:0:0:0:70:VEC3 Snares 003
320,192,340674,128,0,340734:0:0:0:70:CrashR.wav
448,192,340674,128,0,340734:0:0:0:0:
192,192,340734,128,0,341094:0:0:0:70:Kick 19.wav
64,192,340794,128,0,341214:0:0:0:70:VEC3 Snares 003
320,192,340794,128,0,340854:0:0:0:70:Kick 19.wav
448,192,340794,128,0,340854:0:0:0:70:CrashL.wav
320,192,340914,128,0,340974:0:0:0:70:VEC3 Snares 003
448,192,340914,128,0,340974:0:0:0:70:Kick 19.wav
320,192,341034,128,0,341094:0:0:0:70:VEC3 Snares 003
448,192,341034,128,0,341694:0:0:0:70:Kick 19.wav
192,192,341154,128,0,341214:0:0:0:70:VEC3 Snares 003
320,192,341154,128,0,341694:0:0:0:70:Kick 19.wav
64,192,341274,128,0,341694:0:0:0:70:Kick 19.wav
192,192,341274,128,0,341694:0:0:0:70:CrashL.wav
64,192,341754,1,0,0:0:0:70:Kick 19.wav
192,192,341754,1,0,0:0:0:70:CrashL.wav
320,192,341754,1,0,0:0:0:0:
448,192,341754,1,0,0:0:0:0:
320,192,357114,5,0,0:0:0:70:Kick 19.wav
448,192,357114,128,0,360954:0:0:0:70:CrashL.wav
64,192,357594,1,0,0:0:0:0:
192,192,357714,1,0,0:0:0:0:
64,192,359514,1,0,0:0:0:0:
192,192,359634,1,0,0:0:0:0:
320,192,360954,128,0,362994:0:0:0:0:
192,192,361434,1,0,0:0:0:0:
64,192,361554,1,0,0:0:0:0:
64,192,362994,128,0,364794:0:0:0:0:
320,192,363354,1,0,0:0:0:0:
192,192,363474,1,0,0:0:0:0:
192,192,364794,128,0,366834:0:0:0:0:
320,192,365274,1,0,0:0:0:0:
448,192,365394,1,0,0:0:0:0:
320,192,366834,128,0,368634:0:0:0:0:
64,192,367194,1,0,0:0:0:0:
192,192,367314,1,0,0:0:0:0:
448,192,368634,128,0,370554:0:0:0:0:
192,192,369114,1,0,0:0:0:0:
320,192,369234,1,0,0:0:0:0:
64,192,370554,128,0,372474:0:0:0:0:
192,192,371034,1,0,0:0:0:0:
320,192,371154,1,0,0:0:0:0:
192,192,372474,1,0,0:0:0:70:Kick 19.wav
320,192,372474,1,0,0:0:0:70:CrashL.wav
448,192,372474,128,0,376314:0:0:0:0:
64,192,372954,1,0,0:0:0:0:
320,192,373074,1,0,0:0:0:0:
64,192,374874,1,0,0:0:0:0:
320,192,374994,1,0,0:0:0:0:
320,192,376314,128,0,378354:0:0:0:0:
192,192,376794,1,0,0:0:0:0:
448,192,376914,1,0,0:0:0:0:
64,192,378354,128,0,380154:0:0:0:0:
192,192,378714,1,0,0:0:0:0:
448,192,378834,1,0,0:0:0:0:
192,192,380154,128,0,382194:0:0:0:0:
64,192,380634,1,0,0:0:0:0:
320,192,380754,1,0,0:0:0:0:
448,192,382194,128,0,383994:0:0:0:0:
64,192,382554,1,0,0:0:0:0:
320,192,382674,1,0,0:0:0:0:
320,192,383994,128,0,385914:0:0:0:0:
64,192,384474,1,0,0:0:0:0:
192,192,384594,1,0,0:0:0:0:
448,192,385914,128,0,386994:0:0:0:0:
64,192,386394,1,0,0:0:0:0:
192,192,386514,1,0,0:0:0:0:
64,192,386994,128,0,387834:0:0:0:0:
320,192,387834,1,0,0:0:0:70:Kick 19.wav
448,192,387834,1,0,0:0:0:70:CrashL.wav
320,192,395514,5,0,0:0:0:70:Kick 19.wav
448,192,395514,128,0,395634:0:0:0:0:
192,192,395634,1,0,0:0:0:0:
64,192,395754,1,0,0:0:0:0:
192,192,395874,128,0,395994:0:0:0:0:
448,192,395934,128,0,395994:0:0:0:0:
320,192,395994,128,0,396114:0:0:0:0:
64,192,396114,1,0,0:0:0:0:
192,192,396234,128,0,396354:0:0:0:0:
448,192,396354,1,0,0:0:0:0:
320,192,396474,128,0,396594:0:0:0:0:
64,192,396594,1,0,0:0:0:0:
192,192,396714,1,0,0:0:0:0:
320,192,396834,128,0,396954:0:0:0:0:
448,192,396894,128,0,396954:0:0:0:0:
64,192,396954,128,0,397074:0:0:0:0:
192,192,397074,1,0,0:0:0:0:
448,192,397194,128,0,397314:0:0:0:0:
64,192,397314,1,0,0:0:0:0:
320,192,397434,128,0,397554:0:0:0:0:
192,192,397554,1,0,0:0:0:0:
64,192,397674,1,0,0:0:0:0:
448,192,397794,128,0,397914:0:0:0:0:
192,192,397854,128,0,397914:0:0:0:0:
320,192,397914,128,0,398034:0:0:0:0:
64,192,398034,1,0,0:0:0:0:
192,192,398154,128,0,398274:0:0:0:0:
320,192,398274,1,0,0:0:0:0:
448,192,398394,128,0,398514:0:0:0:0:
64,192,398514,1,0,0:0:0:0:
192,192,398634,1,0,0:0:0:0:
320,192,398754,128,0,398874:0:0:0:0:
192,192,398874,128,0,398994:0:0:0:0:
448,192,398994,1,0,0:0:0:0:
320,192,399114,128,0,399234:0:0:0:0:
192,192,399234,1,0,0:0:0:0:
64,192,399354,128,0,399474:0:0:0:0:
192,192,399474,1,0,0:0:0:0:
320,192,399594,128,0,399714:0:0:0:0:
64,192,399714,128,0,399834:0:0:0:0:
448,192,399774,128,0,399834:0:0:0:0:
192,192,399834,128,0,399954:0:0:0:0:
320,192,399954,1,0,0:0:0:0:
64,192,400074,128,0,400194:0:0:0:0:
192,192,400194,128,0,400314:0:0:0:0:
448,192,400314,128,0,400434:0:0:0:0:
64,192,400434,1,0,0:0:0:0:
320,192,400554,128,0,400674:0:0:0:0:
192,192,400674,128,0,400794:0:0:0:0:
448,192,400734,128,0,400794:0:0:0:0:
64,192,400794,128,0,400914:0:0:0:0:
320,192,400914,1,0,0:0:0:0:
192,192,401034,128,0,401154:0:0:0:0:
64,192,401154,128,0,401274:0:0:0:0:
448,192,401274,128,0,401394:0:0:0:0:
320,192,401394,1,0,0:0:0:0:
64,192,401514,128,0,401634:0:0:0:0:
320,192,401634,128,0,401754:0:0:0:0:
448,192,401694,128,0,401754:0:0:0:0:
192,192,401754,128,0,401874:0:0:0:0:
448,192,401874,1,0,0:0:0:0:
64,192,401994,128,0,402114:0:0:0:0:
320,192,402114,128,0,402234:0:0:0:0:
448,192,402234,128,0,402354:0:0:0:0:
192,192,402354,1,0,0:0:0:0:
320,192,402474,1,0,0:0:0:0:
64,192,402594,128,0,402714:0:0:0:0:
448,192,402714,128,0,402834:0:0:0:0:
320,192,402834,1,0,0:0:0:0:
448,192,402954,128,0,403074:0:0:0:0:
320,192,403074,128,0,403194:0:0:0:0:
64,192,403194,128,0,403314:0:0:0:0:
192,192,403314,1,0,0:0:0:0:
320,192,403434,1,0,0:0:0:0:
192,192,403554,128,0,403674:0:0:0:0:
320,192,403674,128,0,403794:0:0:0:0:
64,192,403794,1,0,0:0:0:0:
448,192,403914,128,0,404034:0:0:0:0:
320,192,404034,1,0,0:0:0:0:
64,192,404154,128,0,404274:0:0:0:0:
192,192,404274,1,0,0:0:0:0:
320,192,404394,1,0,0:0:0:0:
192,192,404514,128,0,404634:0:0:0:0:
320,192,404634,128,0,404754:0:0:0:0:
64,192,404754,1,0,0:0:0:0:
448,192,404874,128,0,404994:0:0:0:0:
320,192,404994,1,0,0:0:0:0:
64,192,405114,128,0,405234:0:0:0:0:
192,192,405234,1,0,0:0:0:0:
320,192,405354,1,0,0:0:0:0:
192,192,405474,128,0,405594:0:0:0:0:
320,192,405594,128,0,405714:0:0:0:0:
64,192,405714,1,0,0:0:0:0:
448,192,405834,128,0,405954:0:0:0:0:
320,192,405954,1,0,0:0:0:0:
64,192,406074,128,0,406194:0:0:0:0:
192,192,406194,1,0,0:0:0:0:
320,192,406314,1,0,0:0:0:0:
192,192,406434,128,0,406554:0:0:0:0:
320,192,406554,128,0,406674:0:0:0:0:
64,192,406674,1,0,0:0:0:0:
192,192,406794,128,0,406914:0:0:0:0:
448,192,406914,1,0,0:0:0:0:
320,192,407034,128,0,407154:0:0:0:0:
192,192,407154,1,0,0:0:0:0:
64,192,407274,1,0,0:0:0:0:
320,192,407394,128,0,407514:0:0:0:0:
64,192,407514,128,0,407634:0:0:0:0:
192,192,407634,1,0,0:0:0:0:
64,192,407754,128,0,407874:0:0:0:0:
192,192,407874,128,0,407994:0:0:0:0:
320,192,407994,128,0,408114:0:0:0:0:
192,192,408114,1,0,0:0:0:0:
64,192,408234,1,0,0:0:0:0:
320,192,408354,128,0,408474:0:0:0:0:
64,192,408474,128,0,408594:0:0:0:0:
192,192,408594,1,0,0:0:0:0:
64,192,408714,128,0,408834:0:0:0:0:
192,192,408834,128,0,408954:0:0:0:0:
448,192,408954,128,0,409074:0:0:0:0:
320,192,409074,1,0,0:0:0:0:
192,192,409194,1,0,0:0:0:0:
448,192,409314,128,0,409434:0:0:0:0:
64,192,409434,128,0,409554:0:0:0:0:
192,192,409554,1,0,0:0:0:0:
64,192,409674,128,0,409794:0:0:0:0:
192,192,409794,128,0,409914:0:0:0:0:
320,192,409914,128,0,410034:0:0:0:0:
192,192,410034,1,0,0:0:0:0:
64,192,410154,1,0,0:0:0:0:
320,192,410274,128,0,410394:0:0:0:0:
64,192,410394,128,0,410514:0:0:0:0:
192,192,410514,1,0,0:0:0:0:
192,192,410634,128,0,410754:0:0:0:0:
64,192,410754,128,0,410874:0:0:0:0:
192,192,410874,128,0,410934:0:0:0:70:Kick 19.wav
320,192,410874,128,0,410934:0:0:0:70:VEC3 Snares 003.wav
448,192,410874,128,0,411054:0:0:0:0:
192,192,410994,128,0,411054:0:0:0:70:Kick 19.wav
320,192,410994,128,0,411054:0:0:0:0:
192,192,411114,128,0,411234:0:0:0:70:Kick 19.wav
320,192,411114,128,0,411174:0:0:0:70:VEC3 Snares 003.wav
448,192,411114,128,0,411174:0:0:0:0:
320,192,411234,128,0,411294:0:0:0:70:Kick 19.wav
448,192,411234,128,0,411294:0:0:0:0:
192,192,411294,128,0,411414:0:0:0:0:
64,192,411354,128,0,411414:0:0:0:70:Kick 19.wav
320,192,411354,128,0,411414:0:0:0:70:VEC3 Snares 003.wav
448,192,411354,128,0,411534:0:0:0:0:
192,192,411474,128,0,411534:0:0:0:70:Kick 19.wav
320,192,411474,128,0,411534:0:0:0:0:
192,192,411594,128,0,411714:0:0:0:70:Kick 19.wav
320,192,411594,128,0,411654:0:0:0:70:VEC3 Snares 003.wav
448,192,411594,128,0,411654:0:0:0:0:
320,192,411714,128,0,411774:0:0:0:70:Kick 19.wav
448,192,411714,128,0,411774:0:0:0:0:
192,192,411774,128,0,411894:0:0:0:0:
64,192,411834,128,0,411894:0:0:0:70:Kick 19.wav
320,192,411834,128,0,411894:0:0:0:70:VEC3 Snares 003.wav
448,192,411834,128,0,412014:0:0:0:0:
192,192,411954,128,0,412014:0:0:0:70:Kick 19.wav
320,192,411954,128,0,412014:0:0:0:0:
192,192,412074,128,0,412194:0:0:0:70:Kick 19.wav
320,192,412074,128,0,412134:0:0:0:70:VEC3 Snares 003.wav
448,192,412074,128,0,412134:0:0:0:0:
320,192,412194,128,0,412254:0:0:0:70:Kick 19.wav
448,192,412194,128,0,412254:0:0:0:0:
192,192,412254,128,0,412374:0:0:0:0:
64,192,412314,128,0,412374:0:0:0:70:Kick 19.wav
320,192,412314,128,0,412374:0:0:0:70:VEC3 Snares 003.wav
448,192,412314,128,0,412494:0:0:0:0:
192,192,412434,128,0,412494:0:0:0:70:Kick 19.wav
320,192,412434,128,0,412494:0:0:0:0:
192,192,412554,128,0,412674:0:0:0:70:Kick 19.wav
320,192,412554,128,0,412614:0:0:0:70:VEC3 Snares 003.wav
448,192,412554,128,0,412614:0:0:0:0:
320,192,412674,128,0,412734:0:0:0:70:Kick 19.wav
448,192,412674,128,0,412734:0:0:0:0:
192,192,412734,128,0,412854:0:0:0:70:Kick 19.wav
64,192,412794,128,0,412854:0:0:0:70:Kick 19.wav
320,192,412794,128,0,412974:0:0:0:70:VEC3 Snares 003.wav
448,192,412794,128,0,412854:0:0:0:0:
64,192,412914,128,0,412974:0:0:0:70:Kick 19.wav
192,192,412914,128,0,412974:0:0:0:0:
64,192,413034,128,0,413094:0:0:0:70:Kick 19.wav
192,192,413034,128,0,413094:0:0:0:70:VEC3 Snares 003.wav
320,192,413034,128,0,413154:0:0:0:0:
64,192,413154,128,0,413214:0:0:0:70:Kick 19.wav
192,192,413154,128,0,413214:0:0:0:0:
320,192,413214,128,0,413334:0:0:0:0:
64,192,413274,128,0,413454:0:0:0:70:Kick 19.wav
192,192,413274,128,0,413334:0:0:0:70:VEC3 Snares 003.wav
448,192,413274,128,0,413334:0:0:0:0:
192,192,413394,128,0,413454:0:0:0:70:Kick 19.wav
320,192,413394,128,0,413454:0:0:0:0:
64,192,413514,128,0,413574:0:0:0:70:Kick 19.wav
192,192,413514,128,0,413574:0:0:0:70:VEC3 Snares 003.wav
320,192,413514,128,0,413634:0:0:0:0:
64,192,413634,128,0,413694:0:0:0:70:Kick 19.wav
192,192,413634,128,0,413694:0:0:0:0:
320,192,413694,128,0,413814:0:0:0:0:
64,192,413754,128,0,413934:0:0:0:70:Kick 19.wav
192,192,413754,128,0,413814:0:0:0:70:VEC3 Snares 003.wav
448,192,413754,128,0,413814:0:0:0:0:
192,192,413874,128,0,413934:0:0:0:70:Kick 19.wav
320,192,413874,128,0,413934:0:0:0:0:
64,192,413994,128,0,414054:0:0:0:70:Kick 19.wav
192,192,413994,128,0,414054:0:0:0:70:VEC3 Snares 003.wav
320,192,413994,128,0,414114:0:0:0:0:
64,192,414114,128,0,414174:0:0:0:70:Kick 19.wav
192,192,414114,128,0,414174:0:0:0:0:
320,192,414174,128,0,414294:0:0:0:0:
64,192,414234,128,0,414414:0:0:0:70:Kick 19.wav
192,192,414234,128,0,414294:0:0:0:70:VEC3 Snares 003.wav
448,192,414234,128,0,414294:0:0:0:0:
192,192,414354,128,0,414414:0:0:0:70:Kick 19.wav
320,192,414354,128,0,414474:0:0:0:0:
64,192,414474,128,0,414564:0:0:0:70:Kick 19.wav
192,192,414474,128,0,414534:0:0:0:0:
448,192,414534,128,0,414594:0:0:0:70:fill_snare_low.wav
320,192,414564,128,0,414624:0:0:0:0:
192,192,414594,128,0,414654:0:0:0:70:fill_snare_low.wav
64,192,414624,128,0,414684:0:0:0:0:
192,192,414714,128,0,414774:0:0:0:70:Kick 19.wav
320,192,414714,128,0,414774:0:0:0:70:VEC3 Snares 003.wav
448,192,414714,128,0,414894:0:0:0:0:
192,192,414834,128,0,414894:0:0:0:70:Kick 19.wav
320,192,414834,128,0,414894:0:0:0:0:
192,192,414954,128,0,415134:0:0:0:70:Kick 19.wav
320,192,414954,128,0,415014:0:0:0:70:VEC3 Snares 003.wav
448,192,414954,128,0,415014:0:0:0:0:
320,192,415074,128,0,415134:0:0:0:70:Kick 19.wav
448,192,415074,128,0,415134:0:0:0:0:
64,192,415134,128,0,415194:0:0:0:0:
192,192,415194,128,0,415254:0:0:0:70:Kick 19.wav
320,192,415194,128,0,415254:0:0:0:70:VEC3 Snares 003.wav
448,192,415194,128,0,415374:0:0:0:0:
192,192,415314,128,0,415374:0:0:0:70:Kick 19.wav
320,192,415314,128,0,415374:0:0:0:0:
192,192,415434,128,0,415614:0:0:0:70:Kick 19.wav
320,192,415434,128,0,415494:0:0:0:70:VEC3 Snares 003.wav
448,192,415434,128,0,415494:0:0:0:0:
320,192,415554,128,0,415614:0:0:0:70:Kick 19.wav
448,192,415554,128,0,415614:0:0:0:0:
64,192,415614,128,0,415674:0:0:0:0:
192,192,415674,128,0,415734:0:0:0:70:Kick 19.wav
320,192,415674,128,0,415734:0:0:0:70:VEC3 Snares 003.wav
448,192,415674,128,0,415854:0:0:0:0:
192,192,415794,128,0,415854:0:0:0:70:Kick 19.wav
320,192,415794,128,0,415854:0:0:0:0:
192,192,415914,128,0,416094:0:0:0:70:Kick 19.wav
320,192,415914,128,0,415974:0:0:0:70:VEC3 Snares 003.wav
448,192,415914,128,0,415974:0:0:0:0:
320,192,416034,128,0,416094:0:0:0:70:Kick 19.wav
448,192,416034,128,0,416094:0:0:0:0:
64,192,416094,128,0,416154:0:0:0:0:
192,192,416154,128,0,416214:0:0:0:70:Kick 19.wav
320,192,416154,128,0,416214:0:0:0:70:VEC3 Snares 003.wav
448,192,416154,128,0,416334:0:0:0:0:
192,192,416274,128,0,416334:0:0:0:70:Kick 19.wav
320,192,416274,128,0,416334:0:0:0:0:
192,192,416394,128,0,416514:0:0:0:70:Kick 19.wav
320,192,416394,128,0,416454:0:0:0:70:VEC3 Snares 003.wav
448,192,416394,128,0,416454:0:0:0:0:
320,192,416514,128,0,416574:0:0:0:70:Kick 19.wav
448,192,416514,128,0,416574:0:0:0:0:
64,192,416574,128,0,416694:0:0:0:70:Kick 19.wav
192,192,416574,128,0,416694:0:0:0:0:
320,192,416634,128,0,416814:0:0:0:70:Kick 19.wav
448,192,416634,128,0,416694:0:0:0:70:VEC3 Snares 003.wav
64,192,416754,128,0,416814:0:0:0:70:Kick 19.wav
192,192,416754,128,0,416814:0:0:0:0:
64,192,416874,128,0,416934:0:0:0:70:Kick 19.wav
192,192,416874,128,0,416934:0:0:0:70:VEC3 Snares 003.wav
320,192,416874,128,0,417054:0:0:0:0:
448,192,416934,128,0,416994:0:0:0:70:fill_snare_high.wav
64,192,416994,128,0,417054:0:0:0:70:Kick 19.wav
192,192,416994,128,0,417054:0:0:0:0:
448,192,417054,128,0,417114:0:0:0:70:fill_snare_high.wav
64,192,417114,128,0,417294:0:0:0:70:Kick 19.wav
192,192,417114,128,0,417174:0:0:0:70:VEC3 Snares 003.wav
320,192,417114,128,0,417174:0:0:0:0:
192,192,417234,128,0,417294:0:0:0:70:Kick 19.wav
320,192,417234,128,0,417294:0:0:0:0:
64,192,417354,128,0,417414:0:0:0:70:Kick 19.wav
192,192,417354,128,0,417414:0:0:0:70:VEC3 Snares 003.wav
320,192,417354,128,0,417534:0:0:0:0:
64,192,417474,128,0,417534:0:0:0:70:Kick 19.wav
192,192,417474,128,0,417534:0:0:0:0:
448,192,417534,128,0,417594:0:0:0:0:
64,192,417594,128,0,417774:0:0:0:70:Kick 19.wav
192,192,417594,128,0,417654:0:0:0:70:VEC3 Snares 003.wav
320,192,417594,128,0,417654:0:0:0:0:
192,192,417714,128,0,417774:0:0:0:70:Kick 19.wav
320,192,417714,128,0,417774:0:0:0:0:
64,192,417834,128,0,417894:0:0:0:70:Kick 19.wav
192,192,417834,128,0,417894:0:0:0:70:VEC3 Snares 003.wav
320,192,417834,128,0,418014:0:0:0:0:
64,192,417954,128,0,418014:0:0:0:70:Kick 19.wav
192,192,417954,128,0,418014:0:0:0:0:
448,192,418014,128,0,418074:0:0:0:0:
64,192,418074,128,0,418134:0:0:0:70:Kick 19.wav
192,192,418074,128,0,418134:0:0:0:70:VEC3 Snares 003.wav
320,192,418074,128,0,418134:0:0:0:0:
64,192,418194,1,0,0:0:0:70:Kick 19.wav
192,192,418224,1,0,0:0:0:70:Kick 19.wav
320,192,418254,1,0,0:0:0:70:Kick 19.wav
448,192,418284,1,0,0:0:0:70:Kick 19.wav
64,192,418314,128,0,418554:0:0:0:70:Kick 19.wav
192,192,418314,128,0,418554:0:0:0:0:
448,192,418554,128,0,418599:0:0:0:70:Kick 19.wav
320,192,418584,128,0,418629:0:0:0:70:Kick 19.wav
192,192,418614,128,0,418659:0:0:0:70:Kick 19.wav
64,192,418644,128,0,418689:0:0:0:70:Kick 19.wav
320,192,418674,1,0,0:0:0:70:Kick 19.wav
448,192,418674,1,0,0:0:0:0:
192,192,418734,1,0,0:0:0:70:Kick 19.wav
64,192,418794,1,0,0:0:0:70:Kick 19.wav
448,192,418794,1,0,0:0:0:70:VEC3 Snares 003.wav
320,192,418854,1,0,0:0:0:70:Kick 19.wav
64,192,418914,128,0,418959:0:0:0:70:Kick 19.wav
192,192,418944,128,0,418989:0:0:0:70:Kick 19.wav
320,192,418974,128,0,419019:0:0:0:70:Kick 19.wav
448,192,419004,128,0,419049:0:0:0:70:Kick 19.wav
64,192,419034,1,0,0:0:0:70:Kick 19.wav
192,192,419034,1,0,0:0:0:0:
320,192,419094,1,0,0:0:0:70:Kick 19.wav
64,192,419154,1,0,0:0:0:70:Kick 19.wav
448,192,419154,1,0,0:0:0:70:VEC3 Snares 003.wav
192,192,419214,1,0,0:0:0:70:Kick 19.wav
448,192,419274,128,0,419319:0:0:0:70:Kick 19.wav
320,192,419304,128,0,419349:0:0:0:70:Kick 19.wav
192,192,419334,128,0,419379:0:0:0:70:Kick 19.wav
64,192,419364,128,0,419409:0:0:0:70:Kick 19.wav
320,192,419394,1,0,0:0:0:70:Kick 19.wav
448,192,419394,1,0,0:0:0:0:
192,192,419454,1,0,0:0:0:70:Kick 19.wav
448,192,419514,128,0,419559:0:0:0:70:Kick 19.wav
320,192,419544,128,0,419589:0:0:0:70:Kick 19.wav
64,192,419574,128,0,419619:0:0:0:70:Kick 19.wav
192,192,419604,128,0,419649:0:0:0:70:Kick 19.wav
320,192,419634,1,0,0:0:0:70:Kick 19.wav
448,192,419634,1,0,0:0:0:0:
64,192,419694,1,0,0:0:0:70:Kick 19.wav
448,192,419754,128,0,419799:0:0:0:70:Kick 19.wav
320,192,419784,128,0,419829:0:0:0:70:Kick 19.wav
192,192,419814,128,0,419859:0:0:0:70:Kick 19.wav
448,192,419874,128,0,419919:0:0:0:70:Kick 19.wav
320,192,419904,128,0,419949:0:0:0:70:Kick 19.wav
64,192,419934,128,0,419979:0:0:0:70:Kick 19.wav
192,192,419964,128,0,420009:0:0:0:70:Kick 19.wav
320,192,419994,1,0,0:0:0:70:Kick 19.wav
448,192,419994,1,0,0:0:0:0:
64,192,420054,1,0,0:0:0:70:Kick 19.wav
192,192,420114,1,0,0:0:0:70:Kick 19.wav
448,192,420114,1,0,0:0:0:70:VEC3 Snares 003.wav
320,192,420174,1,0,0:0:0:70:Kick 19.wav
64,192,420234,128,0,420279:0:0:0:70:Kick 19.wav
192,192,420264,128,0,420309:0:0:0:70:Kick 19.wav
320,192,420294,128,0,420339:0:0:0:70:Kick 19.wav
448,192,420324,128,0,420369:0:0:0:70:Kick 19.wav
64,192,420354,1,0,0:0:0:70:Kick 19.wav
192,192,420354,1,0,0:0:0:0:
320,192,420414,1,0,0:0:0:70:Kick 19.wav
64,192,420474,128,0,420519:0:0:0:70:Kick 19.wav
192,192,420504,128,0,420549:0:0:0:70:Kick 19.wav
320,192,420534,128,0,420579:0:0:0:70:Kick 19.wav
448,192,420564,128,0,420609:0:0:0:70:Kick 19.wav
64,192,420594,1,0,0:0:0:70:Kick 19.wav
192,192,420594,1,0,0:0:0:0:
320,192,420654,1,0,0:0:0:70:Kick 19.wav
64,192,420714,1,0,0:0:0:70:Kick 19.wav
448,192,420714,1,0,0:0:0:70:VEC3 Snares 003.wav
192,192,420774,1,0,0:0:0:70:Kick 19.wav
448,192,420834,128,0,420879:0:0:0:70:Kick 19.wav
320,192,420864,128,0,420909:0:0:0:70:Kick 19.wav
192,192,420894,128,0,420939:0:0:0:70:Kick 19.wav
64,192,420924,128,0,420969:0:0:0:70:Kick 19.wav
320,192,420954,1,0,0:0:0:70:Kick 19.wav
448,192,420954,1,0,0:0:0:0:
192,192,421014,1,0,0:0:0:70:Kick 19.wav
64,192,421074,1,0,0:0:0:70:Kick 19.wav
448,192,421074,1,0,0:0:0:70:VEC3 Snares 003.wav
320,192,421134,1,0,0:0:0:70:Kick 19.wav
64,192,421194,128,0,421239:0:0:0:70:Kick 19.wav
192,192,421224,128,0,421269:0:0:0:70:Kick 19.wav
320,192,421254,128,0,421299:0:0:0:70:Kick 19.wav
448,192,421284,128,0,421329:0:0:0:70:Kick 19.wav
64,192,421314,1,0,0:0:0:70:Kick 19.wav
192,192,421314,1,0,0:0:0:0:
320,192,421374,1,0,0:0:0:70:Kick 19.wav
448,192,421374,1,0,0:0:0:0:
64,192,421434,128,0,421479:0:0:0:70:Kick 19.wav
192,192,421464,128,0,421509:0:0:0:70:Kick 19.wav
320,192,421494,128,0,421539:0:0:0:70:Kick 19.wav
448,192,421524,128,0,421569:0:0:0:70:Kick 19.wav
64,192,421554,1,0,0:0:0:70:Kick 19.wav
192,192,421554,1,0,0:0:0:0:
320,192,421614,1,0,0:0:0:70:Kick 19.wav
448,192,421614,1,0,0:0:0:0:
64,192,421674,128,0,421719:0:0:0:70:Kick 19.wav
192,192,421704,128,0,421749:0:0:0:70:Kick 19.wav
320,192,421734,128,0,421779:0:0:0:70:Kick 19.wav
64,192,421794,128,0,421839:0:0:0:70:Kick 19.wav
192,192,421824,128,0,421869:0:0:0:70:Kick 19.wav
448,192,421854,128,0,421899:0:0:0:70:Kick 19.wav
320,192,421884,128,0,421929:0:0:0:70:Kick 19.wav
64,192,421914,1,0,0:0:0:70:Kick 19.wav
192,192,421914,1,0,0:0:0:0:
448,192,421974,1,0,0:0:0:70:Kick 19.wav
64,192,422034,1,0,0:0:0:70:Kick 19.wav
320,192,422034,1,0,0:0:0:70:VEC3 Snares 003.wav
192,192,422094,1,0,0:0:0:70:Kick 19.wav
448,192,422154,128,0,422199:0:0:0:70:Kick 19.wav
320,192,422184,128,0,422229:0:0:0:70:Kick 19.wav
192,192,422214,128,0,422259:0:0:0:70:Kick 19.wav
64,192,422244,128,0,422289:0:0:0:70:Kick 19.wav
320,192,422274,1,0,0:0:0:70:Kick 19.wav
448,192,422274,1,0,0:0:0:0:
192,192,422334,1,0,0:0:0:70:Kick 19.wav
64,192,422394,1,0,0:0:0:70:Kick 19.wav
320,192,422394,1,0,0:0:0:70:VEC3 Snares 003.wav
448,192,422394,1,0,0:0:0:0:
192,192,422454,1,0,0:0:0:70:Kick 19.wav
320,192,422514,1,0,0:0:0:70:Kick 19.wav
448,192,422514,1,0,0:0:0:0:
64,192,422574,1,0,0:0:0:70:Kick 19.wav
192,192,422574,1,0,0:0:0:0:
448,192,422634,128,0,422679:0:0:0:70:Kick 19.wav
320,192,422664,128,0,422709:0:0:0:70:Kick 19.wav
192,192,422694,128,0,422739:0:0:0:70:Kick 19.wav
64,192,422724,128,0,422769:0:0:0:70:Kick 19.wav
448,192,422754,128,0,422799:0:0:0:70:Kick 19.wav
320,192,422784,128,0,422829:0:0:0:70:Kick 19.wav
64,192,422814,128,0,422859:0:0:0:70:Kick 19.wav
192,192,422844,128,0,422889:0:0:0:70:Kick 19.wav
320,192,422874,1,0,0:0:0:70:Kick 19.wav
448,192,422874,1,0,0:0:0:70:VEC3 Snares 003.wav
64,192,422934,1,0,0:0:0:70:Kick 19.wav
320,192,422994,1,0,0:0:0:70:Kick 19.wav
448,192,422994,1,0,0:0:0:0:
64,192,423054,1,0,0:0:0:70:Kick 19.wav
448,192,423114,128,0,423159:0:0:0:70:Kick 19.wav
320,192,423144,128,0,423189:0:0:0:70:Kick 19.wav
192,192,423174,128,0,423219:0:0:0:70:Kick 19.wav
64,192,423204,128,0,423249:0:0:0:70:Kick 19.wav
448,192,423234,128,0,423279:0:0:0:70:Kick 19.wav
320,192,423264,128,0,423309:0:0:0:70:Kick 19.wav
192,192,423294,128,0,423339:0:0:0:70:Kick 19.wav
64,192,423324,128,0,423369:0:0:0:70:Kick 19.wav
320,192,423354,1,0,0:0:0:70:Kick 19.wav
448,192,423354,1,0,0:0:0:70:VEC3 Snares 003.wav
192,192,423414,1,0,0:0:0:70:fill_snare_low.wav
320,192,423474,1,0,0:0:0:70:fill_snare_low.wav
448,192,423474,1,0,0:0:0:0:
192,192,423534,1,0,0:0:0:70:fill_snare_low.wav
64,192,423594,128,0,423654:0:0:0:70:VEC3 Snares 003.wav
448,192,423594,128,0,423654:0:0:0:70:fill_snare_low.wav
320,192,423654,128,0,423714:0:0:0:70:fill_snare_low.wav
192,192,423714,128,0,423774:0:0:0:70:fill_snare_low.wav
64,192,423774,128,0,423834:0:0:0:70:fill_snare_low.wav
448,192,423834,128,0,423954:0:0:0:70:fill_snare_low.wav
320,192,423894,128,0,424014:0:0:0:70:fill_snare_low.wav
192,192,423954,128,0,424074:0:0:0:70:fill_snare_low.wav
64,192,424014,128,0,424134:0:0:0:70:fill_snare_low.wav
448,192,424074,128,0,424254:0:0:0:70:fill_snare_low.wav
320,192,424134,128,0,424254:0:0:0:70:fill_snare_low.wav
192,192,424194,128,0,424314:0:0:0:70:fill_snare_low.wav
64,192,424254,128,0,424314:0:0:0:70:fill_snare_low.wav
320,192,424314,1,0,0:0:0:70:Kick 19.wav
448,192,424314,128,0,424374:0:0:0:0:
64,192,424374,128,0,424434:0:0:0:0:
320,192,424434,128,0,424494:0:0:0:0:
192,192,424494,128,0,424554:0:0:0:0:
448,192,424554,128,0,424614:0:0:0:0:
320,192,424614,128,0,424674:0:0:0:0:
192,192,424674,128,0,424734:0:0:0:0:
64,192,424734,128,0,424794:0:0:0:0:
448,192,424794,128,0,424914:0:0:0:0:
64,192,424914,128,0,424974:0:0:0:0:
192,192,424974,128,0,425034:0:0:0:0:
320,192,425034,128,0,425154:0:0:0:0:
448,192,425154,128,0,425274:0:0:0:0:
64,192,425274,1,0,0:0:0:70:Kick 19.wav
192,192,425274,128,0,425319:0:0:0:0:
320,192,425334,128,0,425379:0:0:0:0:
448,192,425394,128,0,425439:0:0:0:0:
64,192,425454,128,0,425499:0:0:0:0:
192,192,425514,128,0,425574:0:0:0:0:
448,192,425574,128,0,425634:0:0:0:0:
320,192,425634,128,0,425694:0:0:0:0:
64,192,425694,128,0,425754:0:0:0:0:
448,192,425754,128,0,425814:0:0:0:0:
320,192,425814,128,0,425874:0:0:0:0:
192,192,425874,128,0,425934:0:0:0:0:
64,192,425934,128,0,425994:0:0:0:0:
320,192,425994,128,0,426069:0:0:0:0:
192,192,426054,128,0,426129:0:0:0:0:
320,192,426114,128,0,426189:0:0:0:0:
192,192,426174,128,0,426234:0:0:0:0:
64,192,426234,128,0,426354:0:0:0:70:Kick 19.wav
320,192,426234,128,0,426294:0:0:0:70:CrashL.wav
448,192,426234,128,0,426294:0:0:0:0:
192,192,426294,128,0,426354:0:0:0:0:
320,192,426354,128,0,426414:0:0:0:70:Kick 19.wav
448,192,426354,128,0,426414:0:0:0:0:
192,192,426414,128,0,426474:0:0:0:0:
64,192,426474,128,0,426534:0:0:0:70:VEC3 Snares 003
320,192,426474,128,0,426594:0:0:0:70:Kick 19.wav
448,192,426474,128,0,426534:0:0:0:70:CrashR.wav
192,192,426534,128,0,426594:0:0:0:0:
64,192,426594,128,0,426654:0:0:0:0:
448,192,426594,128,0,426654:0:0:0:0:
192,192,426654,128,0,426774:0:0:0:0:
320,192,426654,128,0,426714:0:0:0:0:
64,192,426714,128,0,426834:0:0:0:70:Kick 19.wav
448,192,426714,128,0,426834:0:0:0:0:
320,192,426774,128,0,426834:0:0:0:0:
192,192,426834,128,0,426894:0:0:0:0:
64,192,426894,128,0,426954:0:0:0:0:
192,192,426954,128,0,427074:0:0:0:70:VEC3 Snares 003
320,192,426954,128,0,427014:0:0:0:70:Kick 19.wav
448,192,426954,128,0,427074:0:0:0:0:
64,192,427014,128,0,427074:0:0:0:0:
320,192,427074,128,0,427134:0:0:0:0:
448,192,427134,128,0,427194:0:0:0:0:
64,192,427194,128,0,427314:0:0:0:70:Kick 19.wav
192,192,427194,128,0,427314:0:0:0:0:
448,192,427254,128,0,427314:0:0:0:0:
320,192,427314,128,0,427374:0:0:0:0:
192,192,427374,128,0,427434:0:0:0:0:
64,192,427434,128,0,427554:0:0:0:70:VEC3 Snares 003
320,192,427434,128,0,427494:0:0:0:70:Kick 19.wav
448,192,427434,128,0,427494:0:0:0:0:
192,192,427494,128,0,427554:0:0:0:0:
320,192,427554,128,0,427614:0:0:0:0:
448,192,427554,128,0,427614:0:0:0:0:
64,192,427614,128,0,427674:0:0:0:0:
192,192,427614,128,0,427734:0:0:0:0:
320,192,427674,128,0,427794:0:0:0:70:Kick 19.wav
448,192,427674,128,0,427794:0:0:0:0:
64,192,427734,128,0,427794:0:0:0:0:
192,192,427794,128,0,427854:0:0:0:0:
320,192,427854,128,0,427914:0:0:0:0:
64,192,427914,128,0,428034:0:0:0:70:VEC3 Snares 003
192,192,427914,128,0,427974:0:0:0:70:Kick 19.wav
448,192,427914,128,0,428034:0:0:0:0:
320,192,427974,128,0,428034:0:0:0:0:
192,192,428034,128,0,428094:0:0:0:0:
64,192,428094,128,0,428154:0:0:0:0:
320,192,428154,128,0,428274:0:0:0:70:Kick 19.wav
448,192,428154,128,0,428274:0:0:0:0:
192,192,428214,128,0,428274:0:0:0:0:
64,192,428274,128,0,428334:0:0:0:0:
320,192,428334,128,0,428394:0:0:0:0:
64,192,428394,128,0,428514:0:0:0:70:VEC3 Snares 003
192,192,428394,128,0,428454:0:0:0:70:Kick 19.wav
448,192,428394,128,0,428454:0:0:0:0:
320,192,428454,128,0,428514:0:0:0:0:
192,192,428514,128,0,428574:0:0:0:0:
448,192,428514,128,0,428574:0:0:0:0:
64,192,428574,128,0,428634:0:0:0:0:
320,192,428574,128,0,428694:0:0:0:0:
192,192,428634,128,0,428754:0:0:0:70:Kick 19.wav
448,192,428634,128,0,428754:0:0:0:0:
64,192,428694,128,0,428754:0:0:0:0:
320,192,428754,128,0,428814:0:0:0:0:
192,192,428814,128,0,428874:0:0:0:0:
64,192,428874,128,0,428994:0:0:0:70:VEC3 Snares 003
320,192,428874,128,0,428994:0:0:0:70:Kick 19.wav
448,192,428874,128,0,428934:0:0:0:0:
192,192,428934,128,0,428994:0:0:0:0:
448,192,428994,128,0,429054:0:0:0:0:
320,192,429054,128,0,429114:0:0:0:0:
64,192,429114,128,0,429234:0:0:0:70:Kick 19.wav
192,192,429114,128,0,429234:0:0:0:0:
448,192,429174,128,0,429234:0:0:0:0:
320,192,429234,128,0,429294:0:0:0:0:
192,192,429294,128,0,429354:0:0:0:0:
64,192,429354,128,0,429414:0:0:0:70:VEC3 Snares 003
320,192,429354,128,0,429474:0:0:0:70:Kick 19.wav
448,192,429354,128,0,429414:0:0:0:0:
192,192,429414,128,0,429474:0:0:0:0:
64,192,429474,128,0,429534:0:0:0:0:
448,192,429474,128,0,429594:0:0:0:0:
320,192,429534,128,0,429594:0:0:0:0:
64,192,429594,128,0,429714:0:0:0:70:Kick 19.wav
192,192,429594,128,0,429714:0:0:0:0:
320,192,429654,128,0,429714:0:0:0:0:
448,192,429714,128,0,429774:0:0:0:0:
192,192,429774,128,0,429834:0:0:0:0:
64,192,429834,128,0,429954:0:0:0:70:VEC3 Snares 003
320,192,429834,128,0,429894:0:0:0:70:Kick 19.wav
448,192,429834,128,0,429954:0:0:0:0:
192,192,429894,128,0,429954:0:0:0:0:
320,192,429954,128,0,430014:0:0:0:0:
448,192,430014,128,0,430074:0:0:0:0:
64,192,430074,128,0,430194:0:0:0:70:Kick 19.wav
192,192,430074,128,0,430194:0:0:0:70:CrashL.wav
320,192,430134,128,0,430194:0:0:0:0:
448,192,430194,128,0,430254:0:0:0:0:
64,192,430254,128,0,430314:0:0:0:0:
192,192,430314,128,0,430434:0:0:0:70:VEC3 Snares 003
320,192,430314,128,0,430374:0:0:0:70:Kick 19.wav
448,192,430314,128,0,430374:0:0:0:0:
64,192,430374,128,0,430434:0:0:0:0:
320,192,430434,128,0,430494:0:0:0:0:
448,192,430434,128,0,430494:0:0:0:0:
64,192,430494,128,0,430554:0:0:0:0:
192,192,430494,128,0,430614:0:0:0:0:
320,192,430554,128,0,430674:0:0:0:70:Kick 19.wav
448,192,430554,128,0,430674:0:0:0:0:
64,192,430614,128,0,430674:0:0:0:0:
192,192,430674,128,0,430734:0:0:0:0:
320,192,430734,128,0,430794:0:0:0:0:
64,192,430794,128,0,430914:0:0:0:70:VEC3 Snares 003
192,192,430794,128,0,430854:0:0:0:70:Kick 19.wav
448,192,430794,128,0,430914:0:0:0:0:
320,192,430854,128,0,430914:0:0:0:0:
192,192,430914,128,0,430974:0:0:0:0:
64,192,430974,128,0,431034:0:0:0:0:
320,192,431034,128,0,431154:0:0:0:70:Kick 19.wav
448,192,431034,128,0,431154:0:0:0:0:
192,192,431094,128,0,431154:0:0:0:0:
64,192,431154,128,0,431214:0:0:0:0:
320,192,431214,128,0,431274:0:0:0:0:
64,192,431274,128,0,431334:0:0:0:70:VEC3 Snares 003
192,192,431274,128,0,431394:0:0:0:70:Kick 19.wav
448,192,431274,128,0,431334:0:0:0:0:
320,192,431334,128,0,431394:0:0:0:0:
64,192,431394,128,0,431454:0:0:0:0:
448,192,431394,128,0,431454:0:0:0:0:
192,192,431454,128,0,431514:0:0:0:0:
320,192,431454,128,0,431574:0:0:0:0:
64,192,431514,128,0,431634:0:0:0:70:Kick 19.wav
448,192,431514,128,0,431634:0:0:0:0:
192,192,431574,128,0,431634:0:0:0:0:
320,192,431634,128,0,431694:0:0:0:0:
448,192,431694,128,0,431754:0:0:0:0:
64,192,431754,128,0,431874:0:0:0:70:VEC3 Snares 003
192,192,431754,128,0,431814:0:0:0:70:Kick 19.wav
320,192,431754,128,0,431874:0:0:0:0:
448,192,431814,128,0,431874:0:0:0:0:
192,192,431874,128,0,431934:0:0:0:0:
64,192,431934,128,0,431994:0:0:0:0:
320,192,431994,128,0,432114:0:0:0:70:Kick 19.wav
448,192,431994,128,0,432114:0:0:0:0:
64,192,432054,128,0,432114:0:0:0:0:
192,192,432114,128,0,432174:0:0:0:0:
320,192,432174,128,0,432234:0:0:0:0:
64,192,432234,128,0,432294:0:0:0:70:VEC3 Snares 003
192,192,432234,128,0,432294:0:0:0:70:Kick 19.wav
448,192,432234,128,0,432354:0:0:0:0:
320,192,432294,128,0,432354:0:0:0:0:
64,192,432354,128,0,432414:0:0:0:0:
192,192,432354,128,0,432414:0:0:0:0:
320,192,432414,128,0,432534:0:0:0:0:
448,192,432414,128,0,432474:0:0:0:0:
64,192,432474,128,0,432594:0:0:0:70:Kick 19.wav
192,192,432474,128,0,432594:0:0:0:0:
448,192,432534,128,0,432594:0:0:0:0:
320,192,432594,128,0,432654:0:0:0:0:
192,192,432654,128,0,432714:0:0:0:0:
64,192,432714,128,0,432834:0:0:0:70:VEC3 Snares 003
320,192,432714,128,0,432834:0:0:0:70:Kick 19.wav
448,192,432714,128,0,432774:0:0:0:0:
192,192,432774,128,0,432834:0:0:0:0:
448,192,432834,128,0,432954:0:0:0:0:
320,192,432894,128,0,432954:0:0:0:0:
64,192,432954,128,0,433074:0:0:0:70:Kick 19.wav
192,192,432954,128,0,433014:0:0:0:0:
320,192,433014,128,0,433074:0:0:0:0:
192,192,433074,128,0,433134:0:0:0:0:
64,192,433134,128,0,433194:0:0:0:0:
192,192,433194,128,0,433314:0:0:0:70:VEC3 Snares 003
320,192,433194,128,0,433254:0:0:0:70:Kick 19.wav
448,192,433194,128,0,433254:0:0:0:0:
64,192,433254,128,0,433314:0:0:0:0:
320,192,433314,128,0,433434:0:0:0:0:
448,192,433314,128,0,433374:0:0:0:0:
192,192,433374,128,0,433434:0:0:0:0:
64,192,433434,128,0,433494:0:0:0:70:Kick 19.wav
448,192,433434,128,0,433554:0:0:0:0:
320,192,433494,128,0,433554:0:0:0:0:
64,192,433554,128,0,433614:0:0:0:0:
192,192,433614,128,0,433674:0:0:0:0:
64,192,433674,128,0,433794:0:0:0:70:VEC3 Snares 003
320,192,433674,128,0,433734:0:0:0:70:Kick 19.wav
448,192,433674,128,0,433734:0:0:0:0:
192,192,433734,128,0,433794:0:0:0:0:
320,192,433794,128,0,433914:0:0:0:0:
448,192,433794,128,0,433854:0:0:0:0:
192,192,433854,128,0,433914:0:0:0:0:
64,192,433914,128,0,433974:0:0:0:70:Kick 19.wav
448,192,433914,128,0,434034:0:0:0:70:CrashL.wav
320,192,433974,128,0,434034:0:0:0:0:
64,192,434034,128,0,434094:0:0:0:70:Kick 19.wav
192,192,434034,128,0,434094:0:0:0:0:
320,192,434094,128,0,434154:0:0:0:0:
64,192,434154,128,0,434214:0:0:0:70:VEC3 Snares 003
192,192,434154,128,0,434214:0:0:0:70:Kick 19.wav
448,192,434154,128,0,434274:0:0:0:70:CrashR.wav
320,192,434214,128,0,434274:0:0:0:0:
64,192,434274,128,0,434334:0:0:0:0:
192,192,434274,128,0,434394:0:0:0:0:
320,192,434334,128,0,434394:0:0:0:0:
64,192,434394,128,0,434514:0:0:0:70:Kick 19.wav
448,192,434394,128,0,434514:0:0:0:0:
192,192,434454,128,0,434514:0:0:0:0:
320,192,434514,128,0,434574:0:0:0:0:
448,192,434574,128,0,434634:0:0:0:0:
64,192,434634,128,0,434754:0:0:0:70:VEC3 Snares 003
192,192,434634,128,0,434754:0:0:0:70:Kick 19.wav
320,192,434634,128,0,434694:0:0:0:0:
448,192,434694,128,0,434754:0:0:0:0:
320,192,434754,128,0,434814:0:0:0:0:
192,192,434814,128,0,434874:0:0:0:0:
64,192,434874,128,0,434994:0:0:0:70:Kick 19.wav
448,192,434874,128,0,434994:0:0:0:0:
320,192,434934,128,0,434994:0:0:0:0:
192,192,434994,128,0,435054:0:0:0:0:
448,192,435054,128,0,435114:0:0:0:0:
64,192,435114,128,0,435174:0:0:0:70:VEC3 Snares 003
192,192,435114,128,0,435174:0:0:0:70:Kick 19.wav
320,192,435114,128,0,435234:0:0:0:0:
448,192,435174,128,0,435234:0:0:0:0:
64,192,435234,128,0,435294:0:0:0:0:
192,192,435234,128,0,435354:0:0:0:0:
320,192,435294,128,0,435354:0:0:0:0:
64,192,435354,128,0,435474:0:0:0:70:Kick 19.wav
448,192,435354,128,0,435474:0:0:0:0:
192,192,435414,128,0,435474:0:0:0:0:
320,192,435474,128,0,435534:0:0:0:0:
448,192,435534,128,0,435594:0:0:0:0:
64,192,435594,128,0,435714:0:0:0:70:VEC3 Snares 003
192,192,435594,128,0,435714:0:0:0:70:Kick 19.wav
320,192,435594,128,0,435654:0:0:0:0:
448,192,435654,128,0,435714:0:0:0:0:
320,192,435714,128,0,435774:0:0:0:0:
192,192,435774,128,0,435834:0:0:0:0:
64,192,435834,128,0,435954:0:0:0:70:Kick 19.wav
448,192,435834,128,0,435954:0:0:0:0:
320,192,435894,128,0,435954:0:0:0:0:
192,192,435954,128,0,436014:0:0:0:0:
448,192,436014,128,0,436074:0:0:0:0:
64,192,436074,128,0,436134:0:0:0:70:VEC3 Snares 003
192,192,436074,128,0,436134:0:0:0:70:Kick 19.wav
320,192,436074,128,0,436194:0:0:0:0:
448,192,436134,128,0,436194:0:0:0:0:
64,192,436194,128,0,436254:0:0:0:0:
192,192,436194,128,0,436314:0:0:0:0:
320,192,436254,128,0,436314:0:0:0:0:
64,192,436314,128,0,436434:0:0:0:70:Kick 19.wav
448,192,436314,128,0,436434:0:0:0:0:
192,192,436374,128,0,436434:0:0:0:0:
320,192,436434,128,0,436494:0:0:0:0:
448,192,436494,128,0,436554:0:0:0:0:
64,192,436554,128,0,436674:0:0:0:70:VEC3 Snares 003
192,192,436554,128,0,436674:0:0:0:70:Kick 19.wav
320,192,436554,128,0,436614:0:0:0:0:
448,192,436614,128,0,436674:0:0:0:0:
320,192,436674,128,0,436734:0:0:0:0:
192,192,436734,128,0,436794:0:0:0:0:
64,192,436794,128,0,436914:0:0:0:70:Kick 19.wav
448,192,436794,128,0,436914:0:0:0:0:
320,192,436854,128,0,436914:0:0:0:0:
192,192,436914,128,0,436974:0:0:0:0:
448,192,436974,128,0,437034:0:0:0:0:
64,192,437034,128,0,437094:0:0:0:70:VEC3 Snares 003
192,192,437034,128,0,437094:0:0:0:70:Kick 19.wav
320,192,437034,128,0,437154:0:0:0:0:
448,192,437094,128,0,437154:0:0:0:0:
64,192,437154,128,0,437214:0:0:0:0:
192,192,437154,128,0,437274:0:0:0:0:
320,192,437214,128,0,437274:0:0:0:0:
64,192,437274,128,0,437394:0:0:0:70:Kick 19.wav
448,192,437274,128,0,437394:0:0:0:0:
192,192,437334,128,0,437394:0:0:0:0:
320,192,437394,128,0,437454:0:0:0:0:
448,192,437454,128,0,437514:0:0:0:0:
64,192,437514,128,0,437634:0:0:0:70:VEC3 Snares 003
192,192,437514,128,0,437634:0:0:0:70:Kick 19.wav
320,192,437514,128,0,437574:0:0:0:0:
448,192,437574,128,0,437634:0:0:0:0:
320,192,437634,128,0,437694:0:0:0:0:
192,192,437694,128,0,437754:0:0:0:0:
64,192,437754,128,0,437874:0:0:0:70:Kick 19.wav
448,192,437754,128,0,437874:0:0:0:70:CrashL.wav
320,192,437814,128,0,437874:0:0:0:0:
192,192,437874,128,0,437934:0:0:0:0:
64,192,437934,128,0,437994:0:0:0:0:
192,192,437994,128,0,438114:0:0:0:70:VEC3 Snares 003
320,192,437994,128,0,438054:0:0:0:70:Kick 19.wav
448,192,437994,128,0,438054:0:0:0:0:
64,192,438054,128,0,438114:0:0:0:0:
320,192,438114,128,0,438234:0:0:0:0:
448,192,438114,128,0,438174:0:0:0:0:
192,192,438174,128,0,438234:0:0:0:0:
64,192,438234,128,0,438294:0:0:0:70:Kick 19.wav
448,192,438234,128,0,438354:0:0:0:0:
320,192,438294,128,0,438354:0:0:0:0:
64,192,438354,128,0,438414:0:0:0:0:
192,192,438414,128,0,438474:0:0:0:0:
64,192,438474,128,0,438594:0:0:0:70:VEC3 Snares 003
320,192,438474,128,0,438534:0:0:0:70:Kick 19.wav
448,192,438474,128,0,438594:0:0:0:0:
192,192,438534,128,0,438594:0:0:0:0:
320,192,438594,128,0,438654:0:0:0:0:
448,192,438654,128,0,438714:0:0:0:0:
64,192,438714,128,0,438834:0:0:0:70:Kick 19.wav
192,192,438714,128,0,438834:0:0:0:0:
448,192,438774,128,0,438834:0:0:0:0:
320,192,438834,128,0,438894:0:0:0:0:
192,192,438894,128,0,438954:0:0:0:0:
64,192,438954,128,0,439074:0:0:0:70:VEC3 Snares 003
320,192,438954,128,0,439014:0:0:0:70:Kick 19.wav
448,192,438954,128,0,439014:0:0:0:0:
192,192,439014,128,0,439074:0:0:0:0:
320,192,439074,128,0,439194:0:0:0:0:
448,192,439074,128,0,439134:0:0:0:0:
192,192,439134,128,0,439194:0:0:0:0:
64,192,439194,128,0,439314:0:0:0:70:Kick 19.wav
448,192,439194,128,0,439314:0:0:0:0:
320,192,439254,128,0,439314:0:0:0:0:
192,192,439314,128,0,439374:0:0:0:0:
64,192,439374,128,0,439434:0:0:0:0:
192,192,439434,128,0,439554:0:0:0:70:VEC3 Snares 003
320,192,439434,128,0,439494:0:0:0:70:Kick 19.wav
448,192,439434,128,0,439494:0:0:0:0:
64,192,439494,128,0,439554:0:0:0:0:
320,192,439554,128,0,439614:0:0:0:0:
448,192,439554,128,0,439614:0:0:0:0:
192,192,439614,128,0,439674:0:0:0:0:
64,192,439674,128,0,439794:0:0:0:70:Kick 19.wav
320,192,439674,128,0,439794:0:0:0:0:
448,192,439734,128,0,439794:0:0:0:0:
192,192,439794,128,0,439854:0:0:0:0:
320,192,439854,128,0,439914:0:0:0:0:
64,192,439914,128,0,439974:0:0:0:70:VEC3 Snares 003
192,192,439914,128,0,439974:0:0:0:70:Kick 19.wav
448,192,439914,128,0,440034:0:0:0:0:
320,192,439974,128,0,440034:0:0:0:0:
64,192,440034,128,0,440094:0:0:0:0:
192,192,440034,128,0,440154:0:0:0:0:
448,192,440094,128,0,440154:0:0:0:0:
64,192,440154,128,0,440274:0:0:0:70:Kick 19.wav
320,192,440154,128,0,440274:0:0:0:0:
192,192,440214,128,0,440274:0:0:0:0:
448,192,440274,128,0,440334:0:0:0:0:
320,192,440334,128,0,440394:0:0:0:0:
64,192,440394,128,0,440514:0:0:0:70:VEC3 Snares 003
192,192,440394,128,0,440454:0:0:0:70:Kick 19.wav
448,192,440394,128,0,440514:0:0:0:0:
320,192,440454,128,0,440514:0:0:0:0:
192,192,440514,128,0,440574:0:0:0:0:
64,192,440574,128,0,440634:0:0:0:0:
320,192,440634,128,0,440754:0:0:0:70:Kick 19.wav
448,192,440634,128,0,440754:0:0:0:0:
64,192,440694,128,0,440754:0:0:0:0:
192,192,440754,128,0,440814:0:0:0:0:
320,192,440814,128,0,440874:0:0:0:0:
64,192,440874,128,0,440934:0:0:0:70:VEC3 Snares 003
192,192,440874,128,0,440934:0:0:0:70:Kick 19.wav
448,192,440874,128,0,440994:0:0:0:0:
320,192,440934,128,0,440994:0:0:0:0:
64,192,440994,128,0,441054:0:0:0:0:
192,192,440994,128,0,441114:0:0:0:0:
320,192,441054,128,0,441114:0:0:0:0:
64,192,441114,128,0,441234:0:0:0:70:Kick 19.wav
448,192,441114,128,0,441234:0:0:0:0:
192,192,441174,128,0,441234:0:0:0:0:
320,192,441234,128,0,441294:0:0:0:0:
448,192,441294,128,0,441354:0:0:0:0:
64,192,441354,128,0,441474:0:0:0:70:VEC3 Snares 003
192,192,441354,128,0,441474:0:0:0:70:Kick 19.wav
320,192,441354,128,0,441414:0:0:0:0:
448,192,441414,128,0,441474:0:0:0:0:
320,192,441474,128,0,441534:0:0:0:0:
192,192,441534,128,0,441594:0:0:0:0:
64,192,441594,128,0,441774:0:0:0:70:Kick 19.wav
448,192,441594,128,0,441774:0:0:0:70:CrashL.wav
64,192,441834,128,0,441894:0:0:0:70:VEC3 Snares 003
192,192,441834,128,0,441954:0:0:0:70:Kick 19.wav
448,192,441834,128,0,441894:0:0:0:70:CrashR.wav
320,192,441894,128,0,441954:0:0:0:0:
64,192,441954,128,0,442014:0:0:0:0:
448,192,441954,128,0,442014:0:0:0:0:
192,192,442014,128,0,442074:0:0:0:0:
320,192,442014,128,0,442134:0:0:0:0:
64,192,442074,128,0,442194:0:0:0:70:Kick 19.wav
448,192,442074,128,0,442194:0:0:0:0:
192,192,442134,128,0,442194:0:0:0:0:
320,192,442194,128,0,442254:0:0:0:0:
448,192,442254,128,0,442314:0:0:0:0:
64,192,442314,128,0,442374:0:0:0:70:VEC3 Snares 003
192,192,442314,128,0,442434:0:0:0:70:Kick 19.wav
320,192,442314,128,0,442434:0:0:0:0:
448,192,442374,128,0,442434:0:0:0:0:
64,192,442434,128,0,442494:0:0:0:0:
192,192,442494,128,0,442554:0:0:0:0:
320,192,442554,128,0,442674:0:0:0:70:Kick 19.wav
448,192,442554,128,0,442674:0:0:0:0:
192,192,442614,128,0,442674:0:0:0:0:
64,192,442674,128,0,442734:0:0:0:0:
320,192,442734,128,0,442794:0:0:0:0:
64,192,442794,128,0,442854:0:0:0:70:VEC3 Snares 003
192,192,442794,128,0,442854:0:0:0:70:Kick 19.wav
448,192,442794,128,0,442914:0:0:0:0:
320,192,442854,128,0,442914:0:0:0:0:
64,192,442914,128,0,442974:0:0:0:0:
192,192,442914,128,0,442974:0:0:0:0:
320,192,442974,128,0,443034:0:0:0:0:
448,192,442974,128,0,443094:0:0:0:0:
64,192,443034,128,0,443154:0:0:0:70:Kick 19.wav
192,192,443034,128,0,443154:0:0:0:0:
320,192,443094,128,0,443154:0:0:0:0:
448,192,443154,128,0,443214:0:0:0:0:
192,192,443214,128,0,443274:0:0:0:0:
64,192,443274,128,0,443394:0:0:0:70:VEC3 Snares 003
320,192,443274,128,0,443334:0:0:0:70:Kick 19.wav
448,192,443274,128,0,443394:0:0:0:0:
192,192,443334,128,0,443394:0:0:0:0:
320,192,443394,128,0,443454:0:0:0:0:
448,192,443454,128,0,443514:0:0:0:0:
64,192,443514,128,0,443634:0:0:0:70:Kick 19.wav
192,192,443514,128,0,443634:0:0:0:0:
320,192,443574,128,0,443634:0:0:0:0:
448,192,443634,128,0,443694:0:0:0:0:
192,192,443694,128,0,443754:0:0:0:0:
64,192,443754,128,0,443814:0:0:0:70:VEC3 Snares 003
320,192,443754,128,0,443814:0:0:0:70:Kick 19.wav
448,192,443754,128,0,443874:0:0:0:0:
192,192,443814,128,0,443874:0:0:0:0:
64,192,443874,128,0,443934:0:0:0:0:
320,192,443874,128,0,443934:0:0:0:0:
192,192,443934,128,0,444054:0:0:0:0:
448,192,443934,128,0,443994:0:0:0:0:
64,192,443994,128,0,444114:0:0:0:70:Kick 19.wav
320,192,443994,128,0,444114:0:0:0:0:
448,192,444054,128,0,444114:0:0:0:0:
192,192,444114,128,0,444174:0:0:0:0:
320,192,444174,128,0,444234:0:0:0:0:
64,192,444234,128,0,444294:0:0:0:70:VEC3 Snares 003
192,192,444234,128,0,444354:0:0:0:70:Kick 19.wav
448,192,444234,128,0,444354:0:0:0:0:
320,192,444294,128,0,444354:0:0:0:0:
64,192,444354,128,0,444414:0:0:0:0:
192,192,444414,128,0,444474:0:0:0:0:
320,192,444474,128,0,444594:0:0:0:70:Kick 19.wav
448,192,444474,128,0,444594:0:0:0:0:
192,192,444534,128,0,444594:0:0:0:0:
64,192,444594,128,0,444654:0:0:0:0:
448,192,444654,128,0,444714:0:0:0:0:
64,192,444714,128,0,444834:0:0:0:70:VEC3 Snares 003
192,192,444714,128,0,444774:0:0:0:70:Kick 19.wav
320,192,444714,128,0,444774:0:0:0:0:
448,192,444774,128,0,444834:0:0:0:0:
192,192,444834,128,0,444954:0:0:0:0:
320,192,444834,128,0,444894:0:0:0:0:
64,192,444894,128,0,444954:0:0:0:0:
320,192,444954,128,0,445074:0:0:0:70:Kick 19.wav
448,192,444954,128,0,445074:0:0:0:0:
64,192,445014,128,0,445074:0:0:0:0:
192,192,445074,128,0,445134:0:0:0:0:
320,192,445134,128,0,445194:0:0:0:0:
64,192,445194,128,0,445314:0:0:0:70:VEC3 Snares 003
192,192,445194,128,0,445254:0:0:0:70:Kick 19.wav
448,192,445194,128,0,445314:0:0:0:0:
320,192,445254,128,0,445314:0:0:0:0:
192,192,445314,128,0,445374:0:0:0:0:
64,192,445374,128,0,445434:0:0:0:0:
320,192,445434,128,0,445554:0:0:0:70:Kick 19.wav
448,192,445434,128,0,445554:0:0:0:70:CrashL.wav
64,192,445494,128,0,445554:0:0:0:0:
192,192,445554,128,0,445614:0:0:0:0:
320,192,445614,128,0,445674:0:0:0:0:
64,192,445674,128,0,445734:0:0:0:70:VEC3 Snares 003
192,192,445674,128,0,445734:0:0:0:70:Kick 19.wav
448,192,445674,128,0,445794:0:0:0:0:
320,192,445734,128,0,445794:0:0:0:0:
64,192,445794,128,0,445854:0:0:0:0:
192,192,445794,128,0,445854:0:0:0:0:
320,192,445854,128,0,445914:0:0:0:0:
448,192,445854,128,0,445974:0:0:0:0:
64,192,445914,128,0,446034:0:0:0:70:Kick 19.wav
192,192,445914,128,0,446034:0:0:0:0:
320,192,445974,128,0,446034:0:0:0:0:
448,192,446034,128,0,446094:0:0:0:0:
192,192,446094,128,0,446154:0:0:0:0:
64,192,446154,128,0,446274:0:0:0:70:VEC3 Snares 003
320,192,446154,128,0,446214:0:0:0:70:Kick 19.wav
448,192,446154,128,0,446274:0:0:0:0:
192,192,446214,128,0,446274:0:0:0:0:
320,192,446274,128,0,446334:0:0:0:0:
448,192,446334,128,0,446394:0:0:0:0:
64,192,446394,128,0,446514:0:0:0:70:Kick 19.wav
192,192,446394,128,0,446514:0:0:0:0:
320,192,446454,128,0,446514:0:0:0:0:
448,192,446514,128,0,446574:0:0:0:0:
64,192,446574,128,0,446634:0:0:0:0:
192,192,446634,128,0,446694:0:0:0:70:VEC3 Snares 003
320,192,446634,128,0,446754:0:0:0:70:Kick 19.wav
448,192,446634,128,0,446694:0:0:0:0:
64,192,446694,128,0,446754:0:0:0:0:
192,192,446754,128,0,446814:0:0:0:0:
448,192,446754,128,0,446814:0:0:0:0:
64,192,446814,128,0,446934:0:0:0:0:
320,192,446814,128,0,446874:0:0:0:0:
192,192,446874,128,0,446994:0:0:0:70:Kick 19.wav
448,192,446874,128,0,446994:0:0:0:0:
320,192,446934,128,0,446994:0:0:0:0:
64,192,446994,128,0,447054:0:0:0:0:
192,192,447054,128,0,447114:0:0:0:0:
64,192,447114,128,0,447234:0:0:0:70:VEC3 Snares 003
320,192,447114,128,0,447234:0:0:0:70:Kick 19.wav
448,192,447114,128,0,447174:0:0:0:0:
192,192,447174,128,0,447234:0:0:0:0:
448,192,447234,128,0,447294:0:0:0:0:
320,192,447294,128,0,447354:0:0:0:0:
64,192,447354,128,0,447474:0:0:0:70:Kick 19.wav
192,192,447354,128,0,447474:0:0:0:0:
320,192,447414,128,0,447474:0:0:0:0:
448,192,447474,128,0,447534:0:0:0:0:
192,192,447534,128,0,447594:0:0:0:0:
64,192,447594,128,0,447714:0:0:0:70:VEC3 Snares 003
320,192,447594,128,0,447654:0:0:0:70:Kick 19.wav
448,192,447594,128,0,447654:0:0:0:0:
192,192,447654,128,0,447714:0:0:0:0:
320,192,447714,128,0,447774:0:0:0:0:
448,192,447714,128,0,447774:0:0:0:0:
64,192,447774,128,0,447894:0:0:0:0:
192,192,447774,128,0,447834:0:0:0:0:
320,192,447834,128,0,447954:0:0:0:70:Kick 19.wav
448,192,447834,128,0,447954:0:0:0:0:
192,192,447894,128,0,447954:0:0:0:0:
64,192,447954,128,0,448014:0:0:0:0:
320,192,448014,128,0,448074:0:0:0:0:
64,192,448074,128,0,448194:0:0:0:70:VEC3 Snares 003
192,192,448074,128,0,448134:0:0:0:70:Kick 19.wav
448,192,448074,128,0,448194:0:0:0:0:
320,192,448134,128,0,448194:0:0:0:0:
192,192,448194,128,0,448254:0:0:0:0:
64,192,448254,128,0,448314:0:0:0:0:
320,192,448314,128,0,448434:0:0:0:70:Kick 19.wav
448,192,448314,128,0,448434:0:0:0:0:
64,192,448374,128,0,448434:0:0:0:0:
192,192,448434,128,0,448494:0:0:0:0:
320,192,448494,128,0,448554:0:0:0:0:
64,192,448554,128,0,448614:0:0:0:70:VEC3 Snares 003
192,192,448554,128,0,448674:0:0:0:70:Kick 19.wav
448,192,448554,128,0,448614:0:0:0:0:
320,192,448614,128,0,448674:0:0:0:0:
64,192,448674,128,0,448794:0:0:0:0:
448,192,448674,128,0,448734:0:0:0:0:
192,192,448734,128,0,448794:0:0:0:0:
320,192,448794,128,0,448914:0:0:0:70:Kick 19.wav
448,192,448794,128,0,448914:0:0:0:0:
192,192,448854,128,0,448914:0:0:0:0:
64,192,448914,128,0,448974:0:0:0:0:
320,192,448974,128,0,449034:0:0:0:0:
64,192,449034,128,0,449094:0:0:0:70:VEC3 Snares 003
192,192,449034,128,0,449094:0:0:0:70:Kick 19.wav
448,192,449034,128,0,449154:0:0:0:0:
320,192,449094,128,0,449154:0:0:0:0:
64,192,449154,128,0,449214:0:0:0:0:
192,192,449154,128,0,449274:0:0:0:0:
448,192,449214,128,0,449274:0:0:0:0:
64,192,449274,128,0,449394:0:0:0:70:Kick 19.wav
320,192,449274,128,0,449334:0:0:0:70:CrashL.wav
192,192,449334,128,0,449394:0:0:0:0:
320,192,449394,128,0,449454:0:0:0:70:Kick 19.wav
448,192,449394,128,0,449454:0:0:0:0:
64,192,449454,128,0,449514:0:0:0:0:
192,192,449514,128,0,449574:0:0:0:70:VEC3 Snares 003
320,192,449514,128,0,449574:0:0:0:70:Kick 19.wav
448,192,449514,128,0,449634:0:0:0:70:CrashR.wav
64,192,449574,128,0,449634:0:0:0:0:
192,192,449634,128,0,449694:0:0:0:0:
320,192,449634,128,0,449754:0:0:0:0:
448,192,449694,128,0,449754:0:0:0:0:
64,192,449754,128,0,449874:0:0:0:70:Kick 19.wav
192,192,449754,128,0,449874:0:0:0:0:
320,192,449814,128,0,449874:0:0:0:0:
448,192,449874,128,0,449934:0:0:0:0:
192,192,449934,128,0,449994:0:0:0:0:
64,192,449994,128,0,450114:0:0:0:70:VEC3 Snares 003
320,192,449994,128,0,450114:0:0:0:70:Kick 19.wav
448,192,449994,128,0,450054:0:0:0:0:
192,192,450054,128,0,450114:0:0:0:0:
448,192,450114,128,0,450174:0:0:0:0:
320,192,450174,128,0,450234:0:0:0:0:
64,192,450234,128,0,450354:0:0:0:70:Kick 19.wav
192,192,450234,128,0,450354:0:0:0:0:
320,192,450294,128,0,450354:0:0:0:0:
448,192,450354,128,0,450414:0:0:0:0:
64,192,450414,128,0,450474:0:0:0:0:
192,192,450474,128,0,450534:0:0:0:70:VEC3 Snares 003
320,192,450474,128,0,450534:0:0:0:70:Kick 19.wav
448,192,450474,128,0,450594:0:0:0:0:
64,192,450534,128,0,450594:0:0:0:0:
192,192,450594,128,0,450654:0:0:0:0:
320,192,450594,128,0,450714:0:0:0:0:
448,192,450654,128,0,450714:0:0:0:0:
64,192,450714,128,0,450834:0:0:0:70:Kick 19.wav
192,192,450714,128,0,450834:0:0:0:0:
320,192,450774,128,0,450834:0:0:0:0:
448,192,450834,128,0,450894:0:0:0:0:
192,192,450894,128,0,450954:0:0:0:0:
64,192,450954,128,0,451074:0:0:0:70:VEC3 Snares 003
320,192,450954,128,0,451074:0:0:0:70:Kick 19.wav
448,192,450954,128,0,451014:0:0:0:0:
192,192,451014,128,0,451074:0:0:0:0:
448,192,451074,128,0,451134:0:0:0:0:
320,192,451134,128,0,451194:0:0:0:0:
64,192,451194,128,0,451314:0:0:0:70:Kick 19.wav
192,192,451194,128,0,451314:0:0:0:0:
320,192,451254,128,0,451314:0:0:0:0:
448,192,451314,128,0,451374:0:0:0:0:
64,192,451374,128,0,451434:0:0:0:0:
192,192,451434,128,0,451494:0:0:0:70:VEC3 Snares 003
320,192,451434,128,0,451494:0:0:0:70:Kick 19.wav
448,192,451434,128,0,451554:0:0:0:0:
64,192,451494,128,0,451554:0:0:0:0:
192,192,451554,128,0,451614:0:0:0:0:
320,192,451554,128,0,451674:0:0:0:0:
448,192,451614,128,0,451674:0:0:0:0:
64,192,451674,128,0,451794:0:0:0:70:Kick 19.wav
192,192,451674,128,0,451794:0:0:0:0:
320,192,451734,128,0,451794:0:0:0:0:
448,192,451794,128,0,451854:0:0:0:0:
192,192,451854,128,0,451914:0:0:0:0:
64,192,451914,128,0,452034:0:0:0:70:VEC3 Snares 003
320,192,451914,128,0,452034:0:0:0:70:Kick 19.wav
448,192,451914,128,0,451974:0:0:0:0:
192,192,451974,128,0,452034:0:0:0:0:
448,192,452034,128,0,452094:0:0:0:0:
320,192,452094,128,0,452154:0:0:0:0:
64,192,452154,128,0,452274:0:0:0:70:Kick 19.wav
192,192,452154,128,0,452274:0:0:0:0:
320,192,452214,128,0,452274:0:0:0:0:
448,192,452274,128,0,452334:0:0:0:0:
64,192,452334,128,0,452394:0:0:0:0:
192,192,452394,128,0,452454:0:0:0:70:VEC3 Snares 003
320,192,452394,128,0,452454:0:0:0:70:Kick 19.wav
448,192,452394,128,0,452514:0:0:0:0:
64,192,452454,128,0,452514:0:0:0:0:
192,192,452514,128,0,452574:0:0:0:0:
320,192,452514,128,0,452634:0:0:0:0:
448,192,452574,128,0,452634:0:0:0:0:
64,192,452634,128,0,452754:0:0:0:70:Kick 19.wav
192,192,452634,128,0,452754:0:0:0:0:
320,192,452694,128,0,452754:0:0:0:0:
448,192,452754,128,0,452814:0:0:0:0:
192,192,452814,128,0,452874:0:0:0:0:
64,192,452874,128,0,452994:0:0:0:70:VEC3 Snares 003
320,192,452874,128,0,452994:0:0:0:70:Kick 19.wav
448,192,452874,128,0,452934:0:0:0:0:
192,192,452934,128,0,452994:0:0:0:0:
448,192,452994,128,0,453054:0:0:0:0:
320,192,453054,128,0,453114:0:0:0:0:
64,192,453114,128,0,453414:0:0:0:70:VEC3 Snares 003
192,192,453114,128,0,453174:0:0:0:70:CrashR.wav
448,192,453114,128,0,453294:0:0:0:0:
192,192,453234,128,0,453534:0:0:0:70:Kick 19.wav
320,192,453234,128,0,453294:0:0:0:0:
320,192,453354,128,0,453414:0:0:0:70:Kick 19.wav
448,192,453354,128,0,453414:0:0:0:0:
64,192,453474,128,0,453654:0:0:0:70:VEC3 Snares 003
320,192,453474,128,0,453534:0:0:0:70:CrashR.wav
448,192,453474,128,0,453774:0:0:0:0:
192,192,453594,128,0,453654:0:0:0:70:Kick 19.wav
320,192,453594,128,0,453954:0:0:0:0:
64,192,453714,128,0,453774:0:0:0:70:Kick 19.wav
192,192,453714,128,0,453774:0:0:0:0:
64,192,453834,128,0,453894:0:0:0:70:VEC3 Snares 003
192,192,453834,128,0,453894:0:0:0:70:CrashR.wav
448,192,453834,128,0,454014:0:0:0:0:
64,192,453954,128,0,454014:0:0:0:70:Kick 19.wav
192,192,453954,128,0,454014:0:0:0:0:
320,192,454014,128,0,454134:0:0:0:70:Kick 19.wav
64,192,454074,128,0,454374:0:0:0:70:VEC3 Snares 003
192,192,454074,128,0,454134:0:0:0:70:CrashR.wav
448,192,454074,128,0,454254:0:0:0:0:
192,192,454194,128,0,454494:0:0:0:70:Kick 19.wav
320,192,454194,128,0,454254:0:0:0:0:
320,192,454314,128,0,454374:0:0:0:70:Kick 19.wav
448,192,454314,128,0,454374:0:0:0:0:
64,192,454434,128,0,454614:0:0:0:70:VEC3 Snares 003
320,192,454434,128,0,454494:0:0:0:70:CrashR.wav
448,192,454434,128,0,454734:0:0:0:0:
192,192,454554,128,0,454614:0:0:0:70:Kick 19.wav
320,192,454554,128,0,454794:0:0:0:0:
64,192,454674,128,0,454734:0:0:0:70:Kick 19.wav
192,192,454674,128,0,454734:0:0:0:0:
64,192,454794,128,0,454854:0:0:0:70:VEC3 Snares 003
192,192,454794,128,0,454854:0:0:0:70:CrashR.wav
448,192,454794,128,0,454974:0:0:0:0:
320,192,454854,128,0,454914:0:0:0:70:Kick 19.wav
64,192,454914,128,0,454974:0:0:0:70:Kick 19.wav
192,192,454914,128,0,454974:0:0:0:0:
320,192,454974,128,0,455094:0:0:0:70:Kick 19.wav
64,192,455034,128,0,455154:0:0:0:70:VEC3 Snares 003
192,192,455034,128,0,455154:0:0:0:70:CrashR.wav
448,192,455034,128,0,455154:0:0:0:0:
320,192,455154,128,0,455334:0:0:0:70:Kick 19.wav
64,192,455214,128,0,455334:0:0:0:70:VEC3 Snares 003
192,192,455214,128,0,455274:0:0:0:70:CrashL.wav
448,192,455214,128,0,455334:0:0:0:0:
192,192,455334,128,0,455454:0:0:0:70:Kick 19.wav
64,192,455394,128,0,455454:0:0:0:70:VEC3 Snares 003
320,192,455394,128,0,455634:0:0:0:70:CrashR.wav
448,192,455394,128,0,455454:0:0:0:0:
64,192,455514,128,0,455634:0:0:0:70:VEC3 Snares 003
192,192,455514,128,0,455574:0:0:0:70:CrashR.wav
448,192,455514,128,0,455634:0:0:0:0:
192,192,455634,128,0,455814:0:0:0:70:Kick 19.wav
64,192,455694,128,0,455814:0:0:0:70:VEC3 Snares 003
320,192,455694,128,0,455754:0:0:0:70:CrashL.wav
448,192,455694,128,0,455814:0:0:0:0:
320,192,455814,128,0,455934:0:0:0:70:Kick 19.wav
64,192,455874,128,0,455934:0:0:0:70:VEC3 Snares 003
192,192,455874,128,0,456054:0:0:0:70:CrashR.wav
448,192,455874,128,0,455934:0:0:0:0:
64,192,455994,128,0,456054:0:0:0:70:VEC3 Snares 003
320,192,455994,128,0,456114:0:0:0:70:CrashR.wav
448,192,455994,128,0,456174:0:0:0:0:
64,192,456114,128,0,456174:0:0:0:70:VEC3 Snares 003
192,192,456114,128,0,456174:0:0:0:0:
320,192,456174,128,0,456294:0:0:0:70:VEC3 Snares 003
64,192,456234,128,0,456414:0:0:0:70:Kick 19.wav
192,192,456234,128,0,456354:0:0:0:0:
448,192,456234,128,0,456294:0:0:0:0:
320,192,456354,128,0,456414:0:0:0:70:VEC3 Snares 003
448,192,456354,128,0,456414:0:0:0:70:CrashR.wav
192,192,456414,128,0,456534:0:0:0:70:VEC3 Snares 003
64,192,456474,128,0,456534:0:0:0:70:VEC3 Snares 003
320,192,456474,128,0,456594:0:0:0:70:CrashR.wav
448,192,456474,128,0,456654:0:0:0:0:
64,192,456594,128,0,456654:0:0:0:70:VEC3 Snares 003
192,192,456594,128,0,456654:0:0:0:0:
320,192,456654,128,0,456774:0:0:0:70:VEC3 Snares 003
64,192,456714,128,0,456894:0:0:0:70:VEC3 Snares 003
192,192,456714,128,0,456894:0:0:0:70:Kick 19.wav
448,192,456714,128,0,456894:0:0:0:70:CrashL.wav
320,192,456834,128,0,456894:0:0:0:0:
320,192,456954,128,0,457074:0:0:0:70:Kick 19.wav
448,192,456954,128,0,457074:0:0:0:70:CrashL.wav
64,192,457014,128,0,457074:0:0:0:0:
192,192,457074,128,0,457134:0:0:0:0:
320,192,457134,128,0,457194:0:0:0:0:
64,192,457194,128,0,457254:0:0:0:70:VEC3 Snares 003
192,192,457194,128,0,457314:0:0:0:70:Kick 19.wav
448,192,457194,128,0,457254:0:0:0:70:CrashR.wav
320,192,457254,128,0,457314:0:0:0:0:
64,192,457314,128,0,457374:0:0:0:0:
448,192,457314,128,0,457374:0:0:0:0:
192,192,457374,128,0,457434:0:0:0:0:
320,192,457374,128,0,457494:0:0:0:0:
64,192,457434,128,0,457554:0:0:0:70:Kick 19.wav
448,192,457434,128,0,457554:0:0:0:0:
192,192,457494,128,0,457554:0:0:0:0:
320,192,457554,128,0,457614:0:0:0:0:
64,192,457614,128,0,457674:0:0:0:0:
192,192,457674,128,0,457734:0:0:0:70:VEC3 Snares 003
320,192,457674,128,0,457794:0:0:0:70:Kick 19.wav
448,192,457674,128,0,457794:0:0:0:0:
64,192,457734,128,0,457794:0:0:0:0:
192,192,457794,128,0,457854:0:0:0:0:
320,192,457854,128,0,457914:0:0:0:0:
64,192,457914,128,0,458034:0:0:0:70:Kick 19.wav
448,192,457914,128,0,457974:0:0:0:0:
192,192,457974,128,0,458034:0:0:0:0:
448,192,458034,128,0,458094:0:0:0:0:
320,192,458094,128,0,458154:0:0:0:0:
64,192,458154,128,0,458214:0:0:0:70:VEC3 Snares 003
192,192,458154,128,0,458214:0:0:0:70:Kick 19.wav
448,192,458154,128,0,458274:0:0:0:0:
320,192,458214,128,0,458274:0:0:0:0:
64,192,458274,128,0,458334:0:0:0:0:
192,192,458274,128,0,458334:0:0:0:0:
320,192,458334,128,0,458454:0:0:0:0:
448,192,458334,128,0,458394:0:0:0:0:
64,192,458394,128,0,458514:0:0:0:70:Kick 19.wav
192,192,458394,128,0,458514:0:0:0:0:
448,192,458454,128,0,458514:0:0:0:0:
320,192,458514,128,0,458574:0:0:0:0:
192,192,458574,128,0,458634:0:0:0:0:
64,192,458634,128,0,458754:0:0:0:70:VEC3 Snares 003
320,192,458634,128,0,458694:0:0:0:70:Kick 19.wav
448,192,458634,128,0,458754:0:0:0:0:
192,192,458694,128,0,458754:0:0:0:0:
320,192,458754,128,0,458814:0:0:0:0:
448,192,458814,128,0,458874:0:0:0:0:
64,192,458874,128,0,458994:0:0:0:70:Kick 19.wav
192,192,458874,128,0,458994:0:0:0:0:
320,192,458934,128,0,458994:0:0:0:0:
448,192,458994,128,0,459054:0:0:0:0:
192,192,459054,128,0,459114:0:0:0:0:
64,192,459114,128,0,459174:0:0:0:70:VEC3 Snares 003
320,192,459114,128,0,459234:0:0:0:70:Kick 19.wav
448,192,459114,128,0,459174:0:0:0:0:
192,192,459174,128,0,459234:0:0:0:0:
64,192,459234,128,0,459294:0:0:0:0:
448,192,459234,128,0,459294:0:0:0:0:
192,192,459294,128,0,459414:0:0:0:0:
320,192,459294,128,0,459354:0:0:0:0:
64,192,459354,128,0,459474:0:0:0:70:Kick 19.wav
448,192,459354,128,0,459474:0:0:0:0:
320,192,459414,128,0,459474:0:0:0:0:
192,192,459474,128,0,459534:0:0:0:0:
64,192,459534,128,0,459594:0:0:0:0:
192,192,459594,128,0,459714:0:0:0:70:VEC3 Snares 003
320,192,459594,128,0,459654:0:0:0:70:Kick 19.wav
448,192,459594,128,0,459714:0:0:0:0:
64,192,459654,128,0,459714:0:0:0:0:
320,192,459714,128,0,459774:0:0:0:0:
192,192,459774,128,0,459834:0:0:0:0:
64,192,459834,128,0,459894:0:0:0:70:Kick 19.wav
448,192,459834,128,0,459954:0:0:0:0:
320,192,459894,128,0,459954:0:0:0:0:
64,192,459954,128,0,460014:0:0:0:0:
192,192,460014,128,0,460074:0:0:0:0:
64,192,460074,128,0,460194:0:0:0:70:VEC3 Snares 003
320,192,460074,128,0,460134:0:0:0:70:Kick 19.wav
448,192,460074,128,0,460134:0:0:0:0:
192,192,460134,128,0,460194:0:0:0:0:
320,192,460194,128,0,460314:0:0:0:0:
448,192,460194,128,0,460254:0:0:0:0:
64,192,460254,128,0,460314:0:0:0:0:
192,192,460314,128,0,460434:0:0:0:70:Kick 19.wav
448,192,460314,128,0,460434:0:0:0:0:
320,192,460374,128,0,460434:0:0:0:0:
64,192,460434,128,0,460494:0:0:0:0:
192,192,460494,128,0,460554:0:0:0:0:
64,192,460554,128,0,460674:0:0:0:70:VEC3 Snares 003
320,192,460554,128,0,460674:0:0:0:70:Kick 19.wav
448,192,460554,128,0,460614:0:0:0:0:
192,192,460614,128,0,460674:0:0:0:0:
448,192,460674,128,0,460734:0:0:0:0:
320,192,460734,128,0,460794:0:0:0:0:
64,192,460794,128,0,460914:0:0:0:70:Kick 19.wav
192,192,460794,128,0,460914:0:0:0:70:CrashL.wav
320,192,460854,128,0,460914:0:0:0:0:
448,192,460914,128,0,460974:0:0:0:0:
192,192,460974,128,0,461034:0:0:0:0:
64,192,461034,128,0,461154:0:0:0:70:VEC3 Snares 003
320,192,461034,128,0,461094:0:0:0:70:Kick 19.wav
448,192,461034,128,0,461094:0:0:0:0:
192,192,461094,128,0,461154:0:0:0:0:
320,192,461154,128,0,461214:0:0:0:0:
448,192,461154,128,0,461214:0:0:0:0:
64,192,461214,128,0,461274:0:0:0:0:
192,192,461214,128,0,461334:0:0:0:0:
320,192,461274,128,0,461394:0:0:0:70:Kick 19.wav
448,192,461274,128,0,461394:0:0:0:0:
64,192,461334,128,0,461394:0:0:0:0:
192,192,461394,128,0,461454:0:0:0:0:
320,192,461454,128,0,461514:0:0:0:0:
64,192,461514,128,0,461574:0:0:0:70:VEC3 Snares 003
192,192,461514,128,0,461634:0:0:0:70:Kick 19.wav
448,192,461514,128,0,461634:0:0:0:0:
320,192,461574,128,0,461634:0:0:0:0:
64,192,461634,128,0,461694:0:0:0:0:
192,192,461694,128,0,461754:0:0:0:0:
320,192,461754,128,0,461874:0:0:0:70:Kick 19.wav
448,192,461754,128,0,461874:0:0:0:0:
192,192,461814,128,0,461874:0:0:0:0:
64,192,461874,128,0,461934:0:0:0:0:
320,192,461934,128,0,461994:0:0:0:0:
64,192,461994,128,0,462114:0:0:0:70:VEC3 Snares 003
192,192,461994,128,0,462054:0:0:0:70:Kick 19.wav
448,192,461994,128,0,462054:0:0:0:0:
320,192,462054,128,0,462114:0:0:0:0:
192,192,462114,128,0,462174:0:0:0:0:
448,192,462114,128,0,462174:0:0:0:0:
64,192,462174,128,0,462234:0:0:0:0:
320,192,462174,128,0,462294:0:0:0:0:
192,192,462234,128,0,462354:0:0:0:70:Kick 19.wav
448,192,462234,128,0,462354:0:0:0:0:
64,192,462294,128,0,462354:0:0:0:0:
320,192,462354,128,0,462414:0:0:0:0:
192,192,462414,128,0,462474:0:0:0:0:
64,192,462474,128,0,462594:0:0:0:70:VEC3 Snares 003
320,192,462474,128,0,462594:0:0:0:70:Kick 19.wav
448,192,462474,128,0,462534:0:0:0:0:
192,192,462534,128,0,462594:0:0:0:0:
448,192,462594,128,0,462654:0:0:0:0:
320,192,462654,128,0,462714:0:0:0:0:
64,192,462714,128,0,462834:0:0:0:70:Kick 19.wav
192,192,462714,128,0,462834:0:0:0:0:
448,192,462774,128,0,462834:0:0:0:0:
320,192,462834,128,0,462894:0:0:0:0:
192,192,462894,128,0,462954:0:0:0:0:
64,192,462954,128,0,463074:0:0:0:70:VEC3 Snares 003
320,192,462954,128,0,463014:0:0:0:70:Kick 19.wav
448,192,462954,128,0,463014:0:0:0:0:
192,192,463014,128,0,463074:0:0:0:0:
320,192,463074,128,0,463134:0:0:0:0:
448,192,463074,128,0,463134:0:0:0:0:
64,192,463134,128,0,463194:0:0:0:0:
192,192,463134,128,0,463254:0:0:0:0:
320,192,463194,128,0,463314:0:0:0:70:Kick 19.wav
448,192,463194,128,0,463314:0:0:0:0:
64,192,463254,128,0,463314:0:0:0:0:
192,192,463314,128,0,463374:0:0:0:0:
320,192,463374,128,0,463434:0:0:0:0:
64,192,463434,128,0,463494:0:0:0:70:VEC3 Snares 003
192,192,463434,128,0,463554:0:0:0:70:Kick 19.wav
448,192,463434,128,0,463554:0:0:0:0:
320,192,463494,128,0,463554:0:0:0:0:
64,192,463554,128,0,463614:0:0:0:0:
192,192,463614,128,0,463674:0:0:0:0:
320,192,463674,128,0,463794:0:0:0:70:Kick 19.wav
448,192,463674,128,0,463794:0:0:0:0:
192,192,463734,128,0,463794:0:0:0:0:
64,192,463794,128,0,463854:0:0:0:0:
448,192,463854,128,0,463914:0:0:0:0:
64,192,463914,128,0,464034:0:0:0:70:VEC3 Snares 003
192,192,463914,128,0,463974:0:0:0:70:Kick 19.wav
320,192,463914,128,0,463974:0:0:0:0:
448,192,463974,128,0,464034:0:0:0:0:
192,192,464034,128,0,464154:0:0:0:0:
320,192,464034,128,0,464094:0:0:0:0:
64,192,464094,128,0,464154:0:0:0:0:
320,192,464154,128,0,464274:0:0:0:70:Kick 19.wav
448,192,464154,128,0,464274:0:0:0:0:
64,192,464214,128,0,464274:0:0:0:0:
192,192,464274,128,0,464334:0:0:0:0:
320,192,464334,128,0,464394:0:0:0:0:
64,192,464394,128,0,464454:0:0:0:70:VEC3 Snares 003
192,192,464394,128,0,464514:0:0:0:70:Kick 19.wav
448,192,464394,128,0,464454:0:0:0:0:
320,192,464454,128,0,464514:0:0:0:0:
64,192,464514,128,0,464634:0:0:0:0:
448,192,464514,128,0,464574:0:0:0:0:
192,192,464574,128,0,464634:0:0:0:0:
320,192,464634,128,0,464694:0:0:0:70:Kick 19.wav
448,192,464634,128,0,464694:0:0:0:70:CrashL.wav
192,192,464694,128,0,464754:0:0:0:0:
320,192,464754,128,0,464814:0:0:0:70:Kick 19.wav
448,192,464754,128,0,464814:0:0:0:0:
192,192,464814,128,0,464874:0:0:0:0:
64,192,464874,128,0,464934:0:0:0:70:VEC3 Snares 003
320,192,464874,128,0,464994:0:0:0:70:Kick 19.wav
448,192,464874,128,0,464934:0:0:0:0:
192,192,464934,128,0,464994:0:0:0:0:
64,192,464994,128,0,465054:0:0:0:0:
448,192,464994,128,0,465114:0:0:0:0:
320,192,465054,128,0,465114:0:0:0:0:
64,192,465114,128,0,465234:0:0:0:70:Kick 19.wav
192,192,465114,128,0,465234:0:0:0:0:
320,192,465174,128,0,465234:0:0:0:0:
448,192,465234,128,0,465294:0:0:0:0:
64,192,465294,128,0,465354:0:0:0:0:
192,192,465354,128,0,465474:0:0:0:70:VEC3 Snares 003
320,192,465354,128,0,465474:0:0:0:70:Kick 19.wav
448,192,465354,128,0,465414:0:0:0:0:
64,192,465414,128,0,465474:0:0:0:0:
448,192,465474,128,0,465534:0:0:0:0:
320,192,465534,128,0,465594:0:0:0:0:
64,192,465594,128,0,465714:0:0:0:70:Kick 19.wav
192,192,465594,128,0,465714:0:0:0:0:
448,192,465654,128,0,465714:0:0:0:0:
320,192,465714,128,0,465774:0:0:0:0:
192,192,465774,128,0,465834:0:0:0:0:
64,192,465834,128,0,465894:0:0:0:70:VEC3 Snares 003
320,192,465834,128,0,465954:0:0:0:70:Kick 19.wav
448,192,465834,128,0,465894:0:0:0:0:
192,192,465894,128,0,465954:0:0:0:0:
64,192,465954,128,0,466014:0:0:0:0:
448,192,465954,128,0,466074:0:0:0:0:
320,192,466014,128,0,466074:0:0:0:0:
64,192,466074,128,0,466194:0:0:0:70:Kick 19.wav
192,192,466074,128,0,466194:0:0:0:0:
320,192,466134,128,0,466194:0:0:0:0:
448,192,466194,128,0,466254:0:0:0:0:
64,192,466254,128,0,466314:0:0:0:0:
192,192,466314,128,0,466434:0:0:0:70:VEC3 Snares 003
320,192,466314,128,0,466434:0:0:0:70:Kick 19.wav
448,192,466314,128,0,466374:0:0:0:0:
64,192,466374,128,0,466434:0:0:0:0:
448,192,466434,128,0,466494:0:0:0:0:
320,192,466494,128,0,466554:0:0:0:0:
64,192,466554,128,0,466674:0:0:0:70:Kick 19.wav
192,192,466554,128,0,466674:0:0:0:0:
448,192,466614,128,0,466674:0:0:0:0:
320,192,466674,128,0,466734:0:0:0:0:
192,192,466734,128,0,466794:0:0:0:0:
64,192,466794,128,0,466854:0:0:0:70:VEC3 Snares 003
320,192,466794,128,0,466914:0:0:0:70:Kick 19.wav
448,192,466794,128,0,466854:0:0:0:0:
192,192,466854,128,0,466914:0:0:0:0:
64,192,466914,128,0,466974:0:0:0:0:
448,192,466914,128,0,467034:0:0:0:0:
320,192,466974,128,0,467034:0:0:0:0:
64,192,467034,128,0,467154:0:0:0:70:Kick 19.wav
192,192,467034,128,0,467154:0:0:0:0:
320,192,467094,128,0,467154:0:0:0:0:
448,192,467154,128,0,467214:0:0:0:0:
64,192,467214,128,0,467274:0:0:0:0:
192,192,467274,128,0,467394:0:0:0:70:VEC3 Snares 003
320,192,467274,128,0,467394:0:0:0:70:Kick 19.wav
448,192,467274,128,0,467334:0:0:0:0:
64,192,467334,128,0,467394:0:0:0:0:
448,192,467394,128,0,467454:0:0:0:0:
320,192,467454,128,0,467514:0:0:0:0:
64,192,467514,128,0,467634:0:0:0:70:Kick 19.wav
192,192,467514,128,0,467634:0:0:0:0:
448,192,467574,128,0,467634:0:0:0:0:
320,192,467634,128,0,467694:0:0:0:0:
192,192,467694,128,0,467754:0:0:0:0:
64,192,467754,128,0,467814:0:0:0:70:VEC3 Snares 003
320,192,467754,128,0,467874:0:0:0:70:Kick 19.wav
448,192,467754,128,0,467814:0:0:0:0:
192,192,467814,128,0,467874:0:0:0:0:
64,192,467874,128,0,467934:0:0:0:0:
448,192,467874,128,0,467994:0:0:0:0:
320,192,467934,128,0,467994:0:0:0:0:
64,192,467994,128,0,468114:0:0:0:70:Kick 19.wav
192,192,467994,128,0,468114:0:0:0:0:
448,192,468054,128,0,468114:0:0:0:0:
320,192,468114,128,0,468174:0:0:0:0:
192,192,468174,128,0,468234:0:0:0:0:
64,192,468234,128,0,468354:0:0:0:70:VEC3 Snares 003
320,192,468234,128,0,468354:0:0:0:70:Kick 19.wav
448,192,468234,128,0,468294:0:0:0:0:
192,192,468294,128,0,468354:0:0:0:0:
448,192,468354,128,0,468414:0:0:0:0:
320,192,468414,128,0,468474:0:0:0:0:
64,192,468474,128,0,468594:0:0:0:70:Kick 19.wav
192,192,468474,128,0,468594:0:0:0:70:CrashL.wav
320,192,468534,128,0,468594:0:0:0:0:
448,192,468594,128,0,468654:0:0:0:0:
192,192,468654,128,0,468714:0:0:0:0:
64,192,468714,128,0,468774:0:0:0:70:VEC3 Snares 003
320,192,468714,128,0,468834:0:0:0:70:Kick 19.wav
448,192,468714,128,0,468774:0:0:0:0:
192,192,468774,128,0,468834:0:0:0:0:
64,192,468834,128,0,468894:0:0:0:0:
448,192,468834,128,0,468954:0:0:0:0:
320,192,468894,128,0,468954:0:0:0:0:
64,192,468954,128,0,469074:0:0:0:70:Kick 19.wav
192,192,468954,128,0,469074:0:0:0:0:
448,192,469014,128,0,469074:0:0:0:0:
320,192,469074,128,0,469134:0:0:0:0:
192,192,469134,128,0,469194:0:0:0:0:
64,192,469194,128,0,469314:0:0:0:70:VEC3 Snares 003
320,192,469194,128,0,469254:0:0:0:70:Kick 19.wav
448,192,469194,128,0,469254:0:0:0:0:
192,192,469254,128,0,469314:0:0:0:0:
320,192,469314,128,0,469434:0:0:0:0:
448,192,469314,128,0,469374:0:0:0:0:
192,192,469374,128,0,469434:0:0:0:0:
64,192,469434,128,0,469554:0:0:0:70:Kick 19.wav
448,192,469434,128,0,469554:0:0:0:0:
320,192,469494,128,0,469554:0:0:0:0:
192,192,469554,128,0,469614:0:0:0:0:
64,192,469614,128,0,469674:0:0:0:0:
192,192,469674,128,0,469794:0:0:0:70:VEC3 Snares 003
320,192,469674,128,0,469734:0:0:0:70:Kick 19.wav
448,192,469674,128,0,469734:0:0:0:0:
64,192,469734,128,0,469794:0:0:0:0:
320,192,469794,128,0,469914:0:0:0:0:
448,192,469794,128,0,469854:0:0:0:0:
192,192,469854,128,0,469914:0:0:0:0:
64,192,469914,128,0,469974:0:0:0:70:Kick 19.wav
448,192,469914,128,0,470034:0:0:0:0:
320,192,469974,128,0,470034:0:0:0:0:
64,192,470034,128,0,470094:0:0:0:0:
192,192,470094,128,0,470154:0:0:0:0:
64,192,470154,128,0,470274:0:0:0:70:VEC3 Snares 003
320,192,470154,128,0,470214:0:0:0:70:Kick 19.wav
448,192,470154,128,0,470214:0:0:0:0:
192,192,470214,128,0,470274:0:0:0:0:
320,192,470274,128,0,470394:0:0:0:0:
448,192,470274,128,0,470334:0:0:0:0:
192,192,470334,128,0,470394:0:0:0:0:
64,192,470394,128,0,470514:0:0:0:70:Kick 19.wav
448,192,470394,128,0,470514:0:0:0:0:
320,192,470454,128,0,470514:0:0:0:0:
192,192,470514,128,0,470574:0:0:0:0:
64,192,470574,128,0,470634:0:0:0:0:
192,192,470634,128,0,470754:0:0:0:70:VEC3 Snares 003
320,192,470634,128,0,470694:0:0:0:70:Kick 19.wav
448,192,470634,128,0,470694:0:0:0:0:
64,192,470694,128,0,470754:0:0:0:0:
320,192,470754,128,0,470814:0:0:0:0:
448,192,470754,128,0,470874:0:0:0:0:
192,192,470814,128,0,470874:0:0:0:0:
64,192,470874,128,0,470994:0:0:0:70:Kick 19.wav
320,192,470874,128,0,470994:0:0:0:0:
448,192,470934,128,0,470994:0:0:0:0:
192,192,470994,128,0,471054:0:0:0:0:
320,192,471054,128,0,471114:0:0:0:0:
64,192,471114,128,0,471174:0:0:0:70:VEC3 Snares 003
192,192,471114,128,0,471234:0:0:0:70:Kick 19.wav
448,192,471114,128,0,471174:0:0:0:0:
320,192,471174,128,0,471234:0:0:0:0:
64,192,471234,128,0,471354:0:0:0:0:
448,192,471234,128,0,471294:0:0:0:0:
192,192,471294,128,0,471354:0:0:0:0:
320,192,471354,128,0,471474:0:0:0:70:Kick 19.wav
448,192,471354,128,0,471474:0:0:0:0:
192,192,471414,128,0,471474:0:0:0:0:
64,192,471474,128,0,471534:0:0:0:0:
320,192,471534,128,0,471594:0:0:0:0:
64,192,471594,128,0,471654:0:0:0:70:VEC3 Snares 003
192,192,471594,128,0,471654:0:0:0:70:Kick 19.wav
448,192,471594,128,0,471714:0:0:0:0:
320,192,471654,128,0,471714:0:0:0:0:
64,192,471714,128,0,471774:0:0:0:0:
192,192,471714,128,0,471834:0:0:0:0:
448,192,471774,128,0,471834:0:0:0:0:
64,192,471834,128,0,471954:0:0:0:70:Kick 19.wav
320,192,471834,128,0,471954:0:0:0:0:
192,192,471894,128,0,471954:0:0:0:0:
448,192,471954,128,0,472014:0:0:0:0:
320,192,472014,128,0,472074:0:0:0:0:
64,192,472074,128,0,472134:0:0:0:70:VEC3 Snares 003
192,192,472074,128,0,472134:0:0:0:70:Kick 19.wav
448,192,472074,128,0,472194:0:0:0:0:
320,192,472134,128,0,472194:0:0:0:0:
64,192,472194,128,0,472254:0:0:0:0:
192,192,472194,128,0,472314:0:0:0:0:
320,192,472254,128,0,472314:0:0:0:0:
64,192,472314,128,0,472494:0:0:0:70:Kick 19.wav
448,192,472314,128,0,472494:0:0:0:0:
64,192,472554,128,0,472614:0:0:0:70:VEC3 Snares 003
192,192,472554,128,0,472614:0:0:0:70:Kick 19.wav
320,192,472614,128,0,472674:0:0:0:0:
448,192,472614,128,0,472674:0:0:0:0:
64,192,472674,128,0,472734:0:0:0:0:
192,192,472674,128,0,472734:0:0:0:0:
320,192,472734,128,0,472794:0:0:0:0:
448,192,472734,128,0,472854:0:0:0:0:
64,192,472794,128,0,472914:0:0:0:70:Kick 19.wav
192,192,472794,128,0,472914:0:0:0:0:
320,192,472854,128,0,472914:0:0:0:0:
448,192,472914,128,0,472974:0:0:0:0:
64,192,472974,128,0,473034:0:0:0:0:
192,192,473034,128,0,473154:0:0:0:70:VEC3 Snares 003
320,192,473034,128,0,473154:0:0:0:70:Kick 19.wav
448,192,473034,128,0,473094:0:0:0:0:
64,192,473094,128,0,473154:0:0:0:0:
448,192,473154,128,0,473214:0:0:0:0:
320,192,473214,128,0,473274:0:0:0:0:
64,192,473274,128,0,473334:0:0:0:70:Kick 19.wav
192,192,473274,128,0,473394:0:0:0:0:
448,192,473334,128,0,473394:0:0:0:0:
64,192,473394,128,0,473454:0:0:0:0:
320,192,473394,128,0,473514:0:0:0:0:
192,192,473454,128,0,473514:0:0:0:0:
64,192,473514,128,0,473574:0:0:0:70:VEC3 Snares 003
448,192,473514,128,0,473574:0:0:0:70:Kick 19.wav
192,192,473574,128,0,473634:0:0:0:0:
320,192,473574,128,0,473634:0:0:0:0:
64,192,473634,128,0,473694:0:0:0:0:
448,192,473634,128,0,473694:0:0:0:0:
192,192,473694,128,0,473814:0:0:0:0:
320,192,473694,128,0,473754:0:0:0:0:
64,192,473754,128,0,473874:0:0:0:70:Kick 19.wav
448,192,473754,128,0,473874:0:0:0:0:
320,192,473814,128,0,473874:0:0:0:0:
192,192,473874,128,0,473934:0:0:0:0:
448,192,473934,128,0,473994:0:0:0:0:
64,192,473994,128,0,474054:0:0:0:70:VEC3 Snares 003
192,192,473994,128,0,474114:0:0:0:70:Kick 19.wav
320,192,473994,128,0,474114:0:0:0:0:
448,192,474054,128,0,474114:0:0:0:0:
64,192,474114,128,0,474174:0:0:0:0:
192,192,474174,128,0,474234:0:0:0:0:
320,192,474234,128,0,474294:0:0:0:70:Kick 19.wav
448,192,474234,128,0,474354:0:0:0:0:
64,192,474294,128,0,474354:0:0:0:0:
192,192,474354,128,0,474414:0:0:0:0:
320,192,474354,128,0,474474:0:0:0:0:
448,192,474414,128,0,474474:0:0:0:0:
64,192,474474,128,0,474534:0:0:0:70:VEC3 Snares 003
192,192,474474,128,0,474534:0:0:0:70:Kick 19.wav
320,192,474534,128,0,474594:0:0:0:0:
448,192,474534,128,0,474594:0:0:0:0:
64,192,474594,128,0,474654:0:0:0:0:
192,192,474594,128,0,474654:0:0:0:0:
320,192,474654,128,0,474774:0:0:0:0:
448,192,474654,128,0,474714:0:0:0:0:
64,192,474714,128,0,474834:0:0:0:70:Kick 19.wav
192,192,474714,128,0,474834:0:0:0:0:
448,192,474774,128,0,474834:0:0:0:0:
320,192,474834,128,0,474894:0:0:0:0:
192,192,474894,128,0,474954:0:0:0:0:
64,192,474954,128,0,475074:0:0:0:70:VEC3 Snares 003
320,192,474954,128,0,475014:0:0:0:70:Kick 19.wav
448,192,474954,128,0,475074:0:0:0:0:
192,192,475014,128,0,475074:0:0:0:0:
320,192,475074,128,0,475134:0:0:0:0:
448,192,475134,128,0,475194:0:0:0:0:
64,192,475194,128,0,475314:0:0:0:70:Kick 19.wav
192,192,475194,128,0,475314:0:0:0:0:
448,192,475254,128,0,475314:0:0:0:0:
320,192,475314,128,0,475374:0:0:0:0:
192,192,475374,128,0,475434:0:0:0:0:
64,192,475434,128,0,475554:0:0:0:70:VEC3 Snares 003
320,192,475434,128,0,475494:0:0:0:70:Kick 19.wav
448,192,475434,128,0,475494:0:0:0:0:
192,192,475494,128,0,475554:0:0:0:0:
320,192,475554,128,0,475614:0:0:0:0:
448,192,475554,128,0,475674:0:0:0:0:
64,192,475614,128,0,475674:0:0:0:0:
192,192,475674,128,0,475734:0:0:0:70:Kick 19.wav
320,192,475674,128,0,475794:0:0:0:0:
448,192,475734,128,0,475794:0:0:0:0:
64,192,475794,128,0,475854:0:0:0:0:
192,192,475794,128,0,475854:0:0:0:0:
448,192,475854,128,0,475914:0:0:0:0:
64,192,475914,128,0,476034:0:0:0:70:VEC3 Snares 003
192,192,475914,128,0,475974:0:0:0:70:Kick 19.wav
320,192,475914,128,0,475974:0:0:0:0:
448,192,475974,128,0,476034:0:0:0:0:
192,192,476034,128,0,476154:0:0:0:0:
320,192,476034,128,0,476094:0:0:0:0:
64,192,476094,128,0,476154:0:0:0:0:
320,192,476154,128,0,476274:0:0:0:70:Kick 19.wav
448,192,476154,128,0,476274:0:0:0:70:CrashL.wav
64,192,476214,128,0,476274:0:0:0:0:
192,192,476274,128,0,476334:0:0:0:0:
320,192,476334,128,0,476394:0:0:0:0:
192,192,476394,128,0,476454:0:0:0:70:VEC3 Snares 003
448,192,476394,128,0,476454:0:0:0:70:Kick 19.wav
64,192,476454,128,0,476514:0:0:0:0:
320,192,476454,128,0,476514:0:0:0:0:
192,192,476514,128,0,476574:0:0:0:0:
448,192,476514,128,0,476574:0:0:0:0:
64,192,476574,128,0,476634:0:0:0:0:
320,192,476574,128,0,476694:0:0:0:0:
192,192,476634,128,0,476754:0:0:0:70:Kick 19.wav
448,192,476634,128,0,476754:0:0:0:0:
64,192,476694,128,0,476754:0:0:0:0:
320,192,476754,128,0,476814:0:0:0:0:
192,192,476814,128,0,476874:0:0:0:0:
64,192,476874,128,0,476994:0:0:0:70:VEC3 Snares 003
320,192,476874,128,0,476994:0:0:0:70:Kick 19.wav
448,192,476874,128,0,476934:0:0:0:0:
192,192,476934,128,0,476994:0:0:0:0:
448,192,476994,128,0,477054:0:0:0:0:
320,192,477054,128,0,477114:0:0:0:0:
64,192,477114,128,0,477174:0:0:0:70:Kick 19.wav
192,192,477114,128,0,477234:0:0:0:0:
448,192,477174,128,0,477234:0:0:0:0:
64,192,477234,128,0,477354:0:0:0:0:
320,192,477234,128,0,477294:0:0:0:0:
192,192,477294,128,0,477354:0:0:0:0:
320,192,477354,128,0,477414:0:0:0:70:VEC3 Snares 003
448,192,477354,128,0,477414:0:0:0:70:Kick 19.wav
64,192,477414,128,0,477474:0:0:0:0:
192,192,477414,128,0,477474:0:0:0:0:
320,192,477474,128,0,477534:0:0:0:0:
448,192,477474,128,0,477534:0:0:0:0:
64,192,477534,128,0,477594:0:0:0:0:
192,192,477534,128,0,477654:0:0:0:0:
320,192,477594,128,0,477714:0:0:0:70:Kick 19.wav
448,192,477594,128,0,477714:0:0:0:0:
64,192,477654,128,0,477714:0:0:0:0:
192,192,477714,128,0,477774:0:0:0:0:
320,192,477774,128,0,477834:0:0:0:0:
64,192,477834,128,0,477894:0:0:0:70:VEC3 Snares 003
192,192,477834,128,0,477954:0:0:0:70:Kick 19.wav
448,192,477834,128,0,477954:0:0:0:0:
320,192,477894,128,0,477954:0:0:0:0:
64,192,477954,128,0,478014:0:0:0:0:
192,192,478014,128,0,478074:0:0:0:0:
320,192,478074,128,0,478194:0:0:0:70:Kick 19.wav
448,192,478074,128,0,478134:0:0:0:0:
64,192,478134,128,0,478194:0:0:0:0:
192,192,478194,128,0,478314:0:0:0:0:
448,192,478194,128,0,478254:0:0:0:0:
320,192,478254,128,0,478314:0:0:0:0:
64,192,478314,128,0,478374:0:0:0:70:VEC3 Snares 003
448,192,478314,128,0,478374:0:0:0:70:Kick 19.wav
192,192,478374,128,0,478434:0:0:0:0:
320,192,478374,128,0,478434:0:0:0:0:
64,192,478434,128,0,478494:0:0:0:0:
448,192,478434,128,0,478494:0:0:0:0:
192,192,478494,128,0,478554:0:0:0:0:
320,192,478494,128,0,478614:0:0:0:0:
64,192,478554,128,0,478674:0:0:0:70:Kick 19.wav
448,192,478554,128,0,478674:0:0:0:0:
192,192,478614,128,0,478674:0:0:0:0:
320,192,478674,128,0,478734:0:0:0:0:
448,192,478734,128,0,478794:0:0:0:0:
64,192,478794,128,0,478854:0:0:0:70:VEC3 Snares 003
192,192,478794,128,0,478854:0:0:0:70:Kick 19.wav
320,192,478794,128,0,478914:0:0:0:0:
448,192,478854,128,0,478914:0:0:0:0:
64,192,478914,128,0,478974:0:0:0:0:
192,192,478914,128,0,479034:0:0:0:0:
320,192,478974,128,0,479034:0:0:0:0:
64,192,479034,128,0,479154:0:0:0:70:Kick 19.wav
448,192,479034,128,0,479094:0:0:0:0:
192,192,479094,128,0,479154:0:0:0:0:
448,192,479154,128,0,479214:0:0:0:0:
320,192,479214,128,0,479274:0:0:0:0:
64,192,479274,128,0,479334:0:0:0:70:VEC3 Snares 003
192,192,479274,128,0,479334:0:0:0:70:Kick 19.wav
448,192,479274,128,0,479394:0:0:0:0:
320,192,479334,128,0,479394:0:0:0:0:
64,192,479394,128,0,479454:0:0:0:0:
192,192,479394,128,0,479514:0:0:0:0:
320,192,479454,128,0,479514:0:0:0:0:
64,192,479514,128,0,479634:0:0:0:70:Kick 19.wav
448,192,479514,128,0,479634:0:0:0:0:
192,192,479574,128,0,479634:0:0:0:0:
320,192,479634,128,0,479694:0:0:0:0:
448,192,479694,128,0,479754:0:0:0:0:
64,192,479754,128,0,479814:0:0:0:70:VEC3 Snares 003
192,192,479754,128,0,479814:0:0:0:70:Kick 19.wav
320,192,479814,128,0,479934:0:0:0:0:
448,192,479814,128,0,479874:0:0:0:0:
64,192,479874,128,0,479934:0:0:0:0:
192,192,479874,128,0,479994:0:0:0:0:
448,192,479934,128,0,479994:0:0:0:0:
64,192,479994,128,0,480114:0:0:0:70:Kick 19.wav
320,192,479994,128,0,480054:0:0:0:70:CrashL.wav
192,192,480054,128,0,480114:0:0:0:0:
320,192,480114,128,0,480174:0:0:0:70:Kick 19.wav
448,192,480114,128,0,480174:0:0:0:0:
192,192,480174,128,0,480234:0:0:0:0:
64,192,480234,128,0,480294:0:0:0:70:VEC3 Snares 003
320,192,480234,128,0,480354:0:0:0:70:Kick 19.wav
448,192,480234,128,0,480294:0:0:0:0:
192,192,480294,128,0,480354:0:0:0:0:
64,192,480354,128,0,480414:0:0:0:0:
448,192,480354,128,0,480474:0:0:0:0:
320,192,480414,128,0,480474:0:0:0:0:
64,192,480474,128,0,480594:0:0:0:70:Kick 19.wav
192,192,480474,128,0,480594:0:0:0:0:
320,192,480534,128,0,480594:0:0:0:0:
448,192,480594,128,0,480654:0:0:0:0:
192,192,480654,128,0,480714:0:0:0:0:
64,192,480714,128,0,480834:0:0:0:70:VEC3 Snares 003
320,192,480714,128,0,480774:0:0:0:70:Kick 19.wav
448,192,480714,128,0,480834:0:0:0:0:
192,192,480774,128,0,480834:0:0:0:0:
320,192,480834,128,0,480894:0:0:0:0:
64,192,480894,128,0,480954:0:0:0:0:
192,192,480954,128,0,481074:0:0:0:70:Kick 19.wav
448,192,480954,128,0,481074:0:0:0:0:
320,192,481014,128,0,481074:0:0:0:0:
64,192,481074,128,0,481134:0:0:0:0:
192,192,481134,128,0,481194:0:0:0:0:
64,192,481194,128,0,481254:0:0:0:70:VEC3 Snares 003
320,192,481194,128,0,481314:0:0:0:70:Kick 19.wav
448,192,481194,128,0,481254:0:0:0:0:
192,192,481254,128,0,481314:0:0:0:0:
64,192,481314,128,0,481374:0:0:0:0:
448,192,481314,128,0,481434:0:0:0:0:
320,192,481374,128,0,481434:0:0:0:0:
64,192,481434,128,0,481554:0:0:0:70:Kick 19.wav
192,192,481434,128,0,481554:0:0:0:0:
320,192,481494,128,0,481554:0:0:0:0:
448,192,481554,128,0,481614:0:0:0:0:
192,192,481614,128,0,481674:0:0:0:0:
64,192,481674,128,0,481794:0:0:0:70:VEC3 Snares 003
320,192,481674,128,0,481734:0:0:0:70:Kick 19.wav
448,192,481674,128,0,481734:0:0:0:0:
192,192,481734,128,0,481794:0:0:0:0:
320,192,481794,128,0,481914:0:0:0:0:
448,192,481794,128,0,481854:0:0:0:0:
64,192,481854,128,0,481914:0:0:0:0:
192,192,481914,128,0,482034:0:0:0:70:Kick 19.wav
448,192,481914,128,0,482034:0:0:0:0:
320,192,481974,128,0,482034:0:0:0:0:
64,192,482034,128,0,482094:0:0:0:0:
192,192,482094,128,0,482154:0:0:0:0:
64,192,482154,128,0,482214:0:0:0:70:VEC3 Snares 003
320,192,482154,128,0,482274:0:0:0:70:Kick 19.wav
448,192,482154,128,0,482214:0:0:0:0:
192,192,482214,128,0,482274:0:0:0:0:
64,192,482274,128,0,482334:0:0:0:0:
448,192,482274,128,0,482394:0:0:0:0:
320,192,482334,128,0,482394:0:0:0:0:
64,192,482394,128,0,482514:0:0:0:70:Kick 19.wav
192,192,482394,128,0,482514:0:0:0:0:
320,192,482454,128,0,482514:0:0:0:0:
448,192,482514,128,0,482574:0:0:0:0:
192,192,482574,128,0,482634:0:0:0:0:
64,192,482634,128,0,482754:0:0:0:70:VEC3 Snares 003
320,192,482634,128,0,482694:0:0:0:70:Kick 19.wav
448,192,482634,128,0,482754:0:0:0:0:
192,192,482694,128,0,482754:0:0:0:0:
320,192,482754,128,0,482814:0:0:0:0:
64,192,482814,128,0,482874:0:0:0:0:
192,192,482874,128,0,482994:0:0:0:70:Kick 19.wav
448,192,482874,128,0,482994:0:0:0:0:
320,192,482934,128,0,482994:0:0:0:0:
64,192,482994,128,0,483054:0:0:0:0:
192,192,483054,128,0,483114:0:0:0:0:
64,192,483114,128,0,483174:0:0:0:70:VEC3 Snares 003
320,192,483114,128,0,483234:0:0:0:70:Kick 19.wav
448,192,483114,128,0,483174:0:0:0:0:
192,192,483174,128,0,483234:0:0:0:0:
64,192,483234,128,0,483294:0:0:0:0:
448,192,483234,128,0,483354:0:0:0:0:
320,192,483294,128,0,483354:0:0:0:0:
64,192,483354,128,0,483474:0:0:0:70:Kick 19.wav
192,192,483354,128,0,483474:0:0:0:0:
320,192,483414,128,0,483474:0:0:0:0:
448,192,483474,128,0,483534:0:0:0:0:
192,192,483534,128,0,483594:0:0:0:0:
64,192,483594,128,0,483714:0:0:0:70:VEC3 Snares 003
320,192,483594,128,0,483714:0:0:0:70:Kick 19.wav
448,192,483594,128,0,483654:0:0:0:0:
192,192,483654,128,0,483714:0:0:0:0:
448,192,483714,128,0,483774:0:0:0:0:
320,192,483774,128,0,483834:0:0:0:0:
64,192,483834,128,0,483894:0:0:0:70:VEC3 Snares 003
192,192,483834,128,0,483894:0:0:0:70:CrashR.wav
448,192,483834,128,0,484134:0:0:0:0:
64,192,483954,128,0,484134:0:0:0:70:Kick 19.wav
192,192,483954,128,0,484014:0:0:0:0:
192,192,484074,128,0,484254:0:0:0:70:Kick 19.wav
320,192,484074,128,0,484134:0:0:0:0:
64,192,484194,128,0,484494:0:0:0:70:VEC3 Snares 003
320,192,484194,128,0,484254:0:0:0:70:CrashR.wav
448,192,484194,128,0,484374:0:0:0:0:
192,192,484314,128,0,484494:0:0:0:70:Kick 19.wav
320,192,484314,128,0,484374:0:0:0:0:
320,192,484434,128,0,484614:0:0:0:70:Kick 19.wav
448,192,484434,128,0,484494:0:0:0:0:
64,192,484554,128,0,484734:0:0:0:70:VEC3 Snares 003
192,192,484554,128,0,484674:0:0:0:70:CrashR.wav
448,192,484554,128,0,484614:0:0:0:0:
320,192,484674,128,0,484734:0:0:0:70:Kick 19.wav
448,192,484674,128,0,484734:0:0:0:0:
192,192,484734,128,0,484974:0:0:0:70:Kick 19.wav
64,192,484794,128,0,485094:0:0:0:70:VEC3 Snares 003
320,192,484794,128,0,484854:0:0:0:70:CrashR.wav
448,192,484794,128,0,484854:0:0:0:0:
320,192,484914,128,0,484974:0:0:0:70:Kick 19.wav
448,192,484914,128,0,485094:0:0:0:0:
192,192,485034,128,0,485094:0:0:0:70:Kick 19.wav
320,192,485034,128,0,485214:0:0:0:0:
64,192,485154,128,0,485334:0:0:0:70:VEC3 Snares 003
192,192,485154,128,0,485214:0:0:0:70:CrashR.wav
448,192,485154,128,0,485454:0:0:0:0:
192,192,485274,128,0,485334:0:0:0:70:Kick 19.wav
320,192,485274,128,0,485454:0:0:0:0:
64,192,485394,128,0,485454:0:0:0:70:Kick 19.wav
192,192,485394,128,0,485514:0:0:0:0:
64,192,485514,128,0,485694:0:0:0:70:VEC3 Snares 003
320,192,485514,128,0,485574:0:0:0:70:CrashR.wav
448,192,485514,128,0,485574:0:0:0:0:
192,192,485574,128,0,485634:0:0:0:70:Kick 19.wav
320,192,485634,128,0,485694:0:0:0:70:Kick 19.wav
448,192,485634,128,0,485694:0:0:0:0:
192,192,485694,128,0,485814:0:0:0:70:Kick 19.wav
64,192,485754,128,0,485874:0:0:0:70:VEC3 Snares 003
320,192,485754,128,0,485874:0:0:0:70:CrashR.wav
448,192,485754,128,0,485874:0:0:0:0:
192,192,485874,128,0,486054:0:0:0:70:Kick 19.wav
64,192,485934,128,0,486054:0:0:0:70:VEC3 Snares 003
320,192,485934,128,0,485994:0:0:0:70:CrashL.wav
448,192,485934,128,0,486054:0:0:0:0:
320,192,486054,128,0,486174:0:0:0:70:Kick 19.wav
64,192,486114,128,0,486174:0:0:0:70:VEC3 Snares 003
192,192,486114,128,0,486294:0:0:0:70:CrashR.wav
448,192,486114,128,0,486174:0:0:0:0:
64,192,486234,128,0,486354:0:0:0:70:VEC3 Snares 003
320,192,486234,128,0,486354:0:0:0:70:CrashR.wav
448,192,486234,128,0,486354:0:0:0:0:
192,192,486354,128,0,486534:0:0:0:70:Kick 19.wav
64,192,486414,128,0,486534:0:0:0:70:VEC3 Snares 003
320,192,486414,128,0,486474:0:0:0:70:CrashL.wav
448,192,486414,128,0,486534:0:0:0:0:
320,192,486534,128,0,486654:0:0:0:70:Kick 19.wav
64,192,486594,128,0,486654:0:0:0:70:VEC3 Snares 003
192,192,486594,128,0,486774:0:0:0:70:CrashR.wav
448,192,486594,128,0,486654:0:0:0:0:
64,192,486714,128,0,486774:0:0:0:70:VEC3 Snares 003
320,192,486714,128,0,486834:0:0:0:70:CrashR.wav
448,192,486714,128,0,486834:0:0:0:0:
64,192,486834,128,0,486894:0:0:0:70:VEC3 Snares 003
192,192,486834,128,0,486894:0:0:0:0:
320,192,486894,128,0,487074:0:0:0:70:VEC3 Snares 003
448,192,486894,128,0,487014:0:0:0:70:CrashL.wav
64,192,486954,128,0,487014:0:0:0:70:Kick 19.wav
192,192,486954,128,0,487074:0:0:0:0:
64,192,487074,128,0,487134:0:0:0:70:VEC3 Snares 003
448,192,487074,128,0,487134:0:0:0:70:CrashR.wav
192,192,487134,128,0,487254:0:0:0:70:VEC3 Snares 003
320,192,487134,128,0,487254:0:0:0:0:
64,192,487194,128,0,487314:0:0:0:70:VEC3 Snares 003
448,192,487194,128,0,487314:0:0:0:70:CrashR.wav
192,192,487314,128,0,487374:0:0:0:70:VEC3 Snares 003
320,192,487314,128,0,487374:0:0:0:0:
64,192,487374,128,0,487494:0:0:0:70:VEC3 Snares 003
448,192,487374,128,0,487494:0:0:0:0:
192,192,487434,128,0,487614:0:0:0:70:VEC3 Snares 003
320,192,487434,128,0,487614:0:0:0:70:Kick 19.wav
64,192,487554,128,0,487614:0:0:0:0:
448,192,487554,128,0,487614:0:0:0:0:
64,192,487674,128,0,487974:0:0:0:70:Kick 19.wav
192,192,487674,128,0,488094:0:0:0:70:CrashR.wav
320,192,487674,128,0,488034:0:0:0:0:
64,192,488034,128,0,488454:0:0:0:0:
320,192,488094,128,0,488214:0:0:0:0:
192,192,488154,128,0,488334:0:0:0:0:
320,192,488274,128,0,488574:0:0:0:0:
192,192,488394,128,0,488574:0:0:0:0:
64,192,488514,128,0,488574:0:0:0:0:
192,192,488634,128,0,488694:0:0:0:70:Kick 19.wav
320,192,488634,128,0,488754:0:0:0:70:CrashR.wav
448,192,488634,128,0,488814:0:0:0:0:
64,192,488694,128,0,488754:0:0:0:0:
192,192,488754,128,0,488934:0:0:0:0:
320,192,488814,128,0,489054:0:0:0:0:
448,192,488874,128,0,488994:0:0:0:0:
192,192,488994,128,0,489174:0:0:0:0:
448,192,489054,128,0,489534:0:0:0:0:
320,192,489114,128,0,489294:0:0:0:0:
192,192,489234,128,0,489414:0:0:0:0:
320,192,489354,128,0,489534:0:0:0:0:
192,192,489474,128,0,489534:0:0:0:0:
64,192,489594,128,0,489894:0:0:0:70:Kick 19.wav
192,192,489594,128,0,490014:0:0:0:70:CrashR.wav
320,192,489594,128,0,489954:0:0:0:0:
64,192,489954,128,0,490374:0:0:0:0:
320,192,490014,128,0,490134:0:0:0:0:
192,192,490074,128,0,490254:0:0:0:0:
320,192,490194,128,0,490494:0:0:0:0:
192,192,490314,128,0,490494:0:0:0:0:
64,192,490434,128,0,490494:0:0:0:0:
192,192,490554,128,0,490614:0:0:0:70:Kick 19.wav
320,192,490554,128,0,490674:0:0:0:70:CrashR.wav
448,192,490554,128,0,490734:0:0:0:0:
64,192,490614,128,0,490674:0:0:0:0:
192,192,490674,128,0,490854:0:0:0:0:
320,192,490734,128,0,490974:0:0:0:0:
448,192,490794,128,0,490914:0:0:0:0:
192,192,490914,128,0,491094:0:0:0:0:
448,192,490974,128,0,491214:0:0:0:0:
320,192,491034,128,0,491214:0:0:0:0:
192,192,491154,128,0,491334:0:0:0:0:
320,192,491274,128,0,491454:0:0:0:70:Kick 19.wav
448,192,491274,128,0,491454:0:0:0:0:
192,192,491394,128,0,491454:0:0:0:0:
64,192,491514,128,0,491694:0:0:0:70:VEC3 Snares 003
320,192,491514,128,0,491574:0:0:0:70:CrashR.wav
448,192,491514,128,0,491814:0:0:0:0:
192,192,491634,128,0,491694:0:0:0:70:Kick 19.wav
320,192,491634,128,0,491814:0:0:0:0:
64,192,491754,128,0,491814:0:0:0:70:Kick 19.wav
192,192,491754,128,0,491874:0:0:0:0:
64,192,491874,128,0,492054:0:0:0:70:VEC3 Snares 003
320,192,491874,128,0,491934:0:0:0:70:CrashR.wav
448,192,491874,128,0,491934:0:0:0:0:
192,192,491934,128,0,492054:0:0:0:0:
320,192,491994,128,0,492174:0:0:0:70:Kick 19.wav
448,192,491994,128,0,492174:0:0:0:0:
64,192,492114,128,0,492174:0:0:0:70:Kick 19.wav
192,192,492114,128,0,492294:0:0:0:0:
64,192,492234,128,0,492294:0:0:0:70:VEC3 Snares 003
320,192,492234,128,0,492354:0:0:0:70:CrashR.wav
448,192,492234,128,0,492414:0:0:0:0:
64,192,492354,128,0,492414:0:0:0:70:Kick 19.wav
192,192,492354,128,0,492414:0:0:0:0:
320,192,492414,128,0,492534:0:0:0:70:Kick 19.wav
64,192,492474,128,0,492774:0:0:0:70:VEC3 Snares 003
192,192,492474,128,0,492534:0:0:0:70:CrashR.wav
448,192,492474,128,0,492654:0:0:0:0:
192,192,492594,128,0,492774:0:0:0:70:Kick 19.wav
320,192,492594,128,0,492654:0:0:0:0:
320,192,492714,128,0,492834:0:0:0:70:Kick 19.wav
448,192,492714,128,0,492774:0:0:0:0:
64,192,492834,128,0,492894:0:0:0:70:VEC3 Snares 003
192,192,492834,128,0,492894:0:0:0:70:CrashR.wav
448,192,492834,128,0,493014:0:0:0:0:
320,192,492894,128,0,493014:0:0:0:0:
64,192,492954,128,0,493134:0:0:0:70:Kick 19.wav
192,192,492954,128,0,493134:0:0:0:0:
320,192,493074,128,0,493254:0:0:0:70:Kick 19.wav
448,192,493074,128,0,493134:0:0:0:0:
64,192,493194,128,0,493374:0:0:0:70:VEC3 Snares 003
192,192,493194,128,0,493314:0:0:0:70:CrashR.wav
448,192,493194,128,0,493254:0:0:0:0:
320,192,493314,128,0,493374:0:0:0:70:Kick 19.wav
448,192,493314,128,0,493374:0:0:0:0:
192,192,493374,128,0,493494:0:0:0:70:Kick 19.wav
64,192,493434,128,0,493554:0:0:0:70:VEC3 Snares 003
320,192,493434,128,0,493554:0:0:0:70:CrashR.wav
448,192,493434,128,0,493554:0:0:0:0:
192,192,493554,128,0,493734:0:0:0:70:Kick 19.wav
64,192,493614,128,0,493674:0:0:0:70:VEC3 Snares 003
320,192,493614,128,0,493734:0:0:0:70:CrashL.wav
448,192,493614,128,0,493734:0:0:0:0:
64,192,493734,128,0,493794:0:0:0:70:Kick 19.wav
192,192,493794,128,0,493854:0:0:0:70:VEC3 Snares 003
320,192,493794,128,0,493854:0:0:0:70:CrashR.wav
448,192,493794,128,0,493854:0:0:0:0:
64,192,493854,128,0,494034:0:0:0:70:Kick 19.wav
192,192,493914,128,0,494034:0:0:0:70:VEC3 Snares 003
320,192,493914,128,0,493974:0:0:0:70:CrashR.wav
448,192,493914,128,0,494034:0:0:0:0:
320,192,494034,128,0,494214:0:0:0:70:Kick 19.wav
64,192,494094,128,0,494214:0:0:0:70:VEC3 Snares 003
192,192,494094,128,0,494214:0:0:0:70:CrashL.wav
448,192,494094,128,0,494154:0:0:0:0:
448,192,494214,128,0,494454:0:0:0:70:Kick 19.wav
64,192,494274,128,0,494334:0:0:0:70:VEC3 Snares 003
192,192,494274,128,0,494334:0:0:0:70:CrashR.wav
320,192,494274,128,0,494334:0:0:0:0:
64,192,494394,128,0,494574:0:0:0:70:VEC3 Snares 003
192,192,494394,128,0,494454:0:0:0:70:CrashR.wav
320,192,494394,128,0,494454:0:0:0:0:
192,192,494514,128,0,494694:0:0:0:70:VEC3 Snares 003
320,192,494514,128,0,494574:0:0:0:0:
448,192,494514,128,0,494574:0:0:0:0:
64,192,494634,128,0,494694:0:0:0:70:Kick 19.wav
320,192,494634,128,0,494814:0:0:0:0:
448,192,494634,128,0,494694:0:0:0:0:
64,192,494754,128,0,494814:0:0:0:70:VEC3 Snares 003
192,192,494754,128,0,494814:0:0:0:0:
448,192,494754,128,0,494994:0:0:0:0:
64,192,494874,128,0,494994:0:0:0:70:Kick 19.wav
192,192,494874,128,0,494994:0:0:0:0:
320,192,494874,128,0,494994:0:0:0:0:
64,192,495114,128,0,495174:0:0:0:0:
448,192,495114,128,0,495174:0:0:0:0:
192,192,495234,128,0,495294:0:0:0:0:
320,192,495234,128,0,495294:0:0:0:0:
64,192,495354,1,0,0:0:0:70:Kick 19.wav
192,192,495354,1,0,0:0:0:70:CrashL.wav
448,192,495354,1,0,0:0:0:0:
320,192,495414,1,0,0:0:0:0:
64,192,495474,1,0,0:0:0:70:Kick 19.wav
192,192,495474,1,0,0:0:0:0:
448,192,495534,1,0,0:0:0:0:
64,192,495594,1,0,0:0:0:70:Kick 19.wav
320,192,495594,1,0,0:0:0:0:
192,192,495654,1,0,0:0:0:0:
320,192,495714,1,0,0:0:0:70:Kick 19.wav
448,192,495714,1,0,0:0:0:0:
64,192,495774,1,0,0:0:0:0:
192,192,495834,1,0,0:0:0:70:Kick 19.wav
320,192,495834,1,0,0:0:0:0:
448,192,495894,1,0,0:0:0:0:
64,192,495954,1,0,0:0:0:70:Kick 19.wav
192,192,495954,1,0,0:0:0:0:
448,192,496014,1,0,0:0:0:0:
64,192,496074,1,0,0:0:0:70:Kick 19.wav
320,192,496074,1,0,0:0:0:70:fill_snare_low.wav
192,192,496134,1,0,0:0:0:70:fill_snare_low.wav
448,192,496134,1,0,0:0:0:0:
64,192,496194,1,0,0:0:0:70:Kick 19.wav
320,192,496194,1,0,0:0:0:70:fill_snare_low.wav
192,192,496254,1,0,0:0:0:70:Kick 19.wav
320,192,496314,1,0,0:0:0:70:Kick 19.wav
448,192,496314,1,0,0:0:0:0:
192,192,496374,1,0,0:0:0:0:
64,192,496434,1,0,0:0:0:70:Kick 19.wav
448,192,496434,1,0,0:0:0:0:
320,192,496494,1,0,0:0:0:0:
64,192,496554,1,0,0:0:0:70:Kick 19.wav
192,192,496554,1,0,0:0:0:70:fill_snare_low.wav
448,192,496554,1,0,0:0:0:0:
320,192,496614,1,0,0:0:0:70:fill_snare_low.wav
64,192,496674,1,0,0:0:0:70:Kick 19.wav
192,192,496674,1,0,0:0:0:70:fill_snare_low.wav
448,192,496674,1,0,0:0:0:0:
320,192,496734,1,0,0:0:0:0:
64,192,496794,1,0,0:0:0:70:Kick 19.wav
192,192,496824,1,0,0:0:0:70:Kick 19.wav
320,192,496854,1,0,0:0:0:70:Kick 19.wav
448,192,496884,1,0,0:0:0:70:Kick 19.wav
64,192,496914,1,0,0:0:0:70:Kick 19.wav
192,192,496914,1,0,0:0:0:70:fill_snare_low.wav
320,192,496974,1,0,0:0:0:0:
64,192,497034,1,0,0:0:0:70:Kick 19.wav
192,192,497034,1,0,0:0:0:70:fill_snare_low.wav
320,192,497094,1,0,0:0:0:70:fill_snare_low.wav
448,192,497094,1,0,0:0:0:0:
64,192,497154,1,0,0:0:0:70:fill_snare_high.wav
192,192,497184,1,0,0:0:0:70:fill_snare_high.wav
448,192,497214,1,0,0:0:0:70:fill_snare_high.wav
320,192,497244,1,0,0:0:0:70:fill_snare_high.wav
64,192,497274,1,0,0:0:0:70:Kick 19.wav
192,192,497274,1,0,0:0:0:0:
448,192,497334,1,0,0:0:0:70:Kick 19.wav
64,192,497394,1,0,0:0:0:70:Kick 19.wav
192,192,497394,1,0,0:0:0:0:
448,192,497454,1,0,0:0:0:70:Kick 19.wav
64,192,497514,1,0,0:0:0:70:Kick 19.wav
192,192,497514,1,0,0:0:0:0:
448,192,497574,1,0,0:0:0:0:
64,192,497634,1,0,0:0:0:70:Kick 19.wav
320,192,497634,1,0,0:0:0:0:
192,192,497694,1,0,0:0:0:0:
64,192,497754,1,0,0:0:0:70:Kick 19.wav
320,192,497754,1,0,0:0:0:70:fill_snare_low.wav
448,192,497754,1,0,0:0:0:0:
192,192,497814,1,0,0:0:0:70:fill_snare_low.wav
64,192,497874,1,0,0:0:0:70:Kick 19.wav
320,192,497874,1,0,0:0:0:70:fill_snare_low.wav
448,192,497874,1,0,0:0:0:0:
192,192,497934,1,0,0:0:0:70:fill_snare_low.wav
320,192,497994,1,0,0:0:0:70:Kick 19.wav
448,192,497994,1,0,0:0:0:70:fill_snare_high.wav
64,192,498054,1,0,0:0:0:70:fill_snare_high.wav
192,192,498114,1,0,0:0:0:70:Kick 19.wav
448,192,498114,1,0,0:0:0:70:fill_snare_high.wav
320,192,498174,1,0,0:0:0:0:
192,192,498234,1,0,0:0:0:70:fill_snare_high.wav
64,192,498264,1,0,0:0:0:70:fill_snare_high.wav
448,192,498294,1,0,0:0:0:70:fill_snare_high.wav
320,192,498324,1,0,0:0:0:70:fill_snare_high.wav
64,192,498354,1,0,0:0:0:70:Kick 19.wav
192,192,498354,1,0,0:0:0:0:
320,192,498414,1,0,0:0:0:70:Kick 19.wav
64,192,498474,1,0,0:0:0:70:Kick 19.wav
192,192,498474,1,0,0:0:0:0:
320,192,498534,1,0,0:0:0:70:Kick 19.wav
64,192,498594,1,0,0:0:0:70:Kick 19.wav
192,192,498594,1,0,0:0:0:0:
320,192,498654,1,0,0:0:0:70:Kick 19.wav
192,192,498714,1,0,0:0:0:70:Kick 19.wav
64,192,498744,1,0,0:0:0:70:Kick 19.wav
320,192,498774,1,0,0:0:0:70:Kick 19.wav
448,192,498804,1,0,0:0:0:70:Kick 19.wav
64,192,498834,1,0,0:0:0:70:Kick 19.wav
192,192,498834,1,0,0:0:0:0:
320,192,498894,1,0,0:0:0:70:Kick 19.wav
64,192,498954,1,0,0:0:0:70:fill_snare_high.wav
192,192,498984,1,0,0:0:0:70:fill_snare_high.wav
320,192,499014,1,0,0:0:0:70:fill_snare_high.wav
448,192,499044,1,0,0:0:0:70:fill_snare_high.wav
64,192,499074,1,0,0:0:0:70:fill_snare_high.wav
192,192,499104,1,0,0:0:0:70:fill_snare_high.wav
448,192,499134,1,0,0:0:0:70:fill_snare_high.wav
320,192,499164,1,0,0:0:0:70:fill_snare_high.wav
64,192,499194,1,0,0:0:0:70:Kick 19.wav
192,192,499194,1,0,0:0:0:70:CrashL.wav
448,192,499254,1,0,0:0:0:0:
320,192,499314,1,0,0:0:0:0:
192,192,499374,1,0,0:0:0:0:
64,192,499434,1,0,0:0:0:70:Kick 19.wav
320,192,499434,1,0,0:0:0:70:VEC3 Snares 003.wav
448,192,499434,1,0,0:0:0:0:
192,192,499494,1,0,0:0:0:0:
448,192,499554,1,0,0:0:0:0:
320,192,499614,1,0,0:0:0:0:
64,192,499674,1,0,0:0:0:70:Kick 19.wav
192,192,499674,1,0,0:0:0:0:
320,192,499734,1,0,0:0:0:0:
448,192,499794,1,0,0:0:0:0:
64,192,499854,1,0,0:0:0:0:
192,192,499914,1,0,0:0:0:70:Kick 19.wav
320,192,499914,1,0,0:0:0:70:VEC3 Snares 003.wav
448,192,499914,1,0,0:0:0:0:
64,192,499974,1,0,0:0:0:0:
192,192,500034,1,0,0:0:0:0:
448,192,500094,1,0,0:0:0:0:
64,192,500154,1,0,0:0:0:70:Kick 19.wav
320,192,500154,1,0,0:0:0:0:
192,192,500214,1,0,0:0:0:0:
448,192,500274,1,0,0:0:0:0:
320,192,500334,1,0,0:0:0:0:
64,192,500394,1,0,0:0:0:70:Kick 19.wav
192,192,500394,1,0,0:0:0:70:VEC3 Snares 003.wav
448,192,500394,1,0,0:0:0:0:
320,192,500454,1,0,0:0:0:0:
64,192,500514,1,0,0:0:0:0:
192,192,500574,1,0,0:0:0:0:
320,192,500634,1,0,0:0:0:70:Kick 19.wav
448,192,500634,1,0,0:0:0:0:
64,192,500694,1,0,0:0:0:0:
192,192,500754,1,0,0:0:0:0:
320,192,500814,1,0,0:0:0:0:
64,192,500874,1,0,0:0:0:70:Kick 19.wav
192,192,500874,1,0,0:0:0:70:VEC3 Snares 003.wav
448,192,500874,1,0,0:0:0:0:
64,192,501114,1,0,0:0:0:70:Kick 19.wav
320,192,501114,1,0,0:0:0:70:VEC3 Snares 003.wav
448,192,501114,1,0,0:0:0:0:
192,192,501174,1,0,0:0:0:0:
448,192,501234,1,0,0:0:0:0:
320,192,501294,1,0,0:0:0:0:
64,192,501354,1,0,0:0:0:70:Kick 19.wav
192,192,501354,1,0,0:0:0:0:
320,192,501414,1,0,0:0:0:0:
64,192,501474,1,0,0:0:0:70:Kick 19.wav
192,192,501474,1,0,0:0:0:70:VEC3 Snares 003.wav
448,192,501474,1,0,0:0:0:0:
320,192,501534,1,0,0:0:0:0:
64,192,501594,1,0,0:0:0:70:Kick 19.wav
448,192,501594,1,0,0:0:0:70:VEC3 Snares 003.wav
192,192,501654,1,0,0:0:0:0:
64,192,501714,1,0,0:0:0:70:Kick 19.wav
320,192,501714,1,0,0:0:0:70:VEC3 Snares 003.wav
448,192,501714,1,0,0:0:0:0:
192,192,501774,1,0,0:0:0:0:
320,192,501834,1,0,0:0:0:70:Kick 19.wav
448,192,501834,1,0,0:0:0:70:VEC3 Snares 003.wav
192,192,501894,1,0,0:0:0:70:Kick 19.wav
64,192,501954,1,0,0:0:0:70:Kick 19.wav
320,192,501954,1,0,0:0:0:70:VEC3 Snares 003.wav
448,192,501954,1,0,0:0:0:0:
192,192,502014,1,0,0:0:0:0:
64,192,502074,1,0,0:0:0:70:VEC3 Snares 003
448,192,502074,1,0,0:0:0:0:
320,192,502134,1,0,0:0:0:0:
192,192,502194,1,0,0:0:0:0:
64,192,502254,1,0,0:0:0:70:Kick 19.wav
448,192,502254,1,0,0:0:0:0:
320,192,502314,1,0,0:0:0:0:
192,192,502374,1,0,0:0:0:0:
64,192,502434,1,0,0:0:0:70:Kick 19.wav
448,192,502434,1,0,0:0:0:0:
320,192,502494,1,0,0:0:0:0:
64,192,502554,1,0,0:0:0:70:Kick 19.wav
192,192,502554,1,0,0:0:0:70:fill_snare.wav
448,192,502554,1,0,0:0:0:0:
320,192,502614,1,0,0:0:0:0:
64,192,502674,1,0,0:0:0:0:
192,192,502734,1,0,0:0:0:0:
320,192,502794,1,0,0:0:0:70:Kick 19.wav
448,192,502794,1,0,0:0:0:0:
192,192,502854,1,0,0:0:0:70:Kick 19.wav
320,192,502914,1,0,0:0:0:70:Kick 19.wav
448,192,502914,1,0,0:0:0:0:
192,192,502974,1,0,0:0:0:70:Kick 19.wav
320,192,503034,1,0,0:0:0:70:VEC3 Snares 003
448,192,503034,1,0,0:0:0:70:Kick 19.wav
192,192,503094,1,0,0:0:0:0:
64,192,503154,1,0,0:0:0:70:Kick 19.wav
320,192,503154,1,0,0:0:0:0:
448,192,503214,1,0,0:0:0:0:
64,192,503274,1,0,0:0:0:70:VEC3 Snares 003
192,192,503274,1,0,0:0:0:70:Kick 19.wav
448,192,503334,1,0,0:0:0:0:
64,192,503394,1,0,0:0:0:70:Kick 19.wav
320,192,503394,1,0,0:0:0:0:
192,192,503454,1,0,0:0:0:0:
320,192,503514,1,0,0:0:0:70:VEC3 Snares 003
448,192,503514,1,0,0:0:0:70:Kick 19.wav
64,192,503574,1,0,0:0:0:0:
192,192,503634,1,0,0:0:0:70:Kick 19.wav
320,192,503634,1,0,0:0:0:0:
448,192,503694,1,0,0:0:0:0:
64,192,503754,1,0,0:0:0:70:VEC3 Snares 003
192,192,503754,1,0,0:0:0:70:Kick 19.wav
448,192,503814,1,0,0:0:0:0:
64,192,503874,1,0,0:0:0:70:Kick 19.wav
320,192,503874,1,0,0:0:0:0:
192,192,503934,1,0,0:0:0:70:Kick 19.wav
448,192,503934,1,0,0:0:0:0:
64,192,503994,1,0,0:0:0:70:VEC3 Snares 003
320,192,503994,1,0,0:0:0:70:Kick 19.wav
192,192,504054,1,0,0:0:0:0:
320,192,504114,1,0,0:0:0:70:Kick 19.wav
448,192,504114,1,0,0:0:0:0:
64,192,504174,1,0,0:0:0:0:
192,192,504234,1,0,0:0:0:70:VEC3 Snares 003
448,192,504234,1,0,0:0:0:70:Kick 19.wav
320,192,504294,1,0,0:0:0:0:
64,192,504354,1,0,0:0:0:70:Kick 19.wav
192,192,504354,1,0,0:0:0:0:
320,192,504414,1,0,0:0:0:0:
64,192,504474,1,0,0:0:0:70:VEC3 Snares 003
192,192,504504,1,0,0:0:0:70:Kick 19.wav
320,192,504534,1,0,0:0:0:70:Kick 19.wav
448,192,504564,1,0,0:0:0:70:Kick 19.wav
64,192,504594,1,0,0:0:0:70:Kick 19.wav
192,192,504594,1,0,0:0:0:0:
320,192,504654,1,0,0:0:0:0:
64,192,504714,1,0,0:0:0:70:VEC3 Snares 003
192,192,504714,1,0,0:0:0:70:Kick 19.wav
320,192,504774,1,0,0:0:0:70:Kick 19.wav
448,192,504774,1,0,0:0:0:0:
192,192,504834,1,0,0:0:0:70:fill_snare_high.wav
64,192,504864,1,0,0:0:0:70:fill_snare_high.wav
448,192,504894,1,0,0:0:0:70:fill_snare_high.wav
320,192,504924,1,0,0:0:0:70:fill_snare_high.wav
64,192,504954,1,0,0:0:0:70:VEC3 Snares 003
192,192,504954,1,0,0:0:0:70:Kick 19.wav
448,192,505014,1,0,0:0:0:70:Kick 19.wav
64,192,505074,1,0,0:0:0:70:Kick 19.wav
192,192,505074,1,0,0:0:0:0:
448,192,505134,1,0,0:0:0:70:Kick 19.wav
64,192,505194,1,0,0:0:0:70:VEC3 Snares 003
192,192,505194,1,0,0:0:0:70:Kick 19.wav
448,192,505254,1,0,0:0:0:0:
192,192,505314,1,0,0:0:0:70:Kick 19.wav
320,192,505314,1,0,0:0:0:0:
64,192,505374,1,0,0:0:0:0:
320,192,505434,1,0,0:0:0:70:VEC3 Snares 003
448,192,505434,1,0,0:0:0:70:Kick 19.wav
64,192,505494,1,0,0:0:0:0:
192,192,505554,1,0,0:0:0:70:Kick 19.wav
448,192,505554,1,0,0:0:0:0:
320,192,505614,1,0,0:0:0:0:
64,192,505674,1,0,0:0:0:70:VEC3 Snares 003
192,192,505674,1,0,0:0:0:70:Kick 19.wav
320,192,505734,1,0,0:0:0:0:
64,192,505794,1,0,0:0:0:70:Kick 19.wav
448,192,505794,1,0,0:0:0:0:
192,192,505854,1,0,0:0:0:0:
320,192,505914,1,0,0:0:0:70:fill_snare_high.wav
448,192,505944,1,0,0:0:0:70:fill_snare_high.wav
64,192,505974,1,0,0:0:0:70:fill_snare_high.wav
192,192,506004,1,0,0:0:0:70:fill_snare_high.wav
320,192,506034,1,0,0:0:0:70:Kick 19.wav
448,192,506034,1,0,0:0:0:0:
64,192,506094,1,0,0:0:0:70:Kick 19.wav
320,192,506154,1,0,0:0:0:70:VEC3 Snares 003
448,192,506154,1,0,0:0:0:70:Kick 19.wav
64,192,506214,1,0,0:0:0:70:Kick 19.wav
320,192,506274,1,0,0:0:0:70:Kick 19.wav
448,192,506274,1,0,0:0:0:0:
64,192,506334,1,0,0:0:0:70:Kick 19.wav
448,192,506394,1,0,0:0:0:70:VEC3 Snares 003
320,192,506424,1,0,0:0:0:70:Kick 19.wav
192,192,506454,1,0,0:0:0:70:Kick 19.wav
64,192,506484,1,0,0:0:0:70:Kick 19.wav
320,192,506514,1,0,0:0:0:70:Kick 19.wav
448,192,506514,1,0,0:0:0:0:
64,192,506574,1,0,0:0:0:70:Kick 19.wav
192,192,506574,1,0,0:0:0:0:
448,192,506634,1,0,0:0:0:70:fill_snare_high.wav
320,192,506664,1,0,0:0:0:70:fill_snare_high.wav
192,192,506694,1,0,0:0:0:70:fill_snare_high.wav
64,192,506724,1,0,0:0:0:70:fill_snare_high.wav
448,192,506754,1,0,0:0:0:70:fill_snare_high.wav
320,192,506784,1,0,0:0:0:70:fill_snare_high.wav
64,192,506814,1,0,0:0:0:70:fill_snare_high.wav
192,192,506844,1,0,0:0:0:70:fill_snare_high.wav
320,192,506874,1,0,0:0:0:70:Kick 19.wav
448,192,506874,1,0,0:0:0:0:
64,192,506934,1,0,0:0:0:0:
192,192,506994,1,0,0:0:0:70:Kick 19.wav
320,192,506994,1,0,0:0:0:0:
448,192,507054,1,0,0:0:0:0:
64,192,507114,1,0,0:0:0:70:Kick 19.wav
192,192,507114,1,0,0:0:0:70:VEC3 Snares 003.wav
320,192,507114,1,0,0:0:0:70:CrashL.wav
448,192,507174,1,0,0:0:0:0:
64,192,507234,1,0,0:0:0:70:Kick 19.wav
192,192,507234,1,0,0:0:0:0:
448,192,507294,1,0,0:0:0:0:
64,192,507354,1,0,0:0:0:70:Kick 19.wav
320,192,507354,1,0,0:0:0:0:
192,192,507414,1,0,0:0:0:0:
320,192,507474,1,0,0:0:0:70:Kick 19.wav
448,192,507474,1,0,0:0:0:0:
192,192,507534,1,0,0:0:0:0:
64,192,507594,1,0,0:0:0:70:Kick 19.wav
320,192,507594,1,0,0:0:0:70:VEC3 Snares 003.wav
448,192,507594,1,0,0:0:0:0:
192,192,507654,1,0,0:0:0:0:
64,192,507714,1,0,0:0:0:70:Kick 19.wav
448,192,507714,1,0,0:0:0:0:
320,192,507774,1,0,0:0:0:0:
64,192,507834,1,0,0:0:0:70:Kick 19.wav
192,192,507834,1,0,0:0:0:0:
320,192,507894,1,0,0:0:0:0:
64,192,507954,1,0,0:0:0:70:Kick 19.wav
448,192,507954,1,0,0:0:0:0:
192,192,508014,1,0,0:0:0:0:
64,192,508074,1,0,0:0:0:70:Kick 19.wav
320,192,508074,1,0,0:0:0:70:VEC3 Snares 003.wav
448,192,508074,1,0,0:0:0:0:
192,192,508134,1,0,0:0:0:0:
320,192,508194,1,0,0:0:0:70:Kick 19.wav
448,192,508194,1,0,0:0:0:0:
192,192,508254,1,0,0:0:0:0:
64,192,508314,1,0,0:0:0:70:Kick 19.wav
320,192,508314,1,0,0:0:0:0:
448,192,508374,1,0,0:0:0:0:
64,192,508434,1,0,0:0:0:70:Kick 19.wav
192,192,508434,1,0,0:0:0:0:
448,192,508494,1,0,0:0:0:0:
64,192,508554,1,0,0:0:0:70:Kick 19.wav
192,192,508554,1,0,0:0:0:70:VEC3 Snares 003.wav
320,192,508554,1,0,0:0:0:0:
448,192,508614,1,0,0:0:0:0:
64,192,508674,1,0,0:0:0:70:Kick 19.wav
192,192,508674,1,0,0:0:0:0:
320,192,508734,1,0,0:0:0:70:Kick 19.wav
64,192,508794,128,0,508974:0:0:0:70:Kick 19.wav
192,192,508794,128,0,508974:0:0:0:70:VEC3 Snares 003.wav
448,192,508794,128,0,508974:0:0:0:0:
192,192,509034,1,0,0:0:0:70:Kick 19.wav
448,192,509034,1,0,0:0:0:0:
320,192,509094,1,0,0:0:0:70:fill_snare.wav
64,192,509154,1,0,0:0:0:70:fill_snare.wav
192,192,509184,1,0,0:0:0:70:fill_snare.wav
320,192,509214,1,0,0:0:0:70:fill_snare.wav
64,192,509274,128,0,509454:0:0:0:70:Kick 19.wav
192,192,509274,128,0,509454:0:0:0:70:VEC3 Snares 003.wav
448,192,509274,128,0,509454:0:0:0:0:
320,192,509514,1,0,0:0:0:70:Kick 19.wav
448,192,509514,1,0,0:0:0:0:
64,192,509574,1,0,0:0:0:70:fill_snare_low.wav
192,192,509634,1,0,0:0:0:70:fill_snare_low.wav
320,192,509694,1,0,0:0:0:70:fill_snare_low.wav
64,192,509754,128,0,509814:0:0:0:70:VEC3 Snares 003
192,192,509754,128,0,509814:0:0:0:70:CrashR.wav
448,192,509754,128,0,509814:0:0:0:0:
192,192,509874,1,0,0:0:0:70:Kick 19.wav
64,192,509934,128,0,509994:0:0:0:70:VEC3 Snares 003
320,192,509934,128,0,509994:0:0:0:70:CrashR.wav
448,192,509934,128,0,509994:0:0:0:0:
320,192,510054,1,0,0:0:0:70:Kick 19.wav
64,192,510114,128,0,510174:0:0:0:70:VEC3 Snares 003
192,192,510114,128,0,510174:0:0:0:70:CrashR.wav
448,192,510114,128,0,510174:0:0:0:0:
64,192,510234,1,0,0:0:0:70:VEC3 Snares 003
320,192,510234,1,0,0:0:0:70:CrashR.wav
192,192,510294,1,0,0:0:0:0:
448,192,510354,1,0,0:0:0:0:
320,192,510414,1,0,0:0:0:0:
64,192,510474,1,0,0:0:0:70:Kick 19.wav
192,192,510474,1,0,0:0:0:0:
448,192,510534,1,0,0:0:0:70:Kick 19.wav
64,192,510594,1,0,0:0:0:70:Kick 19.wav
192,192,510594,1,0,0:0:0:0:
448,192,510654,1,0,0:0:0:70:Kick 19.wav
64,192,510714,128,0,510894:0:0:0:70:Kick 19.wav
192,192,510714,128,0,510894:0:0:0:70:VEC3 Snares 003.wav
320,192,510714,128,0,510894:0:0:0:0:
320,192,510954,1,0,0:0:0:70:Kick 19.wav
448,192,510954,1,0,0:0:0:0:
64,192,511014,1,0,0:0:0:70:fill_snare.wav
192,192,511074,1,0,0:0:0:70:fill_snare.wav
320,192,511104,1,0,0:0:0:70:fill_snare.wav
448,192,511134,1,0,0:0:0:70:fill_snare.wav
64,192,511194,128,0,511374:0:0:0:70:Kick 19.wav
192,192,511194,128,0,511374:0:0:0:70:VEC3 Snares 003.wav
320,192,511194,128,0,511374:0:0:0:0:
64,192,511434,1,0,0:0:0:70:Kick 19.wav
448,192,511434,1,0,0:0:0:0:
192,192,511494,1,0,0:0:0:70:fill_snare_low.wav
320,192,511554,1,0,0:0:0:70:fill_snare_low.wav
448,192,511614,1,0,0:0:0:70:fill_snare_low.wav
64,192,511674,128,0,511734:0:0:0:70:VEC3 Snares 003
192,192,511674,128,0,511734:0:0:0:70:CrashR.wav
320,192,511674,128,0,511734:0:0:0:0:
64,192,511794,1,0,0:0:0:70:Kick 19.wav
192,192,511854,128,0,511914:0:0:0:70:VEC3 Snares 003
320,192,511854,128,0,511914:0:0:0:70:CrashR.wav
448,192,511854,128,0,511914:0:0:0:0:
448,192,511974,1,0,0:0:0:70:Kick 19.wav
64,192,512034,128,0,512094:0:0:0:70:VEC3 Snares 003
192,192,512034,128,0,512094:0:0:0:70:CrashR.wav
320,192,512034,128,0,512094:0:0:0:0:
64,192,512154,1,0,0:0:0:70:VEC3 Snares 003
448,192,512154,1,0,0:0:0:70:CrashR.wav
192,192,512274,1,0,0:0:0:0:
320,192,512274,1,0,0:0:0:0:
448,192,512334,1,0,0:0:0:0:
64,192,512394,1,0,0:0:0:70:Kick 19.wav
192,192,512394,1,0,0:0:0:0:
320,192,512454,1,0,0:0:0:70:Kick 19.wav
64,192,512514,1,0,0:0:0:70:Kick 19.wav
192,192,512574,1,0,0:0:0:70:Kick 19.wav
64,192,512634,128,0,512814:0:0:0:70:Kick 19.wav
320,192,512634,128,0,512694:0:0:0:70:VEC3 Snares 003.wav
448,192,512634,128,0,512814:0:0:0:0:
192,192,512694,1,0,0:0:0:70:fill_snare.wav
320,192,512754,1,0,0:0:0:70:fill_snare.wav
320,192,512874,1,0,0:0:0:70:fill_snare.wav
192,192,512934,1,0,0:0:0:0:
64,192,512994,1,0,0:0:0:70:Kick 19.wav
448,192,512994,1,0,0:0:0:0:
320,192,513024,1,0,0:0:0:70:fill_snare.wav
192,192,513054,1,0,0:0:0:70:fill_snare.wav
64,192,513114,128,0,513294:0:0:0:70:Kick 19.wav
320,192,513114,128,0,513294:0:0:0:70:VEC3 Snares 003.wav
448,192,513114,128,0,513294:0:0:0:0:
64,192,513354,1,0,0:0:0:70:Kick 19.wav
192,192,513354,1,0,0:0:0:0:
448,192,513414,1,0,0:0:0:70:fill_snare_low.wav
320,192,513474,1,0,0:0:0:70:fill_snare_low.wav
192,192,513534,1,0,0:0:0:70:fill_snare_low.wav
64,192,513594,128,0,513654:0:0:0:70:VEC3 Snares 003
320,192,513594,128,0,513654:0:0:0:70:CrashR.wav
448,192,513594,128,0,513654:0:0:0:0:
320,192,513714,1,0,0:0:0:70:Kick 19.wav
64,192,513774,128,0,513834:0:0:0:70:VEC3 Snares 003
192,192,513774,128,0,513834:0:0:0:70:CrashR.wav
448,192,513774,128,0,513834:0:0:0:0:
192,192,513894,1,0,0:0:0:0:
64,192,513954,128,0,514014:0:0:0:70:VEC3 Snares 003
320,192,513954,128,0,514014:0:0:0:70:CrashR.wav
448,192,513954,128,0,514014:0:0:0:0:
320,192,514074,1,0,0:0:0:70:VEC3 Snares 003
448,192,514074,1,0,0:0:0:70:CrashR.wav
64,192,514134,1,0,0:0:0:70:fill_snare.wav
192,192,514194,1,0,0:0:0:70:fill_snare.wav
320,192,514254,1,0,0:0:0:70:fill_snare.wav
448,192,514314,1,0,0:0:0:70:Kick 19.wav
64,192,514344,1,0,0:0:0:0:
192,192,514374,1,0,0:0:0:0:
320,192,514404,1,0,0:0:0:0:
448,192,514434,1,0,0:0:0:0:
64,192,514464,1,0,0:0:0:0:
192,192,514494,1,0,0:0:0:0:
64,192,514554,128,0,514734:0:0:0:70:Kick 19.wav
320,192,514554,128,0,514734:0:0:0:70:VEC3 Snares 003.wav
448,192,514554,128,0,514734:0:0:0:0:
320,192,514794,1,0,0:0:0:70:fill_snare_low.wav
192,192,514854,1,0,0:0:0:70:fill_snare_low.wav
64,192,514914,1,0,0:0:0:70:fill_snare_low.wav
448,192,514914,1,0,0:0:0:0:
320,192,514944,1,0,0:0:0:70:fill_snare_low.wav
192,192,514974,1,0,0:0:0:70:fill_snare_low.wav
64,192,515034,128,0,515214:0:0:0:70:Kick 19.wav
320,192,515034,128,0,515214:0:0:0:70:VEC3 Snares 003.wav
448,192,515034,128,0,515214:0:0:0:70:CrashL.wav
64,192,515274,1,0,0:0:0:70:Kick 19.wav
448,192,515274,1,0,0:0:0:0:
192,192,515334,1,0,0:0:0:70:fill_snare_high.wav
320,192,515394,1,0,0:0:0:70:fill_snare_high.wav
64,192,515514,128,0,515634:0:0:0:70:VEC3 Snares 003
192,192,515514,128,0,515634:0:0:0:70:CrashR.wav
448,192,515514,128,0,515634:0:0:0:0:
64,192,515694,128,0,515814:0:0:0:70:VEC3 Snares 003
320,192,515694,128,0,515814:0:0:0:70:CrashR.wav
448,192,515694,128,0,515814:0:0:0:0:
64,192,515874,128,0,515934:0:0:0:70:VEC3 Snares 003
192,192,515874,128,0,515934:0:0:0:70:CrashR.wav
448,192,515874,128,0,515934:0:0:0:0:
64,192,515994,128,0,516234:0:0:0:70:VEC3 Snares 003
192,192,515994,128,0,516234:0:0:0:70:CrashR.wav
320,192,516234,1,0,0:0:0:70:Kick 19.wav
448,192,516234,1,0,0:0:0:0:
192,192,516294,1,0,0:0:0:70:fill_snare_high.wav
320,192,516354,1,0,0:0:0:70:fill_snare_high.wav
192,192,516414,1,0,0:0:0:70:fill_snare_high.wav
64,192,516474,1,0,0:0:0:70:Kick 19.wav
448,192,516474,1,0,0:0:0:0:
64,192,516714,128,0,516774:0:0:0:70:VEC3 Snares 003
192,192,516714,128,0,516774:0:0:0:70:Kick 19.wav
448,192,516714,128,0,516834:0:0:0:70:CrashL.wav
320,192,516774,128,0,516834:0:0:0:0:
64,192,516834,128,0,516894:0:0:0:0:
192,192,516834,128,0,516954:0:0:0:0:
320,192,516894,128,0,516954:0:0:0:0:
64,192,516954,128,0,517074:0:0:0:70:Kick 19.wav
448,192,516954,128,0,517014:0:0:0:0:
192,192,517014,128,0,517074:0:0:0:0:
320,192,517074,128,0,517134:0:0:0:0:
448,192,517074,128,0,517134:0:0:0:0:
64,192,517134,128,0,517194:0:0:0:0:
192,192,517194,128,0,517314:0:0:0:70:VEC3 Snares 003
320,192,517194,128,0,517254:0:0:0:70:Kick 19.wav
448,192,517194,128,0,517254:0:0:0:0:
64,192,517254,128,0,517314:0:0:0:0:
320,192,517314,128,0,517374:0:0:0:0:
448,192,517314,128,0,517434:0:0:0:0:
192,192,517374,128,0,517434:0:0:0:0:
64,192,517434,128,0,517554:0:0:0:70:Kick 19.wav
320,192,517434,128,0,517554:0:0:0:0:
448,192,517494,128,0,517554:0:0:0:0:
192,192,517554,128,0,517614:0:0:0:0:
448,192,517614,128,0,517674:0:0:0:0:
64,192,517674,128,0,517734:0:0:0:70:VEC3 Snares 003
192,192,517674,128,0,517794:0:0:0:70:Kick 19.wav
320,192,517674,128,0,517734:0:0:0:0:
448,192,517734,128,0,517794:0:0:0:0:
64,192,517794,128,0,517914:0:0:0:0:
320,192,517794,128,0,517854:0:0:0:0:
192,192,517854,128,0,517914:0:0:0:0:
320,192,517914,128,0,518034:0:0:0:70:Kick 19.wav
448,192,517914,128,0,517974:0:0:0:0:
192,192,517974,128,0,518034:0:0:0:0:
64,192,518034,128,0,518094:0:0:0:0:
448,192,518034,128,0,518154:0:0:0:0:
320,192,518094,128,0,518154:0:0:0:0:
64,192,518154,1,0,0:0:0:70:fill_snare_high.wav
448,192,518214,1,0,0:0:0:70:fill_snare_high.wav
64,192,518274,1,0,0:0:0:70:fill_snare_high.wav
448,192,518334,1,0,0:0:0:70:fill_snare_high.wav
64,192,518394,128,0,518514:0:0:0:70:Kick 19.wav
192,192,518394,128,0,518454:0:0:0:0:
448,192,518454,128,0,518514:0:0:0:0:
192,192,518514,128,0,518574:0:0:0:0:
320,192,518514,128,0,518574:0:0:0:0:
64,192,518574,128,0,518634:0:0:0:0:
192,192,518634,128,0,518754:0:0:0:70:VEC3 Snares 003
320,192,518634,128,0,518694:0:0:0:70:Kick 19.wav
448,192,518634,128,0,518694:0:0:0:0:
64,192,518694,128,0,518754:0:0:0:0:
320,192,518754,128,0,518874:0:0:0:0:
448,192,518754,128,0,518814:0:0:0:0:
192,192,518814,128,0,518874:0:0:0:0:
64,192,518874,128,0,518994:0:0:0:70:Kick 19.wav
448,192,518874,128,0,518994:0:0:0:0:
320,192,518934,128,0,518994:0:0:0:0:
192,192,518994,128,0,519054:0:0:0:0:
64,192,519054,128,0,519114:0:0:0:0:
192,192,519114,128,0,519234:0:0:0:70:VEC3 Snares 003
320,192,519114,128,0,519174:0:0:0:70:Kick 19.wav
448,192,519114,128,0,519174:0:0:0:0:
64,192,519174,128,0,519234:0:0:0:0:
320,192,519234,128,0,519294:0:0:0:0:
448,192,519234,128,0,519354:0:0:0:0:
192,192,519294,128,0,519354:0:0:0:0:
64,192,519354,128,0,519474:0:0:0:70:Kick 19.wav
320,192,519354,128,0,519474:0:0:0:0:
448,192,519414,128,0,519474:0:0:0:0:
192,192,519474,128,0,519534:0:0:0:0:
320,192,519534,128,0,519594:0:0:0:0:
64,192,519594,128,0,519654:0:0:0:70:VEC3 Snares 003
192,192,519594,128,0,519654:0:0:0:70:Kick 19.wav
448,192,519594,128,0,519714:0:0:0:0:
320,192,519654,128,0,519714:0:0:0:0:
64,192,519714,128,0,519774:0:0:0:0:
192,192,519714,128,0,519834:0:0:0:0:
320,192,519774,128,0,519834:0:0:0:0:
64,192,519834,128,0,519954:0:0:0:70:Kick 19.wav
448,192,519834,128,0,519954:0:0:0:0:
192,192,519894,128,0,519954:0:0:0:0:
320,192,519954,128,0,520014:0:0:0:0:
192,192,520014,128,0,520074:0:0:0:0:
64,192,520074,128,0,520119:0:0:0:70:VEC3 Snares 003
448,192,520074,128,0,520119:0:0:0:70:Kick 19.wav
320,192,520104,128,0,520149:0:0:0:0:
192,192,520134,128,0,520179:0:0:0:0:
448,192,520164,128,0,520209:0:0:0:0:
64,192,520194,128,0,520239:0:0:0:0:
320,192,520224,128,0,520269:0:0:0:0:
192,192,520254,128,0,520299:0:0:0:0:
64,192,520284,128,0,520329:0:0:0:0:
320,192,520314,128,0,520374:0:0:0:70:Kick 19.wav
448,192,520314,128,0,520374:0:0:0:70:CrashL.wav
192,192,520374,128,0,520434:0:0:0:0:
320,192,520434,128,0,520494:0:0:0:70:Kick 19.wav
448,192,520434,128,0,520494:0:0:0:0:
192,192,520494,128,0,520554:0:0:0:0:
64,192,520554,128,0,520614:0:0:0:70:VEC3 Snares 003
320,192,520554,128,0,520674:0:0:0:70:Kick 19.wav
448,192,520554,128,0,520614:0:0:0:0:
192,192,520614,128,0,520674:0:0:0:0:
64,192,520674,128,0,520734:0:0:0:0:
448,192,520674,128,0,520794:0:0:0:0:
320,192,520734,128,0,520794:0:0:0:0:
64,192,520794,128,0,520914:0:0:0:70:Kick 19.wav
192,192,520794,128,0,520914:0:0:0:0:
448,192,520854,128,0,520914:0:0:0:0:
320,192,520914,128,0,520974:0:0:0:0:
192,192,520974,128,0,521034:0:0:0:0:
64,192,521034,128,0,521154:0:0:0:70:VEC3 Snares 003
320,192,521034,128,0,521094:0:0:0:70:Kick 19.wav
448,192,521034,128,0,521094:0:0:0:0:
192,192,521094,128,0,521154:0:0:0:0:
320,192,521154,128,0,521214:0:0:0:0:
448,192,521154,128,0,521274:0:0:0:0:
64,192,521214,128,0,521274:0:0:0:0:
192,192,521274,128,0,521394:0:0:0:70:Kick 19.wav
320,192,521274,128,0,521394:0:0:0:0:
64,192,521334,128,0,521394:0:0:0:0:
448,192,521394,128,0,521454:0:0:0:0:
192,192,521454,128,0,521514:0:0:0:0:
64,192,521514,128,0,521634:0:0:0:70:VEC3 Snares 003
320,192,521514,128,0,521574:0:0:0:70:Kick 19.wav
448,192,521514,128,0,521574:0:0:0:0:
192,192,521574,128,0,521634:0:0:0:0:
320,192,521634,128,0,521754:0:0:0:0:
448,192,521634,128,0,521694:0:0:0:0:
192,192,521694,128,0,521754:0:0:0:0:
64,192,521754,128,0,521814:0:0:0:70:Kick 19.wav
448,192,521754,128,0,521874:0:0:0:0:
320,192,521814,128,0,521874:0:0:0:0:
64,192,521874,128,0,521934:0:0:0:0:
192,192,521874,128,0,521934:0:0:0:0:
320,192,521934,128,0,521994:0:0:0:0:
64,192,521994,1,0,0:0:0:0:
192,192,522024,1,0,0:0:0:0:
448,192,522054,1,0,0:0:0:0:
320,192,522084,1,0,0:0:0:0:
64,192,522114,128,0,522234:0:0:0:0:
192,192,522174,128,0,522234:0:0:0:0:
320,192,522234,128,0,522294:0:0:0:70:Kick 19.wav
448,192,522234,128,0,522294:0:0:0:0:
192,192,522294,128,0,522354:0:0:0:0:
320,192,522354,128,0,522414:0:0:0:70:Kick 19.wav
448,192,522354,128,0,522414:0:0:0:0:
64,192,522414,128,0,522474:0:0:0:0:
192,192,522474,128,0,522534:0:0:0:70:VEC3 Snares 003
320,192,522474,128,0,522594:0:0:0:70:Kick 19.wav
448,192,522474,128,0,522534:0:0:0:0:
64,192,522534,128,0,522594:0:0:0:0:
192,192,522594,128,0,522714:0:0:0:0:
448,192,522594,128,0,522654:0:0:0:0:
320,192,522654,128,0,522714:0:0:0:0:
64,192,522714,128,0,522774:0:0:0:70:Kick 19.wav
448,192,522714,128,0,522834:0:0:0:0:
320,192,522774,128,0,522834:0:0:0:0:
64,192,522834,128,0,522894:0:0:0:0:
192,192,522834,128,0,522894:0:0:0:0:
448,192,522894,128,0,522954:0:0:0:0:
64,192,522954,128,0,523074:0:0:0:70:VEC3 Snares 003
192,192,522954,128,0,523014:0:0:0:70:Kick 19.wav
320,192,522954,128,0,523014:0:0:0:0:
448,192,523014,128,0,523074:0:0:0:0:
192,192,523074,128,0,523194:0:0:0:0:
320,192,523074,128,0,523134:0:0:0:0:
64,192,523134,128,0,523194:0:0:0:0:
320,192,523194,128,0,523254:0:0:0:70:Kick 19.wav
448,192,523194,128,0,523254:0:0:0:0:
192,192,523254,128,0,523314:0:0:0:0:
320,192,523314,128,0,523374:0:0:0:70:Kick 19.wav
448,192,523314,128,0,523374:0:0:0:0:
192,192,523374,128,0,523434:0:0:0:0:
320,192,523434,128,0,523494:0:0:0:70:VEC3 Snares 003
448,192,523434,128,0,523494:0:0:0:70:Kick 19.wav
64,192,523494,128,0,523554:0:0:0:70:Kick 19.wav
192,192,523494,128,0,523554:0:0:0:0:
320,192,523554,128,0,523614:0:0:0:70:Kick 19.wav
448,192,523554,128,0,523614:0:0:0:0:
64,192,523614,128,0,523674:0:0:0:70:Kick 19.wav
192,192,523614,128,0,523674:0:0:0:0:
320,192,523674,128,0,523734:0:0:0:70:Kick 19.wav
448,192,523674,128,0,523734:0:0:0:0:
64,192,523734,128,0,523794:0:0:0:0:
192,192,523794,128,0,523854:0:0:0:70:Kick 19.wav
320,192,523794,128,0,523854:0:0:0:0:
448,192,523854,128,0,523914:0:0:0:0:
64,192,523914,128,0,524094:0:0:0:70:VEC3 Snares 003
192,192,523914,128,0,524034:0:0:0:70:Kick 19.wav
320,192,523914,128,0,523974:0:0:0:0:
448,192,523974,128,0,524094:0:0:0:0:
320,192,524034,128,0,524154:0:0:0:0:
192,192,524094,128,0,524154:0:0:0:0:
64,192,524154,1,0,0:0:0:70:fill_snare_high.wav
448,192,524214,1,0,0:0:0:70:fill_snare_high.wav
64,192,524274,1,0,0:0:0:70:fill_snare_high.wav
448,192,524334,1,0,0:0:0:70:fill_snare_high.wav
64,192,524394,128,0,524454:0:0:0:70:VEC3 Snares 003
192,192,524394,128,0,524454:0:0:0:70:Kick 19.wav
320,192,524394,128,0,524514:0:0:0:70:CrashL.wav
448,192,524454,128,0,524514:0:0:0:0:
64,192,524514,128,0,524574:0:0:0:0:
192,192,524514,128,0,524634:0:0:0:0:
320,192,524574,128,0,524634:0:0:0:0:
64,192,524634,128,0,524754:0:0:0:70:Kick 19.wav
448,192,524634,128,0,524754:0:0:0:0:
192,192,524694,128,0,524754:0:0:0:0:
320,192,524754,128,0,524814:0:0:0:0:
448,192,524814,128,0,524874:0:0:0:0:
64,192,524874,128,0,524994:0:0:0:70:VEC3 Snares 003
192,192,524874,128,0,524934:0:0:0:70:Kick 19.wav
320,192,524874,128,0,524934:0:0:0:0:
448,192,524934,128,0,524994:0:0:0:0:
192,192,524994,128,0,525054:0:0:0:0:
320,192,524994,128,0,525114:0:0:0:0:
64,192,525054,128,0,525114:0:0:0:0:
192,192,525114,128,0,525234:0:0:0:70:Kick 19.wav
448,192,525114,128,0,525234:0:0:0:0:
320,192,525174,128,0,525234:0:0:0:0:
64,192,525234,128,0,525294:0:0:0:0:
192,192,525294,128,0,525354:0:0:0:0:
64,192,525354,128,0,525474:0:0:0:70:VEC3 Snares 003
320,192,525354,128,0,525414:0:0:0:70:Kick 19.wav
448,192,525354,128,0,525414:0:0:0:0:
192,192,525414,128,0,525474:0:0:0:0:
320,192,525474,128,0,525534:0:0:0:0:
448,192,525474,128,0,525534:0:0:0:0:
192,192,525534,128,0,525594:0:0:0:0:
64,192,525594,128,0,525714:0:0:0:70:Kick 19.wav
320,192,525594,128,0,525654:0:0:0:0:
448,192,525594,128,0,525714:0:0:0:0:
192,192,525654,128,0,525714:0:0:0:0:
320,192,525714,128,0,525774:0:0:0:0:
192,192,525774,128,0,525834:0:0:0:0:
64,192,525834,1,0,0:0:0:70:fill_snare_high.wav
448,192,525894,1,0,0:0:0:70:fill_snare_high.wav
64,192,525954,1,0,0:0:0:70:fill_snare_high.wav
448,192,526014,1,0,0:0:0:70:fill_snare_high.wav
64,192,526074,128,0,526134:0:0:0:70:Kick 19.wav
192,192,526074,128,0,526194:0:0:0:0:
320,192,526134,128,0,526194:0:0:0:0:
64,192,526194,128,0,526254:0:0:0:0:
448,192,526194,128,0,526254:0:0:0:0:
192,192,526254,128,0,526314:0:0:0:0:
64,192,526314,128,0,526434:0:0:0:70:VEC3 Snares 003
320,192,526314,128,0,526374:0:0:0:70:Kick 19.wav
448,192,526314,128,0,526374:0:0:0:0:
192,192,526374,128,0,526434:0:0:0:0:
320,192,526434,128,0,526494:0:0:0:0:
448,192,526434,128,0,526554:0:0:0:0:
192,192,526494,128,0,526554:0:0:0:0:
64,192,526554,128,0,526674:0:0:0:70:Kick 19.wav
320,192,526554,128,0,526674:0:0:0:0:
448,192,526614,128,0,526674:0:0:0:0:
192,192,526674,128,0,526734:0:0:0:0:
320,192,526734,128,0,526794:0:0:0:0:
64,192,526794,128,0,526854:0:0:0:70:VEC3 Snares 003
192,192,526794,128,0,526854:0:0:0:70:Kick 19.wav
448,192,526794,128,0,526914:0:0:0:0:
320,192,526854,128,0,526914:0:0:0:0:
64,192,526914,128,0,526974:0:0:0:0:
192,192,526914,128,0,527034:0:0:0:0:
448,192,526974,128,0,527034:0:0:0:0:
64,192,527034,128,0,527154:0:0:0:70:Kick 19.wav
320,192,527034,128,0,527154:0:0:0:0:
192,192,527094,128,0,527154:0:0:0:0:
448,192,527154,128,0,527214:0:0:0:0:
320,192,527214,128,0,527274:0:0:0:0:
64,192,527274,128,0,527334:0:0:0:70:VEC3 Snares 003
192,192,527274,128,0,527334:0:0:0:70:Kick 19.wav
448,192,527274,128,0,527394:0:0:0:0:
320,192,527334,128,0,527394:0:0:0:0:
64,192,527394,128,0,527454:0:0:0:0:
192,192,527394,128,0,527514:0:0:0:0:
448,192,527454,128,0,527514:0:0:0:0:
64,192,527514,128,0,527634:0:0:0:70:Kick 19.wav
320,192,527514,128,0,527634:0:0:0:0:
192,192,527574,128,0,527634:0:0:0:0:
448,192,527634,128,0,527694:0:0:0:0:
320,192,527694,128,0,527754:0:0:0:0:
64,192,527754,128,0,527799:0:0:0:70:VEC3 Snares 003
448,192,527754,128,0,527799:0:0:0:70:Kick 19.wav
192,192,527784,128,0,527829:0:0:0:0:
320,192,527814,128,0,527859:0:0:0:0:
64,192,527844,128,0,527889:0:0:0:0:
448,192,527874,128,0,527919:0:0:0:0:
192,192,527904,128,0,527949:0:0:0:0:
320,192,527934,128,0,527979:0:0:0:0:
448,192,527964,128,0,528009:0:0:0:0:
64,192,527994,128,0,528054:0:0:0:70:Kick 19.wav
192,192,527994,128,0,528054:0:0:0:70:CrashL.wav
320,192,528054,128,0,528114:0:0:0:0:
64,192,528114,128,0,528174:0:0:0:70:Kick 19.wav
192,192,528114,128,0,528174:0:0:0:0:
320,192,528174,128,0,528234:0:0:0:0:
64,192,528234,128,0,528294:0:0:0:70:VEC3 Snares 003
192,192,528234,128,0,528354:0:0:0:70:Kick 19.wav
448,192,528234,128,0,528294:0:0:0:0:
320,192,528294,128,0,528354:0:0:0:0:
64,192,528354,128,0,528474:0:0:0:0:
448,192,528354,128,0,528414:0:0:0:0:
192,192,528414,128,0,528474:0:0:0:0:
320,192,528474,128,0,528534:0:0:0:70:Kick 19.wav
448,192,528474,128,0,528654:0:0:0:0:
192,192,528534,128,0,528654:0:0:0:0:
320,192,528594,128,0,528654:0:0:0:0:
64,192,528654,128,0,528714:0:0:0:0:
192,192,528714,128,0,528774:0:0:0:70:VEC3 Snares 003
320,192,528714,128,0,528834:0:0:0:70:Kick 19.wav
448,192,528714,128,0,528774:0:0:0:0:
64,192,528774,128,0,528894:0:0:0:0:
192,192,528834,128,0,528894:0:0:0:0:
448,192,528834,128,0,528894:0:0:0:0:
320,192,528894,128,0,528954:0:0:0:0:
64,192,528954,128,0,529134:0:0:0:70:Kick 19.wav
192,192,528954,128,0,529074:0:0:0:0:
320,192,529014,128,0,529134:0:0:0:0:
448,192,529074,128,0,529134:0:0:0:0:
192,192,529134,128,0,529194:0:0:0:0:
64,192,529194,128,0,529314:0:0:0:70:VEC3 Snares 003
320,192,529194,128,0,529254:0:0:0:70:Kick 19.wav
448,192,529194,128,0,529254:0:0:0:0:
192,192,529254,128,0,529314:0:0:0:0:
320,192,529314,128,0,529434:0:0:0:0:
448,192,529314,128,0,529374:0:0:0:0:
192,192,529374,128,0,529494:0:0:0:0:
64,192,529434,128,0,529614:0:0:0:70:Kick 19.wav
448,192,529434,128,0,529674:0:0:0:0:
320,192,529494,128,0,529554:0:0:0:0:
192,192,529554,128,0,529614:0:0:0:0:
320,192,529614,128,0,529674:0:0:0:0:
64,192,529674,1,0,0:0:0:0:
192,192,529704,1,0,0:0:0:0:
448,192,529734,1,0,0:0:0:0:
320,192,529764,1,0,0:0:0:0:
64,192,529794,128,0,529914:0:0:0:0:
192,192,529854,128,0,529914:0:0:0:0:
320,192,529914,128,0,530034:0:0:0:70:Kick 19.wav
448,192,529914,128,0,529974:0:0:0:70:CrashL.wav
192,192,529974,128,0,530034:0:0:0:0:
64,192,530034,128,0,530094:0:0:0:70:Kick 19.wav
448,192,530034,128,0,530094:0:0:0:0:
320,192,530094,128,0,530154:0:0:0:0:
64,192,530154,128,0,530214:0:0:0:70:VEC3 Snares 003
192,192,530154,128,0,530214:0:0:0:70:Kick 19.wav
448,192,530154,128,0,530274:0:0:0:0:
320,192,530214,128,0,530274:0:0:0:0:
64,192,530274,128,0,530394:0:0:0:0:
192,192,530274,128,0,530334:0:0:0:0:
448,192,530334,128,0,530394:0:0:0:0:
192,192,530394,128,0,530514:0:0:0:70:Kick 19.wav
320,192,530394,128,0,530454:0:0:0:0:
64,192,530454,128,0,530514:0:0:0:0:
320,192,530514,128,0,530574:0:0:0:0:
448,192,530514,128,0,530574:0:0:0:0:
192,192,530574,128,0,530634:0:0:0:0:
64,192,530634,128,0,530694:0:0:0:70:VEC3 Snares 003
320,192,530634,128,0,530754:0:0:0:70:Kick 19.wav
448,192,530634,128,0,530694:0:0:0:0:
192,192,530694,128,0,530754:0:0:0:0:
64,192,530754,128,0,530814:0:0:0:0:
448,192,530754,128,0,530874:0:0:0:0:
320,192,530814,128,0,530874:0:0:0:0:
64,192,530874,128,0,530934:0:0:0:70:Kick 19.wav
192,192,530874,128,0,530934:0:0:0:70:CrashL.wav
320,192,530934,128,0,530994:0:0:0:0:
64,192,530994,128,0,531054:0:0:0:70:Kick 19.wav
192,192,530994,128,0,531054:0:0:0:0:
320,192,531054,128,0,531114:0:0:0:0:
64,192,531114,128,0,531174:0:0:0:70:VEC3 Snares 003
448,192,531114,128,0,531174:0:0:0:70:Kick 19.wav
192,192,531174,128,0,531234:0:0:0:70:Kick 19.wav
320,192,531174,128,0,531234:0:0:0:0:
64,192,531234,128,0,531294:0:0:0:70:Kick 19.wav
448,192,531234,128,0,531294:0:0:0:0:
192,192,531294,128,0,531354:0:0:0:70:Kick 19.wav
320,192,531294,128,0,531354:0:0:0:0:
64,192,531354,128,0,531414:0:0:0:70:Kick 19.wav
448,192,531354,128,0,531414:0:0:0:0:
320,192,531414,128,0,531474:0:0:0:0:
64,192,531474,128,0,531534:0:0:0:70:Kick 19.wav
192,192,531474,128,0,531534:0:0:0:0:
448,192,531534,128,0,531594:0:0:0:0:
64,192,531594,128,0,531774:0:0:0:70:VEC3 Snares 003
192,192,531594,128,0,531714:0:0:0:70:Kick 19.wav
320,192,531594,128,0,531654:0:0:0:0:
448,192,531654,128,0,531774:0:0:0:0:
320,192,531714,128,0,532014:0:0:0:0:
192,192,531774,128,0,532014:0:0:0:0:
64,192,531834,128,0,532014:0:0:0:70:Kick 19.wav
448,192,531834,128,0,532014:0:0:0:70:CrashL.wav
64,192,532074,1,0,0:0:0:70:Kick 19.wav
192,192,532074,1,0,0:0:0:70:CrashR.wav
320,192,532134,1,0,0:0:0:0:
64,192,532194,1,0,0:0:0:70:Kick 19.wav
192,192,532194,1,0,0:0:0:0:
448,192,532254,1,0,0:0:0:0:
192,192,532314,1,0,0:0:0:70:Kick 19.wav
320,192,532314,1,0,0:0:0:0:
448,192,532374,1,0,0:0:0:0:
192,192,532434,1,0,0:0:0:70:Kick 19.wav
320,192,532434,1,0,0:0:0:0:
448,192,532494,1,0,0:0:0:0:
64,192,532554,1,0,0:0:0:70:Kick 19.wav
192,192,532554,1,0,0:0:0:0:
320,192,532614,1,0,0:0:0:0:
64,192,532674,1,0,0:0:0:70:Kick 19.wav
192,192,532674,1,0,0:0:0:0:
320,192,532734,1,0,0:0:0:70:Kick 19.wav
448,192,532734,1,0,0:0:0:0:
64,192,532794,1,0,0:0:0:70:Kick 19.wav
192,192,532794,1,0,0:0:0:0:
448,192,532854,1,0,0:0:0:0:
64,192,532914,1,0,0:0:0:70:Kick 19.wav
192,192,532914,1,0,0:0:0:0:
448,192,532974,1,0,0:0:0:0:
64,192,533034,1,0,0:0:0:70:Kick 19.wav
192,192,533034,1,0,0:0:0:0:
448,192,533094,1,0,0:0:0:0:
192,192,533154,1,0,0:0:0:70:Kick 19.wav
320,192,533154,1,0,0:0:0:0:
448,192,533214,1,0,0:0:0:0:
192,192,533274,1,0,0:0:0:70:Kick 19.wav
320,192,533274,1,0,0:0:0:0:
448,192,533334,1,0,0:0:0:0:
192,192,533394,1,0,0:0:0:70:Kick 19.wav
64,192,533424,1,0,0:0:0:0:
320,192,533454,1,0,0:0:0:0:
448,192,533484,1,0,0:0:0:0:
192,192,533514,1,0,0:0:0:70:fill_snare_high.wav
320,192,533574,1,0,0:0:0:70:fill_snare_high.wav
192,192,533634,1,0,0:0:0:70:fill_snare_high.wav
64,192,533694,1,0,0:0:0:70:fill_snare_high.wav
320,192,533754,1,0,0:0:0:70:Kick 19.wav
448,192,533754,1,0,0:0:0:70:CrashL.wav
64,192,533814,1,0,0:0:0:70:Kick 19.wav
192,192,533814,1,0,0:0:0:0:
320,192,533874,1,0,0:0:0:70:Kick 19.wav
448,192,533874,1,0,0:0:0:0:
64,192,533934,1,0,0:0:0:70:Kick 19.wav
192,192,533934,1,0,0:0:0:0:
320,192,533994,1,0,0:0:0:70:Kick 19.wav
448,192,533994,1,0,0:0:0:0:
192,192,534054,1,0,0:0:0:0:
320,192,534114,1,0,0:0:0:70:Kick 19.wav
448,192,534114,1,0,0:0:0:0:
64,192,534174,1,0,0:0:0:0:
192,192,534234,1,0,0:0:0:70:Kick 19.wav
320,192,534234,1,0,0:0:0:0:
64,192,534294,1,0,0:0:0:0:
192,192,534354,1,0,0:0:0:70:Kick 19.wav
320,192,534354,1,0,0:0:0:0:
64,192,534414,1,0,0:0:0:0:
320,192,534474,1,0,0:0:0:70:Kick 19.wav
448,192,534474,1,0,0:0:0:0:
192,192,534534,1,0,0:0:0:0:
320,192,534594,1,0,0:0:0:70:Kick 19.wav
448,192,534594,1,0,0:0:0:0:
64,192,534654,1,0,0:0:0:70:Kick 19.wav
192,192,534654,1,0,0:0:0:0:
320,192,534714,1,0,0:0:0:70:Kick 19.wav
448,192,534714,1,0,0:0:0:0:
64,192,534774,1,0,0:0:0:0:
320,192,534834,1,0,0:0:0:70:Kick 19.wav
448,192,534834,1,0,0:0:0:0:
64,192,534894,1,0,0:0:0:0:
320,192,534954,1,0,0:0:0:70:Kick 19.wav
448,192,534954,1,0,0:0:0:0:
64,192,535014,1,0,0:0:0:0:
192,192,535074,1,0,0:0:0:70:Kick 19.wav
320,192,535074,1,0,0:0:0:0:
64,192,535134,1,0,0:0:0:0:
192,192,535194,1,0,0:0:0:70:Kick 19.wav
320,192,535194,1,0,0:0:0:0:
64,192,535254,1,0,0:0:0:0:
320,192,535314,1,0,0:0:0:70:Kick 19.wav
448,192,535314,1,0,0:0:0:0:
192,192,535374,1,0,0:0:0:0:
64,192,535434,128,0,535479:0:0:0:70:VEC3 Snares 003
448,192,535434,128,0,535479:0:0:0:0:
320,192,535464,128,0,535509:0:0:0:0:
192,192,535494,128,0,535539:0:0:0:0:
448,192,535524,128,0,535569:0:0:0:0:
64,192,535554,128,0,535599:0:0:0:0:
320,192,535584,128,0,535629:0:0:0:0:
192,192,535614,128,0,535659:0:0:0:0:
64,192,535644,128,0,535689:0:0:0:0:
320,192,535674,128,0,535794:0:0:0:70:Kick 19.wav
448,192,535674,128,0,535794:0:0:0:0:
192,192,535734,128,0,535794:0:0:0:0:
64,192,535794,128,0,535854:0:0:0:0:
320,192,535854,128,0,535914:0:0:0:0:
64,192,535914,128,0,535974:0:0:0:70:VEC3 Snares 003
192,192,535914,128,0,536034:0:0:0:70:Kick 19.wav
448,192,535914,128,0,535974:0:0:0:70:CrashR.wav
320,192,535974,128,0,536034:0:0:0:0:
64,192,536034,128,0,536154:0:0:0:0:
448,192,536034,128,0,536094:0:0:0:0:
192,192,536094,128,0,536154:0:0:0:0:
320,192,536154,128,0,536274:0:0:0:70:Kick 19.wav
448,192,536154,128,0,536274:0:0:0:0:
192,192,536214,128,0,536274:0:0:0:0:
64,192,536274,128,0,536334:0:0:0:0:
320,192,536334,128,0,536394:0:0:0:0:
64,192,536394,128,0,536454:0:0:0:70:VEC3 Snares 003
192,192,536394,128,0,536454:0:0:0:70:Kick 19.wav
448,192,536394,128,0,536514:0:0:0:0:
320,192,536454,128,0,536514:0:0:0:0:
64,192,536514,128,0,536574:0:0:0:0:
192,192,536514,128,0,536634:0:0:0:0:
448,192,536574,128,0,536634:0:0:0:0:
64,192,536634,128,0,536754:0:0:0:70:Kick 19.wav
320,192,536634,128,0,536754:0:0:0:0:
192,192,536694,128,0,536754:0:0:0:0:
448,192,536754,128,0,536814:0:0:0:0:
320,192,536814,128,0,536874:0:0:0:0:
64,192,536874,128,0,536934:0:0:0:70:VEC3 Snares 003
192,192,536874,128,0,536934:0:0:0:70:Kick 19.wav
448,192,536874,128,0,536994:0:0:0:0:
320,192,536934,128,0,536994:0:0:0:0:
64,192,536994,128,0,537054:0:0:0:0:
192,192,536994,128,0,537114:0:0:0:0:
320,192,537054,128,0,537114:0:0:0:0:
64,192,537114,128,0,537234:0:0:0:70:Kick 19.wav
448,192,537114,128,0,537234:0:0:0:0:
192,192,537174,128,0,537234:0:0:0:0:
320,192,537234,128,0,537294:0:0:0:0:
448,192,537294,128,0,537354:0:0:0:0:
64,192,537354,1,0,0:0:0:0:
192,192,537384,1,0,0:0:0:0:
320,192,537414,1,0,0:0:0:0:
448,192,537444,1,0,0:0:0:0:
64,192,537474,128,0,537594:0:0:0:70:Kick 19.wav
192,192,537534,128,0,537594:0:0:0:70:Kick 19.wav
320,192,537594,128,0,537654:0:0:0:70:Kick 19.wav
448,192,537594,128,0,537654:0:0:0:0:
192,192,537654,128,0,537714:0:0:0:0:
320,192,537714,128,0,537774:0:0:0:70:Kick 19.wav
448,192,537714,128,0,537774:0:0:0:0:
192,192,537774,128,0,537834:0:0:0:0:
64,192,537834,128,0,537954:0:0:0:70:VEC3 Snares 003
320,192,537834,128,0,537954:0:0:0:70:Kick 19.wav
448,192,537834,128,0,537894:0:0:0:70:CrashR.wav
192,192,537894,128,0,537954:0:0:0:0:
448,192,537954,128,0,538014:0:0:0:0:
320,192,538014,128,0,538074:0:0:0:0:
64,192,538074,128,0,538194:0:0:0:70:Kick 19.wav
192,192,538074,128,0,538134:0:0:0:0:
448,192,538134,128,0,538194:0:0:0:0:
192,192,538194,128,0,538254:0:0:0:0:
320,192,538194,128,0,538254:0:0:0:0:
64,192,538254,128,0,538314:0:0:0:0:
192,192,538314,128,0,538434:0:0:0:70:VEC3 Snares 003
320,192,538314,128,0,538374:0:0:0:70:Kick 19.wav
448,192,538314,128,0,538374:0:0:0:0:
64,192,538374,128,0,538434:0:0:0:0:
320,192,538434,128,0,538554:0:0:0:0:
448,192,538434,128,0,538494:0:0:0:0:
64,192,538494,128,0,538554:0:0:0:0:
192,192,538554,128,0,538614:0:0:0:70:Kick 19.wav
448,192,538554,128,0,538674:0:0:0:0:
320,192,538614,128,0,538674:0:0:0:0:
64,192,538674,128,0,538734:0:0:0:70:Kick 19.wav
192,192,538674,128,0,538734:0:0:0:0:
448,192,538734,128,0,538794:0:0:0:0:
64,192,538794,128,0,538854:0:0:0:70:VEC3 Snares 003
192,192,538794,128,0,538854:0:0:0:70:Kick 19.wav
320,192,538794,128,0,538914:0:0:0:70:CrashR.wav
448,192,538854,128,0,538914:0:0:0:70:Kick 19.wav
64,192,538914,128,0,538974:0:0:0:70:Kick 19.wav
192,192,538914,128,0,538974:0:0:0:0:
320,192,538974,128,0,539034:0:0:0:70:Kick 19.wav
448,192,538974,128,0,539094:0:0:0:0:
64,192,539034,128,0,539094:0:0:0:70:Kick 19.wav
192,192,539034,128,0,539154:0:0:0:0:
320,192,539094,128,0,539154:0:0:0:0:
64,192,539154,128,0,539214:0:0:0:70:Kick 19.wav
448,192,539154,128,0,539214:0:0:0:0:
192,192,539214,128,0,539274:0:0:0:0:
64,192,539274,128,0,539454:0:0:0:70:VEC3 Snares 003
320,192,539274,128,0,539394:0:0:0:70:Kick 19.wav
448,192,539274,128,0,539334:0:0:0:0:
192,192,539334,128,0,539454:0:0:0:0:
448,192,539394,128,0,539514:0:0:0:0:
320,192,539454,128,0,539514:0:0:0:0:
64,192,539514,1,0,0:0:0:70:Kick 19.wav
192,192,539514,1,0,0:0:0:0:
320,192,539574,1,0,0:0:0:0:
64,192,539634,1,0,0:0:0:70:Kick 19.wav
192,192,539634,1,0,0:0:0:0:
320,192,539694,1,0,0:0:0:0:
64,192,539754,1,0,0:0:0:70:VEC3 Snares 003
192,192,539754,1,0,0:0:0:70:Kick 19.wav
448,192,539754,1,0,0:0:0:0:
320,192,539814,1,0,0:0:0:0:
64,192,539874,1,0,0:0:0:70:Kick 19.wav
448,192,539874,1,0,0:0:0:0:
192,192,539934,1,0,0:0:0:0:
64,192,539994,1,0,0:0:0:70:Kick 19.wav
320,192,539994,1,0,0:0:0:0:
448,192,540054,1,0,0:0:0:0:
64,192,540114,1,0,0:0:0:70:Kick 19.wav
192,192,540114,1,0,0:0:0:0:
320,192,540174,1,0,0:0:0:0:
64,192,540234,1,0,0:0:0:70:VEC3 Snares 003
192,192,540234,1,0,0:0:0:70:Kick 19.wav
448,192,540234,1,0,0:0:0:0:
320,192,540294,1,0,0:0:0:0:
64,192,540354,1,0,0:0:0:70:Kick 19.wav
192,192,540354,1,0,0:0:0:0:
448,192,540414,1,0,0:0:0:0:
64,192,540474,1,0,0:0:0:70:Kick 19.wav
320,192,540474,1,0,0:0:0:0:
192,192,540534,1,0,0:0:0:0:
64,192,540594,1,0,0:0:0:70:Kick 19.wav
448,192,540594,1,0,0:0:0:0:
320,192,540654,1,0,0:0:0:0:
64,192,540714,1,0,0:0:0:70:VEC3 Snares 003
192,192,540714,1,0,0:0:0:70:Kick 19.wav
448,192,540714,1,0,0:0:0:0:
320,192,540774,1,0,0:0:0:0:
64,192,540834,1,0,0:0:0:70:Kick 19.wav
448,192,540834,1,0,0:0:0:0:
192,192,540894,1,0,0:0:0:0:
64,192,540954,1,0,0:0:0:70:Kick 19.wav
320,192,540954,1,0,0:0:0:0:
448,192,541014,1,0,0:0:0:0:
64,192,541074,1,0,0:0:0:70:Kick 19.wav
192,192,541074,1,0,0:0:0:0:
320,192,541134,1,0,0:0:0:0:
448,192,541194,1,0,0:0:0:70:fill_snare_high.wav
320,192,541254,1,0,0:0:0:70:fill_snare_high.wav
192,192,541314,1,0,0:0:0:70:fill_snare_high.wav
64,192,541374,1,0,0:0:0:70:fill_snare_high.wav
448,192,541434,1,0,0:0:0:70:Kick 19.wav
320,192,541434,1,0,0:0:0:0:
192,192,541494,1,0,0:0:0:0:
320,192,541554,1,0,0:0:0:70:Kick 19.wav
448,192,541554,1,0,0:0:0:0:
192,192,541614,1,0,0:0:0:0:
64,192,541674,1,0,0:0:0:70:VEC3 Snares 003
448,192,541674,1,0,0:0:0:70:Kick 19.wav
320,192,541674,1,0,0:0:0:0:
192,192,541734,1,0,0:0:0:0:
64,192,541794,1,0,0:0:0:70:Kick 19.wav
448,192,541794,1,0,0:0:0:0:
320,192,541854,1,0,0:0:0:0:
192,192,541914,1,0,0:0:0:70:Kick 19.wav
448,192,541914,1,0,0:0:0:0:
64,192,541974,1,0,0:0:0:0:
320,192,542034,1,0,0:0:0:70:Kick 19.wav
448,192,542034,1,0,0:0:0:0:
192,192,542094,1,0,0:0:0:0:
64,192,542154,1,0,0:0:0:70:VEC3 Snares 003
320,192,542154,1,0,0:0:0:70:Kick 19.wav
448,192,542154,1,0,0:0:0:0:
192,192,542214,1,0,0:0:0:0:
320,192,542274,1,0,0:0:0:70:Kick 19.wav
448,192,542274,1,0,0:0:0:0:
64,192,542334,1,0,0:0:0:0:
192,192,542394,1,0,0:0:0:70:Kick 19.wav
448,192,542394,1,0,0:0:0:0:
320,192,542454,1,0,0:0:0:0:
64,192,542514,1,0,0:0:0:70:Kick 19.wav
448,192,542514,1,0,0:0:0:0:
192,192,542574,1,0,0:0:0:0:
64,192,542634,1,0,0:0:0:70:VEC3 Snares 003
320,192,542634,1,0,0:0:0:70:Kick 19.wav
448,192,542634,1,0,0:0:0:0:
192,192,542694,1,0,0:0:0:0:
64,192,542754,1,0,0:0:0:70:Kick 19.wav
448,192,542754,1,0,0:0:0:0:
320,192,542814,1,0,0:0:0:0:
192,192,542874,1,0,0:0:0:70:Kick 19.wav
448,192,542874,1,0,0:0:0:0:
64,192,542934,1,0,0:0:0:0:
320,192,542994,1,0,0:0:0:70:Kick 19.wav
448,192,542994,1,0,0:0:0:0:
192,192,543054,1,0,0:0:0:0:
64,192,543114,128,0,543174:0:0:0:70:VEC3 Snares 003
320,192,543114,128,0,543174:0:0:0:70:Kick 19.wav
448,192,543114,128,0,543174:0:0:0:0:
192,192,543174,1,0,0:0:0:0:
320,192,543234,128,0,543294:0:0:0:70:Kick 19.wav
448,192,543234,128,0,543294:0:0:0:0:
192,192,543294,1,0,0:0:0:0:
64,192,543354,128,0,543414:0:0:0:70:Kick 19.wav
448,192,543354,128,0,543474:0:0:0:70:CrashL.wav
320,192,543414,128,0,543534:0:0:0:70:Kick 19.wav
64,192,543474,128,0,543534:0:0:0:70:Kick 19.wav
192,192,543474,128,0,543534:0:0:0:0:
448,192,543534,128,0,543594:0:0:0:70:Kick 19.wav
64,192,543594,128,0,543654:0:0:0:70:VEC3 Snares 003
192,192,543594,128,0,543654:0:0:0:70:Kick 19.wav
320,192,543594,128,0,543714:0:0:0:70:CrashR.wav
448,192,543654,128,0,543774:0:0:0:70:Kick 19.wav
64,192,543714,128,0,543774:0:0:0:70:Kick 19.wav
192,192,543714,128,0,543834:0:0:0:0:
320,192,543774,128,0,543894:0:0:0:70:Kick 19.wav
64,192,543834,128,0,543954:0:0:0:70:Kick 19.wav
448,192,543834,128,0,543894:0:0:0:70:CrashL.wav
192,192,543894,128,0,544014:0:0:0:70:Kick 19.wav
320,192,543954,128,0,544014:0:0:0:70:Kick 19.wav
448,192,543954,128,0,544014:0:0:0:0:
64,192,544014,128,0,544074:0:0:0:70:Kick 19.wav
320,192,544074,128,0,544134:0:0:0:70:VEC3 Snares 003
192,192,544074,128,0,544194:0:0:0:70:Kick 19.wav
448,192,544074,128,0,544134:0:0:0:70:CrashR.wav
64,192,544134,128,0,544254:0:0:0:70:Kick 19.wav
320,192,544194,128,0,544314:0:0:0:70:Kick 19.wav
448,192,544194,128,0,544254:0:0:0:0:
192,192,544254,128,0,544374:0:0:0:70:Kick 19.wav
64,192,544314,128,0,544374:0:0:0:70:Kick 19.wav
448,192,544314,128,0,544434:0:0:0:70:CrashL.wav
320,192,544374,128,0,544494:0:0:0:70:Kick 19.wav
64,192,544434,128,0,544494:0:0:0:70:Kick 19.wav
192,192,544434,128,0,544494:0:0:0:0:
448,192,544494,128,0,544554:0:0:0:70:Kick 19.wav
64,192,544554,128,0,544614:0:0:0:70:VEC3 Snares 003
192,192,544554,128,0,544614:0:0:0:70:Kick 19.wav
320,192,544554,128,0,544674:0:0:0:70:CrashR.wav
448,192,544614,128,0,544734:0:0:0:70:Kick 19.wav
64,192,544674,128,0,544734:0:0:0:70:Kick 19.wav
192,192,544674,128,0,544794:0:0:0:0:
320,192,544734,128,0,544854:0:0:0:70:Kick 19.wav
64,192,544794,128,0,544914:0:0:0:70:Kick 19.wav
448,192,544794,128,0,544854:0:0:0:70:CrashL.wav
192,192,544854,128,0,544974:0:0:0:70:Kick 19.wav
448,192,544914,128,0,544974:0:0:0:70:Kick 19.wav
320,192,544914,128,0,544974:0:0:0:0:
64,192,544974,128,0,545034:0:0:0:70:Kick 19.wav
192,192,545034,128,0,545154:0:0:0:70:VEC3 Snares 003
320,192,545034,128,0,545094:0:0:0:70:Kick 19.wav
448,192,545034,128,0,545094:0:0:0:0:
64,192,545094,128,0,545214:0:0:0:70:Kick 19.wav
320,192,545154,128,0,545214:0:0:0:70:Kick 19.wav
448,192,545154,128,0,545214:0:0:0:0:
192,192,545214,128,0,545274:0:0:0:70:Kick 19.wav
448,192,545274,128,0,545334:0:0:0:0:
64,192,545274,128,0,545394:0:0:0:70:Kick 19.wav
320,192,545274,128,0,545334:0:0:0:70:CrashL.wav
192,192,545334,128,0,545394:0:0:0:0:
320,192,545394,128,0,545454:0:0:0:70:Kick 19.wav
448,192,545394,128,0,545454:0:0:0:0:
192,192,545454,128,0,545514:0:0:0:0:
64,192,545514,128,0,545574:0:0:0:70:Kick 19.wav
320,192,545514,128,0,545634:0:0:0:70:VEC3 Snares 003.wav
448,192,545514,128,0,545574:0:0:0:0:
192,192,545574,128,0,545634:0:0:0:0:
64,192,545634,128,0,545694:0:0:0:0:
448,192,545634,128,0,545754:0:0:0:0:
320,192,545694,128,0,545754:0:0:0:0:
64,192,545754,128,0,545874:0:0:0:70:Kick 19.wav
192,192,545754,128,0,545814:0:0:0:0:
448,192,545814,128,0,545934:0:0:0:0:
192,192,545874,128,0,545934:0:0:0:0:
320,192,545874,128,0,545934:0:0:0:0:
64,192,545934,128,0,545994:0:0:0:0:
192,192,545994,128,0,546114:0:0:0:70:Kick 19.wav
320,192,545994,128,0,546054:0:0:0:70:VEC3 Snares 003.wav
448,192,545994,128,0,546054:0:0:0:0:
64,192,546054,128,0,546114:0:0:0:0:
320,192,546114,128,0,546234:0:0:0:0:
448,192,546114,128,0,546174:0:0:0:0:
192,192,546174,128,0,546234:0:0:0:0:
64,192,546234,128,0,546294:0:0:0:70:Kick 19.wav
448,192,546234,128,0,546354:0:0:0:70:CrashL.wav
320,192,546294,128,0,546354:0:0:0:0:
64,192,546354,128,0,546414:0:0:0:70:Kick 19.wav
192,192,546354,128,0,546414:0:0:0:0:
320,192,546414,128,0,546474:0:0:0:0:
64,192,546474,128,0,546534:0:0:0:70:Kick 19.wav
192,192,546474,128,0,546534:0:0:0:70:VEC3 Snares 003.wav
448,192,546474,128,0,546594:0:0:0:0:
320,192,546534,128,0,546594:0:0:0:70:Kick 19.wav
64,192,546594,128,0,546654:0:0:0:70:Kick 19.wav
192,192,546594,128,0,546654:0:0:0:0:
320,192,546654,128,0,546774:0:0:0:70:Kick 19.wav
448,192,546654,128,0,546714:0:0:0:0:
64,192,546714,128,0,546774:0:0:0:70:Kick 19.wav
192,192,546714,128,0,546834:0:0:0:0:
448,192,546774,128,0,546834:0:0:0:0:
64,192,546834,128,0,546894:0:0:0:70:Kick 19.wav
320,192,546834,128,0,546894:0:0:0:0:
192,192,546894,128,0,546954:0:0:0:0:
64,192,546954,128,0,547074:0:0:0:70:Kick 19.wav
320,192,546954,128,0,547074:0:0:0:70:VEC3 Snares 003.wav
448,192,546954,128,0,547014:0:0:0:0:
192,192,547014,128,0,547074:0:0:0:0:
448,192,547074,128,0,547134:0:0:0:0:
320,192,547134,128,0,547194:0:0:0:0:
64,192,547194,128,0,547254:0:0:0:70:Kick 19.wav
192,192,547194,128,0,547374:0:0:0:70:VEC3 Snares 003.wav
448,192,547194,128,0,547314:0:0:0:70:CrashL.wav
320,192,547254,128,0,547494:0:0:0:0:
64,192,547314,128,0,547494:0:0:0:0:
448,192,547374,128,0,547494:0:0:0:0:
192,192,547434,128,0,547494:0:0:0:70:fill_snare_high.wav
64,192,547554,128,0,547674:0:0:0:70:Kick 19.wav
320,192,547554,128,0,547734:0:0:0:70:VEC3 Snares 003.wav
448,192,547554,128,0,547614:0:0:0:70:CrashR.wav
192,192,547614,128,0,547854:0:0:0:0:
448,192,547674,128,0,547854:0:0:0:0:
64,192,547734,128,0,547854:0:0:0:0:
320,192,547794,128,0,547854:0:0:0:70:fill_snare_high.wav
64,192,547914,128,0,547974:0:0:0:70:Kick 19.wav
192,192,547914,128,0,548094:0:0:0:70:VEC3 Snares 003.wav
448,192,547914,128,0,548034:0:0:0:70:CrashL.wav
320,192,547974,128,0,548214:0:0:0:0:
64,192,548034,128,0,548214:0:0:0:0:
448,192,548094,128,0,548214:0:0:0:0:
192,192,548154,128,0,548214:0:0:0:70:fill_snare_high.wav
64,192,548274,128,0,548394:0:0:0:70:Kick 19.wav
320,192,548274,128,0,548454:0:0:0:70:VEC3 Snares 003.wav
448,192,548274,128,0,548334:0:0:0:70:CrashR.wav
192,192,548334,128,0,548574:0:0:0:0:
448,192,548394,128,0,548574:0:0:0:0:
64,192,548454,128,0,548574:0:0:0:0:
320,192,548514,128,0,548574:0:0:0:70:fill_snare_high.wav
64,192,548634,128,0,548694:0:0:0:70:Kick 19.wav
192,192,548634,128,0,548814:0:0:0:70:VEC3 Snares 003.wav
448,192,548634,128,0,548754:0:0:0:70:CrashL.wav
320,192,548694,128,0,548874:0:0:0:70:fill_snare_high.wav
64,192,548754,128,0,548814:0:0:0:70:fill_snare_high.wav
448,192,548814,128,0,548934:0:0:0:70:fill_snare_high.wav
64,192,548874,128,0,549054:0:0:0:70:Kick 19.wav
192,192,548874,128,0,549054:0:0:0:0:
320,192,548934,128,0,549054:0:0:0:70:VEC3 Snares 003.wav
448,192,548994,128,0,549054:0:0:0:70:CrashR.wav
64,192,549114,128,0,549174:0:0:0:70:Kick 19.wav
192,192,549114,128,0,549294:0:0:0:70:VEC3 Snares 003.wav
448,192,549114,128,0,549234:0:0:0:70:CrashL.wav
320,192,549174,128,0,549414:0:0:0:0:
64,192,549234,128,0,549414:0:0:0:0:
448,192,549294,128,0,549414:0:0:0:0:
192,192,549354,128,0,549414:0:0:0:70:fill_snare_high.wav
64,192,549474,128,0,549594:0:0:0:70:CrashR.wav
320,192,549474,128,0,549654:0:0:0:70:VEC3 Snares 003.wav
448,192,549474,128,0,549534:0:0:0:70:Kick 19.wav
192,192,549534,128,0,549774:0:0:0:0:
448,192,549594,128,0,549774:0:0:0:0:
64,192,549654,128,0,549774:0:0:0:0:
320,192,549714,128,0,549774:0:0:0:70:fill_snare_high.wav
64,192,549834,128,0,549894:0:0:0:70:Kick 19.wav
192,192,549834,128,0,550014:0:0:0:70:VEC3 Snares 003.wav
448,192,549834,128,0,549954:0:0:0:70:CrashL.wav
320,192,549894,128,0,550134:0:0:0:0:
64,192,549954,128,0,550134:0:0:0:0:
448,192,550014,128,0,550134:0:0:0:0:
192,192,550074,128,0,550134:0:0:0:70:fill_snare_high.wav
64,192,550194,128,0,550314:0:0:0:70:Kick 19.wav
320,192,550194,128,0,550374:0:0:0:70:VEC3 Snares 003.wav
448,192,550194,128,0,550254:0:0:0:70:CrashR.wav
192,192,550254,128,0,550494:0:0:0:0:
448,192,550314,128,0,550494:0:0:0:0:
64,192,550374,128,0,550494:0:0:0:0:
320,192,550434,128,0,550494:0:0:0:70:fill_snare_high.wav
64,192,550554,128,0,550614:0:0:0:70:Kick 19.wav
192,192,550554,128,0,550734:0:0:0:70:VEC3 Snares 003.wav
448,192,550554,128,0,550674:0:0:0:70:CrashL.wav
320,192,550614,128,0,550734:0:0:0:70:fill_snare_high.wav
64,192,550674,128,0,550734:0:0:0:70:fill_snare_high.wav
448,192,550734,1,0,0:0:0:70:fill_snare_high.wav
64,192,550794,128,0,550839:0:0:0:70:Kick 19.wav
192,192,550794,128,0,550839:0:0:0:0:
448,192,550824,128,0,550869:0:0:0:0:
320,192,550854,128,0,550899:0:0:0:70:VEC3 Snares 003.wav
192,192,550884,128,0,550929:0:0:0:0:
64,192,550914,128,0,550959:0:0:0:70:CrashR.wav
448,192,550944,128,0,550989:0:0:0:0:
320,192,550974,128,0,551019:0:0:0:0:
64,192,551034,128,0,551094:0:0:0:70:Kick 19.wav
192,192,551034,128,0,551094:0:0:0:70:CrashL.wav
448,192,551034,128,0,551214:0:0:0:0:
320,192,551094,128,0,551154:0:0:0:70:Kick 19.wav
64,192,551154,128,0,551214:0:0:0:70:Kick 19.wav
192,192,551154,128,0,551214:0:0:0:0:
320,192,551214,128,0,551274:0:0:0:70:Kick 19.wav
64,192,551274,128,0,551334:0:0:0:70:Kick 19.wav
448,192,551274,128,0,551334:0:0:0:70:fill_snare_high.wav
192,192,551334,128,0,551394:0:0:0:70:Kick 19.wav
64,192,551394,128,0,551574:0:0:0:70:Kick 19.wav
320,192,551394,128,0,551454:0:0:0:70:CrashR.wav
448,192,551394,128,0,551454:0:0:0:0:
192,192,551454,128,0,551514:0:0:0:70:Kick 19.wav
320,192,551514,128,0,551574:0:0:0:70:Kick 19.wav
448,192,551514,128,0,551574:0:0:0:0:
192,192,551574,128,0,551634:0:0:0:70:Kick 19.wav
64,192,551634,128,0,551694:0:0:0:70:Kick 19.wav
448,192,551634,128,0,551694:0:0:0:70:fill_snare_high.wav
320,192,551694,128,0,551754:0:0:0:70:Kick 19.wav
64,192,551754,128,0,551814:0:0:0:70:Kick 19.wav
192,192,551754,128,0,551814:0:0:0:70:CrashL.wav
448,192,551754,128,0,551934:0:0:0:0:
320,192,551814,128,0,551874:0:0:0:70:Kick 19.wav
64,192,551874,128,0,551934:0:0:0:70:Kick 19.wav
192,192,551874,128,0,551934:0:0:0:0:
320,192,551934,128,0,551994:0:0:0:70:Kick 19.wav
64,192,551994,128,0,552054:0:0:0:70:Kick 19.wav
448,192,551994,128,0,552054:0:0:0:70:fill_snare_high.wav
192,192,552054,128,0,552114:0:0:0:70:Kick 19.wav
64,192,552114,128,0,552294:0:0:0:70:Kick 19.wav
320,192,552114,128,0,552174:0:0:0:70:CrashR.wav
448,192,552114,128,0,552174:0:0:0:0:
192,192,552174,128,0,552234:0:0:0:70:Kick 19.wav
320,192,552234,128,0,552294:0:0:0:70:Kick 19.wav
448,192,552234,128,0,552294:0:0:0:0:
192,192,552294,128,0,552354:0:0:0:70:Kick 19.wav
64,192,552354,128,0,552414:0:0:0:70:Kick 19.wav
448,192,552354,128,0,552414:0:0:0:70:fill_snare_high.wav
320,192,552414,128,0,552474:0:0:0:70:Kick 19.wav
64,192,552474,128,0,552534:0:0:0:70:Kick 19.wav
192,192,552474,128,0,552534:0:0:0:70:CrashL.wav
448,192,552474,128,0,552654:0:0:0:0:
320,192,552534,128,0,552594:0:0:0:70:Kick 19.wav
64,192,552594,128,0,552654:0:0:0:70:Kick 19.wav
192,192,552594,128,0,552654:0:0:0:70:fill_snare_high.wav
320,192,552654,128,0,552714:0:0:0:70:Kick 19.wav
64,192,552714,128,0,552759:0:0:0:0:
192,192,552744,128,0,552789:0:0:0:0:
320,192,552774,128,0,552819:0:0:0:0:
448,192,552804,128,0,552849:0:0:0:0:
64,192,552834,1,0,0:0:0:70:Kick 19.wav
192,192,552834,1,0,0:0:0:70:CrashR.wav
320,192,552894,1,0,0:0:0:70:fill_snare_high.wav
64,192,552954,128,0,553014:0:0:0:70:Kick 19.wav
192,192,552954,128,0,553074:0:0:0:70:CrashL.wav
320,192,553014,128,0,553134:0:0:0:70:Kick 19.wav
448,192,553074,128,0,553134:0:0:0:0:
64,192,553074,128,0,553194:0:0:0:70:Kick 19.wav
192,192,553134,128,0,553194:0:0:0:70:Kick 19.wav
448,192,553194,128,0,553239:0:0:0:70:fill_snare_high.wav
320,192,553224,128,0,553269:0:0:0:0:
192,192,553254,128,0,553299:0:0:0:0:
64,192,553284,128,0,553329:0:0:0:0:
448,192,553314,128,0,553374:0:0:0:70:Kick 19.wav
320,192,553314,128,0,553434:0:0:0:70:CrashR.wav
192,192,553374,128,0,553494:0:0:0:70:Kick 19.wav
448,192,553434,128,0,553554:0:0:0:70:Kick 19.wav
64,192,553434,128,0,553494:0:0:0:0:
320,192,553494,128,0,553554:0:0:0:70:Kick 19.wav
64,192,553554,128,0,553599:0:0:0:70:fill_snare_high.wav
192,192,553584,128,0,553629:0:0:0:0:
320,192,553614,128,0,553659:0:0:0:0:
448,192,553644,128,0,553689:0:0:0:0:
192,192,553674,128,0,553794:0:0:0:70:Kick 19.wav
64,192,553674,128,0,553734:0:0:0:70:CrashL.wav
320,192,553734,128,0,553854:0:0:0:70:Kick 19.wav
64,192,553794,128,0,553914:0:0:0:70:Kick 19.wav
448,192,553794,128,0,553854:0:0:0:0:
192,192,553854,128,0,553914:0:0:0:70:Kick 19.wav
448,192,553914,128,0,553959:0:0:0:70:fill_snare_high.wav
320,192,553944,128,0,553989:0:0:0:0:
192,192,553974,128,0,554019:0:0:0:0:
64,192,554004,128,0,554049:0:0:0:0:
448,192,554034,128,0,554094:0:0:0:70:Kick 19.wav
320,192,554034,128,0,554154:0:0:0:70:CrashR.wav
192,192,554094,128,0,554214:0:0:0:70:Kick 19.wav
448,192,554154,128,0,554274:0:0:0:70:Kick 19.wav
64,192,554154,128,0,554214:0:0:0:0:
320,192,554214,128,0,554274:0:0:0:70:Kick 19.wav
64,192,554274,128,0,554319:0:0:0:70:fill_snare_high.wav
192,192,554304,128,0,554349:0:0:0:0:
320,192,554334,128,0,554379:0:0:0:0:
448,192,554364,128,0,554409:0:0:0:0:
64,192,554394,128,0,554439:0:0:0:70:CrashL.wav
192,192,554424,128,0,554469:0:0:0:0:
320,192,554454,128,0,554499:0:0:0:0:
448,192,554484,128,0,554529:0:0:0:0:
64,192,554514,128,0,554559:0:0:0:70:fill_snare_high.wav
192,192,554544,128,0,554589:0:0:0:0:
320,192,554574,128,0,554619:0:0:0:0:
448,192,554604,128,0,554649:0:0:0:0:
64,192,554634,128,0,554694:0:0:0:70:fill_snare_high.wav
192,192,554664,128,0,554724:0:0:0:0:
320,192,554694,128,0,554754:0:0:0:0:
448,192,554724,128,0,554784:0:0:0:0:
64,192,554754,128,0,554814:0:0:0:0:
192,192,554784,128,0,554844:0:0:0:0:
448,192,554814,128,0,554874:0:0:0:0:
320,192,554844,128,0,554904:0:0:0:0:
192,192,554874,128,0,554934:0:0:0:70:Kick 19.wav
64,192,554874,128,0,554934:0:0:0:0:
