osu file format v14

[General]
AudioFilename: audio.mp3
AudioLeadIn: 0
PreviewTime: 424314
Countdown: 0
SampleSet: Normal
StackLeniency: 0.7
Mode: 1
LetterboxInBreaks: 0
WidescreenStoryboard: 1

[Editor]
Bookmarks: 80634,95994,111354,119034,142314,157434,172794,188154,218874,234234,249594,257274,272634,287994,311034,326394,357114,387834,395514,410874,453114,472314,487674,508794,532074,547194,550194
DistanceSpacing: 0.3
BeatDivisor: 4
GridSize: 16
TimelineZoom: 3.500015

[Metadata]
Title:Fallen Symphony
TitleUnicode:Fallen Symphony
Artist:Ludicin
ArtistUnicode:Ludicin
Creator:Undead Alice
Version:The Symphony of the Fallen Angel
Source:
Tags:gothic hardcore melodic metal orchestral speedcore marathon instrumental electronic slim_san slim san slim-san Undead_Alice UndeadAlice
BeatmapID:4054390
BeatmapSetID:1957129

[Difficulty]
HPDrainRate:4
CircleSize:4
OverallDifficulty:8.5
ApproachRate:5
SliderMultiplier:1.4
SliderTickRate:1

[Events]
//Background and Video events
0,0,"fallensymphony-update.png",0,-110
//Break Periods
2,203705,217665
2,347705,355905
//Storyboard Layer 0 (Background)
//Storyboard Layer 1 (Fail)
//Storyboard Layer 2 (Pass)
//Storyboard Layer 3 (Foreground)
//Storyboard Layer 4 (Overlay)
//Storyboard Sound Samples

[TimingPoints]
1905,480,4,1,0,40,1,8
3825,480,4,1,0,40,1,0
3825,-125,4,1,0,40,0,0
34545,-100,4,1,0,40,0,0
35505,-125,4,1,0,40,0,0
57584,-125,4,1,0,40,0,0
58064,-127.65958,4,1,0,40,0,0
58544,-130.43477,4,1,0,40,0,0
59024,-133.33333,4,1,0,40,0,0
59504,-136.36365,4,1,0,40,0,0
59984,-139.53488,4,1,0,40,0,0
60464,-142.85715,4,1,0,40,0,0
60944,-146.34146,4,1,0,40,0,0
61424,-150.00002,4,1,0,40,0,0
61904,-153.84616,4,1,0,40,0,0
62384,-157.89474,4,1,0,40,0,0
62864,-162.16217,4,1,0,40,0,0
63344,-166.66666,4,1,0,40,0,0
65265,240,4,1,0,50,1,0
65265,-166.666666666667,4,1,0,50,0,0
69102,-200,4,1,0,20,0,0
70062,-195.12195,4,1,0,22,0,0
71022,-190.4762,4,1,0,25,0,0
71982,-186.04651,4,1,0,27,0,0
72942,-181.81818,4,1,0,30,0,0
73902,-177.77777,4,1,0,32,0,0
74862,-173.91304,4,1,0,35,0,0
75822,-170.21277,4,1,0,37,0,0
76782,-166.66666,4,1,0,40,0,0
77742,-163.2653,4,1,0,42,0,0
78702,-160,4,1,0,45,0,0
79662,-156.86275,4,1,0,47,0,0
80622,-153.84616,4,1,0,50,0,0
80864,-166.66666,4,1,0,60,0,0
80984,-165.9977,4,1,0,60,0,0
81104,-165.33406,4,1,0,60,0,0
81224,-164.67572,4,1,0,60,0,0
81584,-162.73177,4,1,0,60,0,0
81704,-162.09395,4,1,0,60,0,0
81824,-161.4611,4,1,0,60,0,0
82064,-160.21011,4,1,0,60,0,0
82184,-159.59184,4,1,0,60,0,0
82424,-158.36957,4,1,0,60,0,0
82544,-157.76541,4,1,0,60,0,0
82664,-157.16585,4,1,0,60,0,0
82784,-156.57083,4,1,0,60,0,0
83024,-155.39421,4,1,0,60,0,0
83144,-154.81252,4,1,0,60,0,0
83264,-154.23514,4,1,0,60,0,0
83504,-153.09325,4,1,0,60,0,0
83624,-152.52861,4,1,0,60,0,0
83744,-151.96811,4,1,0,60,0,0
83864,-151.41173,4,1,0,60,0,0
84104,-150.31111,4,1,0,60,0,0
84344,-149.22635,4,1,0,60,0,0
84464,-148.68982,4,1,0,60,0,0
84584,-148.15714,4,1,0,60,0,0
84704,-147.62825,4,1,0,60,0,0
84824,-147.10315,4,1,0,60,0,0
85064,-146.06404,4,1,0,60,0,0
85304,-145.03952,4,1,0,60,0,0
85424,-144.53264,4,1,0,60,0,0
85664,-143.5294,4,1,0,60,0,0
85904,-142.54001,4,1,0,60,0,0
86024,-142.05042,4,1,0,60,0,0
86264,-141.08124,4,1,0,60,0,0
86384,-140.6016,4,1,0,60,0,0
86504,-140.1252,4,1,0,60,0,0
86624,-139.65202,4,1,0,60,0,0
86864,-138.71518,4,1,0,60,0,0
86984,-138.25145,4,1,0,60,0,0
87224,-137.33325,4,1,0,60,0,0
87464,-136.42717,4,1,0,60,0,0
87584,-135.97859,4,1,0,60,0,0
87824,-135.09024,4,1,0,60,0,0
87944,-134.6504,4,1,0,60,0,0
88184,-133.77927,4,1,0,60,0,0
88304,-133.3479,4,1,0,60,0,0
88424,-132.91931,4,1,0,60,0,0
88544,-132.49348,4,1,0,60,0,0
88784,-131.64995,4,1,0,65,0,0
88844,-131.44073,4,1,0,65,0,0
88904,-131.23218,4,1,0,65,0,0
89024,-130.81706,4,1,0,65,0,0
89144,-130.40459,4,1,0,65,0,0
89264,-129.99467,4,1,0,65,0,0
89504,-129.18254,4,1,0,65,0,0
89744,-128.38051,4,1,0,65,0,0
89804,-128.18155,4,1,0,65,0,0
89864,-127.983215,4,1,0,65,0,0
89984,-127.58837,4,1,0,65,0,0
90224,-126.80594,4,1,0,65,0,0
90344,-126.41831,4,1,0,65,0,0
90464,-126.03306,4,1,0,65,0,0
90704,-125.26953,4,1,0,65,0,0
90764,-125.08009,4,1,0,65,0,0
90824,-124.89123,4,1,0,65,0,0
90944,-124.515205,4,1,0,65,0,0
91064,-124.14144,4,1,0,65,0,0
91184,-123.76991,4,1,0,65,0,0
91424,-123.033485,4,1,0,65,0,0
91664,-122.30577,4,1,0,65,0,0
91724,-122.125175,4,1,0,65,0,0
91784,-121.94512,4,1,0,65,0,0
91904,-121.5866,4,1,0,65,0,0
92144,-120.87585,4,1,0,65,0,0
92264,-120.52359,4,1,0,65,0,0
92384,-120.17336,4,1,0,65,0,0
92624,-119.47899,4,1,0,65,0,0
92684,-119.30665,4,1,0,65,0,0
92744,-119.1348,4,1,0,65,0,0
92864,-118.792595,4,1,0,65,0,0
92924,-118.62222,4,1,0,65,0,0
92984,-118.452354,4,1,0,65,0,0
93104,-118.11405,4,1,0,65,0,0
93224,-117.77767,4,1,0,65,0,0
93344,-117.4432,4,1,0,65,0,0
93464,-117.11063,4,1,0,65,0,0
93584,-116.77993,4,1,0,65,0,0
93644,-116.61529,4,1,0,65,0,0
93704,-116.45111,4,1,0,65,0,0
93764,-116.28738,4,1,0,65,0,0
93824,-116.124115,4,1,0,65,0,0
93944,-115.798965,4,1,0,65,0,0
94064,-115.47562,4,1,0,65,0,0
94184,-115.1541,4,1,0,65,0,0
94304,-114.834335,4,1,0,65,0,0
94424,-114.51636,4,1,0,70,0,0
94484,-114.358025,4,1,0,70,0,0
94544,-114.20013,4,1,0,70,0,0
94604,-114.04268,4,1,0,70,0,0
94664,-113.88564,4,1,0,70,0,0
94724,-113.72905,4,1,0,70,0,0
94784,-113.57289,4,1,0,70,0,0
94904,-113.26185,4,1,0,70,0,0
95024,-112.95251,4,1,0,70,0,0
95084,-112.79847,4,1,0,70,0,0
95144,-112.644844,4,1,0,70,0,0
95204,-112.49164,4,1,0,70,0,0
95264,-112.33885,4,1,0,70,0,0
95384,-112.03452,4,1,0,70,0,0
95504,-111.73185,4,1,0,50,0,0
95985,-111.420612633004,4,1,0,80,0,0
109185,-105.263157894737,4,1,0,80,0,0
109305,-102.564102564103,4,1,0,80,0,0
109425,-100,4,1,0,80,0,0
110384,-100.01042,4,1,0,80,0,0
110504,-101.276505,4,1,0,80,0,0
110624,-102.57506,4,1,0,80,0,0
110684,-103.23691,4,1,0,80,0,0
110744,-103.90736,4,1,0,80,0,0
110804,-104.586555,4,1,0,80,0,0
110864,-105.274704,4,1,0,80,0,0
110924,-105.97196,4,1,0,80,0,0
110984,-106.67852,4,1,0,80,0,0
111104,-108.120285,4,1,0,80,0,0
111224,-109.601555,4,1,0,80,0,0
111344,-111.12398,4,1,0,80,0,0
119144,-125.01629,4,1,0,80,0,0
119264,-124.02642,4,1,0,80,0,0
119384,-123.052086,4,1,0,80,0,0
119504,-122.09295,4,1,0,80,0,0
119624,-121.14866,4,1,0,80,0,0
119744,-120.21885,4,1,0,80,0,0
119864,-119.30321,4,1,0,80,0,0
119984,-118.40141,4,1,0,80,0,0
120104,-117.513145,4,1,0,80,0,0
120224,-116.6381,4,1,0,80,0,0
120344,-115.776,4,1,0,80,0,0
120464,-114.92655,4,1,0,80,0,0
120584,-114.08946,4,1,0,80,0,0
120704,-113.264496,4,1,0,80,0,0
120824,-112.45137,4,1,0,80,0,0
120944,-111.649826,4,1,0,80,0,0
121004,-111.253334,4,1,0,80,0,0
121064,-110.859634,4,1,0,80,0,0
121104,-110.59872,4,1,0,80,0,0
121144,-110.33902,4,1,0,80,0,0
121184,-110.08055,4,1,0,80,0,0
121304,-109.31234,4,1,0,80,0,0
121424,-108.55478,4,1,0,80,0,0
121544,-107.80764,4,1,0,80,0,0
121664,-107.07072,4,1,0,80,0,0
121784,-106.34381,4,1,0,80,0,0
121904,-105.62669,4,1,0,80,0,0
122024,-104.91919,4,1,0,80,0,0
122144,-104.2211,4,1,0,80,0,0
122264,-103.53224,4,1,0,80,0,0
122384,-102.852425,4,1,0,80,0,0
122504,-102.18148,4,1,0,80,0,0
122624,-101.519226,4,1,0,80,0,0
122744,-100.86551,4,1,0,80,0,0
122864,-100.22015,4,1,0,80,0,0
122924,-99.90056,4,1,0,80,0,0
122984,-99.58301,4,1,0,80,0,0
123044,-99.26746,4,1,0,80,0,0
123104,-98.95391,4,1,0,80,0,0
123144,-98.74598,4,1,0,80,0,0
123184,-98.5389,4,1,0,80,0,0
123224,-98.33271,4,1,0,80,0,0
123284,-98.025024,4,1,0,80,0,0
123344,-97.71925,4,1,0,80,0,0
123404,-97.415405,4,1,0,80,0,0
123464,-97.11341,4,1,0,80,0,0
123524,-96.8133,4,1,0,80,0,0
123584,-96.515045,4,1,0,80,0,0
123644,-96.2186,4,1,0,80,0,0
123704,-95.923996,4,1,0,80,0,0
123764,-95.63117,4,1,0,80,0,0
123824,-95.34014,4,1,0,80,0,0
123884,-95.05087,4,1,0,80,0,0
123944,-94.76335,4,1,0,80,0,0
124004,-94.47756,4,1,0,80,0,0
124064,-94.1935,4,1,0,80,0,0
124124,-93.91114,4,1,0,80,0,0
124184,-93.630455,4,1,0,80,0,0
124244,-93.35145,4,1,0,80,0,0
124304,-93.07411,4,1,0,80,0,0
124364,-92.7984,4,1,0,80,0,0
124424,-92.52434,4,1,0,80,0,0
124484,-92.25188,4,1,0,80,0,0
124544,-91.98102,4,1,0,80,0,0
124604,-91.71174,4,1,0,80,0,0
124664,-91.44404,4,1,0,80,0,0
124724,-91.177895,4,1,0,80,0,0
124784,-90.930504,4,1,0,80,0,0
124904,-93.04343,4,1,0,80,0,0
125024,-95.256874,4,1,0,80,0,0
125144,-97.5782,4,1,0,80,0,0
125264,-100.0155,4,1,0,80,0,0
125324,-101.28038,4,1,0,80,0,0
125384,-102.57767,4,1,0,80,0,0
125444,-103.90862,4,1,0,80,0,0
125504,-105.27457,4,1,0,80,0,0
125564,-106.6769,4,1,0,80,0,0
125624,-108.1171,4,1,0,80,0,0
125684,-109.596725,4,1,0,80,0,0
125744,-111.09172,4,1,0,80,0,0
125864,-108.09279,4,1,0,80,0,0
125924,-106.653244,4,1,0,80,0,0
125984,-105.25152,4,1,0,80,0,0
126044,-103.88617,4,1,0,80,0,0
126104,-102.555786,4,1,0,80,0,0
126164,-101.25905,4,1,0,80,0,0
126224,-99.9947,4,1,0,80,0,0
126284,-98.761536,4,1,0,80,0,0
126344,-97.5584,4,1,0,80,0,0
126404,-96.38423,4,1,0,80,0,0
126464,-95.238,4,1,0,80,0,0
126524,-94.118706,4,1,0,80,0,0
126584,-93.02542,4,1,0,80,0,0
126644,-91.95723,4,1,0,80,0,0
126705,-90.91331,4,1,0,90,0,1
128385,-90.91331,4,1,0,90,0,0
128625,-90.91331,4,1,0,90,0,1
130305,-90.91331,4,1,0,90,0,0
130545,-90.91331,4,1,0,90,0,1
132225,-90.91331,4,1,0,90,0,0
132465,-90.91331,4,1,0,90,0,1
133424,-90.91331,4,1,0,90,0,1
133544,-89.55496,4,1,0,90,0,1
133604,-88.89091,4,1,0,90,0,1
133724,-87.59189,4,1,0,90,0,1
133784,-86.95652,4,1,0,90,0,1
133905,-88.2353200692118,4,1,0,90,0,1
134025,-89.5522393406104,4,1,0,90,0,1
134145,-90.9090909090909,4,1,0,90,0,0
134385,-90.9090909090909,4,1,0,90,0,1
136065,-90.9090909090909,4,1,0,90,0,0
136305,-90.9090909090909,4,1,0,90,0,1
137985,-90.9090909090909,4,1,0,90,0,0
138225,-90.9090909090909,4,1,0,90,0,1
139905,-90.9090909090909,4,1,0,90,0,0
140145,-90.90909,4,1,0,90,0,1
140264,-90.16393,4,1,0,90,0,1
140384,-89.4309,4,1,0,90,0,1
140444,-89.068825,4,1,0,90,0,1
140504,-88.70968,4,1,0,90,0,1
140544,-88.47185,4,1,0,90,0,1
140584,-88.2353,4,1,0,90,0,1
140624,-88,4,1,0,90,0,1
140744,-87.30158,4,1,0,90,0,1
140864,-86.614174,4,1,0,90,0,1
140924,-86.274506,4,1,0,90,0,1
140984,-85.9375,4,1,0,90,0,1
141044,-85.6031,4,1,0,90,0,1
141104,-85.27131,4,1,0,90,0,1
141224,-84.61538,4,1,0,90,0,1
141284,-84.29118,4,1,0,90,0,1
141404,-83.650185,4,1,0,90,0,1
141464,-83.34984,4,1,0,90,0,1
141584,-85.38071,4,1,0,90,0,1
141644,-86.43371,4,1,0,90,0,1
141704,-87.513,4,1,0,90,0,1
141824,-89.754524,4,1,0,90,0,1
141884,-90.918915,4,1,0,90,0,1
141944,-92.11391,4,1,0,90,0,1
142004,-93.34072,4,1,0,90,0,1
142065,-94.60068,4,1,0,90,0,0
142124,-95.89509,4,1,0,90,0,0
142184,-97.225426,4,1,0,90,0,0
142244,-98.5932,4,1,0,90,0,0
142305,-99.999985,4,1,0,90,0,1
143745,-90.90908,4,1,0,90,0,0
143804,-91.95402,4,1,0,90,0,0
143864,-93.023254,4,1,0,90,0,0
143924,-94.117645,4,1,0,90,0,0
143985,-95.2381,4,1,0,90,0,1
144105,-100,4,1,0,90,0,1
145665,-90.90909,4,1,0,90,0,0
145704,-91.60306,4,1,0,90,0,0
145744,-92.307686,4,1,0,90,0,0
145784,-93.023254,4,1,0,90,0,0
145824,-93.75001,4,1,0,90,0,0
145864,-94.48818,4,1,0,90,0,0
145905,-95.2381,4,1,0,90,0,1
146025,-100,4,1,0,90,0,1
147585,-95.2381,4,1,0,90,0,0
147624,-94.48818,4,1,0,90,0,0
147664,-93.75001,4,1,0,90,0,0
147704,-93.023254,4,1,0,90,0,0
147764,-91.954025,4,1,0,90,0,0
147824,-90.90909,4,1,0,90,0,0
147945,-100,4,1,0,90,0,1
149504,-90.90909,4,1,0,90,0,1
149564,-91.954025,4,1,0,90,0,1
149624,-93.023254,4,1,0,90,0,1
149684,-94.117645,4,1,0,90,0,1
149745,-95.2381,4,1,0,90,0,0
149804,-96.38554,4,1,0,90,0,0
149864,-97.560974,4,1,0,90,0,0
149924,-98.76543,4,1,0,90,0,0
149985,-100,4,1,0,90,0,1
151425,-90.90909,4,1,0,90,0,0
151484,-91.954025,4,1,0,90,0,0
151544,-93.023254,4,1,0,90,0,0
151604,-94.117645,4,1,0,90,0,0
151665,-95.2381,4,1,0,90,0,1
151785,-100,4,1,0,90,0,1
153345,-90.90909,4,1,0,90,0,0
153384,-91.60306,4,1,0,90,0,0
153424,-92.307686,4,1,0,90,0,0
153464,-93.023254,4,1,0,90,0,0
153504,-93.75001,4,1,0,90,0,0
153544,-94.48818,4,1,0,90,0,0
153585,-95.2381,4,1,0,90,0,1
153705,-100,4,1,0,90,0,1
155265,-95.2381,4,1,0,90,0,0
155304,-94.48818,4,1,0,90,0,0
155344,-93.75001,4,1,0,90,0,0
155384,-93.023254,4,1,0,90,0,0
155444,-91.954025,4,1,0,90,0,0
155505,-90.90909,4,1,0,90,0,1
155625,-99.9999989,4,1,0,90,0,1
157184,-95.2381,4,1,0,90,0,1
157224,-96,4,1,0,90,0,1
157264,-96.774185,4,1,0,90,0,1
157304,-97.560974,4,1,0,90,0,1
157364,-98.76543,4,1,0,90,0,1
157424,-99.98613,4,1,0,90,0,1
157544,-98.34835,4,1,0,90,0,1
157664,-96.76337,4,1,0,90,0,1
157784,-95.22865,4,1,0,90,0,1
157904,-93.741875,4,1,0,90,0,1
158024,-92.30079,4,1,0,90,0,1
158144,-90.903366,4,1,0,90,0,1
158264,-89.5476,4,1,0,90,0,1
158384,-88.23168,4,1,0,90,0,1
158504,-86.9539,4,1,0,90,0,1
158624,-85.71258,4,1,0,90,0,1
158744,-84.50622,4,1,0,90,0,1
158804,-83.91568,4,1,0,90,0,1
158864,-83.34136,4,1,0,90,0,1
158984,-84.316895,4,1,0,90,0,1
159104,-85.31554,4,1,0,90,0,1
159164,-85.823784,4,1,0,90,0,1
159224,-86.33811,4,1,0,90,0,1
159284,-86.85865,4,1,0,90,0,1
159344,-87.385506,4,1,0,90,0,1
159374,-87.65134,4,1,0,90,0,1
159464,-88.45862,4,1,0,90,0,1
159584,-89.558426,4,1,0,90,0,1
159704,-90.685905,4,1,0,90,0,1
159734,-90.97222,4,1,0,90,0,1
159824,-91.84215,4,1,0,90,0,1
159944,-93.02825,4,1,0,90,0,1
160064,-94.24539,4,1,0,90,0,1
160094,-94.55469,4,1,0,90,0,1
160184,-95.49482,4,1,0,90,0,1
160304,-96.7778,4,1,0,90,0,1
160364,-97.43232,4,1,0,90,0,1
160424,-98.095726,4,1,0,90,0,1
160454,-98.43084,4,1,0,90,0,1
160544,-99.45005,4,1,0,90,0,1
160664,-100.84229,4,1,0,90,0,1
160724,-101.55314,4,1,0,90,0,1
160784,-102.27407,4,1,0,90,0,1
160814,-102.63839,4,1,0,90,0,1
160904,-103.74709,4,1,0,90,0,1
161024,-105.24017,4,1,0,90,0,1
161064,-104.329,4,1,0,90,0,1
161104,-103.43348,4,1,0,90,0,1
161144,-102.55319,4,1,0,90,0,1
161204,-101.260506,4,1,0,90,0,1
161264,-99.98613,4,1,0,90,0,1
161384,-98.34835,4,1,0,90,0,1
161504,-96.76337,4,1,0,90,0,1
161624,-95.22865,4,1,0,90,0,1
161744,-93.741875,4,1,0,90,0,1
161864,-92.30079,4,1,0,90,0,1
161984,-90.903366,4,1,0,90,0,1
162104,-89.5476,4,1,0,90,0,1
162224,-88.23168,4,1,0,90,0,1
162284,-87.588135,4,1,0,90,0,1
162344,-86.9539,4,1,0,90,0,1
162464,-85.71258,4,1,0,90,0,1
162584,-84.50622,4,1,0,90,0,1
162644,-83.91568,4,1,0,90,0,1
162704,-83.34136,4,1,0,90,0,1
162824,-84.316895,4,1,0,90,0,1
162944,-85.31554,4,1,0,90,0,1
163004,-85.823784,4,1,0,90,0,1
163064,-86.33811,4,1,0,90,0,1
163124,-86.85865,4,1,0,90,0,1
163184,-87.385506,4,1,0,90,0,1
163214,-87.65134,4,1,0,90,0,1
163304,-88.45862,4,1,0,90,0,1
163424,-89.558426,4,1,0,90,0,1
163544,-90.685905,4,1,0,90,0,1
163574,-90.97222,4,1,0,90,0,1
163664,-91.84215,4,1,0,90,0,1
163784,-93.02825,4,1,0,90,0,1
163844,-93.632866,4,1,0,90,0,1
163904,-94.24539,4,1,0,90,0,1
163934,-94.55469,4,1,0,90,0,1
164024,-95.49482,4,1,0,90,0,1
164144,-96.7778,4,1,0,90,0,1
164204,-97.43232,4,1,0,90,0,1
164264,-98.095726,4,1,0,90,0,1
164294,-98.43084,4,1,0,90,0,1
164384,-99.45005,4,1,0,90,0,1
164444,-100.141335,4,1,0,90,0,1
164504,-100.84229,4,1,0,90,0,1
164564,-101.55314,4,1,0,90,0,1
164624,-102.27407,4,1,0,90,0,1
164654,-102.63839,4,1,0,90,0,1
164744,-103.74709,4,1,0,90,0,1
164864,-105.26316,4,1,0,90,0,1
165104,-111.111115,4,1,0,90,0,1
165224,-110.344826,4,1,0,90,0,1
165344,-109.589035,4,1,0,90,0,1
165464,-108.84354,4,1,0,90,0,1
165584,-108.10811,4,1,0,90,0,1
165704,-107.38255,4,1,0,90,0,1
165824,-106.666664,4,1,0,90,0,1
165944,-105.96026,4,1,0,90,0,1
166064,-105.26316,4,1,0,90,0,1
166184,-104.575165,4,1,0,90,0,1
166304,-103.8961,4,1,0,90,0,1
166424,-103.22581,4,1,0,90,0,1
166544,-102.5641,4,1,0,90,0,1
166664,-101.91083,4,1,0,90,0,1
166785,-96.16925,4,1,0,90,0,0
166824,-96.78981,4,1,0,90,0,0
166864,-97.41841,4,1,0,90,0,0
166904,-98.05524,4,1,0,90,0,0
166964,-99.026245,4,1,0,90,0,0
167025,-100.01147,4,1,0,90,0,1
167144,-99.38949,4,1,0,90,0,1
167264,-98.77522,4,1,0,90,0,1
167384,-98.16849,4,1,0,90,0,1
167504,-97.56916,4,1,0,90,0,1
167624,-96.9771,4,1,0,90,0,1
167744,-96.3922,4,1,0,90,0,1
167864,-95.8143,4,1,0,90,0,1
167984,-95.243286,4,1,0,90,0,1
168104,-94.679054,4,1,0,90,0,1
168224,-94.12145,4,1,0,90,0,1
168344,-93.57038,4,1,0,90,0,1
168464,-93.02574,4,1,0,90,0,1
168584,-92.48739,4,1,0,90,0,1
168705,-87.732124,4,1,0,90,0,0
168764,-88.50863,4,1,0,90,0,0
168824,-89.299,4,1,0,90,0,0
168884,-90.103615,4,1,0,90,0,0
168945,-90.91856,4,1,0,90,0,1
169064,-90.40424,4,1,0,90,0,1
169184,-89.89574,4,1,0,90,0,1
169304,-89.39291,4,1,0,90,0,1
169424,-88.89567,4,1,0,90,0,1
169544,-88.403946,4,1,0,90,0,1
169664,-87.91761,4,1,0,90,0,1
169784,-87.436615,4,1,0,90,0,1
169844,-87.19808,4,1,0,90,0,1
169904,-86.96085,4,1,0,90,0,1
170024,-86.490234,4,1,0,90,0,1
170144,-86.02469,4,1,0,90,0,1
170264,-85.56411,4,1,0,90,0,1
170384,-85.10845,4,1,0,90,0,1
170504,-84.65762,4,1,0,90,0,1
170624,-84.21154,4,1,0,90,0,1
170684,-83.990265,4,1,0,90,0,1
170744,-83.77014,4,1,0,90,0,1
170804,-83.551155,4,1,0,90,0,1
170864,-83.33333,4,1,0,90,0,1
170925,-86.9565217391304,4,1,0,90,0,0
171824,-111.08543,4,1,0,90,0,0
171854,-110.32029,4,1,0,90,0,0
171944,-108.08683,4,1,0,90,0,0
171974,-107.36231,4,1,0,90,0,0
172064,-105.245865,4,1,0,90,0,0
172094,-104.55881,4,1,0,90,0,0
172184,-102.55042,4,1,0,90,0,0
172214,-101.897995,4,1,0,90,0,0
172304,-99.98959,4,1,0,90,0,0
172334,-99.36925,4,1,0,90,0,0
172424,-97.55354,4,1,0,90,0,0
172484,-96.37949,4,1,0,90,0,0
172544,-95.233376,4,1,0,90,0,0
172604,-94.11418,4,1,0,90,0,0
172664,-93.021,4,1,0,90,0,0
172785,-90.90909,4,1,0,90,0,1
173024,-95.2444,4,1,0,90,0,1
173064,-96.00748,4,1,0,90,0,1
173104,-96.78288,4,1,0,90,0,1
173144,-97.57089,4,1,0,90,0,1
173264,-100.013916,4,1,0,90,0,1
173324,-101.281876,4,1,0,90,0,1
173384,-102.58239,4,1,0,90,0,1
173444,-103.91675,4,1,0,90,0,1
173504,-105.24014,4,1,0,90,0,1
173534,-104.55434,4,1,0,90,0,1
173624,-102.54954,4,1,0,90,0,1
173654,-101.89825,4,1,0,90,0,1
173744,-99.99309,4,1,0,90,0,1
173774,-99.37377,4,1,0,90,0,1
173864,-97.56099,4,1,0,90,0,1
173894,-96.97134,4,1,0,90,0,1
173984,-95.24439,4,1,0,90,0,1
174044,-94.12687,4,1,0,90,0,1
174104,-93.03526,4,1,0,90,0,1
174164,-91.96868,4,1,0,90,0,1
174224,-90.95209,4,1,0,90,0,1
174344,-94.15913,4,1,0,90,0,1
174464,-97.60059,4,1,0,90,0,1
174504,-98.80434,4,1,0,90,0,1
174544,-100.038155,4,1,0,90,0,1
174584,-101.30317,4,1,0,90,0,1
174704,-105.20557,4,1,0,90,0,1
174734,-104.17947,4,1,0,90,0,1
174824,-101.21785,4,1,0,90,0,1
174854,-100.267715,4,1,0,90,0,1
174944,-97.52139,4,1,0,90,0,1
174974,-96.63908,4,1,0,90,0,1
175064,-94.08541,4,1,0,90,0,1
175094,-93.263916,4,1,0,90,0,1
175184,-90.92804,4,1,0,90,0,1
175304,-93.26123,4,1,0,90,0,1
175424,-95.71729,4,1,0,90,0,1
175454,-96.35166,4,1,0,90,0,1
175544,-98.30624,4,1,0,90,0,1
175574,-98.9755,4,1,0,90,0,1
175664,-101.03911,4,1,0,90,0,1
175694,-101.74624,4,1,0,90,0,1
175784,-103.928276,4,1,0,90,0,1
175814,-104.67657,4,1,0,90,0,1
175904,-106.98754,4,1,0,90,0,1
175934,-107.78071,4,1,0,90,0,1
176024,-110.23237,4,1,0,90,0,1
176054,-111.07456,4,1,0,90,0,1
176144,-105.471085,4,1,0,90,0,1
176324,-99.49575,4,1,0,90,0,1
176504,-94.16117,4,1,0,90,0,1
176624,-90.95491,4,1,0,90,0,1
176864,-95.2674,4,1,0,90,0,1
176904,-96.02622,4,1,0,90,0,1
176944,-96.79723,4,1,0,90,0,1
176984,-97.58073,4,1,0,90,0,1
177104,-100.00918,4,1,0,90,0,1
177164,-101.26931,4,1,0,90,0,1
177224,-102.5616,4,1,0,90,0,1
177284,-103.88728,4,1,0,90,0,1
177344,-105.201744,4,1,0,90,0,1
177374,-104.51612,4,1,0,90,0,1
177464,-102.51186,4,1,0,90,0,1
177494,-101.86075,4,1,0,90,0,1
177584,-99.956116,4,1,0,90,0,1
177614,-99.33696,4,1,0,90,0,1
177704,-97.524704,4,1,0,90,0,1
177734,-96.93522,4,1,0,90,0,1
177824,-95.20876,4,1,0,90,0,1
177884,-94.09156,4,1,0,90,0,1
177944,-93.000275,4,1,0,90,0,1
178004,-91.934,4,1,0,90,0,1
178064,-90.91771,4,1,0,90,0,1
178184,-94.12457,4,1,0,90,0,1
178304,-97.56593,4,1,0,90,0,1
178344,-98.76967,4,1,0,90,0,1
178384,-100.00348,4,1,0,90,0,1
178424,-101.26849,4,1,0,90,0,1
178544,-105.228615,4,1,0,90,0,1
178574,-104.202774,4,1,0,90,0,1
178664,-101.241844,4,1,0,90,0,1
178694,-100.29191,4,1,0,90,0,1
178784,-97.54614,4,1,0,90,0,1
178814,-96.66399,4,1,0,90,0,1
178904,-94.11074,4,1,0,90,0,1
178934,-93.28937,4,1,0,90,0,1
179024,-90.92807,4,1,0,90,0,1
179144,-93.26481,4,1,0,90,0,1
179264,-95.7248,4,1,0,90,0,1
179294,-96.36022,4,1,0,90,0,1
179384,-98.31809,4,1,0,90,0,1
179414,-98.98852,4,1,0,90,0,1
179504,-101.0558,4,1,0,90,0,1
179534,-101.76422,4,1,0,90,0,1
179624,-103.95035,4,1,0,90,0,1
179654,-104.70008,4,1,0,90,0,1
179744,-107.015594,4,1,0,90,0,1
179774,-107.81037,4,1,0,90,0,1
179864,-110.26712,4,1,0,90,0,1
179894,-111.11111,4,1,0,90,0,1
179984,-105.26316,4,1,0,90,0,1
180044,-103.22581,4,1,0,90,0,1
180104,-101.26582,4,1,0,90,0,1
180164,-99.37888,4,1,0,90,0,1
180224,-97.560974,4,1,0,90,0,1
180284,-95.80838,4,1,0,90,0,1
180344,-94.117645,4,1,0,90,0,1
180404,-92.48555,4,1,0,90,0,1
180465,-90.90909,4,1,0,90,0,0
180705,-111.111109753086,4,1,0,90,0,0
181424,-111.11111,4,1,0,90,0,0
181544,-105.26315,4,1,0,90,0,0
181664,-100,4,1,0,90,0,0
181724,-97.560974,4,1,0,90,0,0
181784,-95.2381,4,1,0,90,0,0
181844,-93.023254,4,1,0,90,0,0
181905,-90.934875,4,1,0,90,0,1
182024,-94.13837,4,1,0,90,0,1
182144,-97.57581,4,1,0,90,0,1
182184,-98.77811,4,1,0,90,0,1
182224,-100.0104,4,1,0,90,0,1
182264,-101.27382,4,1,0,90,0,1
182384,-105.228615,4,1,0,90,0,1
182414,-104.202774,4,1,0,90,0,1
182504,-101.241844,4,1,0,90,0,1
182534,-100.29191,4,1,0,90,0,1
182624,-97.54614,4,1,0,90,0,1
182654,-96.66399,4,1,0,90,0,1
182744,-94.11074,4,1,0,90,0,1
182774,-93.28937,4,1,0,90,0,1
182864,-90.92807,4,1,0,90,0,1
182984,-93.26481,4,1,0,90,0,1
183104,-95.7248,4,1,0,90,0,1
183134,-96.36022,4,1,0,90,0,1
183224,-98.31809,4,1,0,90,0,1
183254,-98.98852,4,1,0,90,0,1
183344,-101.0558,4,1,0,90,0,1
183374,-101.76422,4,1,0,90,0,1
183464,-103.95035,4,1,0,90,0,1
183494,-104.70008,4,1,0,90,0,1
183584,-107.015594,4,1,0,90,0,1
183614,-107.81037,4,1,0,90,0,1
183704,-110.26712,4,1,0,90,0,1
183734,-111.11111,4,1,0,90,0,1
183824,-105.26316,4,1,0,90,0,1
184004,-99.37888,4,1,0,90,0,1
184184,-94.117645,4,1,0,90,0,1
184304,-90.926285,4,1,0,90,0,1
184544,-95.25068,4,1,0,90,0,1
184584,-96.01172,4,1,0,90,0,1
184624,-96.78502,4,1,0,90,0,1
184664,-97.57087,4,1,0,90,0,1
184784,-100.006935,4,1,0,90,0,1
184844,-101.27116,4,1,0,90,0,1
184904,-102.56775,4,1,0,90,0,1
184964,-103.89797,4,1,0,90,0,1
185024,-105.240105,4,1,0,90,0,1
185054,-104.55336,4,1,0,90,0,1
185144,-102.54587,4,1,0,90,0,1
185174,-101.89373,4,1,0,90,0,1
185264,-99.98614,4,1,0,90,0,1
185294,-99.36605,4,1,0,90,0,1
185384,-97.55107,4,1,0,90,0,1
185414,-96.96073,4,1,0,90,0,1
185504,-95.231804,4,1,0,90,0,1
185564,-94.113045,4,1,0,90,0,1
185624,-93.02026,4,1,0,90,0,1
185684,-91.95255,4,1,0,90,0,1
185744,-90.934875,4,1,0,90,0,1
185864,-94.13837,4,1,0,90,0,1
185984,-97.57581,4,1,0,90,0,1
186024,-98.77811,4,1,0,90,0,1
186064,-100.0104,4,1,0,90,0,1
186104,-101.27382,4,1,0,90,0,1
186224,-105.228615,4,1,0,90,0,1
186254,-104.202774,4,1,0,90,0,1
186344,-101.241844,4,1,0,90,0,1
186374,-100.29191,4,1,0,90,0,1
186464,-97.54614,4,1,0,90,0,1
186494,-96.66399,4,1,0,90,0,1
186584,-94.11074,4,1,0,90,0,1
186614,-93.28937,4,1,0,90,0,1
186704,-90.92807,4,1,0,90,0,1
186824,-93.26481,4,1,0,90,0,1
186944,-95.7248,4,1,0,90,0,1
186974,-96.36022,4,1,0,90,0,1
187064,-98.31809,4,1,0,90,0,1
187094,-98.98852,4,1,0,90,0,1
187184,-101.0558,4,1,0,90,0,1
187214,-101.76422,4,1,0,90,0,1
187304,-103.95035,4,1,0,90,0,1
187334,-104.70008,4,1,0,90,0,1
187424,-107.015594,4,1,0,90,0,1
187454,-107.81037,4,1,0,90,0,1
187544,-110.26712,4,1,0,90,0,1
187574,-111.11111,4,1,0,90,0,1
187664,-105.26316,4,1,0,90,0,1
187724,-103.22581,4,1,0,90,0,1
187784,-101.26582,4,1,0,90,0,1
187824,-100,4,1,0,90,0,1
187864,-98.76543,4,1,0,90,0,1
187904,-97.560974,4,1,0,90,0,1
187944,-96.38554,4,1,0,90,0,1
187984,-95.2381,4,1,0,90,0,1
188024,-94.117645,4,1,0,90,0,1
188084,-92.48555,4,1,0,90,0,1
188144,-90.926285,4,1,0,90,0,1
188384,-95.25068,4,1,0,90,0,1
188424,-96.01172,4,1,0,90,0,1
188464,-96.78502,4,1,0,90,0,1
188504,-97.57087,4,1,0,90,0,1
188624,-100.006935,4,1,0,90,0,1
188684,-101.27116,4,1,0,90,0,1
188744,-102.56775,4,1,0,90,0,1
188804,-103.89797,4,1,0,90,0,1
188864,-105.24933,4,1,0,90,0,1
188894,-104.83589,4,1,0,90,0,1
188984,-103.61487,4,1,0,90,0,1
189014,-103.214165,4,1,0,90,0,1
189104,-102.03041,4,1,0,90,0,1
189134,-101.641846,4,1,0,90,0,1
189224,-100.49369,4,1,0,90,0,1
189254,-100.11671,4,1,0,90,0,1
189344,-99.00255,4,1,0,90,0,1
189404,-98.27346,4,1,0,90,0,1
189464,-97.55503,4,1,0,90,0,1
189524,-96.84703,4,1,0,90,0,1
189584,-96.14923,4,1,0,90,0,1
189644,-95.46142,4,1,0,90,0,1
189704,-94.78336,4,1,0,90,0,1
189764,-94.11488,4,1,0,90,0,1
189824,-93.455765,4,1,0,90,0,1
189864,-93.02145,4,1,0,90,0,1
189904,-92.59117,4,1,0,90,0,1
189944,-92.16484,4,1,0,90,0,1
190064,-90.9434,4,1,0,90,0,1
190184,-95.25692,4,1,0,90,0,1
190304,-99.97922,4,1,0,90,0,1
190334,-99.359634,4,1,0,90,0,1
190424,-97.54614,4,1,0,90,0,1
190454,-96.95626,4,1,0,90,0,1
190544,-95.22866,4,1,0,90,0,1
190584,-94.48045,4,1,0,90,0,1
190624,-93.74391,4,1,0,90,0,1
190664,-93.01875,4,1,0,90,0,1
190724,-91.95183,4,1,0,90,0,1
190784,-90.9353,4,1,0,90,0,1
190814,-91.72845,4,1,0,90,0,1
190904,-94.19315,4,1,0,90,0,1
190934,-95.044426,4,1,0,90,0,1
191024,-97.69314,4,1,0,90,0,1
191054,-98.60915,4,1,0,90,0,1
191144,-101.46326,4,1,0,90,0,1
191174,-102.4517,4,1,0,90,0,1
191264,-105.53604,4,1,0,90,0,1
191294,-106.60584,4,1,0,90,0,1
191384,-109.94946,4,1,0,90,0,1
191414,-111.11111,4,1,0,90,0,1
191504,-105.26316,4,1,0,90,0,1
191624,-101.26582,4,1,0,90,0,1
191744,-97.560974,4,1,0,90,0,1
191864,-94.117645,4,1,0,90,0,1
191984,-90.926285,4,1,0,90,0,1
192224,-95.25068,4,1,0,90,0,1
192264,-96.01172,4,1,0,90,0,1
192304,-96.78502,4,1,0,90,0,1
192344,-97.57087,4,1,0,90,0,1
192464,-100.006935,4,1,0,90,0,1
192524,-101.27116,4,1,0,90,0,1
192584,-102.56775,4,1,0,90,0,1
192644,-103.89797,4,1,0,90,0,1
192704,-105.24933,4,1,0,90,0,1
192734,-104.83589,4,1,0,90,0,1
192824,-103.61487,4,1,0,90,0,1
192854,-103.214165,4,1,0,90,0,1
192944,-102.03041,4,1,0,90,0,1
192974,-101.641846,4,1,0,90,0,1
193064,-100.49369,4,1,0,90,0,1
193094,-100.11671,4,1,0,90,0,1
193184,-99.00255,4,1,0,90,0,1
193244,-98.27346,4,1,0,90,0,1
193304,-97.55503,4,1,0,90,0,1
193364,-96.84703,4,1,0,90,0,1
193424,-96.14923,4,1,0,90,0,1
193484,-95.46142,4,1,0,90,0,1
193544,-94.78336,4,1,0,90,0,1
193584,-94.336655,4,1,0,90,0,1
193624,-93.89414,4,1,0,90,0,1
193664,-93.455765,4,1,0,90,0,1
193724,-92.8058,4,1,0,90,0,1
193784,-92.16484,4,1,0,90,0,1
193824,-91.742424,4,1,0,90,0,1
193864,-91.32385,4,1,0,90,0,1
193905,-90.90909,4,1,0,90,0,0
194145,-111.111109753086,4,1,0,90,0,0
194864,-90.90909,4,1,0,90,0,0
194984,-94.117645,4,1,0,90,0,0
195024,-95.2381,4,1,0,90,0,0
195064,-96.38554,4,1,0,90,0,0
195104,-97.560974,4,1,0,90,0,0
195224,-101.26582,4,1,0,90,0,0
195264,-102.5641,4,1,0,90,0,0
195304,-103.8961,4,1,0,90,0,0
195344,-105.26316,4,1,0,90,0,0
195464,-109.589035,4,1,0,90,0,0
195504,-111.111115,4,1,0,90,0,0
195544,-112.676056,4,1,0,90,0,0
195584,-114.28571,4,1,0,90,0,0
195704,-119.40299,4,1,0,90,0,0
195825,-125,4,1,0,90,0,1
196064,-122.80702,4,1,0,90,0,1
196304,-120.68965,4,1,0,90,0,1
196544,-118.64407,4,1,0,90,0,1
196784,-116.666664,4,1,0,90,0,1
197024,-114.7541,4,1,0,90,0,1
197264,-112.90322,4,1,0,90,0,1
197504,-111.111115,4,1,0,90,0,1
197744,-109.375,4,1,0,90,0,1
197984,-107.692314,4,1,0,90,0,1
198224,-106.0606,4,1,0,90,0,1
198464,-104.477615,4,1,0,90,0,1
198704,-102.94118,4,1,0,90,0,1
198944,-101.44927,4,1,0,90,0,1
199184,-100,4,1,0,90,0,1
199424,-98.59155,4,1,0,90,0,1
199664,-97.22223,4,1,0,90,0,1
199784,-96.55173,4,1,0,90,0,1
199904,-95.89041,4,1,0,90,0,1
200024,-95.2381,4,1,0,90,0,1
200144,-94.5946,4,1,0,90,0,1
200264,-93.95974,4,1,0,90,0,1
200384,-93.333336,4,1,0,90,0,1
200504,-92.71523,4,1,0,90,0,1
200624,-92.105255,4,1,0,90,0,1
200744,-91.50327,4,1,0,90,0,1
200864,-90.90909,4,1,0,90,0,1
200984,-90.322586,4,1,0,90,0,1
201104,-89.7436,4,1,0,90,0,1
201224,-89.171974,4,1,0,90,0,1
201344,-88.6076,4,1,0,90,0,1
201464,-88.05031,4,1,0,90,0,1
201584,-87.49999,4,1,0,90,0,1
201644,-87.22742,4,1,0,90,0,1
201704,-86.95652,4,1,0,90,0,1
201764,-86.68731,4,1,0,90,0,1
201824,-86.419754,4,1,0,90,0,1
201884,-86.15384,4,1,0,90,0,1
201944,-85.88957,4,1,0,90,0,1
202004,-85.62691,4,1,0,90,0,1
202064,-85.36585,4,1,0,90,0,1
202124,-85.106384,4,1,0,90,0,1
202184,-84.84848,4,1,0,90,0,1
202244,-84.59215,4,1,0,90,0,1
202304,-84.33734,4,1,0,90,0,1
202364,-84.08409,4,1,0,90,0,1
202424,-83.83234,4,1,0,90,0,1
202484,-83.58209,4,1,0,90,0,1
202544,-83.33333,4,1,0,90,0,1
203505,-71.4285714285714,4,1,0,80,0,0
203565,-142.857142857143,4,1,0,20,0,0
207345,-133.333333333333,4,1,0,20,0,0
210225,-166.666666666667,4,1,0,20,0,0
214065,-181.818181818182,4,1,0,20,0,0
218864,-200,4,1,0,50,0,0
220784,-190.4762,4,1,0,50,0,0
222704,-181.81818,4,1,0,50,0,0
224624,-173.91304,4,1,0,50,0,0
226544,-166.66666,4,1,0,50,0,0
228464,-160,4,1,0,50,0,0
230384,-153.84616,4,1,0,50,0,0
230504,-153.47722,4,1,0,50,0,0
230624,-153.11005,4,1,0,50,0,0
230744,-152.74463,4,1,0,50,0,0
230864,-152.38095,4,1,0,50,0,0
231104,-151.65877,4,1,0,50,0,0
231344,-150.94339,4,1,0,50,0,0
231584,-150.23474,4,1,0,50,0,0
231704,-149.8829,4,1,0,50,0,0
231824,-149.53271,4,1,0,50,0,0
232064,-148.8372,4,1,0,50,0,0
232184,-148.49188,4,1,0,50,0,0
232304,-148.14815,4,1,0,50,0,0
232424,-147.806,4,1,0,50,0,0
232544,-147.46544,4,1,0,50,0,0
232664,-147.12643,4,1,0,50,0,0
232784,-146.789,4,1,0,50,0,0
233024,-146.11873,4,1,0,50,0,0
233144,-145.78587,4,1,0,50,0,0
233384,-145.12473,4,1,0,50,0,0
233504,-144.79637,4,1,0,50,0,0
233744,-144.14413,4,1,0,50,0,0
233984,-143.49776,4,1,0,50,0,0
234224,-133.333333333333,4,1,0,70,0,0
234464,-142.85715,4,1,0,70,0,0
234524,-142.53395,4,1,0,70,0,0
234584,-142.21217,4,1,0,70,0,0
234704,-141.57303,4,1,0,70,0,0
234764,-141.2556,4,1,0,70,0,0
234824,-140.9396,4,1,0,70,0,0
234944,-140.31181,4,1,0,70,0,0
235184,-139.07285,4,1,0,70,0,0
235424,-137.85558,4,1,0,70,0,0
235544,-137.2549,4,1,0,70,0,0
235664,-136.65944,4,1,0,70,0,0
235904,-135.48387,4,1,0,70,0,0
235964,-135.19313,4,1,0,70,0,0
236024,-134.90364,4,1,0,70,0,0
236144,-134.32835,4,1,0,70,0,0
236264,-133.75797,4,1,0,70,0,0
236384,-133.1924,4,1,0,70,0,0
236504,-132.63158,4,1,0,70,0,0
236564,-132.35294,4,1,0,70,0,0
236624,-132.07547,4,1,0,70,0,0
236684,-131.79916,4,1,0,70,0,0
236744,-131.52402,4,1,0,70,0,0
236864,-130.97713,4,1,0,70,0,0
236984,-130.43477,4,1,0,70,0,0
237104,-129.89691,4,1,0,70,0,0
237224,-129.36345,4,1,0,70,0,0
237344,-128.83435,4,1,0,70,0,0
237464,-128.30957,4,1,0,70,0,0
237524,-128.04878,4,1,0,70,0,0
237584,-127.78905,4,1,0,70,0,0
237644,-127.53037,4,1,0,70,0,0
237704,-127.27273,4,1,0,70,0,0
237824,-126.76056,4,1,0,70,0,0
237944,-126.25251,4,1,0,70,0,0
238004,-126,4,1,0,70,0,0
238064,-125.748505,4,1,0,70,0,0
238304,-124.75248,4,1,0,70,0,0
238424,-124.26036,4,1,0,70,0,0
238544,-123.772095,4,1,0,70,0,0
238604,-123.52941,4,1,0,70,0,0
238664,-123.287674,4,1,0,70,0,0
238784,-122.80702,4,1,0,70,0,0
238844,-122.56809,4,1,0,70,0,0
238904,-122.3301,4,1,0,70,0,0
239024,-121.85687,4,1,0,70,0,0
239264,-120.92131,4,1,0,70,0,0
239324,-120.68965,4,1,0,70,0,0
239384,-120.45889,4,1,0,70,0,0
239444,-120.229004,4,1,0,70,0,0
239504,-120,4,1,0,70,0,0
239624,-119.54459,4,1,0,70,0,0
239744,-119.09262,4,1,0,70,0,0
239864,-118.644066,4,1,0,70,0,0
239924,-118.42105,4,1,0,70,0,0
239984,-118.198875,4,1,0,70,0,0
240224,-117.31843,4,1,0,70,0,0
240344,-116.88312,4,1,0,70,0,0
240464,-116.45102,4,1,0,70,0,0
240524,-116.23616,4,1,0,70,0,0
240584,-116.022095,4,1,0,70,0,0
240704,-115.59634,4,1,0,70,0,0
240824,-115.173676,4,1,0,70,0,0
240944,-114.7541,4,1,0,70,0,0
241004,-114.545456,4,1,0,70,0,0
241064,-114.33757,4,1,0,70,0,0
241124,-114.13043,4,1,0,70,0,0
241184,-113.92406,4,1,0,70,0,0
241304,-113.51351,4,1,0,70,0,0
241364,-113.30935,4,1,0,70,0,0
241484,-112.90322,4,1,0,70,0,0
241544,-112.701256,4,1,0,70,0,0
241664,-112.29947,4,1,0,70,0,0
241724,-112.09964,4,1,0,70,0,0
241784,-111.900536,4,1,0,70,0,0
241904,-111.504425,4,1,0,70,0,0
242144,-110.72056,4,1,0,70,0,0
242264,-110.332756,4,1,0,70,0,0
242384,-109.94765,4,1,0,70,0,0
242444,-109.7561,4,1,0,70,0,0
242504,-109.565216,4,1,0,70,0,0
242624,-109.18544,4,1,0,70,0,0
242684,-108.99654,4,1,0,70,0,0
242744,-108.8083,4,1,0,70,0,0
242864,-108.43373,4,1,0,70,0,0
243104,-107.692314,4,1,0,70,0,0
243344,-106.960945,4,1,0,70,0,0
243404,-106.77966,4,1,0,70,0,0
243464,-106.59899,4,1,0,70,0,0
243524,-106.418915,4,1,0,70,0,0
243584,-106.23946,4,1,0,70,0,0
243704,-105.88235,4,1,0,70,0,0
243824,-105.52764,4,1,0,70,0,0
244064,-104.82529,4,1,0,70,0,0
244304,-104.13223,4,1,0,70,0,0
244364,-103.960396,4,1,0,70,0,0
244424,-103.78913,4,1,0,70,0,0
244544,-103.44828,4,1,0,70,0,0
244604,-103.27869,4,1,0,70,0,0
244664,-103.10965,4,1,0,70,0,0
244784,-102.77325,4,1,0,70,0,0
245024,-102.106964,4,1,0,70,0,0
245264,-101.44927,4,1,0,70,0,0
245324,-101.28617,4,1,0,70,0,0
245384,-101.1236,4,1,0,70,0,0
245444,-100.96154,4,1,0,70,0,0
245504,-100.8,4,1,0,70,0,0
245624,-100.47846,4,1,0,70,0,0
245744,-100.15898,4,1,0,70,0,0
245984,-99.52606,4,1,0,70,0,0
246224,-98.90109,4,1,0,70,0,0
246284,-98.74608,4,1,0,70,0,0
246344,-98.59155,4,1,0,70,0,0
246464,-98.28393,4,1,0,70,0,0
246524,-98.130844,4,1,0,70,0,0
246584,-97.97823,4,1,0,70,0,0
246704,-97.674416,4,1,0,70,0,0
246944,-97.072426,4,1,0,70,0,0
247184,-96.47779,4,1,0,70,0,0
247244,-96.33028,4,1,0,70,0,0
247304,-96.18321,4,1,0,70,0,0
247364,-96.03659,4,1,0,70,0,0
247424,-95.89041,4,1,0,70,0,0
247544,-95.599396,4,1,0,70,0,0
247664,-95.31014,4,1,0,70,0,0
247904,-94.73684,4,1,0,70,0,0
248144,-94.1704,4,1,0,70,0,0
248204,-94.029854,4,1,0,70,0,0
248264,-93.88972,4,1,0,70,0,0
248384,-93.61071,4,1,0,70,0,0
248444,-93.47181,4,1,0,70,0,0
248504,-93.333336,4,1,0,70,0,0
248624,-93.0576,4,1,0,70,0,0
248864,-92.51101,4,1,0,70,0,0
249104,-91.97081,4,1,0,70,0,0
249164,-91.83674,4,1,0,70,0,0
249224,-91.70306,4,1,0,70,0,0
249284,-91.56977,4,1,0,70,0,0
249344,-91.436874,4,1,0,70,0,0
249404,-91.30435,4,1,0,70,0,0
249464,-91.17221,4,1,0,70,0,0
249524,-91.04046,4,1,0,70,0,0
249584,-90.90909,4,1,0,70,0,0
250545,-97.5609756097561,4,1,0,70,0,0
251505,-105.263157894737,4,1,0,70,0,0
252465,-114.285714285714,4,1,0,70,0,0
253184,-125,4,1,0,70,0,0
253304,-123.861565,4,1,0,70,0,0
253424,-122.74369,4,1,0,80,0,0
253664,-120.567375,4,1,0,80,0,0
253904,-118.46689,4,1,0,80,0,0
254144,-116.438354,4,1,0,80,0,0
254384,-114.47811,4,1,0,80,0,0
254624,-112.58279,4,1,0,80,0,0
254864,-110.74918,4,1,0,80,0,0
255104,-108.974365,4,1,0,80,0,0
255344,-107.25552,4,1,0,80,0,0
255464,-106.41628,4,1,0,80,0,0
255584,-105.59006,4,1,0,80,0,0
255704,-104.77658,4,1,0,80,0,0
255824,-103.97554,4,1,0,80,0,0
255944,-103.18664,4,1,0,80,0,0
256064,-102.40964,4,1,0,80,0,0
256184,-101.64424,4,1,0,80,0,0
256304,-100.89021,4,1,0,80,0,0
256424,-100.14727,4,1,0,80,0,0
256544,-99.4152,4,1,0,80,0,0
256604,-99.05317,4,1,0,80,0,0
256664,-98.693756,4,1,0,80,0,0
256724,-98.33695,4,1,0,80,0,0
256784,-97.982704,4,1,0,80,0,0
256844,-97.63101,4,1,0,80,0,0
256904,-97.28184,4,1,0,80,0,0
256964,-96.93514,4,1,0,80,0,0
257024,-96.59091,4,1,0,80,0,0
257084,-96.249115,4,1,0,80,0,0
257144,-95.90973,4,1,0,80,0,0
257204,-95.57273,4,1,0,80,0,0
257265,-95.2381,4,1,0,90,0,1
263025,-90.9090909090909,4,1,0,90,0,1
264105,-95.2380952380952,4,1,0,90,0,1
270705,-90.9090909090909,4,1,0,90,0,1
271785,-95.2380952380952,4,1,0,90,0,1
278385,-90.9090909090909,4,1,0,90,0,1
279465,-95.2380952380952,4,1,0,90,0,1
286065,-90.9090909090909,4,1,0,90,0,1
287144,-95.2381,4,1,0,90,0,1
287204,-96.88581,4,1,0,90,0,1
287264,-98.59155,4,1,0,90,0,1
287384,-102.18978,4,1,0,90,0,1
287504,-106.0606,4,1,0,90,0,1
287624,-110.23623,4,1,0,90,0,1
287744,-114.7541,4,1,0,90,0,1
287864,-119.65812,4,1,0,90,0,1
287924,-122.27074,4,1,0,90,0,1
287985,-125,4,1,0,90,0,0
288104,-124.48132,4,1,0,90,0,0
288224,-123.96694,4,1,0,90,0,0
288284,-123.71134,4,1,0,90,0,0
288344,-123.45679,4,1,0,90,0,0
288464,-122.95082,4,1,0,90,0,0
288584,-122.44898,4,1,0,90,0,0
288704,-121.95122,4,1,0,90,0,0
288824,-121.45749,4,1,0,90,0,0
288944,-120.967735,4,1,0,90,0,0
289064,-120.48193,4,1,0,90,0,0
289184,-120,4,1,0,90,0,0
289304,-119.521904,4,1,0,90,0,0
289364,-119.284294,4,1,0,90,0,0
289424,-119.04762,4,1,0,90,0,0
289544,-118.57708,4,1,0,90,0,0
289664,-118.11023,4,1,0,90,0,0
289784,-117.64706,4,1,0,90,0,0
289904,-117.18751,4,1,0,90,0,0
289964,-116.95906,4,1,0,90,0,0
290024,-116.731514,4,1,0,90,0,0
290144,-116.27907,4,1,0,90,0,0
290204,-116.05415,4,1,0,90,0,0
290264,-115.830124,4,1,0,90,0,0
290384,-115.38461,4,1,0,90,0,0
290444,-115.16315,4,1,0,90,0,0
290504,-114.94253,4,1,0,90,0,0
290624,-114.503815,4,1,0,90,0,0
290744,-114.06844,4,1,0,90,0,0
290864,-113.63637,4,1,0,90,0,0
290984,-113.20755,4,1,0,90,0,0
291104,-112.78195,4,1,0,90,0,0
291224,-112.35955,4,1,0,90,0,0
291284,-112.14953,4,1,0,90,0,0
291344,-111.9403,4,1,0,90,0,0
291464,-111.52416,4,1,0,90,0,0
291584,-105.263157894737,4,1,0,90,0,0
291705,-102.564102564103,4,1,0,90,0,0
291824,-108.10811,4,1,0,90,0,0
291944,-107.58886,4,1,0,90,0,0
292064,-107.07456,4,1,0,90,0,0
292184,-106.56517,4,1,0,90,0,0
292304,-106.06061,4,1,0,90,0,0
292424,-105.56079,4,1,0,90,0,0
292544,-105.06567,4,1,0,90,0,0
292664,-104.575165,4,1,0,90,0,0
292724,-104.33163,4,1,0,90,0,0
292784,-104.08922,4,1,0,90,0,0
292904,-103.607765,4,1,0,90,0,0
293024,-103.13075,4,1,0,90,0,0
293144,-102.65811,4,1,0,90,0,0
293264,-102.18978,4,1,0,90,0,0
293324,-101.95721,4,1,0,90,0,0
293384,-101.72571,4,1,0,90,0,0
293444,-101.49524,4,1,0,90,0,0
293504,-101.26582,4,1,0,90,0,0
293624,-100.81008,4,1,0,90,0,0
293684,-100.58375,4,1,0,90,0,0
293744,-100.35842,4,1,0,90,0,0
293864,-99.91079,4,1,0,90,0,0
293924,-99.68848,4,1,0,90,0,0
294044,-99.24678,4,1,0,90,0,0
294104,-99.02741,4,1,0,90,0,0
294164,-98.809,4,1,0,90,0,0
294224,-98.59155,4,1,0,90,0,0
294344,-98.159515,4,1,0,90,0,0
294404,-97.94491,4,1,0,90,0,0
294524,-97.5185,4,1,0,90,0,0
294584,-97.30669,4,1,0,90,0,0
294644,-97.09579,4,1,0,90,0,0
294704,-96.88581,4,1,0,90,0,0
294824,-96.46856,4,1,0,90,0,0
294944,-96.05489,4,1,0,90,0,0
295064,-95.64474,4,1,0,90,0,0
295184,-95.2381,4,1,0,90,0,0
295665,-83.33333,4,1,0,90,0,1
295784,-85.71807,4,1,0,90,0,1
295904,-88.24332,4,1,0,90,0,1
295964,-89.56258,4,1,0,90,0,1
296024,-90.92187,4,1,0,90,0,1
296084,-92.32305,4,1,0,90,0,1
296144,-93.768105,4,1,0,90,0,1
296204,-95.259125,4,1,0,90,0,1
296264,-96.79832,4,1,0,90,0,1
296324,-98.38807,4,1,0,90,0,1
296384,-100.030914,4,1,0,90,0,1
296444,-101.72955,4,1,0,90,0,1
296504,-103.48687,4,1,0,90,0,1
296564,-105.30598,4,1,0,90,0,1
296624,-107.19018,4,1,0,90,0,1
296664,-108.48423,4,1,0,90,0,1
296704,-109.809906,4,1,0,90,0,1
296744,-111.16837,4,1,0,90,0,1
296864,-86.95652,4,1,0,90,0,1
296924,-88.2371,4,1,0,90,0,1
296984,-89.555954,4,1,0,90,0,1
297044,-90.91484,4,1,0,90,0,1
297104,-92.31559,4,1,0,90,0,1
297164,-93.76019,4,1,0,90,0,1
297224,-95.25071,4,1,0,90,0,1
297284,-96.78939,4,1,0,90,0,1
297344,-98.37861,4,1,0,90,0,1
297404,-100.02087,4,1,0,90,0,1
297464,-101.718895,4,1,0,90,0,1
297524,-103.47557,4,1,0,90,0,1
297584,-105.29399,4,1,0,90,0,1
297824,-83.33333,4,1,0,90,0,1
297864,-84.210526,4,1,0,90,0,1
297904,-85.106384,4,1,0,90,0,1
297944,-86.02151,4,1,0,90,0,1
298004,-87.431694,4,1,0,90,0,1
298064,-88.888885,4,1,0,90,0,1
298104,-89.88764,4,1,0,90,0,1
298144,-90.90909,4,1,0,90,0,1
298184,-91.954025,4,1,0,90,0,1
298244,-93.56725,4,1,0,90,0,1
298304,-95.2381,4,1,0,90,0,1
298344,-96.38554,4,1,0,90,0,1
298384,-97.560974,4,1,0,90,0,1
298424,-98.76543,4,1,0,90,0,1
298484,-100.62894,4,1,0,90,0,1
298544,-102.5641,4,1,0,90,0,1
298584,-103.8961,4,1,0,90,0,1
298624,-105.26316,4,1,0,90,0,1
298664,-106.666664,4,1,0,90,0,1
298724,-108.84354,4,1,0,90,0,1
298784,-111.05977,4,1,0,90,0,1
298904,-105.22475,4,1,0,90,0,1
299024,-99.97227,4,1,0,90,0,1
299144,-95.21924,4,1,0,90,0,1
299264,-90.89763,4,1,0,90,0,1
299384,-86.95128,4,1,0,90,0,1
299444,-85.103874,4,1,0,90,0,1
299504,-83.3526,4,1,0,90,0,1
299624,-85.73241,4,1,0,90,0,1
299744,-88.2521,4,1,0,90,0,1
299804,-89.56831,4,1,0,90,0,1
299864,-90.924385,4,1,0,90,0,1
299924,-92.322136,4,1,0,90,0,1
299984,-93.76354,4,1,0,90,0,1
300044,-95.25068,4,1,0,90,0,1
300104,-96.78574,4,1,0,90,0,1
300164,-98.371086,4,1,0,90,0,1
300224,-100.00924,4,1,0,90,0,1
300284,-101.70288,4,1,0,90,0,1
300344,-103.454865,4,1,0,90,0,1
300404,-105.26827,4,1,0,90,0,1
300464,-107.14638,4,1,0,90,0,1
300504,-108.43615,4,1,0,90,0,1
300544,-109.75733,4,1,0,90,0,1
300584,-111.11111,4,1,0,90,0,1
300704,-86.95652,4,1,0,90,0,1
300764,-88.56089,4,1,0,90,0,1
300824,-90.22556,4,1,0,90,0,1
300884,-91.954025,4,1,0,90,0,1
300944,-93.75001,4,1,0,90,0,1
301004,-95.61753,4,1,0,90,0,1
301064,-97.560974,4,1,0,90,0,1
301124,-99.58506,4,1,0,90,0,1
301184,-101.694916,4,1,0,90,0,1
301244,-103.8961,4,1,0,90,0,1
301304,-106.194695,4,1,0,90,0,1
301364,-108.59728,4,1,0,90,0,1
301424,-111.111115,4,1,0,90,0,1
301664,-83.33333,4,1,0,90,0,1
301704,-84.112144,4,1,0,90,0,1
301744,-84.905655,4,1,0,90,0,1
301784,-85.71429,4,1,0,90,0,1
301844,-86.95652,4,1,0,90,0,1
301904,-88.2353,4,1,0,90,0,1
301944,-89.10892,4,1,0,90,0,1
301984,-90.00001,4,1,0,90,0,1
302024,-90.90909,4,1,0,90,0,1
302084,-92.307686,4,1,0,90,0,1
302144,-93.75001,4,1,0,90,0,1
302184,-94.73684,4,1,0,90,0,1
302224,-95.74468,4,1,0,90,0,1
302264,-96.774185,4,1,0,90,0,1
302324,-98.36066,4,1,0,90,0,1
302384,-99.97919,4,1,0,90,0,1
302504,-97.54364,4,1,0,90,0,1
302564,-96.369835,4,1,0,90,0,1
302624,-95.22394,4,1,0,90,0,1
302744,-93.012,4,1,0,90,0,1
302804,-91.94413,4,1,0,90,0,1
302864,-90.9005,4,1,0,90,0,1
302984,-88.88273,4,1,0,90,0,1
303044,-87.90707,4,1,0,90,0,1
303104,-86.95259,4,1,0,90,0,1
303144,-86.327705,4,1,0,90,0,1
303184,-85.71173,4,1,0,90,0,1
303224,-85.10449,4,1,0,90,0,1
303284,-84.209595,4,1,0,90,0,1
303344,-83.3526,4,1,0,90,0,1
303464,-85.73241,4,1,0,90,0,1
303584,-88.2521,4,1,0,90,0,1
303644,-89.56831,4,1,0,90,0,1
303704,-90.924385,4,1,0,90,0,1
303764,-92.322136,4,1,0,90,0,1
303824,-93.76354,4,1,0,90,0,1
303884,-95.25068,4,1,0,90,0,1
303944,-96.78574,4,1,0,90,0,1
304004,-98.371086,4,1,0,90,0,1
304064,-100.00924,4,1,0,90,0,1
304124,-101.70288,4,1,0,90,0,1
304184,-103.454865,4,1,0,90,0,1
304244,-105.26827,4,1,0,90,0,1
304304,-107.14638,4,1,0,90,0,1
304344,-108.43615,4,1,0,90,0,1
304384,-109.75733,4,1,0,90,0,1
304424,-111.11111,4,1,0,90,0,1
304544,-86.95652,4,1,0,90,0,1
304604,-88.56089,4,1,0,90,0,1
304664,-90.22556,4,1,0,90,0,1
304724,-91.954025,4,1,0,90,0,1
304784,-93.75001,4,1,0,90,0,1
304844,-95.61753,4,1,0,90,0,1
304904,-97.560974,4,1,0,90,0,1
304964,-99.58506,4,1,0,90,0,1
305024,-101.694916,4,1,0,90,0,1
305084,-103.8961,4,1,0,90,0,1
305144,-106.194695,4,1,0,90,0,1
305204,-108.59728,4,1,0,90,0,1
305264,-111.111115,4,1,0,90,0,1
305504,-83.33333,4,1,0,90,0,1
305544,-84.210526,4,1,0,90,0,1
305584,-85.106384,4,1,0,90,0,1
305624,-86.02151,4,1,0,90,0,1
305684,-87.431694,4,1,0,90,0,1
305744,-88.888885,4,1,0,90,0,1
305784,-89.88764,4,1,0,90,0,1
305824,-90.90909,4,1,0,90,0,1
305864,-91.954025,4,1,0,90,0,1
305924,-93.56725,4,1,0,90,0,1
305984,-95.2381,4,1,0,90,0,1
306024,-96.38554,4,1,0,90,0,1
306064,-97.560974,4,1,0,90,0,1
306104,-98.76543,4,1,0,90,0,1
306164,-100.62894,4,1,0,90,0,1
306224,-102.5641,4,1,0,90,0,1
306264,-103.8961,4,1,0,90,0,1
306304,-105.26316,4,1,0,90,0,1
306344,-106.666664,4,1,0,90,0,1
306404,-108.84354,4,1,0,90,0,1
306464,-111.05977,4,1,0,90,0,1
306584,-105.22475,4,1,0,90,0,1
306704,-99.97227,4,1,0,90,0,1
306824,-95.21924,4,1,0,90,0,1
306944,-90.89763,4,1,0,90,0,1
307064,-86.95128,4,1,0,90,0,1
307124,-85.103874,4,1,0,90,0,1
307184,-83.3526,4,1,0,90,0,1
307304,-85.73241,4,1,0,90,0,1
307424,-88.2521,4,1,0,90,0,1
307484,-89.56831,4,1,0,90,0,1
307544,-90.924385,4,1,0,90,0,1
307604,-92.322136,4,1,0,90,0,1
307664,-93.76354,4,1,0,90,0,1
307724,-95.25068,4,1,0,90,0,1
307784,-96.78574,4,1,0,90,0,1
307844,-98.371086,4,1,0,90,0,1
307904,-100.00924,4,1,0,90,0,1
307964,-101.70288,4,1,0,90,0,1
308024,-103.454865,4,1,0,90,0,1
308084,-105.26827,4,1,0,90,0,1
308144,-107.14638,4,1,0,90,0,1
308184,-108.43615,4,1,0,90,0,1
308224,-109.75733,4,1,0,90,0,1
308264,-111.11111,4,1,0,90,0,1
308384,-86.95652,4,1,0,90,0,1
308444,-88.56089,4,1,0,90,0,1
308504,-90.22556,4,1,0,90,0,1
308564,-91.954025,4,1,0,90,0,1
308624,-93.75001,4,1,0,90,0,1
308684,-95.61753,4,1,0,90,0,1
308744,-97.560974,4,1,0,90,0,1
308804,-99.58506,4,1,0,90,0,1
308864,-101.694916,4,1,0,90,0,1
308924,-103.8961,4,1,0,90,0,1
308984,-106.194695,4,1,0,90,0,1
309044,-108.59728,4,1,0,90,0,1
309105,-111.111115,4,1,0,90,0,0
309224,-112.676056,4,1,0,90,0,0
309344,-114.28571,4,1,0,90,0,0
309584,-117.64706,4,1,0,90,0,0
309824,-121.212135,4,1,0,90,0,0
309944,-123.076935,4,1,0,90,0,0
310064,-124.95938,4,1,0,90,0,0
310184,-120.26782,4,1,0,90,0,0
310244,-118.05173,4,1,0,90,0,0
310304,-115.91581,4,1,0,90,0,0
310424,-111.86777,4,1,0,90,0,0
310484,-109.94795,4,1,0,90,0,0
310544,-108.09291,4,1,0,90,0,0
310664,-104.5645,4,1,0,90,0,0
310724,-102.885284,4,1,0,90,0,0
310784,-101.259155,4,1,0,90,0,0
310844,-99.68363,4,1,0,90,0,0
310904,-98.15638,4,1,0,90,0,0
310944,-97.16394,4,1,0,90,0,0
310984,-96.19137,4,1,0,90,0,0
311025,-95.2381,4,1,0,90,0,1
317745,-90.9090909090909,4,1,0,90,0,1
318825,-95.2380952380952,4,1,0,90,0,1
322545,-90.9090909090909,4,1,0,90,0,1
325184,-90.90909,4,1,0,90,0,1
325304,-91.954025,4,1,0,90,0,1
325424,-93.023254,4,1,0,90,0,1
325484,-93.56725,4,1,0,90,0,1
325544,-94.117645,4,1,0,90,0,1
325604,-94.67456,4,1,0,90,0,1
325664,-95.2381,4,1,0,90,0,1
326145,-90.9090909090909,4,1,0,90,0,1
329744,-90.90909,4,1,0,90,0,1
329804,-91.42857,4,1,0,90,0,1
329864,-91.954025,4,1,0,90,0,1
329924,-92.48555,4,1,0,90,0,1
329984,-93.023254,4,1,0,90,0,1
330044,-93.56725,4,1,0,90,0,1
330104,-94.117645,4,1,0,90,0,1
330164,-94.67456,4,1,0,90,0,1
330224,-95.2381,4,1,0,90,0,1
333705,-90.9090909090909,4,1,0,90,0,1
337424,-90.90909,4,1,0,90,0,1
337544,-93.023254,4,1,0,90,0,1
337664,-95.2381,4,1,0,90,0,1
337904,-99.99405,4,1,0,90,0,1
338024,-99.285126,4,1,0,90,0,1
338144,-98.586174,4,1,0,90,0,1
338264,-97.89701,4,1,0,90,0,1
338384,-97.21741,4,1,0,90,0,1
338504,-96.54717,4,1,0,90,0,1
338624,-95.88611,4,1,0,90,0,1
338744,-95.23405,4,1,0,90,0,1
338804,-94.91133,4,1,0,90,0,1
338864,-94.5908,4,1,0,90,0,1
338984,-93.95617,4,1,0,90,0,1
339104,-93.33,4,1,0,90,0,1
339224,-92.71213,4,1,0,90,0,1
339344,-92.10238,4,1,0,90,0,1
339464,-91.500595,4,1,0,90,0,1
339584,-90.906624,4,1,0,90,0,1
339704,-90.32032,4,1,0,90,0,1
339764,-90.03,4,1,0,90,0,1
339824,-89.74152,4,1,0,90,0,1
339944,-89.17012,4,1,0,90,0,1
340004,-88.88713,4,1,0,90,0,1
340124,-88.3265,4,1,0,90,0,1
340184,-88.048836,4,1,0,90,0,1
340244,-87.77291,4,1,0,90,0,1
340304,-87.4987,4,1,0,90,0,1
340424,-86.9554,4,1,0,90,0,1
340484,-86.68627,4,1,0,90,0,1
340604,-86.15298,4,1,0,90,0,1
340664,-85.88879,4,1,0,90,0,1
340724,-85.62621,4,1,0,90,0,1
340784,-85.365234,4,1,0,90,0,1
340904,-84.84803,4,1,0,90,0,1
341024,-84.33704,4,1,0,90,0,1
341144,-83.832184,4,1,0,90,0,1
341264,-83.33333,4,1,0,90,0,1
341745,-71.4285711301679,4,1,0,90,0,0
341865,-50,4,1,0,50,0,0
342705,-55.5555555555556,4,1,0,50,0,0
343665,-62.5,4,1,0,50,0,0
344625,-71.4285714285714,4,1,0,50,0,0
345585,-83.3333333333333,4,1,0,50,0,0
346545,-100,4,1,0,50,0,0
347505,-125,4,1,0,50,0,0
347625,-165.975101261219,4,1,0,20,0,0
357105,-142.348752629182,4,1,0,40,0,0
357585,-165.975101261219,4,1,0,40,0,0
372465,-142.348752629182,4,1,0,50,0,0
372945,-165.975101261219,4,1,0,50,0,0
387825,-142.857142857143,4,1,0,40,0,0
387885,-166.666666666667,4,1,0,30,0,0
388604,-164.08269,4,1,0,30,0,0
389344,-161.50911,4,1,0,30,0,0
390284,-158.35411,4,1,0,30,0,0
391244,-155.25673,4,1,0,30,0,0
392025,-153.846153846154,4,1,0,30,0,0
392144,-152.46098,4,1,0,30,0,0
393164,-149.41177,4,1,0,30,0,0
393945,-148.148148148148,4,1,0,30,0,0
394064,-146.82082,4,1,0,30,0,0
395084,-143.99094,4,1,0,30,0,0
395504,-133.333333333333,4,1,0,50,0,0
395744,-142.85715,4,1,0,30,0,0
395864,-142.35732,4,1,0,30,0,0
395925,-142.045454545455,4,1,0,30,0,0
395984,-141.86098,4,1,0,30,0,0
396224,-140.87859,4,1,0,30,0,0
396464,-139.90974,4,1,0,30,0,0
396824,-138.48117,4,1,0,30,0,0
396884,-138.24591,4,1,0,30,0,0
396944,-138.01146,4,1,0,30,0,0
397184,-137.0815,4,1,0,30,0,0
397424,-136.16399,4,1,0,30,0,0
397784,-134.81053,4,1,0,30,0,0
397844,-134.58755,4,1,0,30,0,0
397904,-134.36533,4,1,0,30,0,0
398144,-133.48369,4,1,0,30,0,0
398384,-132.61356,4,1,0,30,0,0
398744,-131.32944,4,1,0,30,0,0
398864,-130.9069,4,1,0,30,0,0
399104,-130.06993,4,1,0,30,0,0
399344,-129.24359,4,1,0,30,0,0
399584,-128.42769,4,1,0,30,0,0
399704,-128.0236,4,1,0,30,0,0
399765,-127.713920817369,4,1,0,30,0,0
399824,-127.62204,4,1,0,30,0,0
400064,-126.826416,4,1,0,30,0,0
400304,-126.04066,4,1,0,30,0,0
400544,-125.26458,4,1,0,30,0,0
400664,-124.880104,4,1,0,30,0,0
400725,-124.53300124533,4,1,0,30,0,0
400784,-124.49799,4,1,0,30,0,0
401024,-123.74074,4,1,0,30,0,0
401264,-122.99263,4,1,0,30,0,0
401504,-122.25352,4,1,0,30,0,0
401624,-121.88729,4,1,0,30,0,0
401685,-121.506682867558,4,1,0,30,0,0
401744,-121.52324,4,1,0,30,0,0
401984,-120.80163,4,1,0,30,0,0
402224,-120.088554,4,1,0,30,0,0
402464,-119.38383,4,1,0,30,0,0
402584,-119.03455,4,1,0,30,0,0
402704,-118.68733,4,1,0,30,0,0
402944,-117.99891,4,1,0,30,0,0
403064,-117.65769,4,1,0,30,0,0
403184,-117.31843,4,1,0,40,0,0
403424,-116.64576,4,1,0,40,0,0
403544,-116.31231,4,1,0,40,0,0
403664,-115.98076,4,1,0,40,0,0
403904,-115.323296,4,1,0,40,0,0
404144,-114.67324,4,1,0,40,0,0
404384,-114.03048,4,1,0,40,0,0
404504,-113.71179,4,1,0,40,0,0
404624,-113.39488,4,1,0,40,0,0
404864,-112.76633,4,1,0,40,0,0
405104,-112.1447,4,1,0,40,0,0
405344,-111.52989,4,1,0,40,0,0
405464,-111.225006,4,1,0,40,0,0
405584,-110.92179,4,1,0,40,0,0
405824,-110.32029,4,1,0,40,0,0
406064,-109.725266,4,1,0,50,0,0
406304,-109.13663,4,1,0,50,0,0
406424,-108.84467,4,1,0,50,0,0
406544,-108.55428,4,1,0,50,0,0
406784,-107.9781,4,1,0,50,0,0
407024,-107.40802,4,1,0,50,0,0
407264,-106.843925,4,1,0,50,0,0
407384,-106.56409,4,1,0,50,0,0
407744,-105.73331,4,1,0,50,0,0
407864,-105.45925,4,1,0,50,0,0
407984,-105.18662,4,1,0,50,0,0
408224,-104.64555,4,1,0,50,0,0
408344,-104.377106,4,1,0,50,0,0
408704,-103.579956,4,1,0,50,0,0
408824,-103.31694,4,1,0,50,0,0
408944,-103.05525,4,1,0,50,0,0
409184,-102.535835,4,1,0,50,0,0
409304,-102.27808,4,1,0,50,0,0
409664,-101.51255,4,1,0,50,0,0
409784,-101.25992,4,1,0,50,0,0
409904,-101.00853,4,1,0,50,0,0
410144,-100.50949,4,1,0,50,0,0
410264,-100.26182,4,1,0,50,0,0
410624,-99.52606,4,1,0,50,0,0
410864,-100,4,1,0,70,0,0
410984,-99.83897,4,1,0,70,0,0
411104,-99.67846,4,1,0,70,0,0
411164,-99.5984,4,1,0,70,0,0
411224,-99.51846,4,1,0,70,0,0
411284,-99.43865,4,1,0,70,0,0
411344,-99.35898,4,1,0,70,0,0
411464,-99.2,4,1,0,70,0,0
411584,-99.041534,4,1,0,70,0,0
411704,-98.883575,4,1,0,70,0,0
411764,-98.80478,4,1,0,70,0,0
411824,-98.72611,4,1,0,70,0,0
411944,-98.56916,4,1,0,70,0,0
412064,-98.4127,4,1,0,70,0,0
412184,-98.25674,4,1,0,70,0,0
412244,-98.17894,4,1,0,70,0,0
412304,-98.101265,4,1,0,70,0,0
412364,-98.02372,4,1,0,70,0,0
412424,-97.94629,4,1,0,70,0,0
412544,-97.7918,4,1,0,70,0,0
412664,-97.63779,4,1,0,70,0,0
412724,-97.560974,4,1,0,70,0,0
412784,-97.484276,4,1,0,70,0,0
412904,-97.331245,4,1,0,70,0,0
413024,-97.17869,4,1,0,70,0,0
413144,-97.0266,4,1,0,70,0,0
413204,-96.95074,4,1,0,70,0,0
413264,-96.875,4,1,0,70,0,0
413324,-96.79937,4,1,0,70,0,0
413384,-96.72387,4,1,0,70,0,0
413504,-96.57321,4,1,0,70,0,0
413624,-96.42301,4,1,0,70,0,0
413684,-96.3481,4,1,0,70,0,0
413744,-96.273285,4,1,0,70,0,0
413864,-96.12402,4,1,0,70,0,0
413984,-95.97523,4,1,0,70,0,0
414104,-95.8269,4,1,0,70,0,0
414164,-95.75289,4,1,0,70,0,0
414224,-95.679016,4,1,0,70,0,0
414284,-95.60523,4,1,0,70,0,0
414344,-95.53159,4,1,0,70,0,0
414464,-95.38462,4,1,0,70,0,0
414524,-95.311295,4,1,0,70,0,0
414584,-95.2381,4,1,0,70,0,0
414624,-95.18936,4,1,0,70,0,0
414664,-95.140656,4,1,0,70,0,0
414704,-95.09202,4,1,0,70,0,0
414824,-94.946396,4,1,0,70,0,0
414944,-94.801216,4,1,0,70,0,0
415064,-94.65648,4,1,0,70,0,0
415124,-94.58429,4,1,0,70,0,0
415184,-94.51219,4,1,0,70,0,0
415244,-94.44021,4,1,0,70,0,0
415304,-94.36835,4,1,0,70,0,0
415424,-94.22493,4,1,0,70,0,0
415544,-94.08195,4,1,0,70,0,0
415604,-94.01061,4,1,0,70,0,0
415664,-93.9394,4,1,0,70,0,0
415784,-93.79728,4,1,0,70,0,0
415904,-93.65559,4,1,0,70,0,0
416024,-93.51432,4,1,0,70,0,0
416084,-93.44386,4,1,0,70,0,0
416144,-93.37349,4,1,0,70,0,0
416204,-93.30324,4,1,0,70,0,0
416264,-93.23308,4,1,0,70,0,0
416384,-93.09309,4,1,0,70,0,0
416504,-92.95353,4,1,0,70,0,0
416564,-92.88389,4,1,0,70,0,0
416624,-92.81438,4,1,0,70,0,0
416744,-92.675644,4,1,0,70,0,0
416864,-92.53732,4,1,0,70,0,0
416984,-92.3994,4,1,0,70,0,0
417024,-92.35353,4,1,0,70,0,0
417064,-92.307686,4,1,0,70,0,0
417104,-92.2619,4,1,0,70,0,0
417164,-92.19331,4,1,0,70,0,0
417224,-92.12481,4,1,0,70,0,0
417344,-91.98813,4,1,0,70,0,0
417464,-91.85185,4,1,0,70,0,0
417524,-91.78386,4,1,0,70,0,0
417584,-91.71597,4,1,0,70,0,0
417704,-91.5805,4,1,0,70,0,0
417824,-91.445435,4,1,0,70,0,0
417944,-91.31076,4,1,0,70,0,0
418004,-91.24356,4,1,0,70,0,0
418064,-91.17647,4,1,0,70,0,0
418124,-91.109474,4,1,0,70,0,0
418184,-91.04258,4,1,0,70,0,0
418224,-90.998055,4,1,0,70,0,0
418264,-90.953545,4,1,0,70,0,0
418304,-90.90909,4,1,0,70,0,0
418545,-86.95652,4,1,0,90,0,1
418584,-86.93028,4,1,0,90,0,1
418624,-86.90404,4,1,0,90,0,1
418664,-86.87783,4,1,0,90,0,1
418724,-86.83854,4,1,0,90,0,1
418784,-86.79927,4,1,0,90,0,1
418844,-86.760056,4,1,0,90,0,1
418904,-86.72086,4,1,0,90,0,1
418944,-86.69476,4,1,0,90,0,1
418984,-86.66867,4,1,0,90,0,1
419024,-86.64261,4,1,0,90,0,1
419084,-86.603516,4,1,0,90,0,1
419144,-86.56447,4,1,0,90,0,1
419204,-86.52546,4,1,0,90,0,1
419264,-86.48649,4,1,0,90,0,1
419304,-86.460526,4,1,0,90,0,1
419344,-86.43457,4,1,0,90,0,1
419384,-86.408646,4,1,0,90,0,1
419444,-86.369774,4,1,0,90,0,1
419504,-86.330925,4,1,0,90,0,1
419544,-86.30506,4,1,0,90,0,1
419584,-86.279205,4,1,0,90,0,1
419624,-86.25337,4,1,0,90,0,1
419684,-86.21463,4,1,0,90,0,1
419744,-86.17595,4,1,0,90,0,1
419784,-86.15017,4,1,0,90,0,1
419824,-86.124405,4,1,0,90,0,1
419864,-86.09865,4,1,0,90,0,1
419904,-86.07293,4,1,0,90,0,1
419944,-86.047195,4,1,0,90,0,1
419984,-86.02151,4,1,0,90,0,1
420044,-85.98298,4,1,0,90,0,1
420104,-85.944496,4,1,0,90,0,1
420164,-85.906044,4,1,0,90,0,1
420224,-85.86762,4,1,0,90,0,1
420264,-85.842026,4,1,0,90,0,1
420304,-85.816444,4,1,0,90,0,1
420344,-85.790886,4,1,0,90,0,1
420404,-85.75256,4,1,0,90,0,1
420464,-85.71429,4,1,0,90,0,1
420504,-85.68878,4,1,0,90,0,1
420544,-85.66329,4,1,0,90,0,1
420584,-85.63782,4,1,0,90,0,1
420644,-85.59965,4,1,0,90,0,1
420704,-85.56149,4,1,0,90,0,1
420764,-85.523384,4,1,0,90,0,1
420824,-85.48531,4,1,0,90,0,1
420864,-85.45994,4,1,0,90,0,1
420904,-85.43459,4,1,0,90,0,1
420944,-85.40925,4,1,0,90,0,1
421004,-85.37128,4,1,0,90,0,1
421064,-85.333336,4,1,0,90,0,1
421124,-85.295425,4,1,0,90,0,1
421184,-85.25755,4,1,0,90,0,1
421224,-85.232315,4,1,0,90,0,1
421264,-85.20711,4,1,0,90,0,1
421304,-85.18189,4,1,0,90,0,1
421364,-85.14413,4,1,0,90,0,1
421424,-85.106384,4,1,0,90,0,1
421464,-85.081245,4,1,0,90,0,1
421504,-85.056114,4,1,0,90,0,1
421544,-85.031006,4,1,0,90,0,1
421604,-84.993355,4,1,0,90,0,1
421664,-84.95575,4,1,0,90,0,1
421704,-84.9307,4,1,0,90,0,1
421744,-84.905655,4,1,0,90,0,1
421784,-84.88064,4,1,0,90,0,1
421824,-84.85563,4,1,0,90,0,1
421864,-84.830635,4,1,0,90,0,1
421904,-84.80566,4,1,0,90,0,1
421964,-84.76821,4,1,0,90,0,1
422024,-84.730804,4,1,0,90,0,1
422084,-84.69343,4,1,0,90,0,1
422144,-84.65609,4,1,0,90,0,1
422184,-84.63122,4,1,0,90,0,1
422224,-84.60634,4,1,0,90,0,1
422264,-84.5815,4,1,0,90,0,1
422324,-84.54426,4,1,0,90,0,1
422384,-84.507034,4,1,0,90,0,1
422444,-84.46987,4,1,0,90,0,1
422504,-84.43272,4,1,0,90,0,1
422564,-84.3956,4,1,0,90,0,1
422624,-84.35853,4,1,0,90,0,1
422684,-84.32147,4,1,0,90,0,1
422744,-84.28446,4,1,0,90,0,1
422784,-84.2598,4,1,0,90,0,1
422824,-84.23515,4,1,0,90,0,1
422864,-84.210526,4,1,0,90,0,1
422924,-84.17361,4,1,0,90,0,1
422984,-84.13673,4,1,0,90,0,1
423044,-84.09987,4,1,0,90,0,1
423104,-84.06304,4,1,0,90,0,1
423144,-84.03852,4,1,0,90,0,1
423184,-84.014,4,1,0,90,0,1
423224,-83.9895,4,1,0,90,0,1
423284,-83.952774,4,1,0,90,0,1
423344,-83.91609,4,1,0,90,0,1
423404,-83.87942,4,1,0,90,0,1
423464,-83.84279,4,1,0,90,0,1
423524,-83.806206,4,1,0,90,0,1
423584,-83.76963,4,1,0,90,0,1
423624,-83.74528,4,1,0,90,0,1
423664,-83.72093,4,1,0,90,0,1
423704,-83.6966,4,1,0,90,0,1
423764,-83.66013,4,1,0,90,0,1
423824,-83.623695,4,1,0,90,0,1
423864,-83.59942,4,1,0,90,0,1
423904,-83.57516,4,1,0,90,0,1
423944,-83.55092,4,1,0,90,0,1
424004,-83.514565,4,1,0,90,0,1
424064,-83.478264,4,1,0,90,0,1
424104,-83.45407,4,1,0,90,0,1
424144,-83.42989,4,1,0,90,0,1
424184,-83.40573,4,1,0,90,0,1
424224,-83.38159,4,1,0,90,0,1
424264,-83.35745,4,1,0,90,0,1
424304,-83.33333,4,1,0,90,0,1
424335,-86.9565217391304,4,1,0,80,0,0
426225,-86.9565217391304,4,1,0,90,0,1
441585,-86.9565217391304,4,1,0,90,0,0
441825,-86.9565217391304,4,1,0,90,0,1
453104,-86.95652,4,1,0,90,0,1
453224,-86.68731,4,1,0,90,0,1
453344,-86.419754,4,1,0,90,0,1
453464,-86.15385,4,1,0,90,0,1
453584,-85.889565,4,1,0,90,0,1
453704,-85.62691,4,1,0,90,0,1
453824,-85.36585,4,1,0,90,0,1
453944,-85.106384,4,1,0,90,0,1
454004,-84.97724,4,1,0,90,0,1
454064,-84.84848,4,1,0,90,0,1
454184,-84.59215,4,1,0,90,0,1
454304,-84.33735,4,1,0,90,0,1
454424,-84.08408,4,1,0,90,0,1
454544,-83.83234,4,1,0,90,0,1
454664,-83.58209,4,1,0,90,0,1
454784,-83.36224,4,1,0,90,0,1
454904,-85.49813,4,1,0,90,0,1
454964,-86.60766,4,1,0,90,0,1
455024,-87.74636,4,1,0,90,0,1
455144,-90.11602,4,1,0,90,0,1
455204,-91.349495,4,1,0,90,0,1
455324,-93.9206,4,1,0,90,0,1
455384,-95.261215,4,1,0,90,0,1
455504,-98.060616,4,1,0,90,0,1
455624,-101.02952,4,1,0,90,0,1
455684,-102.58242,4,1,0,90,0,1
455804,-105.83599,4,1,0,90,0,1
455864,-107.54143,4,1,0,90,0,1
455984,-111.12264,4,1,0,90,0,1
456044,-109.16849,4,1,0,90,0,1
456104,-107.34056,4,1,0,90,0,1
456164,-105.57285,4,1,0,90,0,1
456224,-103.86242,4,1,0,90,0,1
456284,-102.20652,4,1,0,90,0,1
456344,-100.602585,4,1,0,90,0,1
456404,-99.048225,4,1,0,90,0,1
456464,-97.54117,4,1,0,90,0,1
456524,-96.07928,4,1,0,90,0,1
456584,-94.66056,4,1,0,90,0,1
456644,-93.283134,4,1,0,90,0,1
456704,-91.94521,4,1,0,90,0,1
456764,-90.645134,4,1,0,90,0,1
456824,-89.381325,4,1,0,90,0,1
456944,-86.95652,4,1,0,90,0,1
472305,-86.9565217391304,4,1,0,90,0,0
472545,-86.9565217391304,4,1,0,90,0,1
483824,-86.95652,4,1,0,90,0,1
483944,-86.68731,4,1,0,90,0,1
484064,-86.419754,4,1,0,90,0,1
484184,-86.15385,4,1,0,90,0,1
484304,-85.889565,4,1,0,90,0,1
484424,-85.62691,4,1,0,90,0,1
484544,-85.36585,4,1,0,90,0,1
484664,-85.106384,4,1,0,90,0,1
484724,-84.97724,4,1,0,90,0,1
484784,-84.84848,4,1,0,90,0,1
484904,-84.59215,4,1,0,90,0,1
485024,-84.33735,4,1,0,90,0,1
485144,-84.08408,4,1,0,90,0,1
485264,-83.83234,4,1,0,90,0,1
485384,-83.58209,4,1,0,90,0,1
485504,-83.35067,4,1,0,90,0,1
485564,-84.405075,4,1,0,90,0,1
485624,-85.4865,4,1,0,90,0,1
485684,-86.595985,4,1,0,90,0,1
485744,-87.734665,4,1,0,90,0,1
485864,-90.10428,4,1,0,90,0,1
485924,-91.33773,4,1,0,90,0,1
486044,-93.90882,4,1,0,90,0,1
486104,-95.24941,4,1,0,90,0,1
486224,-98.048805,4,1,0,90,0,1
486344,-101.01774,4,1,0,90,0,1
486404,-102.57066,4,1,0,90,0,1
486524,-105.824295,4,1,0,90,0,1
486584,-107.52976,4,1,0,90,0,1
486704,-111.078995,4,1,0,90,0,1
486764,-109.18593,4,1,0,90,0,1
486824,-107.35631,4,1,0,90,0,1
486884,-105.58698,4,1,0,90,0,1
486944,-103.875046,4,1,0,90,0,1
487004,-102.21773,4,1,0,90,0,1
487064,-100.61247,4,1,0,90,0,1
487124,-99.05685,4,1,0,90,0,1
487184,-97.54859,4,1,0,90,0,1
487244,-96.08559,4,1,0,90,0,1
487304,-94.66582,4,1,0,90,0,1
487364,-93.287384,4,1,0,90,0,1
487424,-91.948524,4,1,0,90,0,1
487484,-90.647545,4,1,0,90,0,1
487544,-89.38287,4,1,0,90,0,1
487664,-83.3333333333333,4,1,0,90,0,1
488024,-89.14037,4,1,0,90,0,1
488084,-89.514015,4,1,0,90,0,1
488144,-89.89079,4,1,0,90,0,1
488384,-91.46286,4,1,0,90,0,1
488624,-88.8888888888889,4,1,0,90,0,1
488744,-93.85199,4,1,0,90,0,1
488804,-94.268425,4,1,0,90,0,1
488864,-94.68859,4,1,0,90,0,1
488984,-95.54023,4,1,0,90,0,1
489044,-95.97183,4,1,0,90,0,1
489104,-96.407326,4,1,0,90,0,1
489344,-98.18964,4,1,0,90,0,1
489584,-95.2380952380952,4,1,0,90,0,1
489944,-102.92488,4,1,0,90,0,1
490004,-103.42074,4,1,0,90,0,1
490064,-103.92139,4,1,0,90,0,1
490304,-105.973404,4,1,0,90,0,1
490544,-102.564102564103,4,1,0,90,0,1
490664,-109.22316,4,1,0,90,0,1
490724,-109.78466,4,1,0,90,0,1
490784,-110.35195,4,1,0,90,0,1
490904,-111.504326,4,1,0,90,0,1
490964,-112.08958,4,1,0,90,0,1
491024,-112.68101,4,1,0,90,0,1
491264,-115.1105,4,1,0,90,0,1
491504,-117.632645,4,1,0,90,0,1
491624,-115.928535,4,1,0,90,0,1
491744,-114.27309,4,1,0,90,0,1
491864,-112.66425,4,1,0,90,0,1
491984,-111.1001,4,1,0,90,0,1
492104,-109.578766,4,1,0,90,0,1
492224,-108.09854,4,1,0,90,0,1
492344,-106.657776,4,1,0,90,0,1
492404,-105.951706,4,1,0,90,0,1
492464,-105.25492,4,1,0,90,0,1
492584,-103.88847,4,1,0,90,0,1
492704,-102.55706,4,1,0,90,0,1
492824,-101.25934,4,1,0,90,0,1
492944,-99.99405,4,1,0,90,0,1
493064,-98.75999,4,1,0,90,0,1
493184,-97.55602,4,1,0,90,0,1
493304,-96.38106,4,1,0,90,0,1
493364,-95.80411,4,1,0,90,0,1
493424,-95.23405,4,1,0,90,0,1
493544,-94.11403,4,1,0,90,0,1
493604,-93.563835,4,1,0,90,0,1
493724,-92.48253,4,1,0,90,0,1
493784,-91.951195,4,1,0,90,0,1
493904,-90.906624,4,1,0,90,0,1
494024,-89.88554,4,1,0,90,0,1
494084,-89.383545,4,1,0,90,0,1
494204,-88.39619,4,1,0,90,0,1
494264,-87.91066,4,1,0,90,0,1
494384,-86.9554,4,1,0,90,0,1
494504,-86.020676,4,1,0,90,0,1
494624,-85.10584,4,1,0,90,0,1
494744,-84.210266,4,1,0,90,0,1
494865,-83.33333,4,1,0,90,0,0
495345,-95.2380952380952,4,1,0,80,0,0
495465,-100,4,1,0,80,0,0
496544,-90.90909,4,1,0,80,0,0
496604,-91.42857,4,1,0,80,0,0
496664,-91.954025,4,1,0,80,0,0
496724,-92.48555,4,1,0,80,0,0
496784,-93.023254,4,1,0,80,0,0
496824,-93.385216,4,1,0,80,0,0
496864,-93.75001,4,1,0,80,0,0
496904,-94.117645,4,1,0,80,0,0
497024,-95.2381,4,1,0,80,0,0
497084,-95.80838,4,1,0,80,0,0
497144,-96.38554,4,1,0,80,0,0
497184,-96.774185,4,1,0,80,0,0
497224,-97.166,4,1,0,80,0,0
497264,-97.560974,4,1,0,80,0,0
497324,-98.159515,4,1,0,80,0,0
497384,-98.76543,4,1,0,80,0,0
497444,-99.37888,4,1,0,80,0,0
497504,-100,4,1,0,80,0,0
498224,-90.90909,4,1,0,80,0,0
498264,-91.254745,4,1,0,80,0,0
498304,-91.60306,4,1,0,80,0,0
498344,-91.954025,4,1,0,80,0,0
498404,-92.48555,4,1,0,80,0,0
498464,-93.023254,4,1,0,80,0,0
498524,-93.56725,4,1,0,80,0,0
498584,-94.117645,4,1,0,80,0,0
498644,-94.67456,4,1,0,80,0,0
498704,-95.2381,4,1,0,80,0,0
498744,-95.61753,4,1,0,80,0,0
498784,-96,4,1,0,80,0,0
498824,-96.38554,4,1,0,80,0,0
498884,-96.969696,4,1,0,80,0,0
498944,-97.560974,4,1,0,80,0,0
498984,-97.95919,4,1,0,80,0,0
499024,-98.36066,4,1,0,80,0,0
499064,-98.76543,4,1,0,80,0,0
499124,-99.37888,4,1,0,80,0,0
499184,-100,4,1,0,80,0,0
501104,-100,4,1,0,80,0,0
501224,-101.26716,4,1,0,80,0,0
501344,-102.56685,4,1,0,80,0,0
501404,-103.22928,4,1,0,80,0,0
501464,-103.90033,4,1,0,80,0,0
501584,-105.26893,4,1,0,80,0,0
501704,-106.67409,4,1,0,80,0,0
501764,-107.390816,4,1,0,80,0,0
501824,-108.11725,4,1,0,80,0,0
501884,-108.85358,4,1,0,80,0,0
501944,-109.6,4,1,0,80,0,0
502064,-111.123985,4,1,0,80,0,0
502244,-108.84354,4,1,0,80,0,0
502424,-106.666664,4,1,0,80,0,0
502544,-105.26316,4,1,0,80,0,0
502604,-104.575165,4,1,0,80,0,0
502664,-103.8961,4,1,0,80,0,0
502724,-103.22581,4,1,0,80,0,0
502784,-102.5641,4,1,0,80,0,0
502844,-101.91083,4,1,0,80,0,0
502904,-101.26582,4,1,0,80,0,0
502964,-100.62894,4,1,0,80,0,0
503024,-100,4,1,0,80,0,0
504464,-90.90909,4,1,0,80,0,0
504504,-91.37055,4,1,0,80,0,0
504544,-91.83674,4,1,0,80,0,0
504584,-92.307686,4,1,0,80,0,0
504704,-93.75001,4,1,0,80,0,0
504764,-94.48818,4,1,0,80,0,0
504824,-95.2381,4,1,0,80,0,0
504864,-95.74468,4,1,0,80,0,0
504904,-96.25668,4,1,0,80,0,0
504944,-96.774185,4,1,0,80,0,0
505004,-97.560974,4,1,0,80,0,0
505064,-98.36066,4,1,0,80,0,0
505124,-99.17355,4,1,0,80,0,0
505184,-100,4,1,0,80,0,0
505904,-90.90909,4,1,0,80,0,0
505944,-91.254745,4,1,0,80,0,0
505984,-91.60306,4,1,0,80,0,0
506024,-91.954025,4,1,0,80,0,0
506084,-92.48555,4,1,0,80,0,0
506144,-93.023254,4,1,0,80,0,0
506204,-93.56725,4,1,0,80,0,0
506264,-94.117645,4,1,0,80,0,0
506324,-94.67456,4,1,0,80,0,0
506384,-95.2381,4,1,0,80,0,0
506424,-95.61753,4,1,0,80,0,0
506464,-96,4,1,0,80,0,0
506504,-96.38554,4,1,0,80,0,0
506564,-96.969696,4,1,0,80,0,0
506624,-97.560974,4,1,0,80,0,0
506664,-97.95919,4,1,0,80,0,0
506704,-98.36066,4,1,0,80,0,0
506744,-98.76543,4,1,0,80,0,0
506804,-99.37888,4,1,0,80,0,0
506864,-100,4,1,0,80,0,0
508784,-100,4,1,0,80,0,0
509024,-98.36066,4,1,0,80,0,0
509064,-98.09264,4,1,0,80,0,0
509104,-97.82608,4,1,0,80,0,0
509144,-97.560974,4,1,0,80,0,0
509184,-97.297295,4,1,0,80,0,0
509224,-97.03505,4,1,0,80,0,0
509264,-96.774185,4,1,0,80,0,0
509504,-95.2381,4,1,0,80,0,0
509564,-94.86166,4,1,0,80,0,0
509624,-94.48818,4,1,0,80,0,0
509684,-94.117645,4,1,0,80,0,0
509744,-93.75001,4,1,0,80,0,0
509924,-92.66409,4,1,0,80,0,0
510104,-91.60306,4,1,0,80,0,0
510224,-90.90909,4,1,0,80,0,0
510344,-100,4,1,0,80,0,0
510404,-99.17355,4,1,0,80,0,0
510464,-98.36066,4,1,0,80,0,0
510524,-97.560974,4,1,0,80,0,0
510584,-96.774185,4,1,0,80,0,0
510644,-96,4,1,0,80,0,0
510704,-95.231804,4,1,0,80,0,0
510944,-93.74491,4,1,0,80,0,0
510984,-93.50161,4,1,0,80,0,0
511024,-93.25955,4,1,0,80,0,0
511064,-93.01875,4,1,0,80,0,0
511104,-92.77919,4,1,0,80,0,0
511144,-92.54086,4,1,0,80,0,0
511184,-92.30375,4,1,0,80,0,0
511424,-90.90622,4,1,0,80,0,0
511484,-90.56343,4,1,0,80,0,0
511544,-90.223206,4,1,0,80,0,0
511604,-89.88554,4,1,0,80,0,0
511664,-89.550385,4,1,0,80,0,0
511844,-88.55975,4,1,0,80,0,0
512024,-87.5908,4,1,0,80,0,0
512144,-86.95652,4,1,0,80,0,0
512264,-95.2381,4,1,0,80,0,0
512324,-94.48818,4,1,0,80,0,0
512384,-93.75001,4,1,0,80,0,0
512444,-93.023254,4,1,0,80,0,0
512504,-92.307686,4,1,0,80,0,0
512564,-91.60306,4,1,0,80,0,0
512624,-90.90283,4,1,0,80,0,0
512864,-89.425934,4,1,0,80,0,0
512904,-89.18445,4,1,0,80,0,0
512944,-88.94425,4,1,0,80,0,0
512984,-88.705345,4,1,0,80,0,0
513024,-88.46772,4,1,0,80,0,0
513064,-88.23137,4,1,0,80,0,0
513104,-87.99626,4,1,0,80,0,0
513344,-86.61159,4,1,0,80,0,0
513404,-86.2722,4,1,0,80,0,0
513464,-85.93546,4,1,0,80,0,0
513524,-85.60134,4,1,0,80,0,0
513584,-85.26981,4,1,0,80,0,0
513764,-84.29046,4,1,0,80,0,0
513944,-83.33333,4,1,0,80,0,0
514064,-90.90909,4,1,0,80,0,0
514124,-90.39548,4,1,0,80,0,0
514184,-89.88764,4,1,0,80,0,0
514244,-89.385475,4,1,0,80,0,0
514304,-88.888885,4,1,0,80,0,0
514344,-88.56089,4,1,0,80,0,0
514384,-88.2353,4,1,0,80,0,0
514424,-87.91209,4,1,0,80,0,0
514464,-87.59124,4,1,0,80,0,0
514504,-87.27273,4,1,0,80,0,0
514544,-86.95128,4,1,0,80,0,0
514784,-85.710045,4,1,0,80,0,0
514844,-85.40524,4,1,0,80,0,0
514904,-85.102615,4,1,0,80,0,0
514944,-84.902054,4,1,0,80,0,0
514984,-84.70242,4,1,0,80,0,0
515024,-84.50374,4,1,0,80,0,0
515144,-83.91323,4,1,0,80,0,0
515204,-83.62106,4,1,0,80,0,0
515264,-83.33093,4,1,0,80,0,0
515324,-83.042786,4,1,0,80,0,0
515384,-82.75664,4,1,0,80,0,0
515504,-82.190216,4,1,0,80,0,0
515684,-81.35497,4,1,0,80,0,0
515864,-80.53654,4,1,0,80,0,0
515984,-80,4,1,0,80,0,0
516224,-95.2381,4,1,0,80,0,0
516284,-96.38554,4,1,0,80,0,0
516344,-97.560974,4,1,0,80,0,0
516404,-98.76543,4,1,0,80,0,0
516464,-100,4,1,0,80,0,0
516705,-86.9565217391304,4,1,0,100,0,1
518145,-86.9565217391304,4,1,0,100,0,0
518385,-86.9565217391304,4,1,0,100,0,1
520065,-86.9565217391304,4,1,0,100,0,0
520305,-86.9565217391304,4,1,0,100,0,1
521985,-86.9565217391304,4,1,0,100,0,0
522225,-86.9565217391304,4,1,0,100,0,1
524145,-86.9565217391304,4,1,0,100,0,0
524385,-86.9565217391304,4,1,0,100,0,1
525825,-86.9565217391304,4,1,0,100,0,0
526065,-86.9565217391304,4,1,0,100,0,1
527745,-86.9565217391304,4,1,0,100,0,0
527985,-86.9565217391304,4,1,0,100,0,1
529665,-86.9565217391304,4,1,0,100,0,0
529905,-86.9565217391304,4,1,0,100,0,1
531825,-86.9565217391304,4,1,0,100,0,0
532065,-83.3333333333333,4,1,0,100,0,1
533505,-83.3333333333333,4,1,0,100,0,0
533745,-83.3333333333333,4,1,0,100,0,1
535064,-83.33333,4,1,0,100,0,1
535124,-83.68201,4,1,0,100,0,1
535184,-84.03361,4,1,0,100,0,1
535244,-84.38819,4,1,0,100,0,1
535304,-84.745766,4,1,0,100,0,1
535364,-85.106384,4,1,0,100,0,1
535425,-85.470085,4,1,0,100,0,0
535464,-85.71429,4,1,0,100,0,0
535504,-85.95988,4,1,0,100,0,0
535544,-86.2069,4,1,0,100,0,0
535665,-86.95652,4,1,0,100,0,1
537345,-86.95652,4,1,0,100,0,0
537585,-86.95652,4,1,0,100,0,1
539264,-86.95652,4,1,0,100,0,1
539324,-86.48649,4,1,0,100,0,1
539384,-86.02151,4,1,0,100,0,1
539444,-85.56149,4,1,0,100,0,1
539505,-85.106384,4,1,0,100,0,0
539564,-84.65609,4,1,0,100,0,0
539624,-84.210526,4,1,0,100,0,0
539745,-83.33333,4,1,0,100,0,1
541185,-83.33333,4,1,0,100,0,0
541425,-83.33333,4,1,0,100,0,1
542744,-83.33333,4,1,0,100,0,1
542804,-83.68201,4,1,0,100,0,1
542864,-84.03361,4,1,0,100,0,1
542924,-84.38819,4,1,0,100,0,1
542984,-84.745766,4,1,0,100,0,1
543044,-85.106384,4,1,0,100,0,1
543105,-85.470085,4,1,0,100,0,0
543144,-85.71429,4,1,0,100,0,0
543184,-85.95988,4,1,0,100,0,0
543224,-86.2069,4,1,0,100,0,0
543345,-86.95652,4,1,0,100,0,1
545025,-86.95652,4,1,0,100,0,0
545265,-86.95652,4,1,0,100,0,1
546224,-86.95652,4,1,0,100,0,1
546344,-87.431694,4,1,0,100,0,1
546464,-87.91209,4,1,0,100,0,1
546524,-88.154274,4,1,0,100,0,1
546584,-88.39779,4,1,0,100,0,1
546644,-88.64266,4,1,0,100,0,1
546704,-88.888885,4,1,0,100,0,1
546824,-89.385475,4,1,0,100,0,1
546944,-89.88764,4,1,0,100,0,1
547004,-90.14085,4,1,0,100,0,1
547064,-90.39548,4,1,0,100,0,1
547124,-90.65156,4,1,0,100,0,1
547184,-90.90747,4,1,0,100,0,1
547224,-90.84297,4,1,0,100,0,1
547264,-90.77855,4,1,0,100,0,1
547304,-90.71423,4,1,0,100,0,1
547364,-90.617905,4,1,0,100,0,1
547424,-90.52179,4,1,0,100,0,1
547544,-90.33017,4,1,0,100,0,1
547584,-90.26647,4,1,0,100,0,1
547624,-90.20287,4,1,0,100,0,1
547664,-90.13935,4,1,0,100,0,1
547724,-90.04425,4,1,0,100,0,1
547784,-89.949356,4,1,0,100,0,1
547904,-89.76015,4,1,0,100,0,1
547944,-89.69725,4,1,0,100,0,1
547984,-89.63445,4,1,0,100,0,1
548024,-89.57174,4,1,0,100,0,1
548084,-89.47783,4,1,0,100,0,1
548144,-89.3841,4,1,0,100,0,1
548264,-89.19728,4,1,0,100,0,1
548304,-89.13516,4,1,0,100,0,1
548344,-89.07315,4,1,0,100,0,1
548384,-89.011215,4,1,0,100,0,1
548444,-88.91847,4,1,0,100,0,1
548504,-88.82593,4,1,0,100,0,1
548624,-88.64141,4,1,0,100,0,1
548664,-88.58008,4,1,0,100,0,1
548704,-88.51883,4,1,0,100,0,1
548744,-88.45767,4,1,0,100,0,1
548804,-88.36607,4,1,0,100,0,1
548864,-88.27467,4,1,0,100,0,1
548924,-88.183464,4,1,0,100,0,1
548984,-88.09244,4,1,0,100,0,1
549104,-87.91096,4,1,0,100,0,1
549144,-87.85063,4,1,0,100,0,1
549184,-87.79038,4,1,0,100,0,1
549224,-87.73022,4,1,0,100,0,1
549284,-87.64013,4,1,0,100,0,1
549344,-87.550224,4,1,0,100,0,1
549464,-87.370964,4,1,0,100,0,1
549504,-87.31138,4,1,0,100,0,1
549544,-87.25186,4,1,0,100,0,1
549584,-87.192444,4,1,0,100,0,1
549644,-87.10345,4,1,0,100,0,1
549704,-87.01464,4,1,0,100,0,1
549824,-86.83757,4,1,0,100,0,1
549864,-86.77871,4,1,0,100,0,1
549904,-86.719925,4,1,0,100,0,1
549944,-86.66122,4,1,0,100,0,1
550004,-86.5733,4,1,0,100,0,1
550064,-86.48558,4,1,0,100,0,1
550184,-86.31064,4,1,0,100,0,1
550224,-86.25249,4,1,0,100,0,1
550264,-86.19442,4,1,0,100,0,1
550304,-86.13642,4,1,0,100,0,1
550364,-86.049576,4,1,0,100,0,1
550424,-85.9629,4,1,0,100,0,1
550544,-85.79008,4,1,0,100,0,1
550584,-85.73262,4,1,0,100,0,1
550624,-85.67525,4,1,0,100,0,1
550664,-85.61794,4,1,0,100,0,1
550724,-85.53214,4,1,0,100,0,1
550784,-85.4465,4,1,0,100,0,1
550824,-85.38952,4,1,0,100,0,1
550864,-85.332596,4,1,0,100,0,1
550904,-85.27575,4,1,0,100,0,1
550944,-85.21898,4,1,0,100,0,1
550984,-85.162285,4,1,0,100,0,1
551024,-85.105675,4,1,0,100,0,1
551084,-85.02089,4,1,0,100,0,1
551144,-84.93627,4,1,0,100,0,1
551204,-84.85184,4,1,0,100,0,1
551264,-84.767555,4,1,0,100,0,1
551324,-84.68344,4,1,0,100,0,1
551384,-84.5995,4,1,0,100,0,1
551424,-84.543625,4,1,0,100,0,1
551464,-84.48783,4,1,0,100,0,1
551504,-84.43211,4,1,0,100,0,1
551564,-84.348656,4,1,0,100,0,1
551624,-84.26537,4,1,0,100,0,1
551684,-84.18227,4,1,0,100,0,1
551744,-84.099304,4,1,0,100,0,1
551784,-84.0441,4,1,0,100,0,1
551824,-83.98896,4,1,0,100,0,1
551864,-83.9339,4,1,0,100,0,1
551924,-83.851425,4,1,0,100,0,1
551984,-83.76912,4,1,0,100,0,1
552044,-83.68697,4,1,0,100,0,1
552104,-83.60499,4,1,0,100,0,1
552144,-83.55042,4,1,0,100,0,1
552184,-83.49593,4,1,0,100,0,1
552224,-83.44151,4,1,0,100,0,1
552284,-83.36001,4,1,0,100,0,1
552344,-83.27868,4,1,0,100,0,1
552404,-83.19749,4,1,0,100,0,1
552464,-83.11646,4,1,0,100,0,1
552504,-83.06253,4,1,0,100,0,1
552544,-83.008675,4,1,0,100,0,1
552584,-82.95488,4,1,0,100,0,1
552624,-82.90115,4,1,0,100,0,1
552664,-82.84751,4,1,0,100,0,1
552704,-82.79393,4,1,0,100,0,1
552764,-82.71369,4,1,0,100,0,1
552824,-82.63361,4,1,0,100,0,1
552944,-82.47389,4,1,0,100,0,1
553004,-82.394264,4,1,0,100,0,1
553064,-82.3148,4,1,0,100,0,1
553104,-82.26191,4,1,0,100,0,1
553144,-82.20908,4,1,0,100,0,1
553184,-82.15632,4,1,0,100,0,1
553224,-82.10364,4,1,0,100,0,1
553264,-82.05101,4,1,0,100,0,1
553304,-81.99846,4,1,0,100,0,1
553364,-81.91975,4,1,0,100,0,1
553424,-81.84119,4,1,0,100,0,1
553464,-81.788895,4,1,0,100,0,1
553504,-81.73669,4,1,0,100,0,1
553544,-81.68452,4,1,0,100,0,1
553584,-81.63244,4,1,0,100,0,1
553624,-81.580414,4,1,0,100,0,1
553664,-81.52846,4,1,0,100,0,1
553724,-81.450645,4,1,0,100,0,1
553784,-81.37299,4,1,0,100,0,1
553824,-81.3213,4,1,0,100,0,1
553864,-81.26967,4,1,0,100,0,1
553904,-81.21812,4,1,0,100,0,1
553944,-81.16662,4,1,0,100,0,1
553984,-81.1152,4,1,0,100,0,1
554024,-81.06382,4,1,0,100,0,1
554084,-80.9869,4,1,0,100,0,1
554144,-80.91012,4,1,0,100,0,1
554184,-80.85902,4,1,0,100,0,1
554224,-80.807976,4,1,0,100,0,1
554264,-80.757,4,1,0,100,0,1
554324,-80.68066,4,1,0,100,0,1
554384,-80.604454,4,1,0,100,0,1
554424,-80.553734,4,1,0,100,0,1
554464,-80.50308,4,1,0,100,0,1
554504,-80.452484,4,1,0,100,0,1
554564,-80.37672,4,1,0,100,0,1
554624,-80.30109,4,1,0,100,0,1
554664,-80.250755,4,1,0,100,0,1
554704,-80.20048,4,1,0,100,0,1
554744,-80.15027,4,1,0,100,0,1
554784,-80.100105,4,1,0,100,0,1
554824,-80.050026,4,1,0,100,0,1
554865,-80,4,1,0,100,0,0

[HitObjects]
316,210,3825,5,8,0:0:0:0:
288,222,4785,1,0,0:0:0:0:
187,177,5265,1,0,0:0:0:0:
181,174,5745,1,8,0:0:0:0:
253,209,6225,1,0,0:0:0:0:
245,174,7185,1,0,0:0:0:0:
245,174,7665,1,8,0:0:0:0:
257,199,8145,1,0,0:0:0:0:
257,199,8625,1,8,0:0:0:0:
257,199,9105,1,0,0:0:0:0:
257,199,9585,1,8,0:0:0:0:
178,244,10065,1,8,0:0:0:0:
158,217,10545,1,0,0:0:0:0:
158,217,11025,1,0,0:0:0:0:
158,217,11505,1,8,0:0:0:0:
238,218,11985,1,0,0:0:0:0:
238,218,12465,1,0,0:0:0:0:
238,218,12945,1,0,0:0:0:0:
238,218,13425,1,8,0:0:0:0:
238,218,13905,1,0,0:0:0:0:
238,218,14385,1,8,0:0:0:0:
238,218,14865,1,0,0:0:0:0:
253,217,15345,1,8,0:0:0:0:
253,217,15825,1,0,0:0:0:0:
253,217,16305,1,0,0:0:0:0:
253,217,16785,1,8,0:0:0:0:
268,213,17265,1,8,0:0:0:0:
261,200,17745,1,0,0:0:0:0:
261,200,18225,1,8,0:0:0:0:
283,199,18705,1,8,0:0:0:0:
283,199,19185,1,0,0:0:0:0:
351,258,19665,1,0,0:0:0:0:
351,258,20145,1,8,0:0:0:0:
313,210,20625,1,0,0:0:0:0:
313,210,21105,1,8,0:0:0:0:
313,210,22065,1,0,0:0:0:0:
353,289,23025,1,8,0:0:0:0:
250,185,23505,1,0,0:0:0:0:
345,268,23985,1,0,0:0:0:0:
345,268,24465,1,0,0:0:0:0:
345,268,24945,1,8,0:0:0:0:
238,204,25425,1,0,0:0:0:0:
238,204,25905,1,8,0:0:0:0:
315,239,26385,1,8,0:0:0:0:
315,239,26865,1,8,0:0:0:0:
230,243,27825,1,0,0:0:0:0:
271,190,28305,1,0,0:0:0:0:
271,190,28785,1,8,0:0:0:0:
271,190,29265,1,0,0:0:0:0:
312,237,30225,1,0,0:0:0:0:
312,237,30705,1,8,0:0:0:0:
317,222,31185,1,0,0:0:0:0:
317,222,31665,1,0,0:0:0:0:
317,222,32145,1,8,0:0:0:0:
254,195,32625,1,8,0:0:0:0:
201,203,33105,1,0,0:0:0:0:
179,190,33585,1,8,0:0:0:0:
179,190,34065,1,8,0:0:0:0:
179,190,34545,1,4,0:0:0:0:
209,180,35505,1,0,0:0:0:0:
209,180,35985,1,8,0:0:0:0:
209,180,36465,1,8,0:0:0:0:
241,187,36945,1,0,0:0:0:0:
273,188,37905,1,0,0:0:0:0:
273,188,38385,1,8,0:0:0:0:
245,187,38865,1,8,0:0:0:0:
245,187,39345,1,0,0:0:0:0:
245,187,39825,1,0,0:0:0:0:
245,187,40305,1,8,0:0:0:0:
223,177,41265,1,8,0:0:0:0:
223,177,41745,1,0,0:0:0:0:
223,177,42225,1,8,0:0:0:0:
172,189,42265,1,8,0:0:0:0:
231,211,44145,1,8,0:0:0:0:
296,201,44625,1,8,0:0:0:0:
296,201,45105,1,0,0:0:0:0:
296,201,45585,1,0,0:0:0:0:
296,201,46065,1,8,0:0:0:0:
320,207,47025,1,0,0:0:0:0:
320,207,47505,1,0,0:0:0:0:
320,207,47985,1,8,0:0:0:0:
334,200,49425,1,8,0:0:0:0:
334,200,49905,1,0,0:0:0:0:
323,209,51345,1,8,0:0:0:0:
323,209,51825,1,0,0:0:0:0:
327,177,52785,1,0,0:0:0:0:
327,177,53265,1,0,0:0:0:0:
327,177,53745,1,8,0:0:0:0:
307,220,54225,1,0,0:0:0:0:
307,220,54705,1,8,0:0:0:0:
307,220,55185,1,8,0:0:0:0:
307,220,55665,1,0,0:0:0:0:
309,212,56145,1,0,0:0:0:0:
309,212,56625,1,8,0:0:0:0:
309,212,57105,1,8,0:0:0:0:
185,194,57585,1,0,0:0:0:0:
286,206,61425,1,8,0:0:0:0:
276,226,63345,1,0,0:0:0:0:
240,177,65265,1,12,0:0:0:0:
257,196,69105,1,8,0:0:0:0:
311,240,70065,1,8,0:0:0:0:
236,214,71025,1,8,0:0:0:0:
236,214,71985,1,8,0:0:0:0:
236,214,72945,1,8,0:0:0:0:
202,217,73905,1,8,0:0:0:0:
202,217,74865,1,8,0:0:0:0:
202,217,75825,1,8,0:0:0:0:
202,217,76785,1,8,0:0:0:0:
202,217,77745,1,8,0:0:0:0:
202,217,78705,1,8,0:0:0:0:
183,196,79665,1,8,0:0:0:0:
281,203,80625,1,12,0:0:0:0:
241,214,80865,1,0,0:0:0:0:
347,268,80985,1,8,0:0:0:0:
241,214,81105,1,8,0:0:0:0:
286,222,81225,1,0,0:0:0:0:
362,258,81585,1,8,0:0:0:0:
236,173,81705,1,0,0:0:0:0:
236,173,81825,1,8,0:0:0:0:
236,173,82065,1,0,0:0:0:0:
370,241,82185,1,8,0:0:0:0:
328,243,82425,1,0,0:0:0:0:
328,243,82545,1,0,0:0:0:0:
357,266,82665,1,8,0:0:0:0:
357,266,82785,1,8,0:0:0:0:
206,221,83025,1,0,0:0:0:0:
398,275,83145,1,8,0:0:0:0:
391,287,83265,1,0,0:0:0:0:
391,287,83505,1,8,0:0:0:0:
398,298,83625,1,0,0:0:0:0:
398,298,83745,1,0,0:0:0:0:
264,212,83865,1,8,0:0:0:0:
407,306,84105,1,0,0:0:0:0:
370,268,84345,1,8,0:0:0:0:
359,264,84465,1,0,0:0:0:0:
394,278,84585,1,0,0:0:0:0:
394,278,84705,1,8,0:0:0:0:
227,261,84825,1,0,0:0:0:0:
291,252,85065,1,8,0:0:0:0:
227,261,85305,1,0,0:0:0:0:
326,249,85425,1,8,0:0:0:0:
398,288,85665,1,0,0:0:0:0:
389,277,85905,1,8,0:0:0:0:
356,265,86025,1,0,0:0:0:0:
356,265,86265,1,8,0:0:0:0:
382,302,86385,1,8,0:0:0:0:
405,300,86505,1,0,0:0:0:0:
396,282,86625,1,8,0:0:0:0:
364,273,86865,1,0,0:0:0:0:
427,321,86985,1,8,0:0:0:0:
289,233,87225,1,8,0:0:0:0:
367,249,87465,1,0,0:0:0:0:
367,249,87585,1,8,0:0:0:0:
370,269,87825,1,8,0:0:0:0:
242,144,87945,1,0,0:0:0:0:
319,278,88185,1,8,0:0:0:0:
298,231,88305,1,0,0:0:0:0:
429,315,88425,1,0,0:0:0:0:
176,197,88545,1,8,0:0:0:0:
301,229,88785,1,0,0:0:0:0:
301,229,88845,1,0,0:0:0:0:
301,229,88905,1,0,0:0:0:0:
301,229,89025,1,8,0:0:0:0:
429,315,89145,1,8,0:0:0:0:
344,270,89265,1,0,0:0:0:0:
363,281,89505,1,8,0:0:0:0:
378,278,89745,1,0,0:0:0:0:
378,278,89805,1,0,0:0:0:0:
378,278,89865,1,0,0:0:0:0:
378,278,89985,1,8,0:0:0:0:
408,269,90225,1,8,0:0:0:0:
408,314,90345,1,0,0:0:0:0:
356,276,90465,1,8,0:0:0:0:
335,242,90705,1,0,0:0:0:0:
335,242,90765,1,0,0:0:0:0:
335,242,90825,1,0,0:0:0:0:
335,242,90945,1,8,0:0:0:0:
408,305,91065,1,8,0:0:0:0:
335,242,91185,1,0,0:0:0:0:
384,257,91425,1,8,0:0:0:0:
384,257,91665,1,0,0:0:0:0:
384,257,91725,1,0,0:0:0:0:
384,257,91785,1,0,0:0:0:0:
384,257,91905,1,8,0:0:0:0:
384,257,92145,1,8,0:0:0:0:
390,296,92265,1,0,0:0:0:0:
189,210,92385,1,8,0:0:0:0:
204,120,92625,1,8,0:0:0:0:
204,120,92685,1,8,0:0:0:0:
204,120,92745,1,8,0:0:0:0:
204,120,92865,1,0,0:0:0:0:
408,300,92925,1,0,0:0:0:0:
408,300,92985,1,0,0:0:0:0:
333,211,93105,1,8,0:0:0:0:
359,271,93225,1,8,0:0:0:0:
386,243,93345,1,0,0:0:0:0:
407,310,93465,1,0,0:0:0:0:
361,239,93585,1,8,0:0:0:0:
364,279,93645,1,8,0:0:0:0:
364,279,93705,1,0,0:0:0:0:
364,279,93765,1,8,0:0:0:0:
364,279,93825,1,0,0:0:0:0:
364,279,93945,1,8,0:0:0:0:
328,271,94065,1,0,0:0:0:0:
380,247,94185,1,8,0:0:0:0:
212,107,94305,1,0,0:0:0:0:
281,196,94425,1,8,0:0:0:0:
324,253,94485,1,0,0:0:0:0:
391,286,94545,1,8,0:0:0:0:
295,209,94605,1,8,0:0:0:0:
295,209,94665,1,0,0:0:0:0:
295,209,94725,1,0,0:0:0:0:
295,209,94785,1,8,0:0:0:0:
295,209,94905,1,8,0:0:0:0:
391,286,95025,1,0,0:0:0:0:
295,209,95085,1,0,0:0:0:0:
295,209,95145,1,0,0:0:0:0:
295,209,95205,1,0,0:0:0:0:
295,209,95265,1,8,0:0:0:0:
295,209,95385,1,8,0:0:0:0:
315,237,95505,1,4,0:0:0:0:
233,167,95985,1,12,0:0:0:0:
327,275,96105,1,0,0:0:0:0:
320,267,96225,1,0,0:0:0:0:
320,267,96345,1,8,0:0:0:0:
363,278,96465,1,0,0:0:0:0:
378,261,96525,1,8,0:0:0:0:
181,201,96585,1,0,0:0:0:0:
217,110,96645,1,0,0:0:0:0:
218,117,96705,1,8,0:0:0:0:
261,225,96765,1,8,0:0:0:0:
346,262,96825,1,0,0:0:0:0:
346,262,96945,1,8,0:0:0:0:
351,224,97065,1,0,0:0:0:0:
256,188,97125,1,0,0:0:0:0:
351,224,97185,1,8,0:0:0:0:
351,224,97305,1,0,0:0:0:0:
351,224,97425,1,8,0:0:0:0:
351,224,97485,1,8,0:0:0:0:
351,224,97545,1,0,0:0:0:0:
353,243,97665,1,8,0:0:0:0:
261,195,97905,1,12,0:0:0:0:
409,294,98025,1,0,0:0:0:0:
409,294,98145,1,8,0:0:0:0:
409,294,98265,1,0,0:0:0:0:
271,220,98385,1,8,0:0:0:0:
271,220,98445,1,0,0:0:0:0:
336,202,98505,1,8,0:0:0:0:
271,220,98565,1,8,0:0:0:0:
271,220,98625,1,0,0:0:0:0:
404,290,98685,1,0,0:0:0:0:
404,290,98745,1,8,0:0:0:0:
404,290,98865,1,0,0:0:0:0:
418,282,98985,1,8,0:0:0:0:
379,269,99045,1,0,0:0:0:0:
381,291,99105,1,8,0:0:0:0:
381,291,99225,1,0,0:0:0:0:
380,247,99345,1,12,0:0:0:0:
387,272,99465,1,0,0:0:0:0:
387,272,99585,1,8,0:0:0:0:
380,247,99825,1,12,0:0:0:0:
322,217,99945,1,0,0:0:0:0:
322,217,100065,1,0,0:0:0:0:
322,217,100185,1,8,0:0:0:0:
190,182,100305,1,0,0:0:0:0:
240,190,100365,1,0,0:0:0:0:
190,182,100425,1,8,0:0:0:0:
190,182,100485,1,0,0:0:0:0:
190,182,100545,1,8,0:0:0:0:
190,182,100605,1,8,0:0:0:0:
190,182,100665,1,0,0:0:0:0:
251,168,100785,1,8,0:0:0:0:
272,237,100905,1,0,0:0:0:0:
272,237,101025,1,8,0:0:0:0:
272,237,101085,1,8,0:0:0:0:
272,237,101145,1,0,0:0:0:0:
272,237,101205,1,0,0:0:0:0:
272,237,101265,1,8,0:0:0:0:
272,237,101385,1,0,0:0:0:0:
272,237,101505,1,8,0:0:0:0:
248,196,101745,1,12,0:0:0:0:
242,248,101865,1,0,0:0:0:0:
242,248,101985,1,8,0:0:0:0:
242,248,102045,1,8,0:0:0:0:
255,203,102105,1,0,0:0:0:0:
313,230,102165,1,8,0:0:0:0:
313,230,102225,1,0,0:0:0:0:
313,230,102285,1,0,0:0:0:0:
313,230,102345,1,8,0:0:0:0:
313,230,102465,1,0,0:0:0:0:
373,283,102525,1,8,0:0:0:0:
395,288,102585,1,0,0:0:0:0:
305,217,102705,1,12,0:0:0:0:
310,192,102825,1,0,0:0:0:0:
310,192,102945,1,8,0:0:0:0:
310,192,103005,1,0,0:0:0:0:
310,192,103065,1,0,0:0:0:0:
310,222,103185,1,12,0:0:0:0:
253,283,103305,1,0,0:0:0:0:
366,268,103425,1,8,0:0:0:0:
305,217,103665,1,12,0:0:0:0:
314,239,103785,1,0,0:0:0:0:
373,240,103905,1,8,0:0:0:0:
373,240,103965,1,0,0:0:0:0:
373,240,104025,1,8,0:0:0:0:
373,240,104085,1,8,0:0:0:0:
373,240,104145,1,0,0:0:0:0:
373,240,104265,1,8,0:0:0:0:
392,302,104385,1,0,0:0:0:0:
392,302,104445,1,0,0:0:0:0:
392,302,104505,1,0,0:0:0:0:
353,232,104625,1,12,0:0:0:0:
394,283,104745,1,0,0:0:0:0:
276,220,104865,1,8,0:0:0:0:
391,270,104985,1,0,0:0:0:0:
394,287,105105,1,8,0:0:0:0:
394,287,105165,1,8,0:0:0:0:
394,287,105225,1,0,0:0:0:0:
283,202,105345,1,8,0:0:0:0:
404,279,105465,1,0,0:0:0:0:
353,232,105585,1,12,0:0:0:0:
383,276,105825,1,8,0:0:0:0:
396,298,105945,1,0,0:0:0:0:
378,282,106065,1,8,0:0:0:0:
378,282,106125,1,0,0:0:0:0:
378,282,106185,1,8,0:0:0:0:
411,306,106305,1,0,0:0:0:0:
411,306,106425,1,0,0:0:0:0:
309,200,106545,1,12,0:0:0:0:
393,298,106785,1,0,0:0:0:0:
393,298,106905,1,8,0:0:0:0:
401,291,107025,1,0,0:0:0:0:
401,291,107085,1,0,0:0:0:0:
401,291,107145,1,8,0:0:0:0:
401,291,107205,1,0,0:0:0:0:
401,291,107265,1,8,0:0:0:0:
401,291,107385,1,0,0:0:0:0:
304,230,107505,1,12,0:0:0:0:
269,202,107625,1,0,0:0:0:0:
269,202,107745,1,8,0:0:0:0:
338,226,107805,1,0,0:0:0:0:
247,221,107865,1,8,0:0:0:0:
338,226,107925,1,8,0:0:0:0:
338,226,107985,1,0,0:0:0:0:
338,226,108045,1,0,0:0:0:0:
338,226,108105,1,8,0:0:0:0:
409,293,108225,1,0,0:0:0:0:
409,293,108345,1,8,0:0:0:0:
305,261,108465,1,0,0:0:0:0:
305,261,108525,1,8,0:0:0:0:
305,261,108585,1,0,0:0:0:0:
305,261,108645,1,0,0:0:0:0:
305,261,108705,1,8,0:0:0:0:
231,238,108765,1,8,0:0:0:0:
305,261,108825,1,0,0:0:0:0:
305,261,108945,1,8,0:0:0:0:
305,261,109005,1,8,0:0:0:0:
305,261,109065,1,8,0:0:0:0:
259,216,109185,1,4,0:0:0:0:
259,216,109305,1,4,0:0:0:0:
290,215,109425,1,4,0:0:0:0:
311,228,110385,1,8,0:0:0:0:
311,228,110505,1,0,0:0:0:0:
356,276,110625,1,8,0:0:0:0:
356,276,110685,1,0,0:0:0:0:
356,276,110745,1,8,0:0:0:0:
430,320,110805,1,0,0:0:0:0:
377,247,110865,1,8,0:0:0:0:
377,247,110925,1,8,0:0:0:0:
377,247,110985,1,0,0:0:0:0:
377,247,111105,1,8,0:0:0:0:
377,247,111225,1,0,0:0:0:0:
377,247,111345,1,12,0:0:0:0:
257,163,111585,1,8,0:0:0:0:
257,163,111825,1,8,0:0:0:0:
257,163,112065,1,8,0:0:0:0:
410,309,112305,1,8,0:0:0:0:
303,237,112545,1,0,0:0:0:0:
247,188,112665,1,8,0:0:0:0:
410,302,112905,1,0,0:0:0:0:
365,252,113025,1,8,0:0:0:0:
358,270,113145,1,0,0:0:0:0:
358,270,113205,1,0,0:0:0:0:
351,262,113265,1,8,0:0:0:0:
382,268,113385,1,8,0:0:0:0:
382,268,113505,1,8,0:0:0:0:
392,270,113745,1,8,0:0:0:0:
393,268,113985,1,8,0:0:0:0:
393,268,114225,1,8,0:0:0:0:
392,262,114465,1,0,0:0:0:0:
385,258,114585,1,8,0:0:0:0:
286,238,114825,1,0,0:0:0:0:
279,184,114945,1,8,0:0:0:0:
279,184,115005,1,0,0:0:0:0:
279,184,115065,1,8,0:0:0:0:
279,184,115125,1,0,0:0:0:0:
430,311,115185,1,8,0:0:0:0:
396,239,115425,1,8,0:0:0:0:
396,239,115665,1,8,0:0:0:0:
396,239,115905,1,8,0:0:0:0:
396,239,116145,1,8,0:0:0:0:
221,195,116385,1,0,0:0:0:0:
371,259,116505,1,8,0:0:0:0:
408,310,116745,1,0,0:0:0:0:
371,259,116865,1,8,0:0:0:0:
408,310,116985,1,0,0:0:0:0:
408,310,117045,1,0,0:0:0:0:
401,264,117105,1,8,0:0:0:0:
409,302,117225,1,0,0:0:0:0:
381,269,117345,1,8,0:0:0:0:
381,269,117405,1,8,0:0:0:0:
327,129,117465,1,0,0:0:0:0:
327,129,117525,1,0,0:0:0:0:
396,272,117585,1,8,0:0:0:0:
425,314,117825,1,8,0:0:0:0:
406,292,118065,1,8,0:0:0:0:
192,206,118305,1,0,0:0:0:0:
381,237,118425,1,8,0:0:0:0:
278,211,118665,1,8,0:0:0:0:
278,211,118705,1,0,0:0:0:0:
278,211,118745,1,0,0:0:0:0:
278,211,118785,1,8,0:0:0:0:
278,211,118905,1,0,0:0:0:0:
278,211,118945,1,0,0:0:0:0:
278,211,118985,1,0,0:0:0:0:
427,338,119025,1,8,0:0:0:0:
233,174,119145,1,8,0:0:0:0:
233,174,119265,1,0,0:0:0:0:
238,194,119385,1,0,0:0:0:0:
242,224,119505,1,8,0:0:0:0:
241,216,119625,1,0,0:0:0:0:
241,216,119745,1,8,0:0:0:0:
241,216,119865,1,8,0:0:0:0:
254,235,119985,1,0,0:0:0:0:
254,235,120105,1,0,0:0:0:0:
254,235,120225,1,8,0:0:0:0:
254,235,120345,1,0,0:0:0:0:
239,238,120465,1,8,0:0:0:0:
239,238,120585,1,8,0:0:0:0:
239,238,120705,1,0,0:0:0:0:
352,268,120825,1,0,0:0:0:0:
250,225,120945,1,8,0:0:0:0:
258,207,121005,1,8,0:0:0:0:
241,184,121065,1,0,0:0:0:0:
241,184,121105,1,0,0:0:0:0:
241,184,121145,1,0,0:0:0:0:
244,189,121185,1,8,0:0:0:0:
283,207,121305,1,8,0:0:0:0:
272,181,121425,1,0,0:0:0:0:
272,181,121545,1,0,0:0:0:0:
272,181,121665,1,8,0:0:0:0:
272,181,121785,1,0,0:0:0:0:
287,229,121905,1,8,0:0:0:0:
287,229,122025,1,8,0:0:0:0:
287,229,122145,1,0,0:0:0:0:
287,229,122265,1,0,0:0:0:0:
264,227,122385,1,8,0:0:0:0:
264,227,122505,1,0,0:0:0:0:
264,227,122625,1,0,0:0:0:0:
264,227,122745,1,0,0:0:0:0:
281,196,122865,1,8,0:0:0:0:
220,207,122925,1,0,0:0:0:0:
220,207,122985,1,8,0:0:0:0:
220,207,123045,1,0,0:0:0:0:
213,244,123105,1,8,0:0:0:0:
213,244,123145,1,8,0:0:0:0:
213,244,123185,1,8,0:0:0:0:
213,244,123225,1,0,0:0:0:0:
281,196,123285,1,0,0:0:0:0:
281,196,123345,1,8,0:0:0:0:
281,196,123405,1,0,0:0:0:0:
281,196,123465,1,0,0:0:0:0:
281,196,123525,1,0,0:0:0:0:
281,196,123585,1,8,0:0:0:0:
281,196,123645,1,8,0:0:0:0:
281,196,123705,1,0,0:0:0:0:
281,196,123765,1,0,0:0:0:0:
302,205,123825,1,8,0:0:0:0:
302,205,123885,1,0,0:0:0:0:
302,205,123945,1,8,0:0:0:0:
302,205,124005,1,8,0:0:0:0:
302,205,124065,1,0,0:0:0:0:
302,205,124125,1,0,0:0:0:0:
302,205,124185,1,8,0:0:0:0:
302,205,124245,1,0,0:0:0:0:
302,205,124305,1,0,0:0:0:0:
302,205,124365,1,0,0:0:0:0:
302,205,124425,1,8,0:0:0:0:
302,205,124485,1,8,0:0:0:0:
302,205,124545,1,0,0:0:0:0:
302,205,124605,1,0,0:0:0:0:
302,205,124665,1,8,0:0:0:0:
302,205,124725,1,0,0:0:0:0:
302,205,124785,1,8,0:0:0:0:
188,184,124905,1,8,0:0:0:0:
188,184,125025,1,8,0:0:0:0:
350,279,125145,1,8,0:0:0:0:
280,218,125265,1,0,0:0:0:0:
350,279,125325,1,0,0:0:0:0:
180,188,125385,1,0,0:0:0:0:
180,188,125445,1,0,0:0:0:0:
180,188,125505,1,8,0:0:0:0:
180,188,125565,1,8,0:0:0:0:
180,188,125625,1,8,0:0:0:0:
280,226,125685,1,8,0:0:0:0:
280,226,125745,1,0,0:0:0:0:
185,222,125865,1,8,0:0:0:0:
185,222,125925,1,8,0:0:0:0:
351,216,125985,1,0,0:0:0:0:
351,216,126045,1,0,0:0:0:0:
351,216,126105,1,8,0:0:0:0:
351,216,126165,1,0,0:0:0:0:
351,216,126225,1,8,0:0:0:0:
351,216,126285,1,0,0:0:0:0:
351,216,126345,1,8,0:0:0:0:
351,216,126405,1,8,0:0:0:0:
351,216,126465,1,0,0:0:0:0:
351,216,126525,1,0,0:0:0:0:
351,216,126585,1,8,0:0:0:0:
351,216,126645,1,0,0:0:0:0:
154,201,126705,1,8,0:0:0:0:
154,201,126825,1,0,0:0:0:0:
154,201,126945,1,8,0:0:0:0:
154,201,127005,1,0,0:0:0:0:
154,201,127065,1,0,0:0:0:0:
154,201,127125,1,0,0:0:0:0:
154,201,127185,1,8,0:0:0:0:
154,201,127245,1,8,0:0:0:0:
154,201,127305,1,0,0:0:0:0:
154,201,127365,1,0,0:0:0:0:
154,201,127425,1,8,0:0:0:0:
154,201,127485,1,0,0:0:0:0:
154,201,127545,1,8,0:0:0:0:
154,201,127605,1,8,0:0:0:0:
154,201,127665,1,0,0:0:0:0:
154,201,127725,1,0,0:0:0:0:
154,201,127785,1,0,0:0:0:0:
154,201,127845,1,0,0:0:0:0:
154,201,127905,1,8,0:0:0:0:
154,201,127965,1,8,0:0:0:0:
154,201,128025,1,8,0:0:0:0:
154,201,128085,1,8,0:0:0:0:
154,201,128145,1,0,0:0:0:0:
154,201,128205,1,8,0:0:0:0:
154,201,128265,1,0,0:0:0:0:
280,230,128385,1,8,0:0:0:0:
280,230,128445,1,0,0:0:0:0:
280,230,128505,1,0,0:0:0:0:
236,236,128625,1,8,0:0:0:0:
126,203,128685,1,0,0:0:0:0:
188,193,128745,1,8,0:0:0:0:
188,193,128805,1,0,0:0:0:0:
188,193,128865,1,8,0:0:0:0:
188,193,128925,1,8,0:0:0:0:
188,193,128985,1,8,0:0:0:0:
188,193,129045,1,0,0:0:0:0:
188,193,129105,1,8,0:0:0:0:
188,193,129165,1,8,0:0:0:0:
188,193,129225,1,0,0:0:0:0:
188,193,129285,1,0,0:0:0:0:
188,193,129345,1,8,0:0:0:0:
188,193,129405,1,0,0:0:0:0:
188,193,129465,1,0,0:0:0:0:
188,193,129525,1,0,0:0:0:0:
188,193,129585,1,8,0:0:0:0:
188,193,129645,1,8,0:0:0:0:
188,193,129705,1,8,0:0:0:0:
188,193,129765,1,8,0:0:0:0:
188,193,129825,1,0,0:0:0:0:
188,193,129885,1,0,0:0:0:0:
188,193,129945,1,0,0:0:0:0:
188,193,130005,1,0,0:0:0:0:
188,193,130065,1,8,0:0:0:0:
188,193,130125,1,8,0:0:0:0:
188,193,130185,1,0,0:0:0:0:
188,193,130245,1,0,0:0:0:0:
257,183,130305,1,12,0:0:0:0:
230,210,130545,1,8,0:0:0:0:
230,210,130605,1,0,0:0:0:0:
230,210,130665,1,8,0:0:0:0:
230,210,130725,1,8,0:0:0:0:
230,210,130785,1,0,0:0:0:0:
230,210,130845,1,0,0:0:0:0:
230,210,130905,1,8,0:0:0:0:
230,210,130965,1,0,0:0:0:0:
230,210,131025,1,8,0:0:0:0:
230,210,131085,1,8,0:0:0:0:
230,210,131145,1,0,0:0:0:0:
230,210,131205,1,0,0:0:0:0:
230,210,131265,1,8,0:0:0:0:
230,210,131325,1,0,0:0:0:0:
230,210,131385,1,0,0:0:0:0:
230,210,131445,1,0,0:0:0:0:
230,210,131505,1,8,0:0:0:0:
230,210,131565,1,8,0:0:0:0:
230,210,131625,1,0,0:0:0:0:
230,210,131685,1,0,0:0:0:0:
230,210,131745,1,8,0:0:0:0:
230,210,131805,1,8,0:0:0:0:
230,210,131865,1,8,0:0:0:0:
230,210,131925,1,8,0:0:0:0:
230,210,131985,1,0,0:0:0:0:
230,210,132045,1,0,0:0:0:0:
230,210,132105,1,8,0:0:0:0:
230,210,132165,1,8,0:0:0:0:
230,210,132225,1,0,0:0:0:0:
230,220,132265,1,0,0:0:0:0:
230,220,132305,1,0,0:0:0:0:
230,220,132345,1,8,0:0:0:0:
251,191,132465,1,0,0:0:0:0:
226,190,132525,1,0,0:0:0:0:
226,190,132585,1,8,0:0:0:0:
226,190,132645,1,0,0:0:0:0:
226,190,132705,1,8,0:0:0:0:
226,190,132765,1,8,0:0:0:0:
226,190,132825,1,0,0:0:0:0:
226,190,132885,1,0,0:0:0:0:
226,190,132945,1,8,0:0:0:0:
226,190,133005,1,0,0:0:0:0:
226,190,133065,1,0,0:0:0:0:
226,190,133125,1,0,0:0:0:0:
226,190,133185,1,8,0:0:0:0:
226,190,133245,1,8,0:0:0:0:
226,190,133305,1,0,0:0:0:0:
226,190,133365,1,0,0:0:0:0:
226,190,133425,1,12,0:0:0:0:
226,190,133545,1,0,0:0:0:0:
226,190,133605,1,12,0:0:0:0:
219,173,133725,1,0,0:0:0:0:
219,173,133785,1,12,0:0:0:0:
256,183,133905,1,0,0:0:0:0:
349,273,134025,1,8,0:0:0:0:
349,273,134145,1,0,0:0:0:0:
349,273,134205,1,0,0:0:0:0:
349,273,134265,1,0,0:0:0:0:
349,273,134325,1,0,0:0:0:0:
316,247,134385,1,8,0:0:0:0:
262,166,134445,1,8,0:0:0:0:
262,166,134505,1,8,0:0:0:0:
262,166,134565,1,0,0:0:0:0:
262,166,134625,1,8,0:0:0:0:
262,166,134685,1,8,0:0:0:0:
262,166,134745,1,0,0:0:0:0:
262,166,134805,1,0,0:0:0:0:
262,166,134865,1,8,0:0:0:0:
262,166,134925,1,0,0:0:0:0:
262,166,134985,1,8,0:0:0:0:
262,166,135045,1,8,0:0:0:0:
262,166,135105,1,0,0:0:0:0:
262,166,135165,1,0,0:0:0:0:
262,166,135225,1,8,0:0:0:0:
262,166,135285,1,0,0:0:0:0:
262,166,135345,1,8,0:0:0:0:
262,166,135405,1,8,0:0:0:0:
262,166,135465,1,8,0:0:0:0:
262,166,135525,1,8,0:0:0:0:
262,166,135585,1,0,0:0:0:0:
262,166,135645,1,0,0:0:0:0:
262,166,135705,1,8,0:0:0:0:
262,166,135765,1,0,0:0:0:0:
262,166,135825,1,0,0:0:0:0:
349,266,135885,1,0,0:0:0:0:
262,166,135945,1,8,0:0:0:0:
262,166,136065,1,0,0:0:0:0:
262,166,136125,1,0,0:0:0:0:
262,166,136185,1,8,0:0:0:0:
262,166,136305,1,0,0:0:0:0:
317,185,136365,1,0,0:0:0:0:
317,185,136425,1,8,0:0:0:0:
317,185,136485,1,0,0:0:0:0:
317,185,136545,1,8,0:0:0:0:
317,185,136605,1,8,0:0:0:0:
317,185,136665,1,0,0:0:0:0:
317,185,136725,1,0,0:0:0:0:
317,185,136785,1,8,0:0:0:0:
317,185,136845,1,0,0:0:0:0:
317,185,136905,1,0,0:0:0:0:
317,185,136965,1,0,0:0:0:0:
317,185,137025,1,8,0:0:0:0:
317,185,137085,1,8,0:0:0:0:
317,185,137145,1,0,0:0:0:0:
317,185,137205,1,8,0:0:0:0:
317,185,137265,1,0,0:0:0:0:
317,185,137325,1,0,0:0:0:0:
317,185,137385,1,8,0:0:0:0:
317,185,137445,1,8,0:0:0:0:
317,185,137505,1,0,0:0:0:0:
317,185,137565,1,0,0:0:0:0:
317,185,137625,1,0,0:0:0:0:
317,185,137685,1,0,0:0:0:0:
317,185,137745,1,8,0:0:0:0:
317,185,137805,1,8,0:0:0:0:
317,185,137865,1,8,0:0:0:0:
317,185,137925,1,8,0:0:0:0:
302,200,137985,1,0,0:0:0:0:
302,200,138025,1,0,0:0:0:0:
271,166,138065,1,0,0:0:0:0:
296,209,138105,1,8,0:0:0:0:
296,209,138225,1,0,0:0:0:0:
290,165,138285,1,8,0:0:0:0:
290,165,138345,1,0,0:0:0:0:
290,165,138405,1,0,0:0:0:0:
290,165,138465,1,8,0:0:0:0:
290,165,138525,1,0,0:0:0:0:
290,165,138585,1,8,0:0:0:0:
290,165,138645,1,8,0:0:0:0:
290,165,138705,1,0,0:0:0:0:
290,165,138765,1,0,0:0:0:0:
290,165,138825,1,0,0:0:0:0:
290,165,138885,1,0,0:0:0:0:
290,165,138945,1,8,0:0:0:0:
290,165,139005,1,8,0:0:0:0:
290,165,139065,1,8,0:0:0:0:
290,165,139125,1,0,0:0:0:0:
290,165,139185,1,8,0:0:0:0:
290,165,139245,1,8,0:0:0:0:
290,165,139305,1,0,0:0:0:0:
290,165,139365,1,0,0:0:0:0:
290,165,139425,1,8,0:0:0:0:
290,165,139485,1,0,0:0:0:0:
290,165,139545,1,0,0:0:0:0:
290,165,139605,1,0,0:0:0:0:
290,165,139665,1,8,0:0:0:0:
290,165,139725,1,0,0:0:0:0:
290,165,139785,1,8,0:0:0:0:
290,165,139845,1,8,0:0:0:0:
236,150,139905,1,0,0:0:0:0:
236,150,139945,1,0,0:0:0:0:
236,150,139985,1,0,0:0:0:0:
236,150,140025,1,8,0:0:0:0:
265,167,140065,1,8,0:0:0:0:
265,167,140105,1,8,0:0:0:0:
265,167,140145,1,4,0:0:0:0:
225,212,140265,1,8,0:0:0:0:
217,211,140385,1,0,0:0:0:0:
217,211,140445,1,0,0:0:0:0:
223,57,140505,1,8,0:0:0:0:
217,211,140545,1,8,0:0:0:0:
249,176,140585,1,8,0:0:0:0:
339,244,140625,1,4,0:0:0:0:
249,176,140745,1,8,0:0:0:0:
235,173,140865,1,0,0:0:0:0:
235,173,140925,1,8,0:0:0:0:
235,173,140985,1,0,0:0:0:0:
235,173,141045,1,8,0:0:0:0:
339,244,141105,1,4,0:0:0:0:
247,218,141225,1,8,0:0:0:0:
242,197,141285,1,4,0:0:0:0:
247,218,141405,1,8,0:0:0:0:
242,197,141465,1,4,0:0:0:0:
227,174,141585,1,8,0:0:0:0:
227,174,141645,1,8,0:0:0:0:
227,174,141705,1,0,0:0:0:0:
227,174,141825,1,8,0:0:0:0:
227,174,141885,1,8,0:0:0:0:
227,174,141945,1,8,0:0:0:0:
227,174,142005,1,8,0:0:0:0:
227,174,142065,1,0,0:0:0:0:
277,199,142125,1,0,0:0:0:0:
227,174,142185,1,0,0:0:0:0:
227,174,142245,1,0,0:0:0:0:
227,174,142305,1,8,0:0:0:0:
238,199,142425,1,0,0:0:0:0:
275,207,142545,1,8,0:0:0:0:
275,207,142665,1,0,0:0:0:0:
275,207,142785,1,8,0:0:0:0:
275,207,142845,1,0,0:0:0:0:
275,207,142905,1,8,0:0:0:0:
237,200,142965,1,8,0:0:0:0:
275,207,143025,1,0,0:0:0:0:
336,233,143145,1,8,0:0:0:0:
336,233,143265,1,0,0:0:0:0:
251,211,143325,1,0,0:0:0:0:
336,233,143385,1,8,0:0:0:0:
342,255,143445,1,0,0:0:0:0:
343,252,143505,1,8,0:0:0:0:
343,252,143625,1,0,0:0:0:0:
348,241,143745,1,8,0:0:0:0:
348,241,143805,1,8,0:0:0:0:
249,166,143865,1,8,0:0:0:0:
249,166,143925,1,8,0:0:0:0:
251,235,143985,1,0,0:0:0:0:
260,230,144105,1,8,0:0:0:0:
278,204,144225,1,0,0:0:0:0:
351,247,144285,1,8,0:0:0:0:
322,234,144345,1,0,0:0:0:0:
322,234,144405,1,0,0:0:0:0:
322,234,144465,1,8,0:0:0:0:
322,234,144585,1,0,0:0:0:0:
360,259,144705,1,8,0:0:0:0:
332,270,144765,1,8,0:0:0:0:
332,270,144825,1,0,0:0:0:0:
332,270,144885,1,0,0:0:0:0:
332,270,144945,1,8,0:0:0:0:
332,270,145065,1,0,0:0:0:0:
354,250,145185,1,8,0:0:0:0:
354,250,145245,1,8,0:0:0:0:
354,250,145305,1,0,0:0:0:0:
354,250,145365,1,8,0:0:0:0:
354,250,145425,1,0,0:0:0:0:
354,250,145545,1,8,0:0:0:0:
201,175,145665,1,0,0:0:0:0:
191,166,145705,1,8,0:0:0:0:
198,189,145745,1,8,0:0:0:0:
201,175,145785,1,0,0:0:0:0:
201,175,145825,1,8,0:0:0:0:
201,175,145865,1,8,0:0:0:0:
201,175,145905,1,0,0:0:0:0:
401,302,146025,1,8,0:0:0:0:
401,302,146145,1,0,0:0:0:0:
241,200,146205,1,0,0:0:0:0:
241,200,146265,1,8,0:0:0:0:
241,200,146325,1,8,0:0:0:0:
241,200,146385,1,0,0:0:0:0:
241,200,146505,1,8,0:0:0:0:
241,200,146625,1,0,0:0:0:0:
365,283,146685,1,0,0:0:0:0:
358,282,146745,1,8,0:0:0:0:
365,283,146805,1,0,0:0:0:0:
365,283,146865,1,8,0:0:0:0:
365,283,146985,1,0,0:0:0:0:
365,283,147105,1,8,0:0:0:0:
318,278,147165,1,0,0:0:0:0:
365,283,147225,1,8,0:0:0:0:
318,278,147285,1,8,0:0:0:0:
318,278,147345,1,0,0:0:0:0:
318,278,147465,1,8,0:0:0:0:
318,278,147585,1,0,0:0:0:0:
208,160,147625,1,8,0:0:0:0:
208,160,147665,1,8,0:0:0:0:
208,160,147705,1,0,0:0:0:0:
229,177,147765,1,0,0:0:0:0:
229,177,147825,1,12,0:0:0:0:
348,268,147945,1,0,0:0:0:0:
348,268,148065,1,8,0:0:0:0:
262,218,148125,1,0,0:0:0:0:
262,218,148185,1,8,0:0:0:0:
262,218,148245,1,8,0:0:0:0:
262,218,148305,1,0,0:0:0:0:
262,218,148365,1,0,0:0:0:0:
262,218,148425,1,8,0:0:0:0:
262,218,148545,1,0,0:0:0:0:
262,218,148605,1,0,0:0:0:0:
262,218,148665,1,8,0:0:0:0:
262,218,148725,1,8,0:0:0:0:
201,212,148785,1,0,0:0:0:0:
201,212,148905,1,8,0:0:0:0:
201,212,149025,1,0,0:0:0:0:
321,256,149085,1,0,0:0:0:0:
321,256,149145,1,0,0:0:0:0:
321,256,149205,1,0,0:0:0:0:
321,256,149265,1,8,0:0:0:0:
390,293,149385,1,0,0:0:0:0:
390,293,149505,1,8,0:0:0:0:
403,324,149565,1,0,0:0:0:0:
390,293,149625,1,8,0:0:0:0:
390,293,149685,1,0,0:0:0:0:
390,293,149745,1,8,0:0:0:0:
390,293,149805,1,8,0:0:0:0:
390,293,149865,1,0,0:0:0:0:
390,293,149925,1,0,0:0:0:0:
390,293,149985,1,8,0:0:0:0:
315,182,150105,1,0,0:0:0:0:
295,212,150225,1,8,0:0:0:0:
361,250,150345,1,0,0:0:0:0:
275,207,150465,1,8,0:0:0:0:
275,207,150525,1,0,0:0:0:0:
275,207,150585,1,8,0:0:0:0:
237,200,150645,1,8,0:0:0:0:
275,207,150705,1,0,0:0:0:0:
336,233,150825,1,8,0:0:0:0:
336,233,150945,1,0,0:0:0:0:
336,233,151005,1,0,0:0:0:0:
336,233,151065,1,8,0:0:0:0:
343,252,151125,1,8,0:0:0:0:
342,255,151185,1,0,0:0:0:0:
343,252,151305,1,8,0:0:0:0:
348,241,151425,1,0,0:0:0:0:
348,241,151485,1,0,0:0:0:0:
249,166,151545,1,0,0:0:0:0:
249,166,151605,1,0,0:0:0:0:
251,235,151665,1,8,0:0:0:0:
260,230,151785,1,0,0:0:0:0:
278,204,151905,1,8,0:0:0:0:
351,247,151965,1,8,0:0:0:0:
322,234,152025,1,0,0:0:0:0:
322,234,152085,1,0,0:0:0:0:
322,234,152145,1,8,0:0:0:0:
322,234,152265,1,0,0:0:0:0:
360,259,152385,1,8,0:0:0:0:
332,270,152445,1,8,0:0:0:0:
332,270,152505,1,8,0:0:0:0:
332,270,152565,1,8,0:0:0:0:
332,270,152625,1,0,0:0:0:0:
332,270,152745,1,8,0:0:0:0:
354,250,152865,1,0,0:0:0:0:
354,250,152925,1,0,0:0:0:0:
354,250,152985,1,8,0:0:0:0:
354,250,153045,1,0,0:0:0:0:
354,250,153105,1,8,0:0:0:0:
354,250,153225,1,0,0:0:0:0:
201,175,153345,1,8,0:0:0:0:
191,166,153385,1,0,0:0:0:0:
164,185,153425,1,0,0:0:0:0:
201,175,153465,1,8,0:0:0:0:
201,175,153505,1,0,0:0:0:0:
201,175,153545,1,0,0:0:0:0:
201,175,153585,1,8,0:0:0:0:
401,302,153705,1,0,0:0:0:0:
401,302,153825,1,8,0:0:0:0:
241,200,153885,1,0,0:0:0:0:
241,200,153945,1,8,0:0:0:0:
241,200,154005,1,8,0:0:0:0:
241,200,154065,1,0,0:0:0:0:
241,200,154185,1,8,0:0:0:0:
241,200,154305,1,0,0:0:0:0:
251,214,154365,1,0,0:0:0:0:
358,282,154425,1,8,0:0:0:0:
250,214,154485,1,8,0:0:0:0:
365,283,154545,1,0,0:0:0:0:
365,283,154665,1,8,0:0:0:0:
365,283,154785,1,0,0:0:0:0:
365,283,154905,1,8,0:0:0:0:
318,278,154965,1,0,0:0:0:0:
318,278,155025,1,0,0:0:0:0:
318,278,155085,1,0,0:0:0:0:
318,278,155145,1,8,0:0:0:0:
318,278,155265,1,0,0:0:0:0:
208,160,155305,1,8,0:0:0:0:
208,160,155345,1,8,0:0:0:0:
208,160,155385,1,0,0:0:0:0:
229,177,155445,1,0,0:0:0:0:
229,177,155505,1,12,0:0:0:0:
348,268,155625,1,0,0:0:0:0:
348,268,155745,1,8,0:0:0:0:
262,218,155805,1,0,0:0:0:0:
262,218,155865,1,8,0:0:0:0:
262,218,155925,1,8,0:0:0:0:
262,218,155985,1,0,0:0:0:0:
262,218,156045,1,0,0:0:0:0:
262,218,156105,1,8,0:0:0:0:
262,218,156225,1,0,0:0:0:0:
262,218,156285,1,0,0:0:0:0:
262,218,156345,1,8,0:0:0:0:
262,218,156405,1,0,0:0:0:0:
201,212,156465,1,8,0:0:0:0:
190,216,156585,1,0,0:0:0:0:
190,216,156705,1,8,0:0:0:0:
323,249,156765,1,8,0:0:0:0:
323,249,156825,1,0,0:0:0:0:
323,249,156885,1,0,0:0:0:0:
323,249,156945,1,8,0:0:0:0:
258,222,157065,1,0,0:0:0:0:
258,222,157185,1,8,0:0:0:0:
257,165,157225,1,8,0:0:0:0:
197,235,157265,1,8,0:0:0:0:
257,165,157305,1,0,0:0:0:0:
257,165,157365,1,0,0:0:0:0:
376,283,157425,1,12,0:0:0:0:
200,190,157545,1,0,0:0:0:0:
200,190,157665,1,0,0:0:0:0:
200,190,157785,1,12,0:0:0:0:
283,213,157905,1,0,0:0:0:0:
283,213,158025,1,0,0:0:0:0:
219,173,158145,1,12,0:0:0:0:
236,156,158265,1,0,0:0:0:0:
283,213,158385,1,0,0:0:0:0:
366,276,158505,1,12,0:0:0:0:
350,280,158625,1,0,0:0:0:0:
350,280,158745,1,0,0:0:0:0:
350,280,158805,1,0,0:0:0:0:
368,281,158865,1,12,0:0:0:0:
317,267,158985,1,0,0:0:0:0:
317,267,159105,1,8,0:0:0:0:
317,267,159165,1,0,0:0:0:0:
317,267,159225,1,8,0:0:0:0:
317,267,159285,1,8,0:0:0:0:
385,263,159345,1,0,0:0:0:0:
389,290,159375,1,0,0:0:0:0:
298,219,159465,1,8,0:0:0:0:
298,219,159585,1,0,0:0:0:0:
304,202,159705,1,8,0:0:0:0:
223,145,159735,1,8,0:0:0:0:
304,192,159825,1,0,0:0:0:0:
304,202,159945,1,0,0:0:0:0:
304,202,160065,1,8,0:0:0:0:
232,190,160095,1,8,0:0:0:0:
304,202,160185,1,0,0:0:0:0:
376,294,160305,1,8,0:0:0:0:
331,239,160365,1,8,0:0:0:0:
331,239,160425,1,0,0:0:0:0:
271,198,160455,1,0,0:0:0:0:
271,198,160545,1,8,0:0:0:0:
271,198,160665,1,0,0:0:0:0:
271,198,160725,1,0,0:0:0:0:
271,198,160785,1,8,0:0:0:0:
163,4,160815,1,8,0:0:0:0:
308,211,160905,1,0,0:0:0:0:
308,211,161025,1,8,0:0:0:0:
308,211,161065,1,8,0:0:0:0:
281,212,161105,1,8,0:0:0:0:
308,211,161145,1,0,0:0:0:0:
308,211,161205,1,0,0:0:0:0:
308,211,161265,1,12,0:0:0:0:
212,187,161385,1,0,0:0:0:0:
212,187,161505,1,0,0:0:0:0:
279,184,161625,1,12,0:0:0:0:
341,273,161745,1,0,0:0:0:0:
341,273,161865,1,0,0:0:0:0:
279,184,161985,1,12,0:0:0:0:
341,273,162105,1,0,0:0:0:0:
342,274,162225,1,0,0:0:0:0:
342,274,162285,1,0,0:0:0:0:
279,184,162345,1,12,0:0:0:0:
383,279,162465,1,0,0:0:0:0:
383,279,162585,1,0,0:0:0:0:
383,279,162645,1,0,0:0:0:0:
279,184,162705,1,12,0:0:0:0:
357,296,162825,1,0,0:0:0:0:
357,296,162945,1,8,0:0:0:0:
357,296,163005,1,8,0:0:0:0:
357,296,163065,1,0,0:0:0:0:
357,296,163125,1,0,0:0:0:0:
357,296,163185,1,8,0:0:0:0:
203,192,163215,1,8,0:0:0:0:
194,186,163305,1,0,0:0:0:0:
194,187,163425,1,0,0:0:0:0:
203,192,163545,1,8,0:0:0:0:
203,192,163575,1,8,0:0:0:0:
389,277,163665,1,0,0:0:0:0:
389,277,163785,1,8,0:0:0:0:
389,277,163845,1,8,0:0:0:0:
203,192,163905,1,0,0:0:0:0:
203,192,163935,1,0,0:0:0:0:
382,297,164025,1,8,0:0:0:0:
382,297,164145,1,0,0:0:0:0:
382,297,164205,1,0,0:0:0:0:
203,192,164265,1,8,0:0:0:0:
247,136,164295,1,8,0:0:0:0:
414,310,164385,1,0,0:0:0:0:
414,310,164445,1,0,0:0:0:0:
414,310,164505,1,8,0:0:0:0:
414,310,164565,1,8,0:0:0:0:
366,286,164625,1,0,0:0:0:0:
366,286,164655,1,0,0:0:0:0:
378,305,164745,1,8,0:0:0:0:
332,257,164865,1,0,0:0:0:0:
332,257,165105,1,8,0:0:0:0:
211,226,165225,1,0,0:0:0:0:
211,226,165345,1,8,0:0:0:0:
211,226,165465,1,0,0:0:0:0:
211,226,165585,1,8,0:0:0:0:
211,233,165705,1,0,0:0:0:0:
211,233,165825,1,8,0:0:0:0:
211,233,165945,1,0,0:0:0:0:
211,233,166065,1,8,0:0:0:0:
301,218,166185,1,0,0:0:0:0:
301,218,166305,1,8,0:0:0:0:
301,218,166425,1,0,0:0:0:0:
301,218,166545,1,8,0:0:0:0:
341,273,166665,1,0,0:0:0:0:
341,273,166785,1,8,0:0:0:0:
285,174,166825,1,8,0:0:0:0:
285,174,166865,1,8,0:0:0:0:
285,174,166905,1,0,0:0:0:0:
220,181,166965,1,0,0:0:0:0:
341,273,167025,1,8,0:0:0:0:
228,190,167145,1,0,0:0:0:0:
204,204,167265,1,8,0:0:0:0:
204,204,167385,1,0,0:0:0:0:
204,204,167505,1,8,0:0:0:0:
204,204,167625,1,0,0:0:0:0:
204,204,167745,1,8,0:0:0:0:
204,204,167865,1,0,0:0:0:0:
276,269,167985,1,8,0:0:0:0:
276,269,168105,1,0,0:0:0:0:
276,269,168225,1,8,0:0:0:0:
276,269,168345,1,0,0:0:0:0:
276,269,168465,1,8,0:0:0:0:
276,269,168585,1,0,0:0:0:0:
276,269,168705,1,0,0:0:0:0:
276,269,168765,1,0,0:0:0:0:
276,269,168825,1,0,0:0:0:0:
276,269,168885,1,0,0:0:0:0:
276,269,168945,1,12,0:0:0:0:
295,239,169065,1,0,0:0:0:0:
295,239,169185,1,8,0:0:0:0:
295,239,169305,1,0,0:0:0:0:
295,239,169425,1,8,0:0:0:0:
295,239,169545,1,0,0:0:0:0:
295,239,169665,1,8,0:0:0:0:
295,239,169785,1,0,0:0:0:0:
295,239,169845,1,0,0:0:0:0:
295,239,169905,1,12,0:0:0:0:
180,219,170025,1,0,0:0:0:0:
180,219,170145,1,0,0:0:0:0:
180,219,170265,1,8,0:0:0:0:
256,244,170385,1,0,0:0:0:0:
256,244,170505,1,0,0:0:0:0:
256,244,170625,1,8,0:0:0:0:
256,244,170685,1,8,0:0:0:0:
256,244,170745,1,8,0:0:0:0:
256,244,170805,1,8,0:0:0:0:
256,244,170865,1,0,0:0:0:0:
342,204,171825,1,8,0:0:0:0:
448,64,171855,1,8,0:0:0:0:
342,204,171945,1,8,0:0:0:0:
448,64,171975,1,8,0:0:0:0:
342,204,172065,1,8,0:0:0:0:
448,64,172095,1,8,0:0:0:0:
342,204,172185,1,8,0:0:0:0:
448,64,172215,1,8,0:0:0:0:
342,204,172305,1,8,0:0:0:0:
448,64,172335,1,8,0:0:0:0:
342,204,172425,1,0,0:0:0:0:
239,197,172485,1,0,0:0:0:0:
218,181,172545,1,8,0:0:0:0:
218,181,172605,1,8,0:0:0:0:
218,181,172665,1,0,0:0:0:0:
346,253,172785,1,12,0:0:0:0:
228,155,173025,1,8,0:0:0:0:
228,155,173065,1,0,0:0:0:0:
228,155,173105,1,0,0:0:0:0:
228,155,173145,1,8,0:0:0:0:
248,217,173265,1,0,0:0:0:0:
251,144,173325,1,0,0:0:0:0:
251,144,173385,1,8,0:0:0:0:
251,144,173445,1,8,0:0:0:0:
251,144,173505,1,0,0:0:0:0:
247,155,173535,1,0,0:0:0:0:
247,155,173625,1,8,0:0:0:0:
247,155,173655,1,8,0:0:0:0:
297,204,173745,1,0,0:0:0:0:
297,204,173775,1,0,0:0:0:0:
297,204,173865,1,8,0:0:0:0:
297,204,173895,1,8,0:0:0:0:
297,204,173985,1,0,0:0:0:0:
297,204,174045,1,0,0:0:0:0:
297,204,174105,1,0,0:0:0:0:
297,204,174165,1,0,0:0:0:0:
297,204,174225,1,12,0:0:0:0:
64,64,174345,1,0,0:0:0:0:
448,64,174465,1,8,0:0:0:0:
241,189,174505,1,8,0:0:0:0:
241,189,174545,1,8,0:0:0:0:
303,183,174585,1,0,0:0:0:0:
369,278,174705,1,8,0:0:0:0:
240,157,174735,1,8,0:0:0:0:
240,157,174825,1,8,0:0:0:0:
214,166,174855,1,8,0:0:0:0:
287,185,174945,1,0,0:0:0:0:
287,185,174975,1,0,0:0:0:0:
287,185,175065,1,0,0:0:0:0:
287,185,175095,1,0,0:0:0:0:
287,185,175185,1,12,0:0:0:0:
381,294,175305,1,0,0:0:0:0:
370,288,175425,1,8,0:0:0:0:
307,206,175455,1,8,0:0:0:0:
289,162,175545,1,0,0:0:0:0:
289,162,175575,1,0,0:0:0:0:
289,162,175665,1,8,0:0:0:0:
289,162,175695,1,8,0:0:0:0:
231,126,175785,1,0,0:0:0:0:
231,126,175815,1,0,0:0:0:0:
231,126,175905,1,8,0:0:0:0:
231,126,175935,1,8,0:0:0:0:
231,126,176025,1,8,0:0:0:0:
231,126,176055,1,8,0:0:0:0:
364,243,176145,1,4,0:0:0:0:
226,111,176325,1,4,0:0:0:0:
378,258,176505,1,4,0:0:0:0:
386,247,176625,1,12,0:0:0:0:
314,244,176865,1,0,0:0:0:0:
316,205,176905,1,8,0:0:0:0:
316,205,176945,1,8,0:0:0:0:
316,205,176985,1,0,0:0:0:0:
205,217,177105,1,8,0:0:0:0:
314,244,177165,1,8,0:0:0:0:
314,244,177225,1,0,0:0:0:0:
314,244,177285,1,0,0:0:0:0:
314,244,177345,1,8,0:0:0:0:
288,213,177375,1,8,0:0:0:0:
288,213,177465,1,0,0:0:0:0:
288,213,177495,1,0,0:0:0:0:
288,213,177585,1,8,0:0:0:0:
339,227,177615,1,8,0:0:0:0:
339,227,177705,1,0,0:0:0:0:
339,227,177735,1,0,0:0:0:0:
339,227,177825,1,8,0:0:0:0:
339,227,177885,1,8,0:0:0:0:
339,227,177945,1,0,0:0:0:0:
339,227,178005,1,0,0:0:0:0:
448,64,178065,1,12,0:0:0:0:
349,249,178185,1,0,0:0:0:0:
349,249,178305,1,8,0:0:0:0:
186,225,178345,1,8,0:0:0:0:
186,225,178385,1,8,0:0:0:0:
349,249,178425,1,0,0:0:0:0:
255,215,178545,1,8,0:0:0:0:
255,215,178575,1,8,0:0:0:0:
255,215,178665,1,8,0:0:0:0:
255,215,178695,1,8,0:0:0:0:
255,215,178785,1,0,0:0:0:0:
255,215,178815,1,0,0:0:0:0:
255,215,178905,1,0,0:0:0:0:
255,215,178935,1,0,0:0:0:0:
204,227,179025,1,12,0:0:0:0:
211,222,179145,1,0,0:0:0:0:
288,218,179265,1,8,0:0:0:0:
288,218,179295,1,8,0:0:0:0:
288,218,179385,1,0,0:0:0:0:
288,218,179415,1,0,0:0:0:0:
288,218,179505,1,0,0:0:0:0:
288,218,179535,1,0,0:0:0:0:
288,218,179625,1,8,0:0:0:0:
288,218,179655,1,8,0:0:0:0:
288,218,179745,1,8,0:0:0:0:
288,218,179775,1,8,0:0:0:0:
288,218,179865,1,0,0:0:0:0:
288,218,179895,1,0,0:0:0:0:
288,218,179985,1,8,0:0:0:0:
288,218,180045,1,8,0:0:0:0:
288,218,180105,1,0,0:0:0:0:
288,218,180165,1,0,0:0:0:0:
288,218,180225,1,8,0:0:0:0:
288,218,180285,1,0,0:0:0:0:
288,218,180345,1,8,0:0:0:0:
288,218,180405,1,0,0:0:0:0:
288,218,180465,1,8,0:0:0:0:
364,277,180705,1,0,0:0:0:0:
364,277,180825,1,8,0:0:0:0:
383,274,180885,1,0,0:0:0:0:
364,277,180945,1,8,0:0:0:0:
383,274,181065,1,0,0:0:0:0:
361,256,181185,1,0,0:0:0:0:
361,256,181425,1,8,0:0:0:0:
348,236,181545,1,0,0:0:0:0:
354,269,181665,1,8,0:0:0:0:
354,269,181725,1,0,0:0:0:0:
354,269,181785,1,8,0:0:0:0:
354,269,181845,1,0,0:0:0:0:
354,269,181905,1,12,0:0:0:0:
64,64,182025,1,0,0:0:0:0:
448,64,182145,1,8,0:0:0:0:
146,211,182185,1,8,0:0:0:0:
99,210,182225,1,8,0:0:0:0:
372,283,182265,1,0,0:0:0:0:
372,283,182385,1,8,0:0:0:0:
217,177,182415,1,8,0:0:0:0:
217,177,182505,1,0,0:0:0:0:
217,177,182535,1,0,0:0:0:0:
217,177,182625,1,8,0:0:0:0:
217,177,182655,1,8,0:0:0:0:
217,177,182745,1,0,0:0:0:0:
217,177,182775,1,0,0:0:0:0:
217,177,182865,1,12,0:0:0:0:
338,240,182985,1,0,0:0:0:0:
338,240,183105,1,8,0:0:0:0:
338,240,183135,1,8,0:0:0:0:
338,240,183225,1,8,0:0:0:0:
338,240,183255,1,8,0:0:0:0:
307,222,183345,1,0,0:0:0:0:
307,222,183375,1,0,0:0:0:0:
307,222,183465,1,0,0:0:0:0:
307,222,183495,1,0,0:0:0:0:
307,222,183585,1,8,0:0:0:0:
307,222,183615,1,8,0:0:0:0:
307,222,183705,1,8,0:0:0:0:
307,222,183735,1,8,0:0:0:0:
257,203,183825,1,4,0:0:0:0:
257,203,184005,1,4,0:0:0:0:
257,203,184185,1,4,0:0:0:0:
257,203,184305,1,12,0:0:0:0:
301,177,184545,1,8,0:0:0:0:
301,177,184585,1,0,0:0:0:0:
301,177,184625,1,0,0:0:0:0:
301,177,184665,1,8,0:0:0:0:
257,168,184785,1,0,0:0:0:0:
323,253,184845,1,0,0:0:0:0:
323,253,184905,1,8,0:0:0:0:
323,253,184965,1,8,0:0:0:0:
323,253,185025,1,0,0:0:0:0:
291,164,185055,1,0,0:0:0:0:
291,164,185145,1,0,0:0:0:0:
291,164,185175,1,0,0:0:0:0:
291,164,185265,1,8,0:0:0:0:
291,164,185295,1,8,0:0:0:0:
291,164,185385,1,8,0:0:0:0:
332,200,185415,1,8,0:0:0:0:
364,265,185505,1,0,0:0:0:0:
364,265,185565,1,0,0:0:0:0:
364,265,185625,1,0,0:0:0:0:
364,265,185685,1,0,0:0:0:0:
364,265,185745,1,12,0:0:0:0:
344,205,185865,1,0,0:0:0:0:
310,199,185985,1,0,0:0:0:0:
217,208,186025,1,8,0:0:0:0:
217,208,186065,1,8,0:0:0:0:
310,199,186105,1,0,0:0:0:0:
269,175,186225,1,8,0:0:0:0:
269,175,186255,1,8,0:0:0:0:
269,175,186345,1,0,0:0:0:0:
269,175,186375,1,0,0:0:0:0:
269,175,186465,1,8,0:0:0:0:
269,175,186495,1,8,0:0:0:0:
269,175,186585,1,0,0:0:0:0:
269,175,186615,1,0,0:0:0:0:
269,175,186705,1,12,0:0:0:0:
388,309,186825,1,0,0:0:0:0:
388,309,186945,1,8,0:0:0:0:
388,309,186975,1,8,0:0:0:0:
388,309,187065,1,8,0:0:0:0:
388,309,187095,1,8,0:0:0:0:
388,309,187185,1,0,0:0:0:0:
388,309,187215,1,0,0:0:0:0:
388,309,187305,1,0,0:0:0:0:
388,309,187335,1,0,0:0:0:0:
388,309,187425,1,8,0:0:0:0:
388,309,187455,1,8,0:0:0:0:
388,309,187545,1,0,0:0:0:0:
388,309,187575,1,0,0:0:0:0:
227,180,187665,1,8,0:0:0:0:
227,180,187725,1,8,0:0:0:0:
227,180,187785,1,0,0:0:0:0:
227,180,187825,1,0,0:0:0:0:
221,138,187865,1,0,0:0:0:0:
227,180,187905,1,8,0:0:0:0:
297,181,187945,1,8,0:0:0:0:
297,181,187985,1,8,0:0:0:0:
334,216,188025,1,0,0:0:0:0:
339,108,188085,1,0,0:0:0:0:
369,262,188145,1,8,0:0:0:0:
153,210,188385,1,8,0:0:0:0:
154,212,188425,1,0,0:0:0:0:
154,212,188465,1,0,0:0:0:0:
154,212,188505,1,8,0:0:0:0:
209,192,188625,1,0,0:0:0:0:
320,227,188685,1,0,0:0:0:0:
320,227,188745,1,8,0:0:0:0:
320,227,188805,1,8,0:0:0:0:
320,227,188865,1,0,0:0:0:0:
250,160,188895,1,0,0:0:0:0:
250,160,188985,1,8,0:0:0:0:
250,160,189015,1,8,0:0:0:0:
250,160,189105,1,0,0:0:0:0:
250,160,189135,1,0,0:0:0:0:
250,160,189225,1,8,0:0:0:0:
250,160,189255,1,8,0:0:0:0:
303,235,189345,1,0,0:0:0:0:
303,235,189405,1,0,0:0:0:0:
303,235,189465,1,0,0:0:0:0:
303,235,189525,1,0,0:0:0:0:
303,235,189585,1,8,0:0:0:0:
366,261,189645,1,8,0:0:0:0:
366,261,189705,1,8,0:0:0:0:
366,261,189765,1,8,0:0:0:0:
366,261,189825,1,0,0:0:0:0:
261,179,189865,1,0,0:0:0:0:
261,179,189905,1,0,0:0:0:0:
335,200,189945,1,8,0:0:0:0:
387,286,190065,1,12,0:0:0:0:
406,300,190185,1,0,0:0:0:0:
284,175,190305,1,8,0:0:0:0:
284,175,190335,1,8,0:0:0:0:
284,175,190425,1,0,0:0:0:0:
284,175,190455,1,0,0:0:0:0:
323,245,190545,1,8,0:0:0:0:
323,245,190585,1,8,0:0:0:0:
323,245,190625,1,8,0:0:0:0:
323,245,190665,1,0,0:0:0:0:
214,163,190725,1,0,0:0:0:0:
214,163,190785,1,8,0:0:0:0:
282,176,190815,1,8,0:0:0:0:
282,176,190905,1,0,0:0:0:0:
282,176,190935,1,0,0:0:0:0:
360,249,191025,1,8,0:0:0:0:
360,249,191055,1,8,0:0:0:0:
360,249,191145,1,8,0:0:0:0:
360,249,191175,1,8,0:0:0:0:
360,249,191265,1,0,0:0:0:0:
360,249,191295,1,0,0:0:0:0:
346,248,191385,1,0,0:0:0:0:
346,248,191415,1,0,0:0:0:0:
348,251,191505,1,12,0:0:0:0:
346,248,191625,1,12,0:0:0:0:
348,251,191745,1,4,0:0:0:0:
346,248,191865,1,4,0:0:0:0:
348,251,191985,1,12,0:0:0:0:
286,215,192225,1,0,0:0:0:0:
286,215,192265,1,8,0:0:0:0:
286,215,192305,1,8,0:0:0:0:
286,215,192345,1,0,0:0:0:0:
339,218,192465,1,8,0:0:0:0:
325,239,192525,1,8,0:0:0:0:
325,239,192585,1,0,0:0:0:0:
325,239,192645,1,0,0:0:0:0:
325,239,192705,1,8,0:0:0:0:
304,193,192735,1,8,0:0:0:0:
304,193,192825,1,8,0:0:0:0:
304,193,192855,1,8,0:0:0:0:
304,193,192945,1,0,0:0:0:0:
234,120,192975,1,0,0:0:0:0:
236,162,193065,1,0,0:0:0:0:
246,223,193095,1,0,0:0:0:0:
380,313,193185,1,8,0:0:0:0:
313,249,193245,1,8,0:0:0:0:
313,249,193305,1,0,0:0:0:0:
313,249,193365,1,8,0:0:0:0:
313,249,193425,1,0,0:0:0:0:
350,278,193485,1,0,0:0:0:0:
350,278,193545,1,8,0:0:0:0:
314,206,193585,1,8,0:0:0:0:
314,206,193625,1,8,0:0:0:0:
314,206,193665,1,0,0:0:0:0:
365,186,193725,1,0,0:0:0:0:
349,256,193785,1,8,0:0:0:0:
349,256,193825,1,0,0:0:0:0:
349,256,193865,1,0,0:0:0:0:
349,256,193905,1,8,0:0:0:0:
347,239,194145,1,8,0:0:0:0:
347,239,194175,1,8,0:0:0:0:
372,277,194265,1,8,0:0:0:0:
372,277,194295,1,8,0:0:0:0:
347,239,194625,1,0,0:0:0:0:
347,239,194655,1,0,0:0:0:0:
386,299,194745,1,0,0:0:0:0:
386,299,194775,1,0,0:0:0:0:
354,287,194865,1,8,0:0:0:0:
271,202,194985,1,0,0:0:0:0:
275,175,195025,1,0,0:0:0:0:
275,175,195065,1,0,0:0:0:0:
272,167,195105,1,8,0:0:0:0:
406,283,195225,1,0,0:0:0:0:
406,283,195265,1,8,0:0:0:0:
406,283,195305,1,8,0:0:0:0:
406,283,195345,1,0,0:0:0:0:
386,284,195465,1,8,0:0:0:0:
386,284,195505,1,8,0:0:0:0:
386,284,195545,1,8,0:0:0:0:
386,284,195585,1,0,0:0:0:0:
386,284,195705,1,0,0:0:0:0:
386,284,195825,1,12,0:0:0:0:
194,182,196065,1,8,0:0:0:0:
194,182,196305,1,0,0:0:0:0:
194,182,196545,1,8,0:0:0:0:
194,182,196785,1,0,0:0:0:0:
194,182,197025,1,8,0:0:0:0:
194,182,197265,1,0,0:0:0:0:
194,182,197505,1,8,0:0:0:0:
194,182,197745,1,0,0:0:0:0:
194,182,197985,1,8,0:0:0:0:
194,182,198225,1,0,0:0:0:0:
194,182,198465,1,8,0:0:0:0:
194,182,198705,1,0,0:0:0:0:
194,182,198945,1,8,0:0:0:0:
194,182,199185,1,0,0:0:0:0:
194,182,199425,1,8,0:0:0:0:
195,197,199665,1,8,0:0:0:0:
298,252,199785,1,0,0:0:0:0:
195,197,199905,1,8,0:0:0:0:
298,252,200025,1,0,0:0:0:0:
195,197,200145,1,8,0:0:0:0:
298,252,200265,1,0,0:0:0:0:
195,197,200385,1,8,0:0:0:0:
298,252,200505,1,0,0:0:0:0:
309,208,200625,1,8,0:0:0:0:
309,208,200745,1,0,0:0:0:0:
309,208,200865,1,8,0:0:0:0:
309,208,200985,1,0,0:0:0:0:
309,208,201105,1,8,0:0:0:0:
192,201,201225,1,0,0:0:0:0:
192,201,201345,1,8,0:0:0:0:
192,201,201465,1,0,0:0:0:0:
301,169,201585,1,8,0:0:0:0:
301,169,201645,1,8,0:0:0:0:
301,169,201705,1,0,0:0:0:0:
301,169,201765,1,0,0:0:0:0:
301,169,201825,1,8,0:0:0:0:
301,169,201885,1,8,0:0:0:0:
301,169,201945,1,0,0:0:0:0:
301,169,202005,1,0,0:0:0:0:
301,169,202065,1,8,0:0:0:0:
301,169,202125,1,8,0:0:0:0:
301,169,202185,1,0,0:0:0:0:
301,169,202245,1,0,0:0:0:0:
301,169,202305,1,8,0:0:0:0:
301,169,202365,1,8,0:0:0:0:
301,169,202425,1,0,0:0:0:0:
301,169,202485,1,0,0:0:0:0:
301,169,202545,1,8,0:0:0:0:
235,184,203505,1,12,0:0:0:0:
254,191,218865,5,12,0:0:0:0:
255,192,220785,1,0,0:0:0:0:
316,213,222705,1,8,0:0:0:0:
242,226,224625,1,0,0:0:0:0:
255,191,226545,1,8,0:0:0:0:
273,204,228465,1,8,0:0:0:0:
257,191,230385,1,8,0:0:0:0:
257,191,230505,1,0,0:0:0:0:
257,191,230625,1,8,0:0:0:0:
396,292,230745,1,0,0:0:0:0:
396,292,230865,1,8,0:0:0:0:
263,201,231105,1,0,0:0:0:0:
263,201,231345,1,8,0:0:0:0:
246,175,231585,1,0,0:0:0:0:
251,185,231705,1,0,0:0:0:0:
251,185,231825,1,8,0:0:0:0:
289,225,232065,1,8,0:0:0:0:
289,225,232185,1,8,0:0:0:0:
289,225,232305,1,0,0:0:0:0:
336,236,232425,1,0,0:0:0:0:
336,236,232545,1,8,0:0:0:0:
336,236,232665,1,0,0:0:0:0:
336,236,232785,1,8,0:0:0:0:
318,253,233025,1,0,0:0:0:0:
318,253,233145,1,8,0:0:0:0:
254,192,233385,1,8,0:0:0:0:
254,192,233505,1,0,0:0:0:0:
320,258,233745,1,8,0:0:0:0:
320,258,233985,1,8,0:0:0:0:
254,192,234225,1,4,0:0:0:0:
361,249,234465,1,0,0:0:0:0:
361,249,234525,1,0,0:0:0:0:
361,249,234585,1,0,0:0:0:0:
361,249,234705,1,8,0:0:0:0:
361,249,234765,1,8,0:0:0:0:
361,249,234825,1,8,0:0:0:0:
381,288,234945,1,0,0:0:0:0:
428,332,235185,1,8,0:0:0:0:
392,278,235425,1,8,0:0:0:0:
421,318,235545,1,0,0:0:0:0:
421,318,235665,1,8,0:0:0:0:
427,318,235905,1,0,0:0:0:0:
427,318,235965,1,0,0:0:0:0:
299,197,236025,1,8,0:0:0:0:
299,197,236145,1,0,0:0:0:0:
318,231,236265,1,0,0:0:0:0:
318,231,236385,1,8,0:0:0:0:
318,231,236505,1,0,0:0:0:0:
428,306,236565,1,0,0:0:0:0:
318,231,236625,1,8,0:0:0:0:
428,306,236685,1,8,0:0:0:0:
318,231,236745,1,0,0:0:0:0:
318,231,236865,1,8,0:0:0:0:
318,231,236985,1,0,0:0:0:0:
318,231,237105,1,8,0:0:0:0:
247,184,237225,1,0,0:0:0:0:
247,184,237345,1,8,0:0:0:0:
247,184,237465,1,0,0:0:0:0:
434,306,237525,1,0,0:0:0:0:
434,306,237585,1,8,0:0:0:0:
434,306,237645,1,0,0:0:0:0:
434,306,237705,1,8,0:0:0:0:
401,297,237825,1,0,0:0:0:0:
410,298,237945,1,8,0:0:0:0:
401,297,238005,1,8,0:0:0:0:
401,297,238065,1,0,0:0:0:0:
354,213,238305,1,0,0:0:0:0:
313,224,238425,1,0,0:0:0:0:
313,224,238545,1,8,0:0:0:0:
313,224,238605,1,8,0:0:0:0:
313,224,238665,1,8,0:0:0:0:
372,277,238785,1,0,0:0:0:0:
372,277,238845,1,0,0:0:0:0:
372,277,238905,1,0,0:0:0:0:
372,277,239025,1,8,0:0:0:0:
383,277,239265,1,0,0:0:0:0:
383,277,239325,1,8,0:0:0:0:
383,277,239385,1,0,0:0:0:0:
383,277,239445,1,0,0:0:0:0:
383,277,239505,1,8,0:0:0:0:
383,277,239625,1,0,0:0:0:0:
411,325,239745,1,8,0:0:0:0:
245,215,239865,1,0,0:0:0:0:
408,298,239925,1,0,0:0:0:0:
245,215,239985,1,8,0:0:0:0:
394,268,240225,1,0,0:0:0:0:
373,277,240345,1,0,0:0:0:0:
373,277,240465,1,8,0:0:0:0:
393,288,240525,1,8,0:0:0:0:
396,291,240585,1,0,0:0:0:0:
396,291,240705,1,8,0:0:0:0:
396,291,240825,1,0,0:0:0:0:
396,291,240945,1,8,0:0:0:0:
393,284,241005,1,8,0:0:0:0:
393,284,241065,1,0,0:0:0:0:
393,284,241125,1,0,0:0:0:0:
393,284,241185,1,8,0:0:0:0:
349,247,241305,1,0,0:0:0:0:
393,284,241365,1,8,0:0:0:0:
396,308,241485,1,8,0:0:0:0:
405,305,241545,1,0,0:0:0:0:
396,308,241665,1,8,0:0:0:0:
415,301,241725,1,8,0:0:0:0:
415,301,241785,1,0,0:0:0:0:
413,296,241905,1,8,0:0:0:0:
404,283,242145,1,8,0:0:0:0:
426,317,242265,1,8,0:0:0:0:
367,252,242385,1,0,0:0:0:0:
367,252,242445,1,0,0:0:0:0:
367,252,242505,1,0,0:0:0:0:
367,252,242625,1,8,0:0:0:0:
367,252,242685,1,8,0:0:0:0:
367,252,242745,1,8,0:0:0:0:
367,252,242865,1,0,0:0:0:0:
427,317,243105,1,8,0:0:0:0:
366,267,243345,1,0,0:0:0:0:
366,267,243405,1,0,0:0:0:0:
366,267,243465,1,8,0:0:0:0:
366,267,243525,1,0,0:0:0:0:
366,267,243585,1,8,0:0:0:0:
413,323,243705,1,0,0:0:0:0:
413,323,243825,1,8,0:0:0:0:
308,174,244065,1,0,0:0:0:0:
361,260,244305,1,8,0:0:0:0:
346,202,244365,1,8,0:0:0:0:
346,202,244425,1,8,0:0:0:0:
346,202,244545,1,0,0:0:0:0:
346,202,244605,1,0,0:0:0:0:
346,202,244665,1,0,0:0:0:0:
346,202,244785,1,8,0:0:0:0:
409,288,245025,1,0,0:0:0:0:
411,302,245265,1,8,0:0:0:0:
411,302,245325,1,8,0:0:0:0:
411,302,245385,1,0,0:0:0:0:
411,302,245445,1,0,0:0:0:0:
411,302,245505,1,8,0:0:0:0:
281,216,245625,1,0,0:0:0:0:
411,302,245745,1,8,0:0:0:0:
416,287,245985,1,8,0:0:0:0:
328,237,246225,1,0,0:0:0:0:
328,237,246285,1,0,0:0:0:0:
328,237,246345,1,0,0:0:0:0:
328,237,246465,1,8,0:0:0:0:
328,237,246525,1,8,0:0:0:0:
328,237,246585,1,8,0:0:0:0:
415,282,246705,1,0,0:0:0:0:
322,235,246945,1,8,0:0:0:0:
322,235,247185,1,0,0:0:0:0:
322,235,247245,1,0,0:0:0:0:
322,235,247305,1,8,0:0:0:0:
322,235,247365,1,8,0:0:0:0:
322,235,247425,1,0,0:0:0:0:
322,235,247545,1,8,0:0:0:0:
322,235,247665,1,0,0:0:0:0:
343,260,247905,1,8,0:0:0:0:
343,260,248145,1,8,0:0:0:0:
343,260,248205,1,8,0:0:0:0:
343,260,248265,1,8,0:0:0:0:
343,260,248385,1,0,0:0:0:0:
343,260,248445,1,0,0:0:0:0:
343,260,248505,1,0,0:0:0:0:
343,260,248625,1,8,0:0:0:0:
215,192,248865,1,0,0:0:0:0:
215,192,249105,1,8,0:0:0:0:
215,192,249165,1,8,0:0:0:0:
215,192,249225,1,8,0:0:0:0:
215,192,249285,1,8,0:0:0:0:
215,192,249345,1,0,0:0:0:0:
215,192,249405,1,0,0:0:0:0:
215,192,249465,1,0,0:0:0:0:
371,290,249525,1,0,0:0:0:0:
36,181,249585,1,12,0:0:0:0:
169,220,253185,1,0,0:0:0:0:
329,239,253305,1,0,0:0:0:0:
262,223,253425,1,8,0:0:0:0:
262,223,253665,1,8,0:0:0:0:
262,223,253905,1,8,0:0:0:0:
262,223,254145,1,8,0:0:0:0:
306,215,254385,1,8,0:0:0:0:
306,215,254625,1,8,0:0:0:0:
325,233,254865,1,8,0:0:0:0:
325,233,255105,1,8,0:0:0:0:
325,233,255345,1,8,0:0:0:0:
291,217,255465,1,0,0:0:0:0:
329,263,255585,1,8,0:0:0:0:
291,217,255705,1,0,0:0:0:0:
329,263,255825,1,8,0:0:0:0:
291,217,255945,1,0,0:0:0:0:
329,263,256065,1,8,0:0:0:0:
291,217,256185,1,0,0:0:0:0:
329,263,256305,1,8,0:0:0:0:
357,278,256425,1,0,0:0:0:0:
357,278,256545,1,8,0:0:0:0:
319,257,256605,1,0,0:0:0:0:
319,257,256665,1,8,0:0:0:0:
319,257,256725,1,0,0:0:0:0:
319,257,256785,1,8,0:0:0:0:
340,200,256845,1,8,0:0:0:0:
340,200,256905,1,0,0:0:0:0:
340,200,256965,1,0,0:0:0:0:
340,200,257025,1,8,0:0:0:0:
400,279,257085,1,0,0:0:0:0:
400,279,257145,1,0,0:0:0:0:
400,279,257205,1,0,0:0:0:0:
400,279,257265,1,12,0:0:0:0:
260,217,257385,1,0,0:0:0:0:
341,230,257505,1,8,0:0:0:0:
341,230,257565,1,8,0:0:0:0:
341,230,257625,1,0,0:0:0:0:
341,230,257685,1,0,0:0:0:0:
341,230,257745,1,8,0:0:0:0:
388,276,257865,1,0,0:0:0:0:
388,276,257985,1,8,0:0:0:0:
388,276,258045,1,0,0:0:0:0:
388,276,258105,1,8,0:0:0:0:
388,276,258165,1,8,0:0:0:0:
388,276,258225,1,0,0:0:0:0:
388,276,258285,1,0,0:0:0:0:
388,276,258345,1,8,0:0:0:0:
388,276,258465,1,0,0:0:0:0:
391,304,258585,1,8,0:0:0:0:
391,304,258645,1,8,0:0:0:0:
391,304,258705,1,0,0:0:0:0:
391,304,258765,1,0,0:0:0:0:
391,304,258825,1,0,0:0:0:0:
205,216,258945,1,8,0:0:0:0:
205,216,259185,1,0,0:0:0:0:
272,223,259245,1,0,0:0:0:0:
316,192,259305,1,8,0:0:0:0:
334,257,259365,1,8,0:0:0:0:
316,192,259425,1,0,0:0:0:0:
373,282,259545,1,8,0:0:0:0:
382,274,259665,1,0,0:0:0:0:
362,252,259725,1,0,0:0:0:0:
401,286,259785,1,8,0:0:0:0:
401,286,259845,1,0,0:0:0:0:
401,286,259905,1,8,0:0:0:0:
401,286,259965,1,8,0:0:0:0:
401,286,260025,1,0,0:0:0:0:
401,286,260145,1,8,0:0:0:0:
338,264,260205,1,8,0:0:0:0:
365,243,260265,1,0,0:0:0:0:
365,243,260325,1,0,0:0:0:0:
365,243,260385,1,8,0:0:0:0:
365,243,260505,1,0,0:0:0:0:
365,243,260565,1,0,0:0:0:0:
365,243,260625,1,0,0:0:0:0:
365,243,260745,1,8,0:0:0:0:
329,246,260865,1,0,0:0:0:0:
329,246,260925,1,0,0:0:0:0:
329,246,260985,1,0,0:0:0:0:
329,246,261045,1,0,0:0:0:0:
218,166,261105,1,8,0:0:0:0:
186,161,261225,1,0,0:0:0:0:
186,161,261345,1,8,0:0:0:0:
389,275,261465,1,0,0:0:0:0:
389,275,261525,1,0,0:0:0:0:
389,275,261585,1,8,0:0:0:0:
389,275,261645,1,0,0:0:0:0:
389,275,261705,1,8,0:0:0:0:
389,275,261825,1,0,0:0:0:0:
419,281,261945,1,8,0:0:0:0:
270,216,262005,1,8,0:0:0:0:
386,244,262065,1,0,0:0:0:0:
386,244,262125,1,8,0:0:0:0:
386,244,262185,1,0,0:0:0:0:
386,244,262245,1,0,0:0:0:0:
386,244,262305,1,8,0:0:0:0:
386,244,262425,1,0,0:0:0:0:
386,244,262545,1,8,0:0:0:0:
415,303,262605,1,0,0:0:0:0:
386,244,262665,1,0,0:0:0:0:
413,315,262725,1,0,0:0:0:0:
407,301,262785,1,8,0:0:0:0:
191,213,262905,1,0,0:0:0:0:
239,231,263025,1,8,0:0:0:0:
239,231,263085,1,8,0:0:0:0:
239,231,263145,1,0,0:0:0:0:
239,231,263205,1,0,0:0:0:0:
239,231,263265,1,8,0:0:0:0:
239,231,263325,1,0,0:0:0:0:
239,231,263385,1,0,0:0:0:0:
239,231,263445,1,0,0:0:0:0:
239,231,263505,1,8,0:0:0:0:
239,231,263565,1,8,0:0:0:0:
239,231,263625,1,8,0:0:0:0:
239,231,263685,1,8,0:0:0:0:
239,231,263745,1,0,0:0:0:0:
239,231,263805,1,0,0:0:0:0:
239,231,263865,1,0,0:0:0:0:
239,231,263925,1,0,0:0:0:0:
239,231,263985,1,8,0:0:0:0:
382,296,264105,1,0,0:0:0:0:
382,296,264165,1,0,0:0:0:0:
382,296,264225,1,8,0:0:0:0:
382,296,264345,1,0,0:0:0:0:
337,250,264465,1,8,0:0:0:0:
337,250,264525,1,8,0:0:0:0:
337,250,264585,1,0,0:0:0:0:
337,250,264645,1,0,0:0:0:0:
337,250,264705,1,8,0:0:0:0:
337,250,264765,1,0,0:0:0:0:
337,250,264825,1,0,0:0:0:0:
337,250,264885,1,0,0:0:0:0:
337,250,264945,1,8,0:0:0:0:
381,274,265065,1,0,0:0:0:0:
381,274,265185,1,8,0:0:0:0:
381,274,265245,1,8,0:0:0:0:
381,274,265305,1,0,0:0:0:0:
239,179,265365,1,0,0:0:0:0:
249,184,265425,1,8,0:0:0:0:
249,184,265545,1,0,0:0:0:0:
249,184,265665,1,8,0:0:0:0:
293,213,265725,1,8,0:0:0:0:
330,227,265785,1,8,0:0:0:0:
330,227,265845,1,8,0:0:0:0:
330,227,265905,1,0,0:0:0:0:
359,265,266025,1,8,0:0:0:0:
359,265,266145,1,0,0:0:0:0:
359,265,266205,1,0,0:0:0:0:
359,265,266265,1,8,0:0:0:0:
359,265,266325,1,0,0:0:0:0:
359,265,266385,1,8,0:0:0:0:
449,289,266445,1,8,0:0:0:0:
449,289,266505,1,0,0:0:0:0:
359,265,266625,1,8,0:0:0:0:
416,282,266745,1,0,0:0:0:0:
140,182,266805,1,0,0:0:0:0:
132,178,266865,1,8,0:0:0:0:
353,272,266985,1,0,0:0:0:0:
353,272,267105,1,8,0:0:0:0:
353,272,267165,1,0,0:0:0:0:
353,272,267225,1,0,0:0:0:0:
353,272,267285,1,0,0:0:0:0:
353,272,267345,1,8,0:0:0:0:
396,292,267465,1,0,0:0:0:0:
399,286,267585,1,8,0:0:0:0:
399,286,267645,1,8,0:0:0:0:
399,286,267705,1,0,0:0:0:0:
346,235,267765,1,8,0:0:0:0:
399,286,267825,1,0,0:0:0:0:
304,216,267885,1,0,0:0:0:0:
285,200,267945,1,8,0:0:0:0:
292,184,268065,1,0,0:0:0:0:
285,200,268185,1,8,0:0:0:0:
379,266,268245,1,8,0:0:0:0:
285,200,268305,1,0,0:0:0:0:
266,164,268425,1,8,0:0:0:0:
266,164,268545,1,0,0:0:0:0:
266,164,268605,1,0,0:0:0:0:
266,164,268665,1,0,0:0:0:0:
266,164,268725,1,0,0:0:0:0:
346,235,268785,1,8,0:0:0:0:
384,277,268905,1,0,0:0:0:0:
384,277,269025,1,8,0:0:0:0:
384,277,269085,1,8,0:0:0:0:
384,277,269145,1,0,0:0:0:0:
384,277,269205,1,0,0:0:0:0:
384,277,269265,1,8,0:0:0:0:
384,277,269385,1,0,0:0:0:0:
384,277,269505,1,8,0:0:0:0:
241,219,269565,1,8,0:0:0:0:
399,294,269625,1,0,0:0:0:0:
384,277,269685,1,0,0:0:0:0:
399,294,269745,1,0,0:0:0:0:
399,294,269865,1,8,0:0:0:0:
399,294,269985,1,0,0:0:0:0:
290,221,270045,1,0,0:0:0:0:
399,294,270105,1,8,0:0:0:0:
290,221,270165,1,0,0:0:0:0:
399,294,270225,1,0,0:0:0:0:
399,294,270285,1,0,0:0:0:0:
399,294,270345,1,8,0:0:0:0:
399,294,270465,1,0,0:0:0:0:
256,233,270585,1,0,0:0:0:0:
189,167,270705,1,8,0:0:0:0:
189,167,270765,1,8,0:0:0:0:
189,167,270825,1,8,0:0:0:0:
189,167,270885,1,8,0:0:0:0:
189,167,270945,1,0,0:0:0:0:
189,167,271005,1,0,0:0:0:0:
189,167,271065,1,0,0:0:0:0:
189,167,271125,1,0,0:0:0:0:
189,167,271185,1,8,0:0:0:0:
189,167,271245,1,8,0:0:0:0:
189,167,271305,1,0,0:0:0:0:
189,167,271365,1,0,0:0:0:0:
189,167,271425,1,8,0:0:0:0:
189,167,271485,1,0,0:0:0:0:
189,167,271545,1,0,0:0:0:0:
189,167,271605,1,0,0:0:0:0:
189,167,271665,1,8,0:0:0:0:
206,207,271785,1,0,0:0:0:0:
206,207,271845,1,0,0:0:0:0:
206,207,271905,1,8,0:0:0:0:
389,281,272025,1,0,0:0:0:0:
389,281,272145,1,8,0:0:0:0:
389,281,272265,1,0,0:0:0:0:
201,237,272385,1,0,0:0:0:0:
382,275,272505,1,8,0:0:0:0:
382,275,272565,1,8,0:0:0:0:
382,275,272625,1,0,0:0:0:0:
436,320,272745,1,8,0:0:0:0:
436,320,272865,1,0,0:0:0:0:
240,198,272925,1,0,0:0:0:0:
297,200,272985,1,8,0:0:0:0:
375,256,273045,1,8,0:0:0:0:
238,173,273105,1,0,0:0:0:0:
238,173,273225,1,8,0:0:0:0:
238,173,273345,1,0,0:0:0:0:
238,173,273465,1,8,0:0:0:0:
385,279,273585,1,0,0:0:0:0:
385,279,273645,1,0,0:0:0:0:
385,279,273705,1,8,0:0:0:0:
385,279,273765,1,0,0:0:0:0:
385,279,273825,1,8,0:0:0:0:
385,279,273885,1,8,0:0:0:0:
385,279,273945,1,0,0:0:0:0:
385,279,274005,1,0,0:0:0:0:
385,279,274065,1,8,0:0:0:0:
353,279,274125,1,0,0:0:0:0:
353,279,274185,1,8,0:0:0:0:
353,279,274245,1,8,0:0:0:0:
353,279,274305,1,0,0:0:0:0:
384,281,274545,1,0,0:0:0:0:
330,240,274605,1,0,0:0:0:0:
330,240,274665,1,0,0:0:0:0:
330,240,274785,1,8,0:0:0:0:
330,240,274845,1,8,0:0:0:0:
330,240,274905,1,8,0:0:0:0:
356,264,275025,1,0,0:0:0:0:
356,264,275085,1,0,0:0:0:0:
356,264,275145,1,8,0:0:0:0:
329,223,275205,1,8,0:0:0:0:
356,264,275265,1,0,0:0:0:0:
356,264,275385,1,8,0:0:0:0:
369,279,275505,1,0,0:0:0:0:
369,279,275565,1,0,0:0:0:0:
369,279,275625,1,8,0:0:0:0:
369,279,275685,1,0,0:0:0:0:
369,279,275745,1,0,0:0:0:0:
369,279,275805,1,0,0:0:0:0:
369,279,275865,1,8,0:0:0:0:
369,279,275925,1,8,0:0:0:0:
369,279,275985,1,0,0:0:0:0:
369,279,276045,1,0,0:0:0:0:
369,279,276105,1,8,0:0:0:0:
369,279,276225,1,0,0:0:0:0:
369,279,276285,1,0,0:0:0:0:
369,279,276345,1,0,0:0:0:0:
369,279,276405,1,0,0:0:0:0:
369,279,276465,1,8,0:0:0:0:
391,274,276585,1,0,0:0:0:0:
281,210,276705,1,8,0:0:0:0:
281,210,276765,1,8,0:0:0:0:
281,210,276825,1,0,0:0:0:0:
281,210,276945,1,8,0:0:0:0:
344,247,277005,1,8,0:0:0:0:
190,103,277065,1,8,0:0:0:0:
344,247,277125,1,8,0:0:0:0:
190,103,277185,1,0,0:0:0:0:
190,103,277245,1,0,0:0:0:0:
190,103,277305,1,8,0:0:0:0:
190,103,277365,1,8,0:0:0:0:
190,103,277425,1,0,0:0:0:0:
411,294,277545,1,8,0:0:0:0:
411,294,277665,1,8,0:0:0:0:
411,294,277785,1,0,0:0:0:0:
411,294,277905,1,8,0:0:0:0:
425,321,277965,1,8,0:0:0:0:
417,317,278025,1,0,0:0:0:0:
280,222,278085,1,0,0:0:0:0:
349,225,278145,1,8,0:0:0:0:
266,256,278265,1,0,0:0:0:0:
239,231,278385,1,8,0:0:0:0:
239,231,278445,1,8,0:0:0:0:
239,231,278505,1,8,0:0:0:0:
239,231,278565,1,8,0:0:0:0:
239,231,278625,1,0,0:0:0:0:
239,231,278685,1,0,0:0:0:0:
239,231,278745,1,0,0:0:0:0:
239,231,278805,1,0,0:0:0:0:
239,231,278865,1,8,0:0:0:0:
239,231,278925,1,0,0:0:0:0:
239,231,278985,1,0,0:0:0:0:
239,231,279045,1,0,0:0:0:0:
239,231,279105,1,8,0:0:0:0:
239,231,279165,1,8,0:0:0:0:
239,231,279225,1,0,0:0:0:0:
239,231,279285,1,0,0:0:0:0:
239,231,279345,1,8,0:0:0:0:
358,257,279465,1,0,0:0:0:0:
358,257,279525,1,0,0:0:0:0:
358,257,279585,1,8,0:0:0:0:
391,286,279705,1,0,0:0:0:0:
391,286,279825,1,8,0:0:0:0:
391,286,279945,1,8,0:0:0:0:
391,286,280065,1,0,0:0:0:0:
391,286,280185,1,8,0:0:0:0:
391,286,280245,1,8,0:0:0:0:
391,286,280305,1,0,0:0:0:0:
248,234,280425,1,8,0:0:0:0:
248,234,280545,1,0,0:0:0:0:
409,314,280605,1,0,0:0:0:0:
248,234,280665,1,8,0:0:0:0:
306,215,280725,1,0,0:0:0:0:
396,305,280785,1,8,0:0:0:0:
396,305,280905,1,0,0:0:0:0:
396,305,281025,1,8,0:0:0:0:
396,305,281145,1,0,0:0:0:0:
396,305,281265,1,8,0:0:0:0:
396,305,281325,1,8,0:0:0:0:
396,305,281385,1,0,0:0:0:0:
396,305,281445,1,8,0:0:0:0:
396,305,281505,1,0,0:0:0:0:
396,305,281565,1,0,0:0:0:0:
396,305,281625,1,8,0:0:0:0:
396,305,281745,1,0,0:0:0:0:
396,305,281805,1,0,0:0:0:0:
396,305,281865,1,8,0:0:0:0:
396,305,281925,1,8,0:0:0:0:
396,307,281985,1,0,0:0:0:0:
396,307,282105,1,8,0:0:0:0:
396,307,282225,1,0,0:0:0:0:
411,309,282285,1,0,0:0:0:0:
356,270,282345,1,8,0:0:0:0:
360,265,282405,1,0,0:0:0:0:
407,306,282465,1,0,0:0:0:0:
360,265,282525,1,0,0:0:0:0:
407,306,282585,1,8,0:0:0:0:
407,306,282705,1,0,0:0:0:0:
407,306,282765,1,0,0:0:0:0:
407,306,282825,1,8,0:0:0:0:
407,306,282885,1,8,0:0:0:0:
407,306,282945,1,0,0:0:0:0:
410,318,283065,1,8,0:0:0:0:
351,252,283185,1,0,0:0:0:0:
351,252,283245,1,0,0:0:0:0:
386,280,283305,1,8,0:0:0:0:
351,252,283365,1,0,0:0:0:0:
386,280,283425,1,8,0:0:0:0:
351,252,283485,1,8,0:0:0:0:
386,280,283545,1,0,0:0:0:0:
386,280,283665,1,8,0:0:0:0:
366,275,283725,1,8,0:0:0:0:
434,330,283785,1,8,0:0:0:0:
412,306,283905,1,0,0:0:0:0:
412,306,283965,1,0,0:0:0:0:
412,306,284025,1,0,0:0:0:0:
412,306,284085,1,0,0:0:0:0:
412,306,284145,1,8,0:0:0:0:
363,271,284265,1,0,0:0:0:0:
363,271,284385,1,8,0:0:0:0:
409,314,284445,1,8,0:0:0:0:
409,314,284505,1,0,0:0:0:0:
409,314,284565,1,0,0:0:0:0:
409,314,284625,1,8,0:0:0:0:
409,314,284745,1,0,0:0:0:0:
369,267,284805,1,0,0:0:0:0:
409,314,284865,1,8,0:0:0:0:
364,262,284925,1,0,0:0:0:0:
409,314,284985,1,8,0:0:0:0:
409,314,285105,1,0,0:0:0:0:
398,296,285225,1,8,0:0:0:0:
364,271,285285,1,8,0:0:0:0:
409,314,285345,1,0,0:0:0:0:
398,296,285465,1,8,0:0:0:0:
398,296,285585,1,0,0:0:0:0:
398,296,285645,1,0,0:0:0:0:
398,296,285705,1,0,0:0:0:0:
398,296,285765,1,0,0:0:0:0:
405,290,285825,1,8,0:0:0:0:
229,217,285945,1,0,0:0:0:0:
247,184,286065,1,8,0:0:0:0:
247,184,286125,1,8,0:0:0:0:
247,184,286185,1,0,0:0:0:0:
247,184,286245,1,0,0:0:0:0:
247,184,286305,1,8,0:0:0:0:
247,184,286365,1,0,0:0:0:0:
247,184,286425,1,0,0:0:0:0:
247,184,286485,1,0,0:0:0:0:
247,184,286545,1,8,0:0:0:0:
247,184,286605,1,8,0:0:0:0:
242,180,286665,1,8,0:0:0:0:
242,180,286725,1,8,0:0:0:0:
242,180,286785,1,0,0:0:0:0:
242,180,286845,1,0,0:0:0:0:
242,180,286905,1,0,0:0:0:0:
242,180,286965,1,0,0:0:0:0:
242,180,287025,1,8,0:0:0:0:
371,277,287145,1,0,0:0:0:0:
371,277,287205,1,0,0:0:0:0:
371,277,287265,1,8,0:0:0:0:
381,292,287385,1,0,0:0:0:0:
271,211,287505,1,8,0:0:0:0:
271,211,287625,1,0,0:0:0:0:
271,211,287745,1,0,0:0:0:0:
411,311,287865,1,8,0:0:0:0:
411,311,287925,1,8,0:0:0:0:
272,200,287985,1,8,0:0:0:0:
362,261,288105,1,0,0:0:0:0:
362,261,288225,1,8,0:0:0:0:
362,261,288285,1,8,0:0:0:0:
362,261,288345,1,0,0:0:0:0:
391,260,288465,1,8,0:0:0:0:
391,260,288585,1,0,0:0:0:0:
391,260,288705,1,8,0:0:0:0:
417,298,288825,1,8,0:0:0:0:
417,298,288945,1,0,0:0:0:0:
417,298,289065,1,8,0:0:0:0:
417,298,289185,1,0,0:0:0:0:
396,277,289305,1,8,0:0:0:0:
396,277,289365,1,8,0:0:0:0:
396,277,289425,1,0,0:0:0:0:
413,288,289545,1,8,0:0:0:0:
413,288,289665,1,0,0:0:0:0:
413,288,289785,1,8,0:0:0:0:
343,277,289905,1,0,0:0:0:0:
381,248,289965,1,0,0:0:0:0:
381,248,290025,1,8,0:0:0:0:
234,178,290145,1,8,0:0:0:0:
256,181,290205,1,8,0:0:0:0:
256,181,290265,1,0,0:0:0:0:
300,196,290385,1,8,0:0:0:0:
400,294,290445,1,8,0:0:0:0:
375,275,290505,1,8,0:0:0:0:
375,275,290625,1,0,0:0:0:0:
376,303,290745,1,0,0:0:0:0:
396,290,290865,1,8,0:0:0:0:
396,291,290985,1,8,0:0:0:0:
396,291,291105,1,0,0:0:0:0:
343,264,291225,1,8,0:0:0:0:
343,264,291285,1,8,0:0:0:0:
337,252,291345,1,8,0:0:0:0:
405,305,291465,1,0,0:0:0:0:
405,305,291585,1,12,0:0:0:0:
405,305,291705,1,12,0:0:0:0:
417,306,291825,1,0,0:0:0:0:
405,305,291945,1,8,0:0:0:0:
417,306,292065,1,0,0:0:0:0:
417,306,292185,1,8,0:0:0:0:
417,306,292305,1,0,0:0:0:0:
232,177,292425,1,0,0:0:0:0:
377,294,292545,1,8,0:0:0:0:
377,294,292665,1,0,0:0:0:0:
377,294,292725,1,0,0:0:0:0:
377,294,292785,1,8,0:0:0:0:
281,210,292905,1,0,0:0:0:0:
281,210,293025,1,8,0:0:0:0:
281,210,293145,1,0,0:0:0:0:
281,210,293265,1,8,0:0:0:0:
281,210,293325,1,8,0:0:0:0:
281,210,293385,1,0,0:0:0:0:
281,210,293445,1,0,0:0:0:0:
281,210,293505,1,0,0:0:0:0:
276,213,293625,1,8,0:0:0:0:
276,213,293685,1,8,0:0:0:0:
276,213,293745,1,0,0:0:0:0:
276,213,293865,1,8,0:0:0:0:
276,213,293925,1,0,0:0:0:0:
276,213,294045,1,8,0:0:0:0:
276,213,294105,1,0,0:0:0:0:
317,182,294165,1,0,0:0:0:0:
196,144,294225,1,8,0:0:0:0:
317,182,294345,1,0,0:0:0:0:
266,190,294405,1,8,0:0:0:0:
356,246,294525,1,0,0:0:0:0:
356,246,294585,1,8,0:0:0:0:
436,281,294645,1,8,0:0:0:0:
436,281,294705,1,0,0:0:0:0:
436,281,294825,1,8,0:0:0:0:
436,281,294945,1,8,0:0:0:0:
436,281,295065,1,8,0:0:0:0:
273,188,295185,1,0,0:0:0:0:
288,212,295665,1,12,0:0:0:0:
282,268,295785,1,0,0:0:0:0:
283,234,295905,1,8,0:0:0:0:
283,234,295965,1,8,0:0:0:0:
283,234,296025,1,0,0:0:0:0:
283,234,296085,1,0,0:0:0:0:
283,234,296145,1,8,0:0:0:0:
283,234,296205,1,0,0:0:0:0:
283,234,296265,1,8,0:0:0:0:
283,234,296325,1,8,0:0:0:0:
283,234,296385,1,0,0:0:0:0:
283,234,296445,1,0,0:0:0:0:
283,234,296505,1,8,0:0:0:0:
283,234,296565,1,0,0:0:0:0:
355,273,296625,1,8,0:0:0:0:
276,224,296665,1,8,0:0:0:0:
279,225,296705,1,8,0:0:0:0:
279,225,296745,1,0,0:0:0:0:
283,234,296865,1,8,0:0:0:0:
279,225,296925,1,0,0:0:0:0:
279,225,296985,1,8,0:0:0:0:
276,224,297045,1,0,0:0:0:0:
276,224,297105,1,8,0:0:0:0:
279,225,297165,1,8,0:0:0:0:
279,225,297225,1,0,0:0:0:0:
276,224,297285,1,0,0:0:0:0:
276,224,297345,1,8,0:0:0:0:
279,225,297405,1,0,0:0:0:0:
279,225,297465,1,0,0:0:0:0:
276,224,297525,1,0,0:0:0:0:
276,224,297585,1,12,0:0:0:0:
252,237,297705,1,0,0:0:0:0:
252,237,297825,1,8,0:0:0:0:
204,225,297865,1,8,0:0:0:0:
204,225,297905,1,8,0:0:0:0:
204,225,297945,1,0,0:0:0:0:
295,174,298005,1,0,0:0:0:0:
204,225,298065,1,8,0:0:0:0:
204,225,298105,1,0,0:0:0:0:
204,225,298145,1,0,0:0:0:0:
204,225,298185,1,8,0:0:0:0:
295,174,298245,1,8,0:0:0:0:
245,237,298305,1,0,0:0:0:0:
245,237,298345,1,0,0:0:0:0:
245,237,298385,1,0,0:0:0:0:
245,237,298425,1,8,0:0:0:0:
295,174,298485,1,8,0:0:0:0:
356,232,298545,1,0,0:0:0:0:
256,190,298585,1,8,0:0:0:0:
256,190,298625,1,8,0:0:0:0:
256,190,298665,1,0,0:0:0:0:
256,190,298725,1,0,0:0:0:0:
323,237,298785,1,8,0:0:0:0:
323,237,298905,1,0,0:0:0:0:
323,237,299025,1,0,0:0:0:0:
256,190,299145,1,0,0:0:0:0:
256,190,299265,1,12,0:0:0:0:
323,249,299385,1,0,0:0:0:0:
323,249,299445,1,0,0:0:0:0:
323,249,299505,1,12,0:0:0:0:
340,265,299625,1,0,0:0:0:0:
340,265,299745,1,8,0:0:0:0:
304,247,299805,1,8,0:0:0:0:
304,247,299865,1,0,0:0:0:0:
304,247,299925,1,8,0:0:0:0:
304,247,299985,1,0,0:0:0:0:
304,247,300045,1,0,0:0:0:0:
304,247,300105,1,8,0:0:0:0:
304,247,300165,1,8,0:0:0:0:
304,247,300225,1,0,0:0:0:0:
304,247,300285,1,8,0:0:0:0:
304,247,300345,1,0,0:0:0:0:
304,247,300405,1,0,0:0:0:0:
304,247,300465,1,8,0:0:0:0:
279,227,300505,1,8,0:0:0:0:
279,227,300545,1,8,0:0:0:0:
279,227,300585,1,0,0:0:0:0:
279,227,300705,1,8,0:0:0:0:
279,227,300765,1,0,0:0:0:0:
279,227,300825,1,0,0:0:0:0:
279,227,300885,1,0,0:0:0:0:
279,227,300945,1,8,0:0:0:0:
281,222,301005,1,0,0:0:0:0:
281,222,301065,1,8,0:0:0:0:
281,222,301125,1,8,0:0:0:0:
281,222,301185,1,0,0:0:0:0:
281,222,301245,1,8,0:0:0:0:
281,222,301305,1,0,0:0:0:0:
281,222,301365,1,0,0:0:0:0:
281,222,301425,1,12,0:0:0:0:
308,231,301545,1,0,0:0:0:0:
308,231,301665,1,8,0:0:0:0:
156,176,301705,1,0,0:0:0:0:
156,176,301745,1,0,0:0:0:0:
156,176,301785,1,8,0:0:0:0:
410,263,301845,1,8,0:0:0:0:
156,176,301905,1,0,0:0:0:0:
156,176,301945,1,0,0:0:0:0:
156,176,301985,1,0,0:0:0:0:
156,176,302025,1,8,0:0:0:0:
410,263,302085,1,8,0:0:0:0:
156,176,302145,1,0,0:0:0:0:
156,176,302185,1,8,0:0:0:0:
156,176,302225,1,8,0:0:0:0:
156,176,302265,1,0,0:0:0:0:
410,263,302325,1,0,0:0:0:0:
156,176,302385,1,8,0:0:0:0:
320,200,302505,1,0,0:0:0:0:
322,186,302565,1,0,0:0:0:0:
320,200,302625,1,8,0:0:0:0:
322,187,302745,1,0,0:0:0:0:
322,186,302805,1,0,0:0:0:0:
322,187,302865,1,8,0:0:0:0:
396,315,302985,1,0,0:0:0:0:
396,315,303045,1,0,0:0:0:0:
396,315,303105,1,8,0:0:0:0:
346,253,303145,1,8,0:0:0:0:
299,204,303185,1,8,0:0:0:0:
346,253,303225,1,0,0:0:0:0:
346,253,303285,1,0,0:0:0:0:
401,312,303345,1,12,0:0:0:0:
385,274,303465,1,0,0:0:0:0:
385,274,303585,1,8,0:0:0:0:
385,274,303645,1,0,0:0:0:0:
385,274,303705,1,8,0:0:0:0:
385,274,303765,1,8,0:0:0:0:
385,274,303825,1,0,0:0:0:0:
385,274,303885,1,0,0:0:0:0:
385,274,303945,1,8,0:0:0:0:
385,274,304005,1,0,0:0:0:0:
385,274,304065,1,8,0:0:0:0:
385,274,304125,1,8,0:0:0:0:
385,274,304185,1,0,0:0:0:0:
385,274,304245,1,0,0:0:0:0:
385,274,304305,1,8,0:0:0:0:
371,213,304345,1,0,0:0:0:0:
371,213,304385,1,0,0:0:0:0:
371,213,304425,1,8,0:0:0:0:
368,229,304545,1,0,0:0:0:0:
368,229,304605,1,0,0:0:0:0:
368,229,304665,1,8,0:0:0:0:
368,229,304725,1,0,0:0:0:0:
368,229,304785,1,8,0:0:0:0:
368,229,304845,1,8,0:0:0:0:
193,183,304905,1,0,0:0:0:0:
193,183,304965,1,0,0:0:0:0:
193,183,305025,1,8,0:0:0:0:
193,183,305085,1,0,0:0:0:0:
193,183,305145,1,0,0:0:0:0:
193,183,305205,1,0,0:0:0:0:
424,279,305265,1,12,0:0:0:0:
424,279,305385,1,0,0:0:0:0:
193,183,305505,1,8,0:0:0:0:
228,162,305545,1,8,0:0:0:0:
228,162,305585,1,8,0:0:0:0:
228,162,305625,1,0,0:0:0:0:
249,157,305685,1,0,0:0:0:0:
228,162,305745,1,8,0:0:0:0:
228,162,305785,1,0,0:0:0:0:
228,162,305825,1,0,0:0:0:0:
228,162,305865,1,8,0:0:0:0:
249,157,305925,1,8,0:0:0:0:
228,162,305985,1,0,0:0:0:0:
228,162,306025,1,0,0:0:0:0:
228,162,306065,1,0,0:0:0:0:
228,162,306105,1,8,0:0:0:0:
249,157,306165,1,8,0:0:0:0:
208,155,306225,1,0,0:0:0:0:
208,155,306265,1,8,0:0:0:0:
208,155,306305,1,8,0:0:0:0:
208,155,306345,1,0,0:0:0:0:
364,206,306405,1,0,0:0:0:0:
208,155,306465,1,8,0:0:0:0:
325,243,306585,1,0,0:0:0:0:
325,243,306705,1,0,0:0:0:0:
357,269,306825,1,0,0:0:0:0:
357,269,306945,1,12,0:0:0:0:
357,269,307065,1,0,0:0:0:0:
357,269,307125,1,0,0:0:0:0:
357,269,307185,1,12,0:0:0:0:
268,237,307305,1,0,0:0:0:0:
268,237,307425,1,8,0:0:0:0:
268,237,307485,1,8,0:0:0:0:
268,237,307545,1,0,0:0:0:0:
268,237,307605,1,0,0:0:0:0:
268,237,307665,1,8,0:0:0:0:
268,237,307725,1,0,0:0:0:0:
268,237,307785,1,0,0:0:0:0:
268,237,307845,1,0,0:0:0:0:
268,237,307905,1,8,0:0:0:0:
268,237,307965,1,8,0:0:0:0:
268,237,308025,1,0,0:0:0:0:
268,237,308085,1,0,0:0:0:0:
268,237,308145,1,8,0:0:0:0:
260,142,308185,1,0,0:0:0:0:
260,142,308225,1,0,0:0:0:0:
260,142,308265,1,8,0:0:0:0:
260,142,308385,1,0,0:0:0:0:
401,275,308445,1,0,0:0:0:0:
401,275,308505,1,8,0:0:0:0:
401,275,308565,1,8,0:0:0:0:
401,275,308625,1,0,0:0:0:0:
401,275,308685,1,8,0:0:0:0:
401,275,308745,1,0,0:0:0:0:
401,275,308805,1,0,0:0:0:0:
401,275,308865,1,8,0:0:0:0:
401,275,308925,1,0,0:0:0:0:
401,275,308985,1,0,0:0:0:0:
401,275,309045,1,0,0:0:0:0:
372,252,309105,1,12,0:0:0:0:
383,300,309225,1,0,0:0:0:0:
318,202,309345,1,8,0:0:0:0:
360,258,309585,1,0,0:0:0:0:
358,264,309825,1,0,0:0:0:0:
358,264,309945,1,0,0:0:0:0:
358,264,310065,1,8,0:0:0:0:
249,185,310185,1,0,0:0:0:0:
249,185,310245,1,0,0:0:0:0:
249,185,310305,1,8,0:0:0:0:
249,185,310425,1,0,0:0:0:0:
249,185,310485,1,0,0:0:0:0:
249,185,310545,1,8,0:0:0:0:
249,185,310665,1,0,0:0:0:0:
249,185,310725,1,0,0:0:0:0:
249,185,310785,1,8,0:0:0:0:
341,284,310845,1,8,0:0:0:0:
291,157,310905,1,0,0:0:0:0:
291,157,310945,1,0,0:0:0:0:
291,157,310985,1,0,0:0:0:0:
365,265,311025,1,8,0:0:0:0:
331,257,311145,1,8,0:0:0:0:
331,257,311265,1,0,0:0:0:0:
331,257,311325,1,0,0:0:0:0:
331,257,311385,1,8,0:0:0:0:
331,257,311445,1,0,0:0:0:0:
331,257,311505,1,8,0:0:0:0:
331,257,311565,1,8,0:0:0:0:
331,257,311625,1,0,0:0:0:0:
331,257,311745,1,8,0:0:0:0:
373,275,311865,1,0,0:0:0:0:
373,275,311985,1,8,0:0:0:0:
373,275,312045,1,8,0:0:0:0:
373,275,312105,1,8,0:0:0:0:
410,303,312165,1,8,0:0:0:0:
410,303,312225,1,0,0:0:0:0:
410,303,312345,1,8,0:0:0:0:
410,303,312465,1,0,0:0:0:0:
410,303,312525,1,0,0:0:0:0:
410,303,312585,1,8,0:0:0:0:
410,303,312645,1,8,0:0:0:0:
410,303,312705,1,8,0:0:0:0:
414,296,312825,1,0,0:0:0:0:
414,296,312945,1,8,0:0:0:0:
414,296,313005,1,8,0:0:0:0:
414,296,313065,1,0,0:0:0:0:
414,296,313185,1,8,0:0:0:0:
407,298,313305,1,0,0:0:0:0:
407,298,313365,1,0,0:0:0:0:
407,298,313425,1,8,0:0:0:0:
407,298,313485,1,0,0:0:0:0:
407,298,313545,1,0,0:0:0:0:
407,298,313605,1,0,0:0:0:0:
407,298,313665,1,8,0:0:0:0:
415,304,313785,1,0,0:0:0:0:
415,304,313905,1,8,0:0:0:0:
415,304,313965,1,8,0:0:0:0:
415,304,314025,1,0,0:0:0:0:
415,304,314085,1,0,0:0:0:0:
415,304,314145,1,8,0:0:0:0:
415,304,314265,1,0,0:0:0:0:
415,304,314385,1,8,0:0:0:0:
207,116,314445,1,0,0:0:0:0:
415,304,314505,1,0,0:0:0:0:
207,116,314565,1,0,0:0:0:0:
207,116,314625,1,8,0:0:0:0:
386,284,314685,1,8,0:0:0:0:
386,284,314745,1,0,0:0:0:0:
386,284,314805,1,0,0:0:0:0:
386,284,314865,1,8,0:0:0:0:
340,273,314985,1,0,0:0:0:0:
340,273,315105,1,8,0:0:0:0:
340,273,315165,1,8,0:0:0:0:
340,273,315225,1,0,0:0:0:0:
340,273,315345,1,8,0:0:0:0:
379,273,315465,1,0,0:0:0:0:
379,273,315585,1,8,0:0:0:0:
379,273,315645,1,8,0:0:0:0:
379,273,315705,1,8,0:0:0:0:
379,273,315765,1,8,0:0:0:0:
379,273,315825,1,0,0:0:0:0:
402,315,315885,1,0,0:0:0:0:
402,315,315945,1,0,0:0:0:0:
263,204,316005,1,0,0:0:0:0:
399,270,316065,1,8,0:0:0:0:
364,252,316185,1,0,0:0:0:0:
364,252,316305,1,8,0:0:0:0:
364,252,316425,1,0,0:0:0:0:
364,252,316545,1,8,0:0:0:0:
364,252,316605,1,8,0:0:0:0:
381,267,316665,1,0,0:0:0:0:
161,153,316725,1,0,0:0:0:0:
193,191,316785,1,8,0:0:0:0:
224,162,316905,1,0,0:0:0:0:
358,289,317025,1,8,0:0:0:0:
358,289,317085,1,0,0:0:0:0:
358,289,317145,1,0,0:0:0:0:
258,226,317205,1,0,0:0:0:0:
358,289,317265,1,8,0:0:0:0:
358,289,317385,1,0,0:0:0:0:
367,250,317505,1,8,0:0:0:0:
367,250,317625,1,0,0:0:0:0:
223,203,317745,1,8,0:0:0:0:
223,203,317805,1,8,0:0:0:0:
223,203,317865,1,8,0:0:0:0:
223,203,317925,1,8,0:0:0:0:
223,203,317985,1,0,0:0:0:0:
223,203,318045,1,0,0:0:0:0:
223,203,318105,1,8,0:0:0:0:
223,203,318165,1,8,0:0:0:0:
223,203,318225,1,0,0:0:0:0:
223,203,318285,1,0,0:0:0:0:
223,203,318345,1,0,0:0:0:0:
223,203,318405,1,0,0:0:0:0:
223,203,318465,1,8,0:0:0:0:
223,203,318525,1,0,0:0:0:0:
223,203,318585,1,8,0:0:0:0:
223,203,318645,1,0,0:0:0:0:
223,203,318705,1,8,0:0:0:0:
219,194,318825,1,0,0:0:0:0:
314,221,318945,1,8,0:0:0:0:
314,221,319065,1,0,0:0:0:0:
314,221,319125,1,0,0:0:0:0:
314,221,319185,1,8,0:0:0:0:
348,284,319245,1,0,0:0:0:0:
348,284,319305,1,8,0:0:0:0:
348,284,319365,1,8,0:0:0:0:
348,284,319425,1,0,0:0:0:0:
348,284,319545,1,8,0:0:0:0:
326,242,319665,1,0,0:0:0:0:
326,242,319725,1,0,0:0:0:0:
326,242,319785,1,0,0:0:0:0:
326,242,319845,1,0,0:0:0:0:
326,242,319905,1,8,0:0:0:0:
326,242,320025,1,0,0:0:0:0:
326,242,320145,1,8,0:0:0:0:
232,209,320205,1,0,0:0:0:0:
326,242,320265,1,0,0:0:0:0:
326,242,320325,1,0,0:0:0:0:
326,242,320385,1,8,0:0:0:0:
361,261,320445,1,8,0:0:0:0:
361,261,320505,1,0,0:0:0:0:
361,261,320625,1,8,0:0:0:0:
298,251,320745,1,0,0:0:0:0:
292,243,320865,1,8,0:0:0:0:
292,243,320925,1,8,0:0:0:0:
292,243,320985,1,0,0:0:0:0:
292,243,321105,1,8,0:0:0:0:
292,243,321225,1,0,0:0:0:0:
359,261,321285,1,0,0:0:0:0:
243,148,321345,1,8,0:0:0:0:
243,148,321405,1,0,0:0:0:0:
243,148,321465,1,0,0:0:0:0:
243,148,321525,1,0,0:0:0:0:
345,240,321585,1,8,0:0:0:0:
351,278,321705,1,0,0:0:0:0:
351,278,321825,1,8,0:0:0:0:
351,278,321885,1,0,0:0:0:0:
351,278,321945,1,8,0:0:0:0:
351,278,322005,1,8,0:0:0:0:
351,278,322065,1,0,0:0:0:0:
351,278,322125,1,0,0:0:0:0:
351,278,322185,1,8,0:0:0:0:
372,278,322245,1,0,0:0:0:0:
351,278,322305,1,8,0:0:0:0:
371,293,322425,1,0,0:0:0:0:
371,293,322545,1,8,0:0:0:0:
216,198,322605,1,8,0:0:0:0:
216,198,322665,1,0,0:0:0:0:
216,198,322725,1,0,0:0:0:0:
216,198,322785,1,8,0:0:0:0:
216,198,322845,1,0,0:0:0:0:
216,198,322905,1,0,0:0:0:0:
216,198,322965,1,0,0:0:0:0:
216,198,323025,1,8,0:0:0:0:
216,198,323085,1,8,0:0:0:0:
216,198,323145,1,0,0:0:0:0:
216,198,323205,1,0,0:0:0:0:
216,198,323265,1,8,0:0:0:0:
216,198,323325,1,0,0:0:0:0:
216,198,323385,1,8,0:0:0:0:
216,198,323445,1,0,0:0:0:0:
216,198,323505,1,8,0:0:0:0:
216,198,323565,1,8,0:0:0:0:
216,198,323625,1,8,0:0:0:0:
216,198,323685,1,0,0:0:0:0:
216,198,323745,1,8,0:0:0:0:
216,198,323805,1,8,0:0:0:0:
216,198,323865,1,0,0:0:0:0:
216,198,323925,1,0,0:0:0:0:
216,198,323985,1,8,0:0:0:0:
216,198,324045,1,0,0:0:0:0:
216,198,324105,1,0,0:0:0:0:
216,198,324165,1,0,0:0:0:0:
216,198,324225,1,8,0:0:0:0:
216,198,324285,1,0,0:0:0:0:
216,198,324345,1,8,0:0:0:0:
216,198,324405,1,0,0:0:0:0:
216,198,324465,1,8,0:0:0:0:
216,198,324525,1,8,0:0:0:0:
216,198,324585,1,8,0:0:0:0:
216,198,324645,1,0,0:0:0:0:
216,198,324705,1,8,0:0:0:0:
216,198,324765,1,8,0:0:0:0:
216,198,324825,1,0,0:0:0:0:
216,198,324885,1,0,0:0:0:0:
216,198,324945,1,8,0:0:0:0:
216,198,325005,1,8,0:0:0:0:
216,198,325065,1,0,0:0:0:0:
216,198,325125,1,0,0:0:0:0:
216,198,325185,1,8,0:0:0:0:
216,198,325305,1,0,0:0:0:0:
344,242,325425,1,8,0:0:0:0:
344,242,325485,1,8,0:0:0:0:
344,242,325545,1,8,0:0:0:0:
344,242,325605,1,8,0:0:0:0:
344,242,325665,1,0,0:0:0:0:
344,242,325785,1,0,0:0:0:0:
344,242,325905,1,8,0:0:0:0:
416,310,326025,1,0,0:0:0:0:
220,179,326145,1,8,0:0:0:0:
220,179,326205,1,8,0:0:0:0:
220,179,326265,1,8,0:0:0:0:
220,179,326325,1,8,0:0:0:0:
252,202,326385,1,0,0:0:0:0:
252,202,326445,1,0,0:0:0:0:
252,202,326505,1,0,0:0:0:0:
252,202,326565,1,0,0:0:0:0:
252,202,326625,1,8,0:0:0:0:
252,202,326685,1,8,0:0:0:0:
252,202,326745,1,8,0:0:0:0:
252,202,326805,1,0,0:0:0:0:
252,202,326865,1,8,0:0:0:0:
252,202,326925,1,8,0:0:0:0:
252,202,326985,1,0,0:0:0:0:
252,202,327045,1,0,0:0:0:0:
252,202,327105,1,8,0:0:0:0:
252,202,327165,1,0,0:0:0:0:
252,202,327225,1,0,0:0:0:0:
252,202,327285,1,0,0:0:0:0:
252,202,327345,1,8,0:0:0:0:
252,202,327405,1,8,0:0:0:0:
252,202,327465,1,8,0:0:0:0:
252,202,327525,1,8,0:0:0:0:
252,202,327585,1,0,0:0:0:0:
252,202,327645,1,0,0:0:0:0:
252,202,327705,1,0,0:0:0:0:
252,202,327765,1,0,0:0:0:0:
252,202,327825,1,8,0:0:0:0:
242,207,327885,1,8,0:0:0:0:
242,207,327945,1,0,0:0:0:0:
242,207,328005,1,0,0:0:0:0:
242,207,328065,1,8,0:0:0:0:
242,207,328125,1,0,0:0:0:0:
242,207,328185,1,8,0:0:0:0:
242,207,328245,1,0,0:0:0:0:
242,207,328305,1,8,0:0:0:0:
242,207,328365,1,8,0:0:0:0:
242,207,328425,1,8,0:0:0:0:
242,207,328485,1,0,0:0:0:0:
242,207,328545,1,8,0:0:0:0:
242,207,328605,1,8,0:0:0:0:
242,207,328665,1,0,0:0:0:0:
242,207,328725,1,0,0:0:0:0:
242,207,328785,1,8,0:0:0:0:
332,281,328845,1,0,0:0:0:0:
332,281,328905,1,0,0:0:0:0:
332,281,328965,1,0,0:0:0:0:
332,281,329025,1,8,0:0:0:0:
332,281,329085,1,8,0:0:0:0:
332,281,329145,1,8,0:0:0:0:
332,281,329205,1,8,0:0:0:0:
332,281,329265,1,0,0:0:0:0:
332,281,329325,1,0,0:0:0:0:
332,281,329385,1,0,0:0:0:0:
332,281,329445,1,0,0:0:0:0:
332,281,329505,1,8,0:0:0:0:
332,281,329565,1,8,0:0:0:0:
332,281,329625,1,0,0:0:0:0:
247,221,329685,1,0,0:0:0:0:
165,217,329745,1,8,0:0:0:0:
165,217,329805,1,0,0:0:0:0:
165,217,329865,1,8,0:0:0:0:
165,217,329925,1,0,0:0:0:0:
165,217,329985,1,8,0:0:0:0:
165,217,330045,1,8,0:0:0:0:
165,217,330105,1,0,0:0:0:0:
165,217,330165,1,0,0:0:0:0:
217,205,330225,1,8,0:0:0:0:
319,256,330345,1,0,0:0:0:0:
319,256,330465,1,8,0:0:0:0:
319,256,330525,1,8,0:0:0:0:
319,256,330585,1,0,0:0:0:0:
319,256,330645,1,0,0:0:0:0:
319,256,330705,1,0,0:0:0:0:
319,256,330765,1,0,0:0:0:0:
319,256,330825,1,8,0:0:0:0:
319,256,330945,1,8,0:0:0:0:
326,270,331005,1,8,0:0:0:0:
326,270,331065,1,0,0:0:0:0:
326,270,331185,1,8,0:0:0:0:
300,238,331305,1,0,0:0:0:0:
300,238,331425,1,8,0:0:0:0:
300,238,331485,1,8,0:0:0:0:
300,238,331545,1,0,0:0:0:0:
300,238,331605,1,0,0:0:0:0:
300,238,331665,1,8,0:0:0:0:
325,251,331785,1,0,0:0:0:0:
325,251,331905,1,8,0:0:0:0:
325,251,331965,1,8,0:0:0:0:
325,251,332025,1,0,0:0:0:0:
325,251,332085,1,8,0:0:0:0:
325,251,332145,1,0,0:0:0:0:
384,280,332205,1,0,0:0:0:0:
384,280,332265,1,8,0:0:0:0:
384,280,332385,1,0,0:0:0:0:
373,284,332445,1,0,0:0:0:0:
373,284,332505,1,0,0:0:0:0:
373,284,332565,1,0,0:0:0:0:
373,284,332625,1,8,0:0:0:0:
373,284,332745,1,0,0:0:0:0:
388,296,332805,1,0,0:0:0:0:
373,284,332865,1,8,0:0:0:0:
373,284,332985,1,0,0:0:0:0:
306,245,333105,1,8,0:0:0:0:
306,245,333165,1,8,0:0:0:0:
306,245,333225,1,0,0:0:0:0:
376,295,333285,1,0,0:0:0:0:
376,295,333345,1,0,0:0:0:0:
376,295,333465,1,8,0:0:0:0:
376,295,333525,1,8,0:0:0:0:
376,295,333585,1,8,0:0:0:0:
313,244,333705,1,0,0:0:0:0:
313,244,333765,1,0,0:0:0:0:
313,244,333825,1,8,0:0:0:0:
313,244,333885,1,0,0:0:0:0:
313,244,333945,1,8,0:0:0:0:
313,244,334005,1,0,0:0:0:0:
290,235,334065,1,8,0:0:0:0:
288,237,334125,1,8,0:0:0:0:
288,237,334185,1,8,0:0:0:0:
288,237,334245,1,0,0:0:0:0:
290,235,334305,1,8,0:0:0:0:
288,237,334365,1,8,0:0:0:0:
288,237,334425,1,0,0:0:0:0:
288,237,334485,1,0,0:0:0:0:
288,237,334545,1,8,0:0:0:0:
288,237,334605,1,0,0:0:0:0:
288,237,334665,1,0,0:0:0:0:
288,237,334725,1,0,0:0:0:0:
288,237,334785,1,8,0:0:0:0:
288,237,334845,1,8,0:0:0:0:
288,237,334905,1,8,0:0:0:0:
288,237,334965,1,8,0:0:0:0:
288,237,335025,1,0,0:0:0:0:
288,237,335085,1,0,0:0:0:0:
288,237,335145,1,0,0:0:0:0:
288,237,335205,1,0,0:0:0:0:
288,237,335265,1,8,0:0:0:0:
288,237,335325,1,8,0:0:0:0:
288,237,335385,1,0,0:0:0:0:
288,237,335445,1,0,0:0:0:0:
288,237,335505,1,8,0:0:0:0:
288,237,335565,1,0,0:0:0:0:
288,237,335625,1,0,0:0:0:0:
288,237,335685,1,0,0:0:0:0:
288,237,335745,1,8,0:0:0:0:
288,237,335805,1,0,0:0:0:0:
288,237,335865,1,8,0:0:0:0:
288,237,335925,1,0,0:0:0:0:
288,237,335985,1,8,0:0:0:0:
288,237,336045,1,8,0:0:0:0:
288,237,336105,1,8,0:0:0:0:
288,237,336165,1,0,0:0:0:0:
288,237,336225,1,8,0:0:0:0:
288,237,336285,1,8,0:0:0:0:
288,237,336345,1,0,0:0:0:0:
288,237,336405,1,0,0:0:0:0:
288,237,336465,1,8,0:0:0:0:
288,237,336525,1,0,0:0:0:0:
288,237,336585,1,0,0:0:0:0:
288,237,336645,1,0,0:0:0:0:
288,237,336705,1,8,0:0:0:0:
288,237,336765,1,8,0:0:0:0:
288,237,336825,1,8,0:0:0:0:
288,237,336885,1,8,0:0:0:0:
288,237,336945,1,0,0:0:0:0:
288,237,337005,1,0,0:0:0:0:
288,237,337065,1,0,0:0:0:0:
288,237,337125,1,0,0:0:0:0:
288,237,337185,1,8,0:0:0:0:
288,237,337245,1,8,0:0:0:0:
288,237,337305,1,0,0:0:0:0:
288,237,337365,1,0,0:0:0:0:
288,237,337425,1,8,0:0:0:0:
242,237,337545,1,0,0:0:0:0:
242,237,337665,1,8,0:0:0:0:
279,203,337905,1,12,0:0:0:0:
314,248,338025,1,0,0:0:0:0:
314,248,338145,1,0,0:0:0:0:
269,217,338265,1,12,0:0:0:0:
371,271,338385,1,0,0:0:0:0:
371,271,338505,1,0,0:0:0:0:
371,271,338625,1,12,0:0:0:0:
324,240,338745,1,0,0:0:0:0:
324,240,338805,1,0,0:0:0:0:
324,240,338865,1,12,0:0:0:0:
345,266,338985,1,0,0:0:0:0:
345,266,339105,1,0,0:0:0:0:
368,298,339225,1,12,0:0:0:0:
345,266,339345,1,0,0:0:0:0:
345,266,339465,1,0,0:0:0:0:
286,222,339585,1,12,0:0:0:0:
345,266,339705,1,0,0:0:0:0:
345,266,339765,1,0,0:0:0:0:
286,222,339825,1,12,0:0:0:0:
279,205,339945,1,0,0:0:0:0:
362,283,340005,1,8,0:0:0:0:
379,273,340125,1,0,0:0:0:0:
379,273,340185,1,8,0:0:0:0:
379,273,340245,1,8,0:0:0:0:
397,283,340305,1,0,0:0:0:0:
397,283,340425,1,8,0:0:0:0:
397,283,340485,1,0,0:0:0:0:
359,233,340605,1,8,0:0:0:0:
359,233,340665,1,0,0:0:0:0:
359,233,340725,1,0,0:0:0:0:
359,233,340785,1,8,0:0:0:0:
387,246,340905,1,0,0:0:0:0:
387,246,341025,1,0,0:0:0:0:
387,246,341145,1,8,0:0:0:0:
387,246,341265,1,8,0:0:0:0:
350,235,341745,1,12,0:0:0:0:
256,192,341865,12,0,347505,0:0:0:0:
262,188,357105,5,12,0:0:0:0:
301,212,357585,1,0,0:0:0:0:
301,212,357705,1,8,0:0:0:0:
353,260,359505,1,0,0:0:0:0:
353,260,359625,1,8,0:0:0:0:
391,295,360945,1,0,0:0:0:0:
420,311,361425,1,0,0:0:0:0:
420,311,361545,1,8,0:0:0:0:
317,237,362865,1,8,0:0:0:0:
385,278,363345,1,0,0:0:0:0:
385,278,363465,1,8,0:0:0:0:
255,243,364785,1,0,0:0:0:0:
393,307,365265,1,0,0:0:0:0:
393,307,365385,1,8,0:0:0:0:
339,222,366705,1,8,0:0:0:0:
325,195,367185,1,0,0:0:0:0:
325,195,367305,1,8,0:0:0:0:
426,322,368625,1,8,0:0:0:0:
215,141,369105,1,0,0:0:0:0:
354,272,369225,1,8,0:0:0:0:
221,208,370545,1,0,0:0:0:0:
440,321,371025,1,0,0:0:0:0:
392,301,371145,1,8,0:0:0:0:
232,192,372465,1,4,0:0:0:0:
389,294,372945,1,0,0:0:0:0:
389,294,373065,1,8,0:0:0:0:
379,275,374865,1,0,0:0:0:0:
379,275,374985,1,8,0:0:0:0:
366,268,376305,1,0,0:0:0:0:
284,202,376785,1,0,0:0:0:0:
405,294,376905,1,8,0:0:0:0:
361,252,378705,1,0,0:0:0:0:
361,252,378825,1,8,0:0:0:0:
256,190,380145,1,8,0:0:0:0:
359,270,380625,1,0,0:0:0:0:
359,270,380745,1,8,0:0:0:0:
261,181,382065,1,8,0:0:0:0:
343,278,382545,1,0,0:0:0:0:
343,278,382665,1,8,0:0:0:0:
403,319,383985,1,0,0:0:0:0:
396,303,384465,1,0,0:0:0:0:
396,303,384585,1,8,0:0:0:0:
334,236,385905,1,8,0:0:0:0:
256,209,386385,1,0,0:0:0:0:
256,209,386505,1,8,0:0:0:0:
404,302,386865,1,0,0:0:0:0:
252,188,387825,1,4,0:0:0:0:
263,195,388605,1,8,0:0:0:0:
344,240,389345,1,0,0:0:0:0:
387,292,390285,1,8,0:0:0:0:
399,291,391245,1,0,0:0:0:0:
335,233,392025,1,8,0:0:0:0:
171,238,392145,1,0,0:0:0:0:
409,303,393165,1,8,0:0:0:0:
409,303,393945,1,8,0:0:0:0:
409,303,394065,1,0,0:0:0:0:
196,202,395085,1,0,0:0:0:0:
256,192,395505,1,12,0:0:0:0:
269,223,395745,1,0,0:0:0:0:
330,258,395865,1,8,0:0:0:0:
253,216,395925,1,8,0:0:0:0:
253,216,395985,1,8,0:0:0:0:
312,227,396225,1,0,0:0:0:0:
355,270,396465,1,0,0:0:0:0:
340,263,396825,1,8,0:0:0:0:
340,263,396885,1,8,0:0:0:0:
340,263,396945,1,8,0:0:0:0:
340,263,397185,1,0,0:0:0:0:
378,279,397425,1,8,0:0:0:0:
222,182,397785,1,8,0:0:0:0:
222,182,397845,1,8,0:0:0:0:
222,182,397905,1,8,0:0:0:0:
222,182,398145,1,0,0:0:0:0:
222,182,398385,1,0,0:0:0:0:
64,64,398745,1,0,0:0:0:0:
317,243,398865,1,8,0:0:0:0:
317,243,399105,1,0,0:0:0:0:
317,243,399345,1,8,0:0:0:0:
332,260,399585,1,0,0:0:0:0:
332,260,399705,1,8,0:0:0:0:
332,260,399765,1,8,0:0:0:0:
332,260,399825,1,8,0:0:0:0:
332,260,400065,1,0,0:0:0:0:
332,260,400305,1,8,0:0:0:0:
333,241,400545,1,0,0:0:0:0:
333,241,400665,1,8,0:0:0:0:
309,271,400725,1,8,0:0:0:0:
309,271,400785,1,8,0:0:0:0:
386,312,401025,1,0,0:0:0:0:
286,137,401265,1,8,0:0:0:0:
286,137,401505,1,0,0:0:0:0:
338,243,401625,1,8,0:0:0:0:
338,243,401685,1,8,0:0:0:0:
338,243,401745,1,8,0:0:0:0:
281,215,401985,1,0,0:0:0:0:
376,270,402225,1,8,0:0:0:0:
331,257,402465,1,8,0:0:0:0:
331,257,402585,1,0,0:0:0:0:
331,257,402705,1,8,0:0:0:0:
335,227,402945,1,0,0:0:0:0:
335,227,403065,1,0,0:0:0:0:
335,227,403185,1,8,0:0:0:0:
340,251,403425,1,0,0:0:0:0:
340,251,403545,1,8,0:0:0:0:
361,279,403665,1,0,0:0:0:0:
361,279,403905,1,8,0:0:0:0:
361,279,404145,1,0,0:0:0:0:
371,279,404385,1,8,0:0:0:0:
371,279,404505,1,0,0:0:0:0:
371,279,404625,1,8,0:0:0:0:
371,280,404865,1,0,0:0:0:0:
371,279,405105,1,8,0:0:0:0:
341,248,405345,1,0,0:0:0:0:
341,248,405465,1,0,0:0:0:0:
341,248,405585,1,8,0:0:0:0:
341,248,405825,1,8,0:0:0:0:
341,248,406065,1,0,0:0:0:0:
332,263,406305,1,8,0:0:0:0:
332,263,406425,1,0,0:0:0:0:
332,263,406545,1,8,0:0:0:0:
332,263,406785,1,0,0:0:0:0:
326,227,407025,1,8,0:0:0:0:
326,227,407265,1,0,0:0:0:0:
326,227,407385,1,8,0:0:0:0:
341,273,407745,1,8,0:0:0:0:
341,273,407865,1,0,0:0:0:0:
341,273,407985,1,8,0:0:0:0:
155,197,408225,1,0,0:0:0:0:
155,197,408345,1,8,0:0:0:0:
330,257,408705,1,0,0:0:0:0:
330,257,408825,1,0,0:0:0:0:
330,257,408945,1,8,0:0:0:0:
344,274,409185,1,0,0:0:0:0:
344,274,409305,1,8,0:0:0:0:
360,268,409665,1,8,0:0:0:0:
360,268,409785,1,0,0:0:0:0:
360,268,409905,1,8,0:0:0:0:
225,190,410145,1,0,0:0:0:0:
225,190,410265,1,8,0:0:0:0:
330,225,410625,1,0,0:0:0:0:
349,238,410745,1,0,0:0:0:0:
258,208,410865,1,8,0:0:0:0:
365,263,410985,1,0,0:0:0:0:
332,167,411105,1,8,0:0:0:0:
401,234,411165,1,8,0:0:0:0:
365,263,411225,1,0,0:0:0:0:
414,289,411285,1,0,0:0:0:0:
387,277,411345,1,8,0:0:0:0:
414,289,411465,1,0,0:0:0:0:
387,277,411585,1,8,0:0:0:0:
447,322,411705,1,0,0:0:0:0:
447,322,411765,1,0,0:0:0:0:
451,311,411825,1,8,0:0:0:0:
387,277,411945,1,0,0:0:0:0:
387,277,412065,1,8,0:0:0:0:
451,311,412185,1,0,0:0:0:0:
451,311,412245,1,0,0:0:0:0:
257,184,412305,1,8,0:0:0:0:
254,264,412365,1,8,0:0:0:0:
450,318,412425,1,0,0:0:0:0:
257,184,412545,1,8,0:0:0:0:
189,206,412665,1,0,0:0:0:0:
189,206,412725,1,0,0:0:0:0:
256,191,412785,1,8,0:0:0:0:
179,192,412905,1,0,0:0:0:0:
179,192,413025,1,8,0:0:0:0:
179,192,413145,1,0,0:0:0:0:
382,285,413205,1,0,0:0:0:0:
179,192,413265,1,0,0:0:0:0:
353,217,413325,1,0,0:0:0:0:
382,285,413385,1,8,0:0:0:0:
382,285,413505,1,0,0:0:0:0:
382,285,413625,1,8,0:0:0:0:
382,285,413685,1,8,0:0:0:0:
382,285,413745,1,0,0:0:0:0:
408,287,413865,1,8,0:0:0:0:
408,287,413985,1,0,0:0:0:0:
408,287,414105,1,8,0:0:0:0:
408,287,414165,1,8,0:0:0:0:
293,209,414225,1,8,0:0:0:0:
371,273,414285,1,8,0:0:0:0:
451,323,414345,1,0,0:0:0:0:
352,253,414465,1,8,0:0:0:0:
352,253,414525,1,8,0:0:0:0:
292,177,414585,1,0,0:0:0:0:
292,177,414625,1,0,0:0:0:0:
292,177,414665,1,0,0:0:0:0:
293,209,414705,1,8,0:0:0:0:
222,185,414825,1,0,0:0:0:0:
225,200,414945,1,8,0:0:0:0:
416,306,415065,1,0,0:0:0:0:
385,315,415125,1,0,0:0:0:0:
365,271,415185,1,8,0:0:0:0:
253,200,415245,1,8,0:0:0:0:
226,189,415305,1,0,0:0:0:0:
227,188,415425,1,8,0:0:0:0:
459,316,415545,1,0,0:0:0:0:
459,316,415605,1,0,0:0:0:0:
459,316,415665,1,8,0:0:0:0:
257,237,415785,1,0,0:0:0:0:
257,237,415905,1,0,0:0:0:0:
384,280,416025,1,8,0:0:0:0:
375,294,416085,1,8,0:0:0:0:
431,303,416145,1,0,0:0:0:0:
257,237,416205,1,0,0:0:0:0:
257,237,416265,1,8,0:0:0:0:
431,303,416385,1,0,0:0:0:0:
382,268,416505,1,8,0:0:0:0:
281,258,416565,1,8,0:0:0:0:
281,258,416625,1,0,0:0:0:0:
391,296,416745,1,8,0:0:0:0:
306,204,416865,1,0,0:0:0:0:
391,296,416985,1,8,0:0:0:0:
311,191,417025,1,8,0:0:0:0:
391,296,417065,1,8,0:0:0:0:
391,296,417105,1,0,0:0:0:0:
378,279,417165,1,0,0:0:0:0:
283,228,417225,1,8,0:0:0:0:
382,268,417345,1,0,0:0:0:0:
252,185,417465,1,8,0:0:0:0:
252,185,417525,1,8,0:0:0:0:
378,277,417585,1,0,0:0:0:0:
252,185,417705,1,8,0:0:0:0:
252,185,417825,1,0,0:0:0:0:
252,185,417945,1,8,0:0:0:0:
398,291,418005,1,8,0:0:0:0:
402,298,418065,1,0,0:0:0:0:
272,227,418125,1,0,0:0:0:0:
184,182,418185,1,8,0:0:0:0:
329,207,418225,1,8,0:0:0:0:
184,182,418265,1,8,0:0:0:0:
184,182,418305,1,0,0:0:0:0:
266,183,418545,1,8,0:0:0:0:
266,183,418585,1,8,0:0:0:0:
266,183,418625,1,8,0:0:0:0:
266,183,418665,1,0,0:0:0:0:
364,276,418725,1,0,0:0:0:0:
364,276,418785,1,8,0:0:0:0:
364,276,418845,1,8,0:0:0:0:
364,276,418905,1,0,0:0:0:0:
230,263,418945,1,8,0:0:0:0:
230,263,418985,1,8,0:0:0:0:
230,263,419025,1,0,0:0:0:0:
400,278,419085,1,0,0:0:0:0:
400,278,419145,1,8,0:0:0:0:
400,278,419205,1,8,0:0:0:0:
400,278,419265,1,0,0:0:0:0:
387,195,419305,1,0,0:0:0:0:
387,195,419345,1,0,0:0:0:0:
387,195,419385,1,8,0:0:0:0:
431,295,419445,1,8,0:0:0:0:
231,227,419505,1,0,0:0:0:0:
237,222,419545,1,8,0:0:0:0:
237,222,419585,1,8,0:0:0:0:
237,222,419625,1,0,0:0:0:0:
312,247,419685,1,0,0:0:0:0:
312,247,419745,1,8,0:0:0:0:
349,181,419785,1,8,0:0:0:0:
312,247,419825,1,8,0:0:0:0:
364,258,419865,1,0,0:0:0:0:
364,258,419905,1,0,0:0:0:0:
364,258,419945,1,0,0:0:0:0:
364,258,419985,1,8,0:0:0:0:
337,198,420045,1,8,0:0:0:0:
214,73,420105,1,0,0:0:0:0:
337,198,420165,1,0,0:0:0:0:
413,306,420225,1,8,0:0:0:0:
413,306,420265,1,8,0:0:0:0:
413,306,420305,1,8,0:0:0:0:
413,306,420345,1,0,0:0:0:0:
337,198,420405,1,0,0:0:0:0:
365,262,420465,1,8,0:0:0:0:
359,202,420505,1,0,0:0:0:0:
359,202,420545,1,0,0:0:0:0:
359,202,420585,1,8,0:0:0:0:
320,192,420645,1,8,0:0:0:0:
320,192,420705,1,0,0:0:0:0:
320,192,420765,1,0,0:0:0:0:
282,161,420825,1,8,0:0:0:0:
282,161,420865,1,8,0:0:0:0:
282,161,420905,1,8,0:0:0:0:
282,161,420945,1,0,0:0:0:0:
320,192,421005,1,0,0:0:0:0:
320,192,421065,1,8,0:0:0:0:
320,192,421125,1,8,0:0:0:0:
231,167,421185,1,0,0:0:0:0:
231,167,421225,1,0,0:0:0:0:
231,167,421265,1,0,0:0:0:0:
231,167,421305,1,8,0:0:0:0:
361,273,421365,1,8,0:0:0:0:
231,167,421425,1,0,0:0:0:0:
231,167,421465,1,8,0:0:0:0:
231,167,421505,1,8,0:0:0:0:
231,167,421545,1,0,0:0:0:0:
439,351,421605,1,0,0:0:0:0:
425,328,421665,1,8,0:0:0:0:
303,162,421705,1,0,0:0:0:0:
241,170,421745,1,0,0:0:0:0:
303,162,421785,1,8,0:0:0:0:
241,170,421825,1,0,0:0:0:0:
241,170,421865,1,0,0:0:0:0:
241,170,421905,1,8,0:0:0:0:
302,216,421965,1,8,0:0:0:0:
302,216,422025,1,0,0:0:0:0:
302,216,422085,1,0,0:0:0:0:
279,197,422145,1,8,0:0:0:0:
279,197,422185,1,8,0:0:0:0:
279,197,422225,1,8,0:0:0:0:
279,197,422265,1,0,0:0:0:0:
296,222,422325,1,0,0:0:0:0:
395,282,422385,1,8,0:0:0:0:
311,222,422445,1,0,0:0:0:0:
395,282,422505,1,8,0:0:0:0:
395,282,422565,1,8,0:0:0:0:
395,282,422625,1,0,0:0:0:0:
259,208,422665,1,0,0:0:0:0:
259,208,422705,1,8,0:0:0:0:
346,201,422745,1,0,0:0:0:0:
395,282,422785,1,8,0:0:0:0:
395,282,422825,1,8,0:0:0:0:
395,282,422865,1,0,0:0:0:0:
422,322,422925,1,0,0:0:0:0:
422,322,422985,1,0,0:0:0:0:
422,322,423045,1,0,0:0:0:0:
422,322,423105,1,8,0:0:0:0:
283,220,423145,1,8,0:0:0:0:
283,220,423185,1,0,0:0:0:0:
283,220,423225,1,8,0:0:0:0:
293,189,423265,1,0,0:0:0:0:
231,196,423305,1,0,0:0:0:0:
293,189,423345,1,8,0:0:0:0:
316,179,423405,1,8,0:0:0:0:
316,179,423465,1,0,0:0:0:0:
316,179,423525,1,0,0:0:0:0:
316,179,423585,1,8,0:0:0:0:
236,104,423625,1,0,0:0:0:0:
251,178,423665,1,0,0:0:0:0:
251,178,423705,1,8,0:0:0:0:
251,178,423765,1,8,0:0:0:0:
251,178,423825,1,0,0:0:0:0:
274,173,423865,1,8,0:0:0:0:
274,173,423905,1,8,0:0:0:0:
274,173,423945,1,0,0:0:0:0:
274,173,424005,1,0,0:0:0:0:
274,173,424065,1,8,0:0:0:0:
251,178,424105,1,8,0:0:0:0:
216,191,424145,1,8,0:0:0:0:
276,165,424185,1,0,0:0:0:0:
276,165,424225,1,0,0:0:0:0:
276,165,424265,1,0,0:0:0:0:
276,165,424305,1,8,0:0:0:0:
253,192,425265,1,0,0:0:0:0:
253,192,426225,1,0,0:0:0:0:
253,192,426285,1,0,0:0:0:0:
253,192,426345,1,8,0:0:0:0:
253,192,426405,1,0,0:0:0:0:
253,192,426465,1,8,0:0:0:0:
253,192,426525,1,8,0:0:0:0:
253,192,426585,1,0,0:0:0:0:
253,192,426645,1,0,0:0:0:0:
253,192,426705,1,8,0:0:0:0:
253,192,426765,1,8,0:0:0:0:
253,192,426825,1,8,0:0:0:0:
253,192,426885,1,0,0:0:0:0:
253,192,426945,1,8,0:0:0:0:
253,192,427005,1,8,0:0:0:0:
253,192,427065,1,0,0:0:0:0:
253,192,427125,1,0,0:0:0:0:
253,192,427185,1,8,0:0:0:0:
253,192,427245,1,8,0:0:0:0:
253,192,427305,1,8,0:0:0:0:
253,192,427365,1,8,0:0:0:0:
253,192,427425,1,0,0:0:0:0:
253,192,427485,1,0,0:0:0:0:
253,192,427545,1,8,0:0:0:0:
253,192,427605,1,0,0:0:0:0:
253,192,427665,1,8,0:0:0:0:
253,192,427725,1,8,0:0:0:0:
253,192,427785,1,0,0:0:0:0:
253,192,427845,1,0,0:0:0:0:
253,192,427905,1,8,0:0:0:0:
253,192,427965,1,0,0:0:0:0:
253,192,428025,1,0,0:0:0:0:
253,192,428085,1,0,0:0:0:0:
253,192,428145,1,8,0:0:0:0:
253,192,428205,1,8,0:0:0:0:
253,192,428265,1,0,0:0:0:0:
253,192,428325,1,0,0:0:0:0:
253,192,428385,1,8,0:0:0:0:
253,192,428445,1,0,0:0:0:0:
253,192,428505,1,8,0:0:0:0:
253,192,428565,1,0,0:0:0:0:
253,192,428625,1,8,0:0:0:0:
253,192,428685,1,8,0:0:0:0:
253,192,428745,1,8,0:0:0:0:
253,192,428805,1,0,0:0:0:0:
253,192,428865,1,8,0:0:0:0:
253,192,428925,1,8,0:0:0:0:
253,192,428985,1,0,0:0:0:0:
253,192,429045,1,0,0:0:0:0:
253,192,429105,1,8,0:0:0:0:
253,192,429165,1,8,0:0:0:0:
253,192,429225,1,8,0:0:0:0:
253,192,429285,1,8,0:0:0:0:
253,192,429345,1,0,0:0:0:0:
253,192,429405,1,0,0:0:0:0:
253,192,429465,1,8,0:0:0:0:
253,192,429525,1,8,0:0:0:0:
253,192,429585,1,0,0:0:0:0:
253,192,429645,1,0,0:0:0:0:
253,192,429705,1,0,0:0:0:0:
253,192,429765,1,0,0:0:0:0:
253,192,429825,1,8,0:0:0:0:
253,192,429885,1,0,0:0:0:0:
253,192,429945,1,0,0:0:0:0:
253,192,430005,1,0,0:0:0:0:
253,192,430065,1,8,0:0:0:0:
253,192,430125,1,8,0:0:0:0:
253,192,430185,1,8,0:0:0:0:
253,192,430245,1,0,0:0:0:0:
253,192,430305,1,8,0:0:0:0:
253,192,430365,1,8,0:0:0:0:
253,192,430425,1,0,0:0:0:0:
253,192,430485,1,0,0:0:0:0:
253,192,430545,1,8,0:0:0:0:
253,192,430605,1,0,0:0:0:0:
253,192,430665,1,0,0:0:0:0:
253,192,430725,1,0,0:0:0:0:
253,192,430785,1,8,0:0:0:0:
253,192,430845,1,8,0:0:0:0:
253,192,430905,1,0,0:0:0:0:
253,192,430965,1,0,0:0:0:0:
253,192,431025,1,8,0:0:0:0:
253,192,431085,1,8,0:0:0:0:
253,192,431145,1,8,0:0:0:0:
253,192,431205,1,8,0:0:0:0:
253,192,431265,1,0,0:0:0:0:
253,192,431325,1,0,0:0:0:0:
253,192,431385,1,8,0:0:0:0:
253,192,431445,1,0,0:0:0:0:
253,192,431505,1,8,0:0:0:0:
253,192,431565,1,8,0:0:0:0:
253,192,431625,1,0,0:0:0:0:
253,192,431685,1,0,0:0:0:0:
253,192,431745,1,8,0:0:0:0:
253,192,431805,1,0,0:0:0:0:
253,192,431865,1,0,0:0:0:0:
253,192,431925,1,0,0:0:0:0:
253,192,431985,1,8,0:0:0:0:
253,192,432045,1,8,0:0:0:0:
253,192,432105,1,0,0:0:0:0:
253,192,432165,1,0,0:0:0:0:
253,192,432225,1,8,0:0:0:0:
253,192,432285,1,0,0:0:0:0:
253,192,432345,1,8,0:0:0:0:
253,192,432405,1,0,0:0:0:0:
253,192,432465,1,8,0:0:0:0:
253,192,432525,1,8,0:0:0:0:
253,192,432585,1,8,0:0:0:0:
253,192,432645,1,0,0:0:0:0:
253,192,432705,1,8,0:0:0:0:
253,192,432765,1,8,0:0:0:0:
253,192,432825,1,0,0:0:0:0:
253,192,432885,1,0,0:0:0:0:
253,192,432945,1,8,0:0:0:0:
253,192,433005,1,8,0:0:0:0:
253,192,433065,1,8,0:0:0:0:
253,192,433125,1,8,0:0:0:0:
253,192,433185,1,0,0:0:0:0:
253,192,433245,1,0,0:0:0:0:
253,192,433305,1,8,0:0:0:0:
253,192,433365,1,8,0:0:0:0:
253,192,433425,1,0,0:0:0:0:
253,192,433485,1,0,0:0:0:0:
253,192,433545,1,0,0:0:0:0:
253,192,433605,1,0,0:0:0:0:
253,192,433665,1,8,0:0:0:0:
253,192,433725,1,0,0:0:0:0:
253,192,433785,1,8,0:0:0:0:
253,192,433845,1,0,0:0:0:0:
253,192,433905,1,8,0:0:0:0:
253,192,433965,1,8,0:0:0:0:
253,192,434025,1,8,0:0:0:0:
253,192,434085,1,0,0:0:0:0:
253,192,434145,1,8,0:0:0:0:
253,192,434205,1,8,0:0:0:0:
253,192,434265,1,0,0:0:0:0:
253,192,434325,1,0,0:0:0:0:
253,192,434385,1,8,0:0:0:0:
253,192,434445,1,0,0:0:0:0:
253,192,434505,1,0,0:0:0:0:
253,192,434565,1,0,0:0:0:0:
253,192,434625,1,8,0:0:0:0:
253,192,434685,1,8,0:0:0:0:
253,192,434745,1,8,0:0:0:0:
253,192,434805,1,8,0:0:0:0:
253,192,434865,1,0,0:0:0:0:
253,192,434925,1,0,0:0:0:0:
253,192,434985,1,0,0:0:0:0:
253,192,435045,1,0,0:0:0:0:
253,192,435105,1,8,0:0:0:0:
253,192,435165,1,8,0:0:0:0:
253,192,435225,1,0,0:0:0:0:
253,192,435285,1,0,0:0:0:0:
253,192,435345,1,8,0:0:0:0:
253,192,435405,1,0,0:0:0:0:
253,192,435465,1,0,0:0:0:0:
253,192,435525,1,0,0:0:0:0:
253,192,435585,1,8,0:0:0:0:
253,192,435645,1,8,0:0:0:0:
253,192,435705,1,8,0:0:0:0:
253,192,435765,1,0,0:0:0:0:
253,192,435825,1,8,0:0:0:0:
253,192,435885,1,8,0:0:0:0:
253,192,435945,1,0,0:0:0:0:
253,192,436005,1,0,0:0:0:0:
253,192,436065,1,8,0:0:0:0:
253,192,436125,1,0,0:0:0:0:
253,192,436185,1,8,0:0:0:0:
253,192,436245,1,0,0:0:0:0:
253,192,436305,1,8,0:0:0:0:
253,192,436365,1,8,0:0:0:0:
253,192,436425,1,8,0:0:0:0:
253,192,436485,1,0,0:0:0:0:
253,192,436545,1,8,0:0:0:0:
253,192,436605,1,8,0:0:0:0:
253,192,436665,1,0,0:0:0:0:
253,192,436725,1,0,0:0:0:0:
253,192,436785,1,8,0:0:0:0:
253,192,436845,1,8,0:0:0:0:
253,192,436905,1,8,0:0:0:0:
253,192,436965,1,8,0:0:0:0:
253,192,437025,1,0,0:0:0:0:
253,192,437085,1,0,0:0:0:0:
253,192,437145,1,8,0:0:0:0:
253,192,437205,1,0,0:0:0:0:
253,192,437265,1,8,0:0:0:0:
253,192,437325,1,8,0:0:0:0:
253,192,437385,1,0,0:0:0:0:
253,192,437445,1,0,0:0:0:0:
253,192,437505,1,8,0:0:0:0:
253,192,437565,1,0,0:0:0:0:
253,192,437625,1,0,0:0:0:0:
253,192,437685,1,0,0:0:0:0:
253,192,437745,1,8,0:0:0:0:
253,192,437805,1,8,0:0:0:0:
253,192,437865,1,8,0:0:0:0:
253,192,437925,1,8,0:0:0:0:
253,192,437985,1,0,0:0:0:0:
253,192,438045,1,0,0:0:0:0:
253,192,438105,1,8,0:0:0:0:
253,192,438165,1,8,0:0:0:0:
253,192,438225,1,8,0:0:0:0:
253,192,438285,1,8,0:0:0:0:
253,192,438345,1,0,0:0:0:0:
253,192,438405,1,0,0:0:0:0:
253,192,438465,1,8,0:0:0:0:
253,192,438525,1,0,0:0:0:0:
253,192,438585,1,8,0:0:0:0:
253,192,438645,1,8,0:0:0:0:
253,192,438705,1,0,0:0:0:0:
253,192,438765,1,0,0:0:0:0:
253,192,438825,1,0,0:0:0:0:
253,192,438885,1,0,0:0:0:0:
253,192,438945,1,8,0:0:0:0:
253,192,439005,1,8,0:0:0:0:
253,192,439065,1,0,0:0:0:0:
253,192,439125,1,0,0:0:0:0:
253,192,439185,1,0,0:0:0:0:
253,192,439245,1,0,0:0:0:0:
253,192,439305,1,8,0:0:0:0:
253,192,439365,1,8,0:0:0:0:
253,192,439425,1,0,0:0:0:0:
253,192,439485,1,8,0:0:0:0:
253,192,439545,1,0,0:0:0:0:
253,192,439605,1,0,0:0:0:0:
253,192,439665,1,8,0:0:0:0:
253,192,439725,1,8,0:0:0:0:
253,192,439785,1,8,0:0:0:0:
253,192,439845,1,8,0:0:0:0:
253,192,439905,1,0,0:0:0:0:
253,192,439965,1,0,0:0:0:0:
253,192,440025,1,8,0:0:0:0:
253,192,440085,1,8,0:0:0:0:
253,192,440145,1,8,0:0:0:0:
253,192,440205,1,8,0:0:0:0:
253,192,440265,1,0,0:0:0:0:
253,192,440325,1,0,0:0:0:0:
253,192,440385,1,8,0:0:0:0:
253,192,440445,1,0,0:0:0:0:
253,192,440505,1,8,0:0:0:0:
253,192,440565,1,8,0:0:0:0:
253,192,440625,1,0,0:0:0:0:
253,192,440685,1,0,0:0:0:0:
253,192,440745,1,0,0:0:0:0:
253,192,440805,1,0,0:0:0:0:
253,192,440865,1,8,0:0:0:0:
253,192,440925,1,8,0:0:0:0:
253,192,440985,1,0,0:0:0:0:
253,192,441045,1,0,0:0:0:0:
253,192,441105,1,0,0:0:0:0:
253,192,441165,1,0,0:0:0:0:
253,192,441225,1,8,0:0:0:0:
253,192,441285,1,8,0:0:0:0:
253,192,441345,1,0,0:0:0:0:
253,192,441405,1,8,0:0:0:0:
253,192,441465,1,0,0:0:0:0:
253,192,441525,1,0,0:0:0:0:
253,192,441585,1,8,0:0:0:0:
253,192,441825,1,8,0:0:0:0:
253,192,441885,1,8,0:0:0:0:
253,192,441945,1,0,0:0:0:0:
253,192,442005,1,0,0:0:0:0:
253,192,442065,1,8,0:0:0:0:
253,192,442125,1,8,0:0:0:0:
253,192,442185,1,8,0:0:0:0:
253,192,442245,1,0,0:0:0:0:
253,192,442305,1,8,0:0:0:0:
253,192,442365,1,8,0:0:0:0:
253,192,442425,1,0,0:0:0:0:
253,192,442485,1,0,0:0:0:0:
253,192,442545,1,8,0:0:0:0:
253,192,442605,1,8,0:0:0:0:
253,192,442665,1,8,0:0:0:0:
253,192,442725,1,8,0:0:0:0:
253,192,442785,1,0,0:0:0:0:
253,192,442845,1,0,0:0:0:0:
253,192,442905,1,8,0:0:0:0:
253,192,442965,1,0,0:0:0:0:
253,192,443025,1,8,0:0:0:0:
253,192,443085,1,8,0:0:0:0:
253,192,443145,1,0,0:0:0:0:
253,192,443205,1,0,0:0:0:0:
253,192,443265,1,8,0:0:0:0:
253,192,443325,1,0,0:0:0:0:
253,192,443385,1,0,0:0:0:0:
253,192,443445,1,0,0:0:0:0:
253,192,443505,1,8,0:0:0:0:
253,192,443565,1,8,0:0:0:0:
253,192,443625,1,0,0:0:0:0:
253,192,443685,1,0,0:0:0:0:
253,192,443745,1,8,0:0:0:0:
253,192,443805,1,0,0:0:0:0:
253,192,443865,1,8,0:0:0:0:
253,192,443925,1,0,0:0:0:0:
253,192,443985,1,8,0:0:0:0:
253,192,444045,1,8,0:0:0:0:
253,192,444105,1,8,0:0:0:0:
253,192,444165,1,0,0:0:0:0:
253,192,444225,1,8,0:0:0:0:
253,192,444285,1,8,0:0:0:0:
253,192,444345,1,0,0:0:0:0:
253,192,444405,1,0,0:0:0:0:
253,192,444465,1,8,0:0:0:0:
253,192,444525,1,8,0:0:0:0:
253,192,444585,1,8,0:0:0:0:
253,192,444645,1,8,0:0:0:0:
253,192,444705,1,0,0:0:0:0:
253,192,444765,1,0,0:0:0:0:
253,192,444825,1,8,0:0:0:0:
253,192,444885,1,8,0:0:0:0:
253,192,444945,1,0,0:0:0:0:
253,192,445005,1,0,0:0:0:0:
253,192,445065,1,0,0:0:0:0:
253,192,445125,1,0,0:0:0:0:
253,192,445185,1,8,0:0:0:0:
253,192,445245,1,0,0:0:0:0:
253,192,445305,1,0,0:0:0:0:
253,192,445365,1,0,0:0:0:0:
253,192,445425,1,8,0:0:0:0:
253,192,445485,1,8,0:0:0:0:
253,192,445545,1,8,0:0:0:0:
253,192,445605,1,0,0:0:0:0:
253,192,445665,1,8,0:0:0:0:
253,192,445725,1,8,0:0:0:0:
253,192,445785,1,0,0:0:0:0:
253,192,445845,1,0,0:0:0:0:
253,192,445905,1,8,0:0:0:0:
253,192,445965,1,0,0:0:0:0:
253,192,446025,1,0,0:0:0:0:
253,192,446085,1,0,0:0:0:0:
253,192,446145,1,8,0:0:0:0:
253,192,446205,1,8,0:0:0:0:
253,192,446265,1,0,0:0:0:0:
253,192,446325,1,0,0:0:0:0:
253,192,446385,1,8,0:0:0:0:
253,192,446445,1,8,0:0:0:0:
253,192,446505,1,8,0:0:0:0:
253,192,446565,1,8,0:0:0:0:
253,192,446625,1,0,0:0:0:0:
253,192,446685,1,0,0:0:0:0:
253,192,446745,1,8,0:0:0:0:
253,192,446805,1,0,0:0:0:0:
253,192,446865,1,8,0:0:0:0:
253,192,446925,1,8,0:0:0:0:
253,192,446985,1,0,0:0:0:0:
253,192,447045,1,0,0:0:0:0:
253,192,447105,1,8,0:0:0:0:
253,192,447165,1,0,0:0:0:0:
253,192,447225,1,0,0:0:0:0:
253,192,447285,1,0,0:0:0:0:
253,192,447345,1,8,0:0:0:0:
253,192,447405,1,8,0:0:0:0:
253,192,447465,1,0,0:0:0:0:
253,192,447525,1,0,0:0:0:0:
253,192,447585,1,8,0:0:0:0:
253,192,447645,1,0,0:0:0:0:
253,192,447705,1,8,0:0:0:0:
253,192,447765,1,0,0:0:0:0:
253,192,447825,1,8,0:0:0:0:
253,192,447885,1,8,0:0:0:0:
253,192,447945,1,8,0:0:0:0:
253,192,448005,1,0,0:0:0:0:
253,192,448065,1,8,0:0:0:0:
253,192,448125,1,8,0:0:0:0:
253,192,448185,1,0,0:0:0:0:
253,192,448245,1,0,0:0:0:0:
253,192,448305,1,8,0:0:0:0:
253,192,448365,1,8,0:0:0:0:
253,192,448425,1,8,0:0:0:0:
253,192,448485,1,8,0:0:0:0:
253,192,448545,1,0,0:0:0:0:
253,192,448605,1,0,0:0:0:0:
253,192,448665,1,8,0:0:0:0:
253,192,448725,1,8,0:0:0:0:
253,192,448785,1,0,0:0:0:0:
253,192,448845,1,0,0:0:0:0:
253,192,448905,1,0,0:0:0:0:
253,192,448965,1,0,0:0:0:0:
253,192,449025,1,8,0:0:0:0:
253,192,449085,1,0,0:0:0:0:
253,192,449145,1,8,0:0:0:0:
253,192,449205,1,0,0:0:0:0:
253,192,449265,1,8,0:0:0:0:
253,192,449325,1,8,0:0:0:0:
253,192,449385,1,8,0:0:0:0:
253,192,449445,1,0,0:0:0:0:
253,192,449505,1,8,0:0:0:0:
253,192,449565,1,8,0:0:0:0:
253,192,449625,1,0,0:0:0:0:
253,192,449685,1,0,0:0:0:0:
253,192,449745,1,8,0:0:0:0:
253,192,449805,1,0,0:0:0:0:
253,192,449865,1,0,0:0:0:0:
253,192,449925,1,0,0:0:0:0:
253,192,449985,1,8,0:0:0:0:
253,192,450045,1,8,0:0:0:0:
253,192,450105,1,8,0:0:0:0:
253,192,450165,1,8,0:0:0:0:
253,192,450225,1,0,0:0:0:0:
253,192,450285,1,0,0:0:0:0:
253,192,450345,1,0,0:0:0:0:
253,192,450405,1,0,0:0:0:0:
253,192,450465,1,8,0:0:0:0:
253,192,450525,1,8,0:0:0:0:
253,192,450585,1,0,0:0:0:0:
253,192,450645,1,0,0:0:0:0:
253,192,450705,1,8,0:0:0:0:
253,192,450765,1,0,0:0:0:0:
253,192,450825,1,0,0:0:0:0:
253,192,450885,1,0,0:0:0:0:
253,192,450945,1,8,0:0:0:0:
253,192,451005,1,8,0:0:0:0:
253,192,451065,1,8,0:0:0:0:
253,192,451125,1,0,0:0:0:0:
253,192,451185,1,8,0:0:0:0:
253,192,451245,1,8,0:0:0:0:
253,192,451305,1,0,0:0:0:0:
253,192,451365,1,0,0:0:0:0:
253,192,451425,1,8,0:0:0:0:
253,192,451485,1,0,0:0:0:0:
253,192,451545,1,8,0:0:0:0:
253,192,451605,1,0,0:0:0:0:
253,192,451665,1,8,0:0:0:0:
253,192,451725,1,8,0:0:0:0:
253,192,451785,1,8,0:0:0:0:
253,192,451845,1,0,0:0:0:0:
253,192,451905,1,8,0:0:0:0:
253,192,451965,1,8,0:0:0:0:
253,192,452025,1,0,0:0:0:0:
253,192,452085,1,0,0:0:0:0:
253,192,452145,1,8,0:0:0:0:
253,192,452205,1,8,0:0:0:0:
253,192,452265,1,8,0:0:0:0:
253,192,452325,1,8,0:0:0:0:
253,192,452385,1,0,0:0:0:0:
253,192,452445,1,0,0:0:0:0:
253,192,452505,1,8,0:0:0:0:
253,192,452565,1,0,0:0:0:0:
253,192,452625,1,8,0:0:0:0:
253,192,452685,1,8,0:0:0:0:
253,192,452745,1,0,0:0:0:0:
253,192,452805,1,0,0:0:0:0:
258,201,452865,1,8,0:0:0:0:
153,180,452925,1,0,0:0:0:0:
153,180,452985,1,0,0:0:0:0:
153,180,453045,1,0,0:0:0:0:
253,192,453105,1,12,0:0:0:0:
146,198,453225,1,0,0:0:0:0:
146,198,453345,1,0,0:0:0:0:
365,192,453465,1,12,0:0:0:0:
358,265,453585,1,0,0:0:0:0:
358,265,453705,1,0,0:0:0:0:
369,279,453825,1,12,0:0:0:0:
371,279,453945,1,0,0:0:0:0:
369,279,454005,1,0,0:0:0:0:
364,264,454065,1,12,0:0:0:0:
383,311,454185,1,0,0:0:0:0:
383,311,454305,1,0,0:0:0:0:
355,293,454425,1,12,0:0:0:0:
395,320,454545,1,0,0:0:0:0:
395,320,454665,1,0,0:0:0:0:
355,293,454785,1,12,0:0:0:0:
286,207,454905,1,0,0:0:0:0:
286,207,454965,1,0,0:0:0:0:
286,207,455025,1,8,0:0:0:0:
363,266,455145,1,0,0:0:0:0:
363,266,455205,1,8,0:0:0:0:
389,286,455325,1,0,0:0:0:0:
389,286,455385,1,8,0:0:0:0:
411,327,455505,1,0,0:0:0:0:
374,268,455625,1,8,0:0:0:0:
374,268,455685,1,0,0:0:0:0:
376,276,455805,1,8,0:0:0:0:
376,276,455865,1,0,0:0:0:0:
395,307,455985,1,8,0:0:0:0:
234,217,456045,1,0,0:0:0:0:
343,250,456105,1,8,0:0:0:0:
343,250,456165,1,8,0:0:0:0:
343,250,456225,1,0,0:0:0:0:
234,217,456285,1,0,0:0:0:0:
401,295,456345,1,8,0:0:0:0:
234,217,456405,1,0,0:0:0:0:
401,295,456465,1,8,0:0:0:0:
234,217,456525,1,8,0:0:0:0:
349,248,456585,1,0,0:0:0:0:
349,248,456645,1,0,0:0:0:0:
349,248,456705,1,8,0:0:0:0:
234,217,456765,1,0,0:0:0:0:
349,248,456825,1,8,0:0:0:0:
253,192,456945,1,0,0:0:0:0:
253,192,457005,1,0,0:0:0:0:
253,192,457065,1,8,0:0:0:0:
253,192,457125,1,0,0:0:0:0:
253,192,457185,1,8,0:0:0:0:
253,192,457245,1,8,0:0:0:0:
253,192,457305,1,0,0:0:0:0:
253,192,457365,1,0,0:0:0:0:
253,192,457425,1,8,0:0:0:0:
253,192,457485,1,8,0:0:0:0:
253,192,457545,1,8,0:0:0:0:
253,192,457605,1,0,0:0:0:0:
253,192,457665,1,8,0:0:0:0:
253,192,457725,1,8,0:0:0:0:
253,192,457785,1,0,0:0:0:0:
253,192,457845,1,0,0:0:0:0:
253,192,457905,1,8,0:0:0:0:
253,192,457965,1,8,0:0:0:0:
253,192,458025,1,8,0:0:0:0:
253,192,458085,1,8,0:0:0:0:
253,192,458145,1,0,0:0:0:0:
253,192,458205,1,0,0:0:0:0:
253,192,458265,1,8,0:0:0:0:
253,192,458325,1,0,0:0:0:0:
253,192,458385,1,8,0:0:0:0:
253,192,458445,1,8,0:0:0:0:
253,192,458505,1,0,0:0:0:0:
253,192,458565,1,0,0:0:0:0:
253,192,458625,1,8,0:0:0:0:
253,192,458685,1,0,0:0:0:0:
253,192,458745,1,0,0:0:0:0:
253,192,458805,1,0,0:0:0:0:
253,192,458865,1,8,0:0:0:0:
253,192,458925,1,8,0:0:0:0:
253,192,458985,1,0,0:0:0:0:
253,192,459045,1,0,0:0:0:0:
253,192,459105,1,8,0:0:0:0:
253,192,459165,1,0,0:0:0:0:
253,192,459225,1,8,0:0:0:0:
253,192,459285,1,0,0:0:0:0:
253,192,459345,1,8,0:0:0:0:
253,192,459405,1,8,0:0:0:0:
253,192,459465,1,8,0:0:0:0:
253,192,459525,1,0,0:0:0:0:
253,192,459585,1,8,0:0:0:0:
253,192,459645,1,8,0:0:0:0:
253,192,459705,1,0,0:0:0:0:
253,192,459765,1,0,0:0:0:0:
253,192,459825,1,8,0:0:0:0:
253,192,459885,1,8,0:0:0:0:
253,192,459945,1,8,0:0:0:0:
253,192,460005,1,8,0:0:0:0:
253,192,460065,1,0,0:0:0:0:
253,192,460125,1,0,0:0:0:0:
253,192,460185,1,8,0:0:0:0:
253,192,460245,1,8,0:0:0:0:
253,192,460305,1,0,0:0:0:0:
253,192,460365,1,0,0:0:0:0:
253,192,460425,1,0,0:0:0:0:
253,192,460485,1,0,0:0:0:0:
253,192,460545,1,8,0:0:0:0:
253,192,460605,1,0,0:0:0:0:
253,192,460665,1,0,0:0:0:0:
253,192,460725,1,0,0:0:0:0:
253,192,460785,1,8,0:0:0:0:
253,192,460845,1,8,0:0:0:0:
253,192,460905,1,8,0:0:0:0:
253,192,460965,1,0,0:0:0:0:
253,192,461025,1,8,0:0:0:0:
253,192,461085,1,8,0:0:0:0:
253,192,461145,1,0,0:0:0:0:
253,192,461205,1,0,0:0:0:0:
253,192,461265,1,8,0:0:0:0:
253,192,461325,1,0,0:0:0:0:
253,192,461385,1,0,0:0:0:0:
253,192,461445,1,0,0:0:0:0:
253,192,461505,1,8,0:0:0:0:
253,192,461565,1,8,0:0:0:0:
253,192,461625,1,0,0:0:0:0:
253,192,461685,1,0,0:0:0:0:
253,192,461745,1,8,0:0:0:0:
253,192,461805,1,8,0:0:0:0:
253,192,461865,1,8,0:0:0:0:
253,192,461925,1,8,0:0:0:0:
253,192,461985,1,0,0:0:0:0:
253,192,462045,1,0,0:0:0:0:
253,192,462105,1,8,0:0:0:0:
253,192,462165,1,0,0:0:0:0:
253,192,462225,1,8,0:0:0:0:
253,192,462285,1,8,0:0:0:0:
253,192,462345,1,0,0:0:0:0:
253,192,462405,1,0,0:0:0:0:
253,192,462465,1,8,0:0:0:0:
253,192,462525,1,0,0:0:0:0:
253,192,462585,1,0,0:0:0:0:
253,192,462645,1,0,0:0:0:0:
253,192,462705,1,8,0:0:0:0:
253,192,462765,1,8,0:0:0:0:
253,192,462825,1,0,0:0:0:0:
253,192,462885,1,0,0:0:0:0:
253,192,462945,1,8,0:0:0:0:
253,192,463005,1,0,0:0:0:0:
253,192,463065,1,8,0:0:0:0:
253,192,463125,1,0,0:0:0:0:
253,192,463185,1,8,0:0:0:0:
253,192,463245,1,8,0:0:0:0:
253,192,463305,1,8,0:0:0:0:
253,192,463365,1,0,0:0:0:0:
253,192,463425,1,8,0:0:0:0:
253,192,463485,1,8,0:0:0:0:
253,192,463545,1,0,0:0:0:0:
253,192,463605,1,0,0:0:0:0:
253,192,463665,1,8,0:0:0:0:
253,192,463725,1,8,0:0:0:0:
253,192,463785,1,8,0:0:0:0:
253,192,463845,1,8,0:0:0:0:
253,192,463905,1,0,0:0:0:0:
253,192,463965,1,0,0:0:0:0:
253,192,464025,1,8,0:0:0:0:
253,192,464085,1,8,0:0:0:0:
253,192,464145,1,0,0:0:0:0:
253,192,464205,1,0,0:0:0:0:
253,192,464265,1,0,0:0:0:0:
253,192,464325,1,0,0:0:0:0:
253,192,464385,1,8,0:0:0:0:
253,192,464445,1,0,0:0:0:0:
253,192,464505,1,8,0:0:0:0:
253,192,464565,1,0,0:0:0:0:
253,192,464625,1,8,0:0:0:0:
253,192,464685,1,8,0:0:0:0:
253,192,464745,1,8,0:0:0:0:
253,192,464805,1,0,0:0:0:0:
253,192,464865,1,8,0:0:0:0:
253,192,464925,1,8,0:0:0:0:
253,192,464985,1,0,0:0:0:0:
253,192,465045,1,0,0:0:0:0:
253,192,465105,1,8,0:0:0:0:
253,192,465165,1,0,0:0:0:0:
253,192,465225,1,0,0:0:0:0:
253,192,465285,1,0,0:0:0:0:
253,192,465345,1,8,0:0:0:0:
253,192,465405,1,8,0:0:0:0:
253,192,465465,1,8,0:0:0:0:
253,192,465525,1,8,0:0:0:0:
253,192,465585,1,0,0:0:0:0:
253,192,465645,1,0,0:0:0:0:
253,192,465705,1,0,0:0:0:0:
253,192,465765,1,0,0:0:0:0:
253,192,465825,1,8,0:0:0:0:
253,192,465885,1,8,0:0:0:0:
253,192,465945,1,0,0:0:0:0:
253,192,466005,1,0,0:0:0:0:
253,192,466065,1,8,0:0:0:0:
253,192,466125,1,0,0:0:0:0:
253,192,466185,1,0,0:0:0:0:
253,192,466245,1,0,0:0:0:0:
253,192,466305,1,8,0:0:0:0:
253,192,466365,1,8,0:0:0:0:
253,192,466425,1,8,0:0:0:0:
253,192,466485,1,0,0:0:0:0:
253,192,466545,1,8,0:0:0:0:
253,192,466605,1,8,0:0:0:0:
253,192,466665,1,0,0:0:0:0:
253,192,466725,1,0,0:0:0:0:
253,192,466785,1,8,0:0:0:0:
253,192,466845,1,0,0:0:0:0:
253,192,466905,1,8,0:0:0:0:
253,192,466965,1,0,0:0:0:0:
253,192,467025,1,8,0:0:0:0:
253,192,467085,1,8,0:0:0:0:
253,192,467145,1,8,0:0:0:0:
253,192,467205,1,0,0:0:0:0:
253,192,467265,1,8,0:0:0:0:
253,192,467325,1,8,0:0:0:0:
253,192,467385,1,0,0:0:0:0:
253,192,467445,1,0,0:0:0:0:
253,192,467505,1,8,0:0:0:0:
253,192,467565,1,8,0:0:0:0:
253,192,467625,1,8,0:0:0:0:
253,192,467685,1,8,0:0:0:0:
253,192,467745,1,0,0:0:0:0:
253,192,467805,1,0,0:0:0:0:
253,192,467865,1,8,0:0:0:0:
253,192,467925,1,0,0:0:0:0:
253,192,467985,1,8,0:0:0:0:
253,192,468045,1,8,0:0:0:0:
253,192,468105,1,0,0:0:0:0:
253,192,468165,1,0,0:0:0:0:
253,192,468225,1,8,0:0:0:0:
253,192,468285,1,0,0:0:0:0:
253,192,468345,1,0,0:0:0:0:
253,192,468405,1,0,0:0:0:0:
253,192,468465,1,8,0:0:0:0:
253,192,468525,1,8,0:0:0:0:
253,192,468585,1,8,0:0:0:0:
253,192,468645,1,8,0:0:0:0:
253,192,468705,1,0,0:0:0:0:
253,192,468765,1,0,0:0:0:0:
253,192,468825,1,8,0:0:0:0:
253,192,468885,1,8,0:0:0:0:
253,192,468945,1,8,0:0:0:0:
253,192,469005,1,8,0:0:0:0:
253,192,469065,1,0,0:0:0:0:
253,192,469125,1,0,0:0:0:0:
253,192,469185,1,8,0:0:0:0:
253,192,469245,1,0,0:0:0:0:
253,192,469305,1,8,0:0:0:0:
253,192,469365,1,8,0:0:0:0:
253,192,469425,1,0,0:0:0:0:
253,192,469485,1,0,0:0:0:0:
253,192,469545,1,0,0:0:0:0:
253,192,469605,1,0,0:0:0:0:
253,192,469665,1,8,0:0:0:0:
253,192,469725,1,8,0:0:0:0:
253,192,469785,1,0,0:0:0:0:
253,192,469845,1,0,0:0:0:0:
253,192,469905,1,0,0:0:0:0:
253,192,469965,1,0,0:0:0:0:
253,192,470025,1,8,0:0:0:0:
253,192,470085,1,8,0:0:0:0:
253,192,470145,1,0,0:0:0:0:
253,192,470205,1,8,0:0:0:0:
253,192,470265,1,0,0:0:0:0:
253,192,470325,1,0,0:0:0:0:
253,192,470385,1,8,0:0:0:0:
253,192,470445,1,8,0:0:0:0:
253,192,470505,1,8,0:0:0:0:
253,192,470565,1,8,0:0:0:0:
253,192,470625,1,0,0:0:0:0:
253,192,470685,1,0,0:0:0:0:
253,192,470745,1,8,0:0:0:0:
253,192,470805,1,8,0:0:0:0:
253,192,470865,1,8,0:0:0:0:
253,192,470925,1,8,0:0:0:0:
253,192,470985,1,0,0:0:0:0:
253,192,471045,1,0,0:0:0:0:
253,192,471105,1,8,0:0:0:0:
253,192,471165,1,0,0:0:0:0:
253,192,471225,1,8,0:0:0:0:
253,192,471285,1,8,0:0:0:0:
253,192,471345,1,0,0:0:0:0:
253,192,471405,1,0,0:0:0:0:
253,192,471465,1,0,0:0:0:0:
253,192,471525,1,0,0:0:0:0:
253,192,471585,1,8,0:0:0:0:
253,192,471645,1,8,0:0:0:0:
253,192,471705,1,0,0:0:0:0:
253,192,471765,1,0,0:0:0:0:
253,192,471825,1,0,0:0:0:0:
253,192,471885,1,0,0:0:0:0:
253,192,471945,1,8,0:0:0:0:
253,192,472005,1,8,0:0:0:0:
253,192,472065,1,0,0:0:0:0:
253,192,472125,1,8,0:0:0:0:
253,192,472185,1,0,0:0:0:0:
253,192,472245,1,0,0:0:0:0:
253,192,472305,1,8,0:0:0:0:
261,198,472545,1,0,0:0:0:0:
261,198,472605,1,0,0:0:0:0:
261,198,472665,1,8,0:0:0:0:
261,198,472725,1,0,0:0:0:0:
261,198,472785,1,8,0:0:0:0:
261,198,472845,1,8,0:0:0:0:
261,198,472905,1,0,0:0:0:0:
261,198,472965,1,0,0:0:0:0:
261,198,473025,1,8,0:0:0:0:
261,198,473085,1,0,0:0:0:0:
261,198,473145,1,0,0:0:0:0:
261,198,473205,1,0,0:0:0:0:
261,198,473265,1,8,0:0:0:0:
261,198,473325,1,8,0:0:0:0:
261,198,473385,1,0,0:0:0:0:
261,198,473445,1,0,0:0:0:0:
261,198,473505,1,8,0:0:0:0:
261,198,473565,1,0,0:0:0:0:
261,198,473625,1,8,0:0:0:0:
261,198,473685,1,0,0:0:0:0:
261,198,473745,1,8,0:0:0:0:
261,198,473805,1,8,0:0:0:0:
261,198,473865,1,8,0:0:0:0:
261,198,473925,1,0,0:0:0:0:
261,198,473985,1,8,0:0:0:0:
261,198,474045,1,8,0:0:0:0:
261,198,474105,1,0,0:0:0:0:
261,198,474165,1,0,0:0:0:0:
261,198,474225,1,8,0:0:0:0:
261,198,474285,1,0,0:0:0:0:
261,198,474345,1,0,0:0:0:0:
261,198,474405,1,0,0:0:0:0:
261,198,474465,1,8,0:0:0:0:
261,198,474525,1,0,0:0:0:0:
261,198,474585,1,8,0:0:0:0:
261,198,474645,1,0,0:0:0:0:
261,198,474705,1,8,0:0:0:0:
261,198,474765,1,8,0:0:0:0:
261,198,474825,1,0,0:0:0:0:
261,198,474885,1,0,0:0:0:0:
261,198,474945,1,8,0:0:0:0:
261,198,475005,1,0,0:0:0:0:
261,198,475065,1,0,0:0:0:0:
261,198,475125,1,0,0:0:0:0:
261,198,475185,1,8,0:0:0:0:
355,289,475245,1,8,0:0:0:0:
355,289,475305,1,8,0:0:0:0:
316,250,475365,1,8,0:0:0:0:
316,250,475425,1,0,0:0:0:0:
316,250,475485,1,0,0:0:0:0:
316,250,475545,1,8,0:0:0:0:
316,250,475605,1,0,0:0:0:0:
316,250,475665,1,8,0:0:0:0:
316,250,475725,1,8,0:0:0:0:
316,250,475785,1,0,0:0:0:0:
316,250,475845,1,0,0:0:0:0:
316,250,475905,1,8,0:0:0:0:
316,250,475965,1,0,0:0:0:0:
316,250,476025,1,8,0:0:0:0:
316,250,476085,1,8,0:0:0:0:
316,250,476145,1,0,0:0:0:0:
296,210,476205,1,0,0:0:0:0:
296,210,476265,1,0,0:0:0:0:
296,210,476325,1,0,0:0:0:0:
296,210,476385,1,8,0:0:0:0:
296,210,476445,1,0,0:0:0:0:
296,210,476505,1,8,0:0:0:0:
296,210,476565,1,0,0:0:0:0:
296,210,476625,1,8,0:0:0:0:
296,210,476685,1,8,0:0:0:0:
296,210,476745,1,8,0:0:0:0:
296,210,476805,1,0,0:0:0:0:
296,210,476865,1,8,0:0:0:0:
296,210,476925,1,8,0:0:0:0:
296,210,476985,1,0,0:0:0:0:
296,210,477045,1,0,0:0:0:0:
296,210,477105,1,8,0:0:0:0:
296,210,477165,1,0,0:0:0:0:
296,210,477225,1,0,0:0:0:0:
296,210,477285,1,0,0:0:0:0:
296,210,477345,1,8,0:0:0:0:
296,210,477405,1,0,0:0:0:0:
296,210,477465,1,8,0:0:0:0:
296,210,477525,1,0,0:0:0:0:
296,210,477585,1,8,0:0:0:0:
296,210,477645,1,8,0:0:0:0:
296,210,477705,1,0,0:0:0:0:
296,210,477765,1,0,0:0:0:0:
296,210,477825,1,8,0:0:0:0:
296,210,477885,1,0,0:0:0:0:
296,210,477945,1,0,0:0:0:0:
296,210,478005,1,0,0:0:0:0:
296,210,478065,1,8,0:0:0:0:
296,210,478125,1,8,0:0:0:0:
296,210,478185,1,0,0:0:0:0:
296,210,478245,1,0,0:0:0:0:
296,210,478305,1,8,0:0:0:0:
296,210,478365,1,0,0:0:0:0:
296,210,478425,1,8,0:0:0:0:
296,210,478485,1,0,0:0:0:0:
296,210,478545,1,8,0:0:0:0:
296,210,478605,1,8,0:0:0:0:
296,210,478665,1,8,0:0:0:0:
296,210,478725,1,0,0:0:0:0:
296,210,478785,1,8,0:0:0:0:
296,210,478845,1,8,0:0:0:0:
296,210,478905,1,0,0:0:0:0:
296,210,478965,1,0,0:0:0:0:
296,210,479025,1,8,0:0:0:0:
296,210,479085,1,0,0:0:0:0:
296,210,479145,1,0,0:0:0:0:
296,210,479205,1,0,0:0:0:0:
296,210,479265,1,8,0:0:0:0:
296,210,479325,1,8,0:0:0:0:
296,210,479385,1,0,0:0:0:0:
296,210,479445,1,0,0:0:0:0:
296,210,479505,1,8,0:0:0:0:
296,210,479565,1,0,0:0:0:0:
296,210,479625,1,0,0:0:0:0:
296,210,479685,1,0,0:0:0:0:
296,210,479745,1,8,0:0:0:0:
296,210,479805,1,0,0:0:0:0:
296,210,479865,1,8,0:0:0:0:
296,210,479925,1,0,0:0:0:0:
296,210,479985,1,8,0:0:0:0:
296,210,480045,1,8,0:0:0:0:
296,210,480105,1,8,0:0:0:0:
296,210,480165,1,0,0:0:0:0:
296,210,480225,1,8,0:0:0:0:
296,210,480285,1,8,0:0:0:0:
296,210,480345,1,0,0:0:0:0:
296,210,480405,1,0,0:0:0:0:
296,210,480465,1,8,0:0:0:0:
296,210,480525,1,0,0:0:0:0:
296,210,480585,1,0,0:0:0:0:
296,210,480645,1,0,0:0:0:0:
296,210,480705,1,8,0:0:0:0:
296,210,480765,1,8,0:0:0:0:
296,210,480825,1,8,0:0:0:0:
296,210,480885,1,8,0:0:0:0:
296,210,480945,1,0,0:0:0:0:
296,210,481005,1,0,0:0:0:0:
296,210,481065,1,0,0:0:0:0:
296,210,481125,1,0,0:0:0:0:
296,210,481185,1,8,0:0:0:0:
296,210,481245,1,8,0:0:0:0:
296,210,481305,1,0,0:0:0:0:
296,210,481365,1,0,0:0:0:0:
296,210,481425,1,8,0:0:0:0:
296,210,481485,1,8,0:0:0:0:
296,210,481545,1,8,0:0:0:0:
296,210,481605,1,8,0:0:0:0:
296,210,481665,1,0,0:0:0:0:
296,210,481725,1,0,0:0:0:0:
296,210,481785,1,8,0:0:0:0:
296,210,481845,1,8,0:0:0:0:
296,210,481905,1,0,0:0:0:0:
296,210,481965,1,0,0:0:0:0:
296,210,482025,1,0,0:0:0:0:
296,210,482085,1,0,0:0:0:0:
296,210,482145,1,8,0:0:0:0:
296,210,482205,1,8,0:0:0:0:
296,210,482265,1,0,0:0:0:0:
296,210,482325,1,0,0:0:0:0:
296,210,482385,1,8,0:0:0:0:
296,210,482445,1,0,0:0:0:0:
296,210,482505,1,0,0:0:0:0:
296,210,482565,1,0,0:0:0:0:
296,210,482625,1,8,0:0:0:0:
296,210,482685,1,8,0:0:0:0:
235,177,482745,1,8,0:0:0:0:
235,177,482805,1,8,0:0:0:0:
235,177,482865,1,0,0:0:0:0:
235,177,482925,1,0,0:0:0:0:
235,177,482985,1,0,0:0:0:0:
235,177,483045,1,0,0:0:0:0:
235,177,483105,1,8,0:0:0:0:
235,177,483165,1,8,0:0:0:0:
235,177,483225,1,8,0:0:0:0:
235,177,483285,1,0,0:0:0:0:
235,177,483345,1,8,0:0:0:0:
235,177,483405,1,8,0:0:0:0:
235,177,483465,1,0,0:0:0:0:
235,177,483525,1,0,0:0:0:0:
235,177,483585,1,8,0:0:0:0:
235,177,483645,1,0,0:0:0:0:
235,177,483705,1,0,0:0:0:0:
235,177,483765,1,0,0:0:0:0:
268,207,483825,1,12,0:0:0:0:
314,214,483945,1,0,0:0:0:0:
314,214,484065,1,0,0:0:0:0:
268,207,484185,1,12,0:0:0:0:
314,214,484305,1,0,0:0:0:0:
314,214,484425,1,0,0:0:0:0:
268,207,484545,1,12,0:0:0:0:
314,214,484665,1,0,0:0:0:0:
234,124,484725,1,0,0:0:0:0:
268,207,484785,1,12,0:0:0:0:
362,275,484905,1,0,0:0:0:0:
362,275,485025,1,0,0:0:0:0:
299,194,485145,1,12,0:0:0:0:
362,275,485265,1,0,0:0:0:0:
362,275,485385,1,0,0:0:0:0:
299,194,485505,1,8,0:0:0:0:
270,274,485565,1,8,0:0:0:0:
330,279,485625,1,0,0:0:0:0:
330,279,485685,1,0,0:0:0:0:
299,194,485745,1,8,0:0:0:0:
370,301,485865,1,0,0:0:0:0:
370,301,485925,1,8,0:0:0:0:
370,301,486045,1,0,0:0:0:0:
370,301,486105,1,8,0:0:0:0:
370,301,486225,1,0,0:0:0:0:
370,301,486345,1,8,0:0:0:0:
370,301,486405,1,0,0:0:0:0:
370,301,486525,1,8,0:0:0:0:
370,301,486585,1,0,0:0:0:0:
395,307,486705,1,8,0:0:0:0:
234,217,486765,1,0,0:0:0:0:
343,250,486825,1,8,0:0:0:0:
343,250,486885,1,8,0:0:0:0:
343,250,486945,1,0,0:0:0:0:
234,217,487005,1,0,0:0:0:0:
401,295,487065,1,8,0:0:0:0:
234,217,487125,1,0,0:0:0:0:
401,295,487185,1,8,0:0:0:0:
234,217,487245,1,8,0:0:0:0:
349,248,487305,1,0,0:0:0:0:
349,248,487365,1,0,0:0:0:0:
349,248,487425,1,8,0:0:0:0:
234,217,487485,1,8,0:0:0:0:
349,248,487545,1,0,0:0:0:0:
355,229,487665,1,12,0:0:0:0:
279,237,488025,1,8,0:0:0:0:
279,237,488085,1,0,0:0:0:0:
279,237,488145,1,8,0:0:0:0:
321,250,488385,1,0,0:0:0:0:
353,210,488625,1,12,0:0:0:0:
369,246,488745,1,8,0:0:0:0:
369,246,488805,1,8,0:0:0:0:
369,246,488865,1,8,0:0:0:0:
362,221,488985,1,8,0:0:0:0:
362,221,489045,1,0,0:0:0:0:
362,221,489105,1,8,0:0:0:0:
362,221,489345,1,0,0:0:0:0:
336,204,489585,1,12,0:0:0:0:
362,246,489945,1,8,0:0:0:0:
362,246,490005,1,0,0:0:0:0:
362,246,490065,1,8,0:0:0:0:
362,246,490305,1,0,0:0:0:0:
336,204,490545,1,12,0:0:0:0:
230,195,490665,1,8,0:0:0:0:
230,195,490725,1,8,0:0:0:0:
230,195,490785,1,8,0:0:0:0:
230,195,490905,1,8,0:0:0:0:
230,195,490965,1,0,0:0:0:0:
230,195,491025,1,8,0:0:0:0:
230,195,491265,1,0,0:0:0:0:
230,195,491505,1,12,0:0:0:0:
390,285,491625,1,0,0:0:0:0:
390,285,491745,1,0,0:0:0:0:
276,182,491865,1,12,0:0:0:0:
406,299,491985,1,0,0:0:0:0:
406,299,492105,1,0,0:0:0:0:
377,283,492225,1,12,0:0:0:0:
411,305,492345,1,0,0:0:0:0:
411,305,492405,1,0,0:0:0:0:
376,262,492465,1,12,0:0:0:0:
411,305,492585,1,0,0:0:0:0:
412,309,492705,1,0,0:0:0:0:
376,262,492825,1,12,0:0:0:0:
412,309,492945,1,0,0:0:0:0:
412,309,493065,1,0,0:0:0:0:
376,262,493185,1,12,0:0:0:0:
452,343,493305,1,0,0:0:0:0:
452,343,493365,1,0,0:0:0:0:
358,243,493425,1,12,0:0:0:0:
260,207,493545,1,0,0:0:0:0:
257,182,493605,1,12,0:0:0:0:
260,207,493725,1,0,0:0:0:0:
402,267,493785,1,12,0:0:0:0:
402,267,493905,1,12,0:0:0:0:
342,255,494025,1,0,0:0:0:0:
325,154,494085,1,12,0:0:0:0:
342,255,494205,1,0,0:0:0:0:
405,300,494265,1,12,0:0:0:0:
288,173,494385,1,8,0:0:0:0:
288,173,494505,1,8,0:0:0:0:
288,173,494625,1,8,0:0:0:0:
399,307,494745,1,8,0:0:0:0:
403,268,494865,1,0,0:0:0:0:
227,193,495345,1,12,0:0:0:0:
227,193,495465,1,0,0:0:0:0:
227,193,495585,1,8,0:0:0:0:
296,240,495645,1,8,0:0:0:0:
394,291,495705,1,0,0:0:0:0:
394,291,495825,1,8,0:0:0:0:
392,309,495945,1,0,0:0:0:0:
358,251,496005,1,0,0:0:0:0:
392,309,496065,1,8,0:0:0:0:
392,309,496125,1,8,0:0:0:0:
392,309,496185,1,0,0:0:0:0:
392,309,496245,1,8,0:0:0:0:
392,309,496305,1,0,0:0:0:0:
407,319,496425,1,8,0:0:0:0:
389,295,496545,1,0,0:0:0:0:
352,268,496605,1,0,0:0:0:0:
352,268,496665,1,8,0:0:0:0:
352,268,496725,1,8,0:0:0:0:
321,263,496785,1,0,0:0:0:0:
337,218,496825,1,0,0:0:0:0:
337,218,496865,1,0,0:0:0:0:
337,218,496905,1,8,0:0:0:0:
337,218,497025,1,0,0:0:0:0:
440,332,497085,1,0,0:0:0:0:
378,258,497145,1,8,0:0:0:0:
210,147,497185,1,0,0:0:0:0:
273,191,497225,1,0,0:0:0:0:
354,190,497265,1,8,0:0:0:0:
448,337,497325,1,8,0:0:0:0:
426,303,497385,1,0,0:0:0:0:
426,303,497445,1,0,0:0:0:0:
426,303,497505,1,8,0:0:0:0:
434,311,497625,1,0,0:0:0:0:
442,295,497745,1,8,0:0:0:0:
437,293,497805,1,0,0:0:0:0:
442,295,497865,1,8,0:0:0:0:
442,295,497925,1,8,0:0:0:0:
442,295,497985,1,0,0:0:0:0:
374,303,498045,1,0,0:0:0:0:
374,303,498105,1,8,0:0:0:0:
374,303,498225,1,0,0:0:0:0:
324,211,498265,1,0,0:0:0:0:
324,211,498305,1,0,0:0:0:0:
374,303,498345,1,8,0:0:0:0:
425,306,498405,1,8,0:0:0:0:
425,306,498465,1,0,0:0:0:0:
425,306,498525,1,0,0:0:0:0:
425,306,498585,1,8,0:0:0:0:
351,182,498645,1,0,0:0:0:0:
286,249,498705,1,8,0:0:0:0:
182,296,498745,1,8,0:0:0:0:
195,291,498785,1,8,0:0:0:0:
195,291,498825,1,0,0:0:0:0:
378,298,498885,1,0,0:0:0:0:
298,191,498945,1,8,0:0:0:0:
298,191,498985,1,0,0:0:0:0:
298,191,499025,1,0,0:0:0:0:
298,191,499065,1,8,0:0:0:0:
298,191,499125,1,8,0:0:0:0:
391,277,499185,1,0,0:0:0:0:
382,285,499305,1,8,0:0:0:0:
382,285,499425,1,0,0:0:0:0:
370,240,499485,1,0,0:0:0:0:
382,285,499545,1,8,0:0:0:0:
382,285,499665,1,0,0:0:0:0:
382,285,499785,1,8,0:0:0:0:
387,262,499845,1,0,0:0:0:0:
382,285,499905,1,8,0:0:0:0:
357,262,499965,1,8,0:0:0:0:
382,285,500025,1,0,0:0:0:0:
382,285,500145,1,8,0:0:0:0:
405,301,500265,1,0,0:0:0:0:
405,301,500385,1,8,0:0:0:0:
387,291,500445,1,8,0:0:0:0:
405,301,500505,1,0,0:0:0:0:
405,301,500625,1,8,0:0:0:0:
405,301,500745,1,0,0:0:0:0:
384,287,500805,1,0,0:0:0:0:
405,301,500865,1,8,0:0:0:0:
405,301,501105,1,8,0:0:0:0:
405,301,501225,1,0,0:0:0:0:
391,300,501345,1,8,0:0:0:0:
393,308,501405,1,0,0:0:0:0:
420,301,501465,1,8,0:0:0:0:
420,301,501585,1,0,0:0:0:0:
420,301,501705,1,8,0:0:0:0:
391,299,501765,1,8,0:0:0:0:
420,301,501825,1,0,0:0:0:0:
419,303,501885,1,0,0:0:0:0:
419,303,501945,1,8,0:0:0:0:
419,303,502065,1,0,0:0:0:0:
422,295,502245,1,0,0:0:0:0:
422,295,502425,1,0,0:0:0:0:
431,326,502545,1,8,0:0:0:0:
390,280,502605,1,8,0:0:0:0:
390,280,502665,1,8,0:0:0:0:
390,280,502725,1,8,0:0:0:0:
390,280,502785,1,0,0:0:0:0:
390,280,502845,1,0,0:0:0:0:
390,280,502905,1,0,0:0:0:0:
390,280,502965,1,0,0:0:0:0:
408,303,503025,1,12,0:0:0:0:
372,202,503145,1,0,0:0:0:0:
372,202,503265,1,0,0:0:0:0:
401,281,503325,1,0,0:0:0:0:
372,202,503385,1,8,0:0:0:0:
372,202,503505,1,0,0:0:0:0:
372,202,503625,1,8,0:0:0:0:
391,288,503685,1,8,0:0:0:0:
372,202,503745,1,0,0:0:0:0:
354,288,503805,1,8,0:0:0:0:
372,202,503865,1,0,0:0:0:0:
354,288,503925,1,0,0:0:0:0:
372,202,503985,1,8,0:0:0:0:
373,296,504105,1,0,0:0:0:0:
373,296,504225,1,8,0:0:0:0:
390,296,504285,1,8,0:0:0:0:
363,230,504345,1,0,0:0:0:0:
365,220,504465,1,8,0:0:0:0:
321,168,504505,1,0,0:0:0:0:
321,168,504545,1,0,0:0:0:0:
321,168,504585,1,8,0:0:0:0:
363,230,504705,1,0,0:0:0:0:
375,226,504765,1,0,0:0:0:0:
270,166,504825,1,8,0:0:0:0:
303,172,504865,1,8,0:0:0:0:
303,172,504905,1,8,0:0:0:0:
408,308,504945,1,0,0:0:0:0:
422,274,505005,1,0,0:0:0:0:
422,274,505065,1,8,0:0:0:0:
422,274,505125,1,8,0:0:0:0:
422,274,505185,1,0,0:0:0:0:
422,274,505305,1,8,0:0:0:0:
386,272,505425,1,0,0:0:0:0:
440,338,505545,1,8,0:0:0:0:
382,279,505605,1,0,0:0:0:0:
440,338,505665,1,8,0:0:0:0:
382,296,505725,1,8,0:0:0:0:
440,338,505785,1,0,0:0:0:0:
335,232,505905,1,8,0:0:0:0:
244,166,505945,1,8,0:0:0:0:
244,166,505985,1,8,0:0:0:0:
244,166,506025,1,0,0:0:0:0:
428,307,506085,1,0,0:0:0:0:
428,307,506145,1,8,0:0:0:0:
428,307,506205,1,8,0:0:0:0:
428,307,506265,1,0,0:0:0:0:
428,307,506325,1,8,0:0:0:0:
428,307,506385,1,0,0:0:0:0:
314,263,506425,1,0,0:0:0:0:
314,263,506465,1,0,0:0:0:0:
314,263,506505,1,8,0:0:0:0:
400,270,506565,1,8,0:0:0:0:
400,270,506625,1,0,0:0:0:0:
344,142,506665,1,8,0:0:0:0:
344,142,506705,1,8,0:0:0:0:
400,270,506745,1,0,0:0:0:0:
339,157,506805,1,0,0:0:0:0:
339,157,506865,1,8,0:0:0:0:
380,278,506985,1,0,0:0:0:0:
380,278,507105,1,8,0:0:0:0:
375,269,507165,1,0,0:0:0:0:
380,278,507225,1,8,0:0:0:0:
380,278,507345,1,0,0:0:0:0:
361,259,507465,1,8,0:0:0:0:
361,259,507525,1,8,0:0:0:0:
297,159,507585,1,0,0:0:0:0:
361,259,507645,1,8,0:0:0:0:
297,159,507705,1,0,0:0:0:0:
297,159,507825,1,8,0:0:0:0:
231,124,507945,1,0,0:0:0:0:
297,159,508065,1,8,0:0:0:0:
371,272,508125,1,0,0:0:0:0:
271,231,508185,1,8,0:0:0:0:
271,231,508305,1,0,0:0:0:0:
241,184,508425,1,8,0:0:0:0:
380,297,508485,1,8,0:0:0:0:
380,297,508545,1,0,0:0:0:0:
374,276,508605,1,8,0:0:0:0:
384,269,508665,1,0,0:0:0:0:
384,269,508725,1,0,0:0:0:0:
252,195,508785,1,12,0:0:0:0:
250,200,509025,1,8,0:0:0:0:
250,200,509065,1,0,0:0:0:0:
361,197,509105,1,0,0:0:0:0:
250,200,509145,1,8,0:0:0:0:
263,194,509185,1,0,0:0:0:0:
263,194,509225,1,0,0:0:0:0:
357,263,509265,1,12,0:0:0:0:
319,242,509505,1,0,0:0:0:0:
319,242,509565,1,0,0:0:0:0:
319,242,509625,1,0,0:0:0:0:
319,242,509685,1,0,0:0:0:0:
385,276,509745,1,12,0:0:0:0:
262,191,509925,1,12,0:0:0:0:
262,191,510105,1,12,0:0:0:0:
262,191,510225,1,12,0:0:0:0:
391,281,510345,1,0,0:0:0:0:
391,281,510405,1,0,0:0:0:0:
391,281,510465,1,8,0:0:0:0:
391,281,510525,1,8,0:0:0:0:
391,281,510585,1,0,0:0:0:0:
391,281,510645,1,0,0:0:0:0:
371,250,510705,1,12,0:0:0:0:
315,227,510945,1,8,0:0:0:0:
311,203,510985,1,0,0:0:0:0:
311,203,511025,1,0,0:0:0:0:
360,200,511065,1,8,0:0:0:0:
360,200,511105,1,0,0:0:0:0:
360,200,511145,1,0,0:0:0:0:
371,250,511185,1,12,0:0:0:0:
426,303,511425,1,0,0:0:0:0:
426,303,511485,1,0,0:0:0:0:
426,303,511545,1,0,0:0:0:0:
426,303,511605,1,0,0:0:0:0:
384,277,511665,1,12,0:0:0:0:
384,277,511845,1,12,0:0:0:0:
384,277,512025,1,12,0:0:0:0:
384,277,512145,1,12,0:0:0:0:
434,315,512265,1,0,0:0:0:0:
434,315,512325,1,0,0:0:0:0:
434,315,512385,1,8,0:0:0:0:
434,315,512445,1,8,0:0:0:0:
434,315,512505,1,0,0:0:0:0:
434,315,512565,1,0,0:0:0:0:
384,277,512625,1,12,0:0:0:0:
378,313,512865,1,8,0:0:0:0:
329,248,512905,1,0,0:0:0:0:
329,248,512945,1,0,0:0:0:0:
390,223,512985,1,8,0:0:0:0:
390,223,513025,1,0,0:0:0:0:
390,223,513065,1,0,0:0:0:0:
348,230,513105,1,12,0:0:0:0:
415,296,513345,1,0,0:0:0:0:
415,296,513405,1,0,0:0:0:0:
415,296,513465,1,0,0:0:0:0:
364,257,513525,1,0,0:0:0:0:
348,230,513585,1,12,0:0:0:0:
386,292,513765,1,12,0:0:0:0:
386,292,513945,1,12,0:0:0:0:
386,292,514065,1,0,0:0:0:0:
284,226,514125,1,0,0:0:0:0:
366,237,514185,1,0,0:0:0:0:
366,237,514245,1,0,0:0:0:0:
359,232,514305,1,8,0:0:0:0:
359,232,514345,1,8,0:0:0:0:
359,232,514385,1,8,0:0:0:0:
359,232,514425,1,0,0:0:0:0:
359,232,514465,1,0,0:0:0:0:
359,232,514505,1,0,0:0:0:0:
386,292,514545,1,12,0:0:0:0:
363,276,514785,1,0,0:0:0:0:
363,276,514845,1,0,0:0:0:0:
320,201,514905,1,8,0:0:0:0:
320,201,514945,1,0,0:0:0:0:
320,201,514985,1,0,0:0:0:0:
376,276,515025,1,12,0:0:0:0:
398,238,515145,1,0,0:0:0:0:
398,238,515205,1,0,0:0:0:0:
434,311,515265,1,8,0:0:0:0:
434,311,515325,1,8,0:0:0:0:
434,311,515385,1,0,0:0:0:0:
356,284,515505,1,12,0:0:0:0:
356,284,515685,1,12,0:0:0:0:
356,284,515865,1,12,0:0:0:0:
380,147,515985,1,12,0:0:0:0:
251,182,516225,1,8,0:0:0:0:
251,182,516285,1,8,0:0:0:0:
251,182,516345,1,8,0:0:0:0:
251,182,516405,1,8,0:0:0:0:
284,227,516465,1,0,0:0:0:0:
312,245,516705,1,8,0:0:0:0:
312,245,516765,1,0,0:0:0:0:
312,245,516825,1,8,0:0:0:0:
312,245,516885,1,8,0:0:0:0:
312,245,516945,1,0,0:0:0:0:
312,245,517005,1,0,0:0:0:0:
312,245,517065,1,8,0:0:0:0:
312,245,517125,1,0,0:0:0:0:
312,245,517185,1,8,0:0:0:0:
312,245,517245,1,8,0:0:0:0:
312,245,517305,1,0,0:0:0:0:
312,245,517365,1,0,0:0:0:0:
312,245,517425,1,8,0:0:0:0:
312,245,517485,1,0,0:0:0:0:
312,245,517545,1,0,0:0:0:0:
312,245,517605,1,0,0:0:0:0:
312,245,517665,1,8,0:0:0:0:
312,245,517725,1,0,0:0:0:0:
312,245,517785,1,8,0:0:0:0:
312,245,517845,1,8,0:0:0:0:
312,245,517905,1,0,0:0:0:0:
312,245,517965,1,0,0:0:0:0:
312,245,518025,1,8,0:0:0:0:
312,245,518145,1,0,0:0:0:0:
312,245,518205,1,0,0:0:0:0:
312,245,518265,1,8,0:0:0:0:
312,245,518385,1,0,0:0:0:0:
361,236,518445,1,0,0:0:0:0:
361,236,518505,1,8,0:0:0:0:
361,236,518565,1,0,0:0:0:0:
361,236,518625,1,8,0:0:0:0:
361,236,518685,1,8,0:0:0:0:
361,236,518745,1,0,0:0:0:0:
361,236,518805,1,0,0:0:0:0:
361,236,518865,1,8,0:0:0:0:
361,236,518925,1,0,0:0:0:0:
361,236,518985,1,8,0:0:0:0:
361,236,519045,1,8,0:0:0:0:
361,236,519105,1,0,0:0:0:0:
361,236,519165,1,0,0:0:0:0:
361,236,519225,1,0,0:0:0:0:
361,236,519285,1,0,0:0:0:0:
361,236,519345,1,8,0:0:0:0:
361,236,519405,1,8,0:0:0:0:
361,236,519465,1,0,0:0:0:0:
361,236,519525,1,0,0:0:0:0:
361,236,519585,1,8,0:0:0:0:
361,236,519645,1,0,0:0:0:0:
361,236,519705,1,8,0:0:0:0:
361,236,519765,1,8,0:0:0:0:
361,236,519825,1,0,0:0:0:0:
361,236,519885,1,0,0:0:0:0:
361,236,519945,1,8,0:0:0:0:
361,236,520005,1,0,0:0:0:0:
295,193,520065,1,8,0:0:0:0:
295,193,520105,1,8,0:0:0:0:
261,158,520145,1,8,0:0:0:0:
342,243,520185,1,0,0:0:0:0:
342,243,520305,1,8,0:0:0:0:
319,197,520365,1,8,0:0:0:0:
319,197,520425,1,0,0:0:0:0:
319,197,520485,1,0,0:0:0:0:
319,197,520545,1,8,0:0:0:0:
319,197,520605,1,0,0:0:0:0:
319,197,520665,1,8,0:0:0:0:
319,197,520725,1,8,0:0:0:0:
319,197,520785,1,0,0:0:0:0:
319,197,520845,1,0,0:0:0:0:
319,197,520905,1,0,0:0:0:0:
319,197,520965,1,0,0:0:0:0:
319,197,521025,1,8,0:0:0:0:
319,197,521085,1,8,0:0:0:0:
319,197,521145,1,0,0:0:0:0:
319,197,521205,1,0,0:0:0:0:
319,197,521265,1,8,0:0:0:0:
319,197,521325,1,0,0:0:0:0:
319,197,521385,1,0,0:0:0:0:
319,197,521445,1,0,0:0:0:0:
319,197,521505,1,8,0:0:0:0:
319,197,521565,1,0,0:0:0:0:
319,197,521625,1,8,0:0:0:0:
319,197,521685,1,8,0:0:0:0:
319,197,521745,1,0,0:0:0:0:
319,197,521805,1,0,0:0:0:0:
319,197,521865,1,8,0:0:0:0:
319,197,521925,1,0,0:0:0:0:
307,164,521985,1,8,0:0:0:0:
307,164,522025,1,0,0:0:0:0:
307,164,522065,1,0,0:0:0:0:
418,333,522105,1,8,0:0:0:0:
418,333,522225,1,0,0:0:0:0:
337,245,522285,1,0,0:0:0:0:
337,245,522345,1,8,0:0:0:0:
337,245,522405,1,0,0:0:0:0:
337,245,522465,1,8,0:0:0:0:
337,245,522525,1,8,0:0:0:0:
337,245,522585,1,0,0:0:0:0:
337,245,522645,1,0,0:0:0:0:
337,245,522705,1,8,0:0:0:0:
337,245,522765,1,0,0:0:0:0:
337,245,522825,1,0,0:0:0:0:
337,245,522885,1,0,0:0:0:0:
337,245,522945,1,8,0:0:0:0:
337,245,523005,1,0,0:0:0:0:
337,245,523065,1,8,0:0:0:0:
337,245,523125,1,8,0:0:0:0:
337,245,523185,1,0,0:0:0:0:
337,245,523245,1,0,0:0:0:0:
337,245,523305,1,8,0:0:0:0:
230,168,523425,1,0,0:0:0:0:
230,168,523485,1,0,0:0:0:0:
230,168,523545,1,0,0:0:0:0:
230,168,523605,1,0,0:0:0:0:
230,168,523665,1,8,0:0:0:0:
381,288,523785,1,0,0:0:0:0:
381,288,523905,1,8,0:0:0:0:
381,288,523965,1,8,0:0:0:0:
381,288,524025,1,0,0:0:0:0:
381,288,524085,1,0,0:0:0:0:
381,288,524145,1,8,0:0:0:0:
275,189,524205,1,0,0:0:0:0:
275,189,524265,1,8,0:0:0:0:
275,189,524385,1,0,0:0:0:0:
276,198,524445,1,0,0:0:0:0:
401,302,524505,1,8,0:0:0:0:
401,302,524565,1,0,0:0:0:0:
401,302,524625,1,8,0:0:0:0:
401,302,524685,1,8,0:0:0:0:
401,302,524745,1,8,0:0:0:0:
401,302,524805,1,8,0:0:0:0:
401,302,524865,1,0,0:0:0:0:
401,302,524925,1,0,0:0:0:0:
401,302,524985,1,8,0:0:0:0:
401,302,525045,1,8,0:0:0:0:
401,302,525105,1,0,0:0:0:0:
263,230,525165,1,0,0:0:0:0:
263,230,525225,1,0,0:0:0:0:
263,230,525285,1,0,0:0:0:0:
263,230,525345,1,8,0:0:0:0:
263,230,525405,1,0,0:0:0:0:
263,230,525465,1,8,0:0:0:0:
263,230,525525,1,8,0:0:0:0:
263,230,525585,1,0,0:0:0:0:
263,230,525645,1,0,0:0:0:0:
297,214,525705,1,8,0:0:0:0:
297,214,525825,1,0,0:0:0:0:
297,214,525885,1,0,0:0:0:0:
297,214,525945,1,8,0:0:0:0:
297,214,526065,1,0,0:0:0:0:
288,223,526125,1,0,0:0:0:0:
288,223,526185,1,8,0:0:0:0:
288,223,526245,1,8,0:0:0:0:
288,223,526305,1,0,0:0:0:0:
288,223,526365,1,8,0:0:0:0:
288,223,526425,1,0,0:0:0:0:
288,223,526485,1,0,0:0:0:0:
288,223,526545,1,8,0:0:0:0:
288,223,526605,1,8,0:0:0:0:
288,223,526665,1,8,0:0:0:0:
288,223,526725,1,8,0:0:0:0:
288,223,526785,1,0,0:0:0:0:
288,223,526845,1,0,0:0:0:0:
288,223,526905,1,8,0:0:0:0:
288,223,526965,1,0,0:0:0:0:
288,223,527025,1,8,0:0:0:0:
288,223,527085,1,8,0:0:0:0:
288,223,527145,1,0,0:0:0:0:
288,223,527205,1,0,0:0:0:0:
288,223,527265,1,8,0:0:0:0:
288,223,527325,1,0,0:0:0:0:
288,223,527385,1,8,0:0:0:0:
288,223,527445,1,8,0:0:0:0:
288,223,527505,1,0,0:0:0:0:
288,223,527565,1,0,0:0:0:0:
216,134,527625,1,0,0:0:0:0:
211,177,527685,1,0,0:0:0:0:
197,175,527745,1,8,0:0:0:0:
197,175,527785,1,8,0:0:0:0:
230,168,527825,1,8,0:0:0:0:
197,175,527865,1,0,0:0:0:0:
197,175,527985,1,8,0:0:0:0:
335,225,528045,1,0,0:0:0:0:
335,225,528105,1,0,0:0:0:0:
335,225,528165,1,0,0:0:0:0:
335,225,528225,1,8,0:0:0:0:
335,225,528285,1,8,0:0:0:0:
335,225,528345,1,0,0:0:0:0:
335,225,528405,1,0,0:0:0:0:
335,225,528465,1,8,0:0:0:0:
335,225,528525,1,8,0:0:0:0:
335,225,528585,1,8,0:0:0:0:
335,225,528645,1,8,0:0:0:0:
335,225,528705,1,0,0:0:0:0:
335,225,528765,1,0,0:0:0:0:
335,225,528825,1,8,0:0:0:0:
335,225,528885,1,8,0:0:0:0:
335,225,528945,1,0,0:0:0:0:
335,225,529005,1,0,0:0:0:0:
335,225,529065,1,0,0:0:0:0:
335,225,529125,1,0,0:0:0:0:
335,225,529185,1,8,0:0:0:0:
335,225,529245,1,0,0:0:0:0:
335,225,529305,1,8,0:0:0:0:
335,225,529365,1,8,0:0:0:0:
335,225,529425,1,0,0:0:0:0:
335,225,529485,1,0,0:0:0:0:
335,225,529545,1,0,0:0:0:0:
335,225,529605,1,0,0:0:0:0:
335,225,529665,1,8,0:0:0:0:
271,217,529705,1,0,0:0:0:0:
271,217,529745,1,0,0:0:0:0:
322,198,529785,1,8,0:0:0:0:
322,198,529905,1,0,0:0:0:0:
259,175,529965,1,0,0:0:0:0:
259,175,530025,1,8,0:0:0:0:
259,175,530085,1,0,0:0:0:0:
259,175,530145,1,0,0:0:0:0:
259,175,530205,1,0,0:0:0:0:
259,175,530265,1,8,0:0:0:0:
259,175,530325,1,8,0:0:0:0:
259,175,530385,1,8,0:0:0:0:
259,175,530445,1,8,0:0:0:0:
259,175,530505,1,0,0:0:0:0:
259,175,530565,1,0,0:0:0:0:
259,175,530625,1,8,0:0:0:0:
259,175,530685,1,8,0:0:0:0:
259,175,530745,1,0,0:0:0:0:
259,175,530805,1,0,0:0:0:0:
259,175,530865,1,0,0:0:0:0:
259,175,530925,1,0,0:0:0:0:
259,175,530985,1,8,0:0:0:0:
278,204,531105,1,0,0:0:0:0:
299,168,531165,1,0,0:0:0:0:
299,168,531225,1,0,0:0:0:0:
299,168,531285,1,0,0:0:0:0:
299,168,531345,1,8,0:0:0:0:
299,168,531465,1,0,0:0:0:0:
384,278,531525,1,0,0:0:0:0:
299,168,531585,1,8,0:0:0:0:
299,168,531645,1,0,0:0:0:0:
299,168,531705,1,8,0:0:0:0:
299,168,531765,1,8,0:0:0:0:
299,168,531825,1,0,0:0:0:0:
284,213,532065,1,8,0:0:0:0:
341,226,532125,1,0,0:0:0:0:
284,213,532185,1,8,0:0:0:0:
341,226,532245,1,0,0:0:0:0:
284,213,532305,1,8,0:0:0:0:
341,226,532365,1,8,0:0:0:0:
284,213,532425,1,0,0:0:0:0:
284,213,532545,1,8,0:0:0:0:
406,279,532665,1,0,0:0:0:0:
249,188,532725,1,0,0:0:0:0:
406,279,532785,1,8,0:0:0:0:
338,242,532905,1,0,0:0:0:0:
338,242,533025,1,8,0:0:0:0:
364,259,533085,1,8,0:0:0:0:
338,242,533145,1,0,0:0:0:0:
364,259,533205,1,0,0:0:0:0:
338,242,533265,1,8,0:0:0:0:
338,242,533385,1,0,0:0:0:0:
367,174,533425,1,0,0:0:0:0:
367,174,533465,1,0,0:0:0:0:
367,174,533505,1,8,0:0:0:0:
376,168,533565,1,8,0:0:0:0:
376,168,533625,1,0,0:0:0:0:
376,168,533685,1,0,0:0:0:0:
376,168,533745,1,8,0:0:0:0:
376,218,533805,1,0,0:0:0:0:
300,231,533865,1,8,0:0:0:0:
373,251,533925,1,0,0:0:0:0:
300,231,533985,1,8,0:0:0:0:
300,231,534105,1,0,0:0:0:0:
300,231,534225,1,8,0:0:0:0:
371,274,534285,1,0,0:0:0:0:
300,231,534345,1,8,0:0:0:0:
371,274,534405,1,8,0:0:0:0:
300,231,534465,1,0,0:0:0:0:
300,231,534585,1,8,0:0:0:0:
300,231,534645,1,0,0:0:0:0:
300,231,534705,1,8,0:0:0:0:
375,258,534765,1,0,0:0:0:0:
300,231,534825,1,8,0:0:0:0:
300,231,534945,1,0,0:0:0:0:
300,231,535065,1,8,0:0:0:0:
373,270,535125,1,0,0:0:0:0:
300,231,535185,1,8,0:0:0:0:
380,253,535245,1,8,0:0:0:0:
300,231,535305,1,0,0:0:0:0:
366,258,535365,1,0,0:0:0:0:
300,231,535425,1,8,0:0:0:0:
307,129,535465,1,8,0:0:0:0:
307,129,535505,1,8,0:0:0:0:
230,257,535545,1,0,0:0:0:0:
232,251,535665,1,8,0:0:0:0:
291,192,535725,1,0,0:0:0:0:
366,191,535785,1,0,0:0:0:0:
291,192,535845,1,0,0:0:0:0:
366,191,535905,1,8,0:0:0:0:
366,191,535965,1,8,0:0:0:0:
366,191,536025,1,0,0:0:0:0:
366,191,536085,1,0,0:0:0:0:
366,191,536145,1,8,0:0:0:0:
366,191,536205,1,8,0:0:0:0:
366,191,536265,1,8,0:0:0:0:
366,191,536325,1,8,0:0:0:0:
366,191,536385,1,0,0:0:0:0:
366,191,536445,1,0,0:0:0:0:
366,191,536505,1,8,0:0:0:0:
366,191,536565,1,0,0:0:0:0:
366,191,536625,1,8,0:0:0:0:
366,191,536685,1,8,0:0:0:0:
366,191,536745,1,0,0:0:0:0:
366,191,536805,1,0,0:0:0:0:
366,191,536865,1,8,0:0:0:0:
366,191,536925,1,0,0:0:0:0:
366,191,536985,1,0,0:0:0:0:
366,191,537045,1,0,0:0:0:0:
366,191,537105,1,8,0:0:0:0:
366,191,537165,1,0,0:0:0:0:
366,191,537225,1,8,0:0:0:0:
366,191,537285,1,8,0:0:0:0:
327,176,537345,1,0,0:0:0:0:
327,176,537385,1,0,0:0:0:0:
327,176,537425,1,0,0:0:0:0:
281,205,537465,1,8,0:0:0:0:
281,205,537585,1,0,0:0:0:0:
391,300,537645,1,0,0:0:0:0:
405,310,537705,1,8,0:0:0:0:
391,300,537765,1,8,0:0:0:0:
391,300,537825,1,0,0:0:0:0:
391,300,537885,1,8,0:0:0:0:
391,300,537945,1,0,0:0:0:0:
391,300,538005,1,0,0:0:0:0:
391,300,538065,1,8,0:0:0:0:
391,300,538125,1,0,0:0:0:0:
391,300,538185,1,0,0:0:0:0:
391,300,538245,1,0,0:0:0:0:
391,300,538305,1,8,0:0:0:0:
391,300,538365,1,0,0:0:0:0:
391,300,538425,1,8,0:0:0:0:
391,300,538485,1,8,0:0:0:0:
391,300,538545,1,0,0:0:0:0:
391,300,538605,1,0,0:0:0:0:
279,220,538665,1,8,0:0:0:0:
279,220,538785,1,0,0:0:0:0:
279,220,538845,1,0,0:0:0:0:
279,220,538905,1,0,0:0:0:0:
279,220,538965,1,0,0:0:0:0:
279,220,539025,1,8,0:0:0:0:
279,220,539145,1,0,0:0:0:0:
407,287,539265,1,8,0:0:0:0:
407,287,539325,1,0,0:0:0:0:
407,287,539385,1,8,0:0:0:0:
407,287,539445,1,0,0:0:0:0:
386,275,539505,1,8,0:0:0:0:
407,287,539565,1,8,0:0:0:0:
407,287,539625,1,0,0:0:0:0:
290,231,539745,1,8,0:0:0:0:
290,231,539865,1,0,0:0:0:0:
290,231,539985,1,8,0:0:0:0:
368,264,540045,1,8,0:0:0:0:
290,231,540105,1,0,0:0:0:0:
371,255,540165,1,0,0:0:0:0:
290,231,540225,1,8,0:0:0:0:
290,231,540345,1,0,0:0:0:0:
290,231,540465,1,8,0:0:0:0:
355,237,540525,1,0,0:0:0:0:
306,256,540585,1,8,0:0:0:0:
355,237,540645,1,8,0:0:0:0:
306,256,540705,1,0,0:0:0:0:
322,235,540765,1,0,0:0:0:0:
257,207,540825,1,8,0:0:0:0:
257,207,540945,1,0,0:0:0:0:
257,207,541065,1,8,0:0:0:0:
257,207,541185,1,0,0:0:0:0:
257,207,541245,1,0,0:0:0:0:
257,207,541305,1,8,0:0:0:0:
257,207,541365,1,0,0:0:0:0:
257,207,541425,1,8,0:0:0:0:
291,200,541545,1,0,0:0:0:0:
291,200,541665,1,8,0:0:0:0:
338,218,541725,1,0,0:0:0:0:
291,200,541785,1,8,0:0:0:0:
338,218,541845,1,0,0:0:0:0:
291,200,541905,1,8,0:0:0:0:
291,200,541965,1,8,0:0:0:0:
338,218,542025,1,0,0:0:0:0:
291,200,542145,1,8,0:0:0:0:
291,200,542265,1,0,0:0:0:0:
332,219,542325,1,0,0:0:0:0:
291,200,542385,1,8,0:0:0:0:
341,240,542445,1,0,0:0:0:0:
291,200,542505,1,8,0:0:0:0:
291,200,542625,1,0,0:0:0:0:
291,200,542745,1,8,0:0:0:0:
340,249,542805,1,0,0:0:0:0:
291,200,542865,1,8,0:0:0:0:
357,183,542925,1,8,0:0:0:0:
291,200,542985,1,0,0:0:0:0:
357,183,543045,1,0,0:0:0:0:
321,235,543105,1,8,0:0:0:0:
244,196,543145,1,0,0:0:0:0:
244,196,543185,1,0,0:0:0:0:
321,235,543225,1,8,0:0:0:0:
295,229,543345,1,0,0:0:0:0:
295,229,543405,1,0,0:0:0:0:
295,229,543465,1,8,0:0:0:0:
295,229,543525,1,0,0:0:0:0:
295,229,543585,1,8,0:0:0:0:
295,229,543645,1,8,0:0:0:0:
295,229,543705,1,0,0:0:0:0:
295,229,543765,1,0,0:0:0:0:
295,229,543825,1,8,0:0:0:0:
295,229,543885,1,0,0:0:0:0:
295,229,543945,1,0,0:0:0:0:
295,229,544005,1,0,0:0:0:0:
295,229,544065,1,8,0:0:0:0:
295,229,544125,1,8,0:0:0:0:
295,229,544185,1,0,0:0:0:0:
295,229,544245,1,0,0:0:0:0:
295,229,544305,1,8,0:0:0:0:
295,229,544365,1,8,0:0:0:0:
295,229,544425,1,8,0:0:0:0:
295,229,544485,1,8,0:0:0:0:
295,229,544545,1,0,0:0:0:0:
295,229,544605,1,0,0:0:0:0:
295,229,544665,1,8,0:0:0:0:
295,229,544725,1,0,0:0:0:0:
295,229,544785,1,8,0:0:0:0:
295,229,544845,1,0,0:0:0:0:
295,229,544905,1,8,0:0:0:0:
295,229,544965,1,8,0:0:0:0:
295,229,545025,1,0,0:0:0:0:
295,229,545065,1,0,0:0:0:0:
235,235,545105,1,0,0:0:0:0:
295,229,545145,1,8,0:0:0:0:
295,229,545265,1,0,0:0:0:0:
305,232,545325,1,0,0:0:0:0:
338,252,545385,1,8,0:0:0:0:
295,229,545445,1,0,0:0:0:0:
338,252,545505,1,8,0:0:0:0:
338,252,545565,1,8,0:0:0:0:
338,252,545625,1,0,0:0:0:0:
338,252,545685,1,0,0:0:0:0:
338,252,545745,1,8,0:0:0:0:
338,252,545805,1,0,0:0:0:0:
338,252,545865,1,0,0:0:0:0:
338,252,545925,1,0,0:0:0:0:
338,252,545985,1,8,0:0:0:0:
338,252,546045,1,0,0:0:0:0:
338,252,546105,1,8,0:0:0:0:
338,252,546165,1,8,0:0:0:0:
338,252,546225,1,0,0:0:0:0:
338,252,546345,1,8,0:0:0:0:
297,214,546465,1,0,0:0:0:0:
297,214,546525,1,0,0:0:0:0:
297,214,546585,1,0,0:0:0:0:
297,214,546645,1,0,0:0:0:0:
376,214,546705,1,8,0:0:0:0:
376,299,546825,1,0,0:0:0:0:
250,194,546945,1,8,0:0:0:0:
250,194,547005,1,8,0:0:0:0:
250,194,547065,1,0,0:0:0:0:
250,194,547125,1,0,0:0:0:0:
336,208,547185,1,8,0:0:0:0:
336,208,547225,1,8,0:0:0:0:
336,208,547265,1,8,0:0:0:0:
336,208,547305,1,0,0:0:0:0:
361,252,547365,1,0,0:0:0:0:
275,247,547425,1,8,0:0:0:0:
336,208,547545,1,0,0:0:0:0:
336,208,547585,1,0,0:0:0:0:
336,208,547625,1,0,0:0:0:0:
336,208,547665,1,8,0:0:0:0:
296,235,547725,1,8,0:0:0:0:
275,247,547785,1,0,0:0:0:0:
361,265,547905,1,8,0:0:0:0:
361,265,547945,1,8,0:0:0:0:
361,265,547985,1,8,0:0:0:0:
361,265,548025,1,0,0:0:0:0:
380,239,548085,1,0,0:0:0:0:
431,342,548145,1,8,0:0:0:0:
336,204,548265,1,0,0:0:0:0:
336,204,548305,1,0,0:0:0:0:
336,204,548345,1,0,0:0:0:0:
336,204,548385,1,8,0:0:0:0:
352,242,548445,1,8,0:0:0:0:
444,346,548505,1,0,0:0:0:0:
336,204,548625,1,8,0:0:0:0:
336,204,548665,1,8,0:0:0:0:
336,204,548705,1,8,0:0:0:0:
336,204,548745,1,0,0:0:0:0:
405,320,548805,1,0,0:0:0:0:
405,320,548865,1,8,0:0:0:0:
288,229,548925,1,8,0:0:0:0:
313,181,548985,1,0,0:0:0:0:
401,298,549105,1,8,0:0:0:0:
401,298,549145,1,0,0:0:0:0:
401,298,549185,1,0,0:0:0:0:
401,298,549225,1,8,0:0:0:0:
333,225,549285,1,8,0:0:0:0:
313,181,549345,1,0,0:0:0:0:
401,298,549465,1,8,0:0:0:0:
401,298,549505,1,8,0:0:0:0:
401,298,549545,1,8,0:0:0:0:
401,298,549585,1,0,0:0:0:0:
370,248,549645,1,0,0:0:0:0:
313,181,549705,1,8,0:0:0:0:
370,269,549825,1,0,0:0:0:0:
370,269,549865,1,8,0:0:0:0:
370,269,549905,1,8,0:0:0:0:
370,269,549945,1,0,0:0:0:0:
370,248,550005,1,0,0:0:0:0:
313,181,550065,1,8,0:0:0:0:
406,305,550185,1,0,0:0:0:0:
406,305,550225,1,0,0:0:0:0:
406,305,550265,1,0,0:0:0:0:
406,305,550305,1,8,0:0:0:0:
333,225,550365,1,8,0:0:0:0:
414,327,550425,1,0,0:0:0:0:
406,305,550545,1,8,0:0:0:0:
406,305,550585,1,0,0:0:0:0:
406,305,550625,1,0,0:0:0:0:
406,305,550665,1,8,0:0:0:0:
248,220,550725,1,0,0:0:0:0:
383,298,550785,1,8,0:0:0:0:
383,298,550825,1,8,0:0:0:0:
383,298,550865,1,8,0:0:0:0:
383,298,550905,1,0,0:0:0:0:
383,298,550945,1,0,0:0:0:0:
383,298,550985,1,0,0:0:0:0:
383,298,551025,1,8,0:0:0:0:
347,263,551085,1,8,0:0:0:0:
347,263,551145,1,0,0:0:0:0:
347,263,551205,1,0,0:0:0:0:
347,263,551265,1,8,0:0:0:0:
347,263,551325,1,0,0:0:0:0:
347,263,551385,1,8,0:0:0:0:
347,263,551425,1,8,0:0:0:0:
248,212,551465,1,8,0:0:0:0:
347,263,551505,1,0,0:0:0:0:
347,263,551565,1,0,0:0:0:0:
347,263,551625,1,8,0:0:0:0:
347,263,551685,1,8,0:0:0:0:
347,263,551745,1,0,0:0:0:0:
347,263,551785,1,8,0:0:0:0:
297,225,551825,1,8,0:0:0:0:
347,263,551865,1,0,0:0:0:0:
347,263,551925,1,0,0:0:0:0:
347,263,551985,1,8,0:0:0:0:
347,263,552045,1,8,0:0:0:0:
347,263,552105,1,0,0:0:0:0:
347,263,552145,1,0,0:0:0:0:
240,182,552185,1,0,0:0:0:0:
347,263,552225,1,8,0:0:0:0:
347,263,552285,1,8,0:0:0:0:
347,263,552345,1,0,0:0:0:0:
347,263,552405,1,0,0:0:0:0:
347,263,552465,1,8,0:0:0:0:
347,263,552505,1,0,0:0:0:0:
231,206,552545,1,0,0:0:0:0:
341,206,552585,1,8,0:0:0:0:
341,206,552625,1,0,0:0:0:0:
341,206,552665,1,0,0:0:0:0:
341,206,552705,1,8,0:0:0:0:
336,149,552765,1,8,0:0:0:0:
336,149,552825,1,0,0:0:0:0:
257,195,552945,1,8,0:0:0:0:
257,195,553005,1,8,0:0:0:0:
320,199,553065,1,0,0:0:0:0:
234,75,553105,1,0,0:0:0:0:
320,199,553145,1,8,0:0:0:0:
320,199,553185,1,0,0:0:0:0:
255,162,553225,1,8,0:0:0:0:
217,196,553265,1,8,0:0:0:0:
255,162,553305,1,0,0:0:0:0:
256,228,553365,1,0,0:0:0:0:
320,199,553425,1,8,0:0:0:0:
234,75,553465,1,8,0:0:0:0:
320,199,553505,1,0,0:0:0:0:
320,199,553545,1,8,0:0:0:0:
255,162,553585,1,0,0:0:0:0:
240,205,553625,1,0,0:0:0:0:
255,162,553665,1,8,0:0:0:0:
256,227,553725,1,8,0:0:0:0:
320,199,553785,1,0,0:0:0:0:
234,75,553825,1,0,0:0:0:0:
320,199,553865,1,0,0:0:0:0:
241,227,553905,1,8,0:0:0:0:
243,201,553945,1,8,0:0:0:0:
255,162,553985,1,8,0:0:0:0:
255,162,554025,1,0,0:0:0:0:
223,207,554085,1,0,0:0:0:0:
256,227,554145,1,8,0:0:0:0:
256,227,554185,1,8,0:0:0:0:
192,207,554225,1,0,0:0:0:0:
256,227,554265,1,0,0:0:0:0:
182,147,554325,1,8,0:0:0:0:
272,182,554385,1,0,0:0:0:0:
272,182,554425,1,8,0:0:0:0:
250,216,554465,1,8,0:0:0:0:
272,182,554505,1,0,0:0:0:0:
272,182,554565,1,0,0:0:0:0:
259,181,554625,1,8,0:0:0:0:
259,181,554665,1,8,0:0:0:0:
259,181,554705,1,8,0:0:0:0:
259,181,554745,1,8,0:0:0:0:
291,191,554785,1,8,0:0:0:0:
259,181,554825,1,8,0:0:0:0:
259,181,554865,1,0,0:0:0:0:
