osu file format v14

[General]
AudioFilename: audio.ogg
AudioLeadIn: 0
PreviewTime: 424314
Countdown: 0
SampleSet: Soft
StackLeniency: 0.7
Mode: 3
LetterboxInBreaks: 0
SpecialStyle: 0
WidescreenStoryboard: 0

[Editor]
Bookmarks: 95994,111354,125754,142074,157434,172794,203514,234234,257274,295674,311034,341754,357114,387834,395514,410874,456954,547194
DistanceSpacing: 0.3
BeatDivisor: 4
GridSize: 16
TimelineZoom: 1.800002

[Metadata]
Title:Fallen Symphony
TitleUnicode:Fallen Symphony
Artist:Ludicin
ArtistUnicode:Ludicin
Creator:Harbyter
Version:Fallen Sky II
Source:
Tags:breakcore gothic hardcore melodic metal orchestra orchestral speedcore marathon instrumental electronic rice stream tech technical
BeatmapID:4440674
BeatmapSetID:2114750

[Difficulty]
HPDrainRate:8
CircleSize:4
OverallDifficulty:8
ApproachRate:5
SliderMultiplier:1.4
SliderTickRate:1

[Events]
//Background and Video events
0,0,"fallen.jpg",0,0
//Break Periods
2,203714,217674
2,341954,355914
2,357314,371274
2,372674,386634
2,388034,394314
//Storyboard Layer 0 (Background)
//Storyboard Layer 1 (Fail)
//Storyboard Layer 2 (Pass)
//Storyboard Layer 3 (Foreground)
//Storyboard Layer 4 (Overlay)
//Storyboard Sound Samples

[TimingPoints]
65274,240,4,2,1,40,1,0
426234,-100,4,2,1,40,0,1
487674,-100,4,2,1,40,0,0
516714,-100,4,2,1,40,0,1
531834,-100,4,2,1,40,0,0

[HitObjects]
64,192,65274,5,0,0:0:0:0:
192,192,65274,1,0,0:0:0:0:
64,192,70074,1,0,0:0:0:25:
192,192,71064,1,0,0:0:0:25:
320,192,72024,1,0,0:0:0:25:
448,192,72984,1,0,0:0:0:25:
64,192,73914,1,0,0:0:0:25:
192,192,74904,1,0,0:0:0:30:
320,192,75864,1,0,0:0:0:0:
448,192,76824,1,0,0:0:0:0:
64,192,77754,1,0,0:0:0:0:
192,192,78714,1,0,0:0:0:0:
320,192,79704,1,0,0:0:0:0:
64,192,80634,1,0,0:0:0:0:
448,192,80664,1,0,0:0:0:0:
192,192,81594,1,0,0:0:0:0:
320,192,82584,1,0,0:0:0:0:
448,192,83544,1,0,0:0:0:0:
64,192,84504,1,0,0:0:0:0:
192,192,85434,1,0,0:0:0:0:
320,192,86424,1,0,0:0:0:0:
448,192,87384,1,0,0:0:0:0:
64,192,88314,1,0,0:0:0:0:
320,192,88344,1,0,0:0:0:0:
448,192,88554,1,0,0:0:0:0:
64,192,88674,1,0,0:0:0:0:
192,192,88734,1,0,0:0:0:0:
320,192,88794,1,0,0:0:0:0:
448,192,88854,1,0,0:0:0:0:
64,192,88914,1,0,0:0:0:0:
320,192,89034,1,0,0:0:0:0:
192,192,89154,1,0,0:0:0:0:
64,192,89274,1,0,0:0:0:0:
448,192,89304,1,0,0:0:0:0:
320,192,89514,1,0,0:0:0:0:
64,192,89634,1,0,0:0:0:0:
192,192,89694,1,0,0:0:0:0:
320,192,89754,1,0,0:0:0:0:
448,192,89814,1,0,0:0:0:0:
64,192,89874,1,0,0:0:0:0:
192,192,89994,1,0,0:0:0:0:
448,192,90114,1,0,0:0:0:0:
320,192,90174,1,0,0:0:0:0:
192,192,90234,1,0,0:0:0:0:
448,192,90264,1,0,0:0:0:0:
64,192,90354,1,0,0:0:0:0:
320,192,90474,1,0,0:0:0:0:
64,192,90594,1,0,0:0:0:0:
192,192,90654,1,0,0:0:0:0:
320,192,90714,1,0,0:0:0:0:
448,192,90774,1,0,0:0:0:0:
64,192,90834,1,0,0:0:0:0:
448,192,90954,1,0,0:0:0:0:
320,192,91014,1,0,0:0:0:0:
192,192,91074,1,0,0:0:0:0:
64,192,91194,1,0,0:0:0:0:
448,192,91224,1,0,0:0:0:0:
192,192,91254,1,0,0:0:0:0:
320,192,91314,1,0,0:0:0:0:
448,192,91434,1,0,0:0:0:0:
64,192,91554,1,0,0:0:0:0:
192,192,91614,1,0,0:0:0:0:
448,192,91674,1,0,0:0:0:0:
320,192,91734,1,0,0:0:0:0:
192,192,91794,1,0,0:0:0:0:
64,192,91854,1,0,0:0:0:0:
448,192,91914,1,0,0:0:0:0:
320,192,92034,1,0,0:0:0:0:
192,192,92094,1,0,0:0:0:0:
64,192,92154,1,0,0:0:0:0:
448,192,92184,1,0,0:0:0:0:
192,192,92274,1,0,0:0:0:0:
320,192,92394,1,0,0:0:0:0:
448,192,92514,1,0,0:0:0:0:
64,192,92574,1,0,0:0:0:0:
192,192,92634,1,0,0:0:0:0:
448,192,92694,1,0,0:0:0:0:
320,192,92754,1,0,0:0:0:0:
192,192,92814,1,0,0:0:0:0:
448,192,92874,1,0,0:0:0:0:
64,192,92934,1,0,0:0:0:0:
192,192,92994,1,0,0:0:0:0:
320,192,93054,1,0,0:0:0:0:
64,192,93114,1,0,0:0:0:0:
448,192,93144,1,0,0:0:0:0:
192,192,93174,1,0,0:0:0:0:
320,192,93234,1,0,0:0:0:0:
64,192,93294,1,0,0:0:0:0:
192,192,93354,1,0,0:0:0:0:
320,192,93474,1,0,0:0:0:0:
192,192,93534,1,0,0:0:0:0:
64,192,93594,1,0,0:0:0:0:
448,192,93654,1,0,0:0:0:0:
192,192,93714,1,0,0:0:0:0:
320,192,93774,1,0,0:0:0:0:
448,192,93834,1,0,0:0:0:0:
192,192,93954,1,0,0:0:0:0:
320,192,94014,1,0,0:0:0:0:
64,192,94074,1,0,0:0:0:0:
448,192,94104,1,0,0:0:0:0:
192,192,94194,1,0,0:0:0:0:
448,192,94314,1,0,0:0:0:0:
320,192,94434,1,0,0:0:0:0:
192,192,94494,1,0,0:0:0:0:
64,192,94554,1,0,0:0:0:0:
448,192,94614,1,0,0:0:0:0:
192,192,94674,1,0,0:0:0:0:
320,192,94734,1,0,0:0:0:0:
448,192,94794,1,0,0:0:0:0:
192,192,94854,5,0,0:0:0:0:
64,192,94914,1,0,0:0:0:0:
320,192,94974,1,0,0:0:0:0:
192,192,95034,1,0,0:0:0:0:
448,192,95064,1,0,0:0:0:0:
64,192,95094,1,0,0:0:0:0:
320,192,95154,1,0,0:0:0:0:
192,192,95214,1,0,0:0:0:0:
448,192,95274,1,0,0:0:0:0:
64,192,95394,1,0,0:0:0:0:
192,192,95454,1,0,0:0:0:0:
320,192,95514,1,0,0:0:0:0:
448,192,95514,1,0,0:0:0:0:
448,192,95994,5,0,0:0:0:0:
192,192,95994,1,0,0:0:0:0:
320,192,96114,1,0,0:0:0:0:
64,192,96234,1,0,0:0:0:0:
192,192,96354,1,0,0:0:0:0:
448,192,96474,1,0,0:0:0:0:
320,192,96594,1,0,0:0:0:0:
192,192,96714,1,0,0:0:0:0:
64,192,96834,1,0,0:0:0:0:
320,192,96954,1,0,0:0:0:0:
64,192,97074,1,0,0:0:0:0:
192,192,97194,1,0,0:0:0:0:
320,192,97314,1,0,0:0:0:0:
448,192,97434,1,0,0:0:0:0:
320,192,97554,1,0,0:0:0:0:
192,192,97674,1,0,0:0:0:0:
64,192,97794,1,0,0:0:0:0:
192,192,97914,1,0,0:0:0:0:
448,192,97914,1,0,0:0:0:0:
320,192,98034,1,0,0:0:0:0:
64,192,98154,1,0,0:0:0:0:
192,192,98274,1,0,0:0:0:0:
448,192,98394,1,0,0:0:0:0:
320,192,98514,1,0,0:0:0:0:
192,192,98634,1,0,0:0:0:0:
64,192,98754,1,0,0:0:0:0:
320,192,98874,1,0,0:0:0:0:
64,192,98994,1,0,0:0:0:0:
192,192,99114,1,0,0:0:0:0:
320,192,99234,1,0,0:0:0:0:
448,192,99354,1,0,0:0:0:0:
64,192,99354,1,0,0:0:0:0:
192,192,99474,1,0,0:0:0:0:
448,192,99594,1,0,0:0:0:0:
320,192,99714,1,0,0:0:0:0:
192,192,99834,1,0,0:0:0:0:
64,192,99834,1,0,0:0:0:0:
320,192,99954,1,0,0:0:0:0:
64,192,100074,1,0,0:0:0:0:
192,192,100194,1,0,0:0:0:0:
448,192,100314,1,0,0:0:0:0:
320,192,100434,1,0,0:0:0:0:
192,192,100554,1,0,0:0:0:0:
64,192,100674,1,0,0:0:0:0:
320,192,100794,1,0,0:0:0:0:
64,192,100914,1,0,0:0:0:0:
192,192,101034,1,0,0:0:0:0:
320,192,101154,1,0,0:0:0:0:
448,192,101274,1,0,0:0:0:0:
320,192,101394,1,0,0:0:0:0:
192,192,101514,1,0,0:0:0:0:
64,192,101634,1,0,0:0:0:0:
320,192,101754,1,0,0:0:0:0:
448,192,101754,1,0,0:0:0:0:
192,192,101874,1,0,0:0:0:0:
64,192,101994,1,0,0:0:0:0:
320,192,102114,1,0,0:0:0:0:
64,192,102234,1,0,0:0:0:0:
192,192,102354,1,0,0:0:0:0:
64,192,102474,1,0,0:0:0:0:
320,192,102594,1,0,0:0:0:0:
192,192,102714,1,0,0:0:0:0:
448,192,102714,1,0,0:0:0:0:
64,192,102834,1,0,0:0:0:0:
320,192,102954,1,0,0:0:0:0:
192,192,103074,1,0,0:0:0:0:
320,192,103194,1,0,0:0:0:0:
448,192,103194,1,0,0:0:0:0:
64,192,103314,1,0,0:0:0:0:
192,192,103434,1,0,0:0:0:0:
320,192,103554,1,0,0:0:0:0:
448,192,103674,1,0,0:0:0:0:
64,192,103674,1,0,0:0:0:0:
192,192,103794,1,0,0:0:0:0:
320,192,103914,1,0,0:0:0:0:
192,192,104034,1,0,0:0:0:0:
448,192,104154,1,0,0:0:0:0:
320,192,104274,1,0,0:0:0:0:
192,192,104394,1,0,0:0:0:0:
320,192,104514,1,0,0:0:0:0:
64,192,104634,1,0,0:0:0:0:
448,192,104634,1,0,0:0:0:0:
192,192,104754,1,0,0:0:0:0:
320,192,104874,1,0,0:0:0:0:
64,192,104994,1,0,0:0:0:0:
448,192,105114,1,0,0:0:0:0:
320,192,105234,1,0,0:0:0:0:
192,192,105354,1,0,0:0:0:0:
64,192,105474,1,0,0:0:0:0:
192,192,105594,1,0,0:0:0:0:
448,192,105594,1,0,0:0:0:0:
320,192,105714,1,0,0:0:0:0:
64,192,105834,1,0,0:0:0:0:
192,192,105954,1,0,0:0:0:0:
448,192,106074,1,0,0:0:0:0:
320,192,106194,1,0,0:0:0:0:
192,192,106314,1,0,0:0:0:0:
64,192,106434,1,0,0:0:0:0:
192,192,106554,1,0,0:0:0:0:
448,192,106554,1,0,0:0:0:0:
320,192,106674,1,0,0:0:0:0:
64,192,106794,1,0,0:0:0:0:
192,192,106914,1,0,0:0:0:0:
448,192,107034,1,0,0:0:0:0:
320,192,107154,1,0,0:0:0:0:
448,192,107274,1,0,0:0:0:0:
192,192,107394,1,0,0:0:0:0:
64,192,107514,1,0,0:0:0:0:
320,192,107514,1,0,0:0:0:0:
448,192,107634,1,0,0:0:0:0:
64,192,107754,1,0,0:0:0:0:
192,192,107874,1,0,0:0:0:0:
448,192,107994,1,0,0:0:0:0:
320,192,108114,1,0,0:0:0:0:
192,192,108234,1,0,0:0:0:0:
64,192,108354,1,0,0:0:0:0:
320,192,108474,1,0,0:0:0:0:
64,192,108594,1,0,0:0:0:0:
192,192,108714,1,0,0:0:0:0:
320,192,108834,1,0,0:0:0:0:
448,192,108954,1,0,0:0:0:0:
320,192,109074,1,0,0:0:0:0:
64,192,109194,1,0,0:0:0:0:
192,192,109194,1,0,0:0:0:0:
64,192,109314,1,0,0:0:0:0:
192,192,109314,1,0,0:0:0:0:
192,192,109434,1,0,0:0:0:0:
64,192,109434,1,0,0:0:0:0:
448,192,110394,1,0,0:0:0:0:
448,192,110514,1,0,0:0:0:0:
448,192,110634,1,0,0:0:0:0:
64,192,110694,1,0,0:0:0:0:
448,192,110754,1,0,0:0:0:0:
64,192,110814,1,0,0:0:0:0:
192,192,110874,1,0,0:0:0:0:
320,192,110874,1,0,0:0:0:0:
448,192,110934,1,0,0:0:0:0:
192,192,110994,1,0,0:0:0:0:
320,192,110994,1,0,0:0:0:0:
64,192,111114,1,0,0:0:0:0:
448,192,111114,1,0,0:0:0:0:
192,192,111234,1,0,0:0:0:0:
320,192,111354,1,0,0:0:0:0:
448,192,111354,1,0,0:0:0:0:
64,192,111474,1,0,0:0:0:0:
192,192,111594,1,0,0:0:0:0:
320,192,111594,1,0,0:0:0:0:
448,192,111714,1,0,0:0:0:0:
64,192,111714,1,0,0:0:0:0:
192,192,111834,1,0,0:0:0:0:
320,192,111834,1,0,0:0:0:0:
64,192,111954,1,0,0:0:0:0:
448,192,111954,1,0,0:0:0:0:
192,192,112074,1,0,0:0:0:0:
320,192,112074,1,0,0:0:0:0:
448,192,112194,1,0,0:0:0:0:
64,192,112314,1,0,0:0:0:0:
192,192,112314,1,0,0:0:0:0:
320,192,112434,1,0,0:0:0:0:
448,192,112554,1,0,0:0:0:0:
64,192,112554,1,0,0:0:0:0:
192,192,112674,1,0,0:0:0:0:
320,192,112674,1,0,0:0:0:0:
192,192,112794,1,0,0:0:0:0:
448,192,112794,1,0,0:0:0:0:
320,192,112914,1,0,0:0:0:0:
64,192,113034,1,0,0:0:0:0:
448,192,113034,1,0,0:0:0:0:
192,192,113154,1,0,0:0:0:0:
64,192,113214,1,0,0:0:0:0:
448,192,113274,1,0,0:0:0:0:
320,192,113274,1,0,0:0:0:0:
320,192,113394,1,0,0:0:0:0:
448,192,113394,1,0,0:0:0:0:
64,192,113514,1,0,0:0:0:0:
192,192,113514,1,0,0:0:0:0:
320,192,113634,1,0,0:0:0:0:
448,192,113634,1,0,0:0:0:0:
64,192,113754,1,0,0:0:0:0:
192,192,113754,1,0,0:0:0:0:
320,192,113874,1,0,0:0:0:0:
448,192,113874,1,0,0:0:0:0:
192,192,113994,1,0,0:0:0:0:
64,192,113994,1,0,0:0:0:0:
448,192,114114,1,0,0:0:0:0:
320,192,114234,1,0,0:0:0:0:
64,192,114234,1,0,0:0:0:0:
192,192,114354,1,0,0:0:0:0:
320,192,114474,1,0,0:0:0:0:
448,192,114474,1,0,0:0:0:0:
64,192,114594,1,0,0:0:0:0:
192,192,114594,1,0,0:0:0:0:
64,192,114714,1,0,0:0:0:0:
320,192,114714,1,0,0:0:0:0:
448,192,114834,1,0,0:0:0:0:
64,192,114954,1,0,0:0:0:0:
192,192,114994,1,0,0:0:0:0:
448,192,115034,1,0,0:0:0:0:
320,192,115074,1,0,0:0:0:0:
64,192,115114,1,0,0:0:0:0:
192,192,115154,1,0,0:0:0:0:
320,192,115194,1,0,0:0:0:0:
448,192,115194,1,0,0:0:0:0:
64,192,115314,1,0,0:0:0:0:
192,192,115434,1,0,0:0:0:0:
448,192,115434,1,0,0:0:0:0:
64,192,115554,1,0,0:0:0:0:
320,192,115554,1,0,0:0:0:0:
192,192,115674,1,0,0:0:0:0:
448,192,115674,1,0,0:0:0:0:
64,192,115794,1,0,0:0:0:0:
320,192,115794,1,0,0:0:0:0:
192,192,115914,1,0,0:0:0:0:
448,192,115914,1,0,0:0:0:0:
320,192,116034,1,0,0:0:0:0:
448,192,116154,1,0,0:0:0:0:
64,192,116154,1,0,0:0:0:0:
320,192,116274,1,0,0:0:0:0:
192,192,116394,1,0,0:0:0:0:
64,192,116394,1,0,0:0:0:0:
320,192,116514,1,0,0:0:0:0:
448,192,116514,1,0,0:0:0:0:
448,192,116634,1,0,0:0:0:0:
192,192,116634,1,0,0:0:0:0:
320,192,116754,1,0,0:0:0:0:
64,192,116874,1,0,0:0:0:0:
448,192,116874,1,0,0:0:0:0:
192,192,116994,1,0,0:0:0:0:
320,192,117054,1,0,0:0:0:0:
448,192,117114,1,0,0:0:0:0:
64,192,117114,1,0,0:0:0:0:
192,192,117234,1,0,0:0:0:0:
320,192,117234,1,0,0:0:0:0:
64,192,117354,1,0,0:0:0:0:
320,192,117354,1,0,0:0:0:0:
192,192,117414,1,0,0:0:0:0:
64,192,117474,1,0,0:0:0:0:
448,192,117474,1,0,0:0:0:0:
320,192,117534,1,0,0:0:0:0:
192,192,117594,1,0,0:0:0:0:
448,192,117594,1,0,0:0:0:0:
64,192,117714,1,0,0:0:0:0:
320,192,117834,1,0,0:0:0:0:
448,192,117834,1,0,0:0:0:0:
192,192,117954,1,0,0:0:0:0:
64,192,118074,1,0,0:0:0:0:
448,192,118074,1,0,0:0:0:0:
320,192,118194,1,0,0:0:0:0:
64,192,118314,1,0,0:0:0:0:
192,192,118314,1,0,0:0:0:0:
320,192,118434,1,0,0:0:0:0:
448,192,118434,1,0,0:0:0:0:
64,192,118554,1,0,0:0:0:0:
448,192,118554,1,0,0:0:0:0:
192,192,118674,1,0,0:0:0:0:
320,192,118714,1,0,0:0:0:0:
448,192,118754,1,0,0:0:0:0:
64,192,118794,1,0,0:0:0:0:
192,192,118834,1,0,0:0:0:0:
448,192,118874,1,0,0:0:0:0:
320,192,118914,1,0,0:0:0:0:
64,192,118954,1,0,0:0:0:0:
192,192,118994,1,0,0:0:0:0:
320,192,119034,1,0,0:0:0:0:
448,192,119034,1,0,0:0:0:0:
192,192,119154,1,0,0:0:0:0:
448,192,119154,1,0,0:0:0:0:
64,192,119274,1,0,0:0:0:0:
320,192,119274,1,0,0:0:0:0:
64,192,119394,1,0,0:0:0:0:
448,192,119394,1,0,0:0:0:0:
192,192,119514,1,0,0:0:0:0:
448,192,119514,1,0,0:0:0:0:
64,192,119634,1,0,0:0:0:0:
448,192,119634,1,0,0:0:0:0:
320,192,119754,1,0,0:0:0:0:
64,192,119754,1,0,0:0:0:0:
64,192,119874,1,0,0:0:0:0:
448,192,119874,1,0,0:0:0:0:
192,192,119994,1,0,0:0:0:0:
320,192,119994,1,0,0:0:0:0:
64,192,120114,1,0,0:0:0:0:
448,192,120114,1,0,0:0:0:0:
192,192,120234,1,0,0:0:0:0:
448,192,120234,1,0,0:0:0:0:
64,192,120354,1,0,0:0:0:0:
320,192,120354,1,0,0:0:0:0:
64,192,120474,1,0,0:0:0:0:
448,192,120474,1,0,0:0:0:0:
192,192,120594,1,0,0:0:0:0:
448,192,120594,1,0,0:0:0:0:
64,192,120714,1,0,0:0:0:0:
320,192,120714,1,0,0:0:0:0:
192,192,120834,1,0,0:0:0:0:
448,192,120834,1,0,0:0:0:0:
320,192,120894,1,0,0:0:0:0:
64,192,120954,1,0,0:0:0:0:
192,192,120954,1,0,0:0:0:0:
448,192,121014,1,0,0:0:0:0:
320,192,121054,1,0,0:0:0:0:
64,192,121094,1,0,0:0:0:0:
192,192,121134,1,0,0:0:0:0:
320,192,121194,1,0,0:0:0:0:
448,192,121194,1,0,0:0:0:0:
320,192,121314,1,0,0:0:0:0:
448,192,121314,1,0,0:0:0:0:
192,192,121434,1,0,0:0:0:0:
320,192,121434,1,0,0:0:0:0:
192,192,121554,1,0,0:0:0:0:
320,192,121554,1,0,0:0:0:0:
64,192,121674,1,0,0:0:0:0:
192,192,121674,1,0,0:0:0:0:
192,192,121794,5,0,0:0:0:0:
64,192,121794,1,0,0:0:0:0:
64,192,121914,1,0,0:0:0:0:
320,192,121914,1,0,0:0:0:0:
320,192,122034,1,0,0:0:0:0:
64,192,122034,1,0,0:0:0:0:
192,192,122154,1,0,0:0:0:0:
320,192,122154,1,0,0:0:0:0:
192,192,122274,1,0,0:0:0:0:
320,192,122274,1,0,0:0:0:0:
192,192,122394,1,0,0:0:0:0:
448,192,122394,1,0,0:0:0:0:
192,192,122514,1,0,0:0:0:0:
448,192,122514,1,0,0:0:0:0:
320,192,122634,1,0,0:0:0:0:
448,192,122634,1,0,0:0:0:0:
448,192,122754,1,0,0:0:0:0:
320,192,122754,1,0,0:0:0:0:
192,192,122874,5,0,0:0:0:0:
64,192,122934,1,0,0:0:0:0:
320,192,122994,1,0,0:0:0:0:
192,192,123054,1,0,0:0:0:0:
448,192,123114,1,0,0:0:0:0:
320,192,123174,1,0,0:0:0:0:
192,192,123234,1,0,0:0:0:0:
64,192,123234,1,0,0:0:0:0:
448,192,123294,1,0,0:0:0:0:
192,192,123354,1,0,0:0:0:0:
320,192,123414,1,0,0:0:0:0:
64,192,123474,1,0,0:0:0:0:
320,192,123534,1,0,0:0:0:0:
192,192,123594,1,0,0:0:0:0:
64,192,123594,1,0,0:0:0:0:
448,192,123654,5,0,0:0:0:0:
192,192,123714,1,0,0:0:0:0:
320,192,123774,1,0,0:0:0:0:
64,192,123834,1,0,0:0:0:0:
448,192,123834,1,0,0:0:0:0:
320,192,123894,1,0,0:0:0:0:
192,192,123954,1,0,0:0:0:0:
448,192,124014,1,0,0:0:0:0:
192,192,124074,1,0,0:0:0:0:
320,192,124134,1,0,0:0:0:0:
64,192,124194,1,0,0:0:0:0:
448,192,124194,1,0,0:0:0:0:
192,192,124254,1,0,0:0:0:0:
320,192,124314,1,0,0:0:0:0:
64,192,124374,1,0,0:0:0:0:
320,192,124434,1,0,0:0:0:0:
192,192,124494,1,0,0:0:0:0:
64,192,124554,1,0,0:0:0:0:
448,192,124554,1,0,0:0:0:0:
192,192,124614,1,0,0:0:0:0:
320,192,124674,1,0,0:0:0:0:
448,192,124674,1,0,0:0:0:0:
64,192,124734,1,0,0:0:0:0:
448,192,124794,1,0,0:0:0:0:
320,192,124794,1,0,0:0:0:0:
192,192,124914,1,0,0:0:0:0:
320,192,125034,1,0,0:0:0:0:
320,192,125154,1,0,0:0:0:0:
448,192,125274,1,0,0:0:0:0:
64,192,125334,1,0,0:0:0:0:
448,192,125394,1,0,0:0:0:0:
64,192,125454,1,0,0:0:0:0:
448,192,125514,1,0,0:0:0:0:
64,192,125574,1,0,0:0:0:0:
448,192,125634,1,0,0:0:0:0:
64,192,125694,1,0,0:0:0:0:
192,192,125754,1,0,0:0:0:0:
320,192,125754,1,0,0:0:0:0:
448,192,125814,1,0,0:0:0:0:
192,192,125874,1,0,0:0:0:0:
320,192,125934,1,0,0:0:0:0:
64,192,125994,1,0,0:0:0:0:
448,192,126054,1,0,0:0:0:0:
320,192,126114,1,0,0:0:0:0:
192,192,126174,1,0,0:0:0:0:
64,192,126234,1,0,0:0:0:0:
448,192,126294,1,0,0:0:0:0:
192,192,126354,1,0,0:0:0:0:
64,192,126354,1,0,0:0:0:0:
448,192,126414,1,0,0:0:0:0:
320,192,126474,1,0,0:0:0:0:
64,192,126534,1,0,0:0:0:0:
320,192,126594,1,0,0:0:0:0:
64,192,126654,1,0,0:0:0:0:
448,192,126714,1,0,0:0:0:0:
192,192,126714,1,0,0:0:0:0:
192,192,126834,1,0,0:0:0:0:
448,192,126834,1,0,0:0:0:0:
320,192,126954,1,0,0:0:0:0:
448,192,126954,1,0,0:0:0:0:
64,192,127014,1,0,0:0:0:0:
192,192,127074,1,0,0:0:0:0:
320,192,127134,1,0,0:0:0:0:
64,192,127194,1,0,0:0:0:0:
192,192,127194,1,0,0:0:0:0:
320,192,127254,1,0,0:0:0:0:
448,192,127314,1,0,0:0:0:0:
192,192,127374,1,0,0:0:0:0:
448,192,127434,1,0,0:0:0:0:
320,192,127434,1,0,0:0:0:0:
64,192,127494,1,0,0:0:0:0:
192,192,127554,1,0,0:0:0:0:
320,192,127614,1,0,0:0:0:0:
64,192,127674,1,0,0:0:0:0:
192,192,127674,1,0,0:0:0:0:
320,192,127734,1,0,0:0:0:0:
448,192,127794,1,0,0:0:0:0:
192,192,127854,1,0,0:0:0:0:
448,192,127914,1,0,0:0:0:0:
320,192,127914,1,0,0:0:0:0:
64,192,127974,1,0,0:0:0:0:
192,192,128034,1,0,0:0:0:0:
320,192,128094,1,0,0:0:0:0:
64,192,128154,1,0,0:0:0:0:
192,192,128154,1,0,0:0:0:0:
320,192,128214,1,0,0:0:0:0:
448,192,128274,1,0,0:0:0:0:
192,192,128334,1,0,0:0:0:0:
320,192,128394,1,0,0:0:0:0:
64,192,128454,1,0,0:0:0:0:
448,192,128514,1,0,0:0:0:0:
320,192,128574,1,0,0:0:0:0:
64,192,128634,1,0,0:0:0:0:
192,192,128634,1,0,0:0:0:0:
448,192,128694,1,0,0:0:0:0:
320,192,128754,1,0,0:0:0:0:
192,192,128814,1,0,0:0:0:0:
448,192,128874,1,0,0:0:0:0:
320,192,128874,1,0,0:0:0:0:
192,192,128934,1,0,0:0:0:0:
64,192,128994,1,0,0:0:0:0:
320,192,129054,1,0,0:0:0:0:
64,192,129114,1,0,0:0:0:0:
192,192,129114,1,0,0:0:0:0:
448,192,129174,1,0,0:0:0:0:
320,192,129234,1,0,0:0:0:0:
192,192,129294,1,0,0:0:0:0:
448,192,129354,1,0,0:0:0:0:
320,192,129354,1,0,0:0:0:0:
192,192,129414,1,0,0:0:0:0:
64,192,129474,1,0,0:0:0:0:
320,192,129534,1,0,0:0:0:0:
64,192,129594,1,0,0:0:0:0:
192,192,129594,1,0,0:0:0:0:
448,192,129654,1,0,0:0:0:0:
320,192,129714,1,0,0:0:0:0:
192,192,129774,1,0,0:0:0:0:
448,192,129834,1,0,0:0:0:0:
320,192,129834,1,0,0:0:0:0:
192,192,129894,1,0,0:0:0:0:
64,192,129954,1,0,0:0:0:0:
320,192,130014,1,0,0:0:0:0:
192,192,130074,1,0,0:0:0:0:
64,192,130074,1,0,0:0:0:0:
448,192,130134,1,0,0:0:0:0:
320,192,130194,1,0,0:0:0:0:
192,192,130254,1,0,0:0:0:0:
448,192,130314,1,0,0:0:0:0:
64,192,130314,1,0,0:0:0:0:
192,192,130554,1,0,0:0:0:0:
64,192,130554,1,0,0:0:0:0:
192,192,130674,1,0,0:0:0:0:
320,192,130674,1,0,0:0:0:0:
448,192,130794,1,0,0:0:0:0:
320,192,130794,1,0,0:0:0:0:
64,192,130854,1,0,0:0:0:0:
192,192,130914,1,0,0:0:0:0:
320,192,130974,1,0,0:0:0:0:
64,192,131034,1,0,0:0:0:0:
192,192,131034,1,0,0:0:0:0:
320,192,131094,1,0,0:0:0:0:
448,192,131154,1,0,0:0:0:0:
192,192,131214,1,0,0:0:0:0:
448,192,131274,1,0,0:0:0:0:
320,192,131274,1,0,0:0:0:0:
64,192,131334,1,0,0:0:0:0:
192,192,131394,1,0,0:0:0:0:
320,192,131454,1,0,0:0:0:0:
192,192,131514,1,0,0:0:0:0:
64,192,131514,1,0,0:0:0:0:
320,192,131574,1,0,0:0:0:0:
448,192,131634,1,0,0:0:0:0:
192,192,131694,1,0,0:0:0:0:
448,192,131754,1,0,0:0:0:0:
320,192,131754,1,0,0:0:0:0:
64,192,131814,1,0,0:0:0:0:
192,192,131874,1,0,0:0:0:0:
320,192,131934,1,0,0:0:0:0:
64,192,131994,1,0,0:0:0:0:
192,192,131994,1,0,0:0:0:0:
320,192,132054,1,0,0:0:0:0:
448,192,132114,1,0,0:0:0:0:
64,192,132174,1,0,0:0:0:0:
448,192,132234,1,0,0:0:0:0:
320,192,132274,1,0,0:0:0:0:
192,192,132314,1,0,0:0:0:0:
448,192,132354,1,0,0:0:0:0:
320,192,132394,1,0,0:0:0:0:
192,192,132434,1,0,0:0:0:0:
64,192,132474,1,0,0:0:0:0:
448,192,132534,1,0,0:0:0:0:
320,192,132594,1,0,0:0:0:0:
192,192,132654,1,0,0:0:0:0:
448,192,132714,1,0,0:0:0:0:
320,192,132714,1,0,0:0:0:0:
192,192,132774,1,0,0:0:0:0:
64,192,132834,1,0,0:0:0:0:
320,192,132894,1,0,0:0:0:0:
192,192,132954,1,0,0:0:0:0:
64,192,132954,1,0,0:0:0:0:
448,192,133014,1,0,0:0:0:0:
320,192,133074,1,0,0:0:0:0:
192,192,133134,1,0,0:0:0:0:
448,192,133194,1,0,0:0:0:0:
320,192,133194,1,0,0:0:0:0:
192,192,133254,1,0,0:0:0:0:
64,192,133314,1,0,0:0:0:0:
320,192,133374,1,0,0:0:0:0:
64,192,133434,1,0,0:0:0:0:
448,192,133434,1,0,0:0:0:0:
192,192,133554,1,0,0:0:0:0:
320,192,133554,1,0,0:0:0:0:
64,192,133614,1,0,0:0:0:0:
448,192,133614,1,0,0:0:0:0:
320,192,133734,1,0,0:0:0:0:
192,192,133734,1,0,0:0:0:0:
64,192,133794,1,0,0:0:0:0:
448,192,133794,1,0,0:0:0:0:
64,192,133914,1,0,0:0:0:0:
448,192,133914,1,0,0:0:0:0:
192,192,134034,1,0,0:0:0:0:
320,192,134034,1,0,0:0:0:0:
320,192,134154,1,0,0:0:0:0:
192,192,134154,1,0,0:0:0:0:
64,192,134214,1,0,0:0:0:0:
448,192,134274,1,0,0:0:0:0:
64,192,134334,1,0,0:0:0:0:
320,192,134394,1,0,0:0:0:0:
192,192,134394,1,0,0:0:0:0:
448,192,134454,1,0,0:0:0:0:
64,192,134514,1,0,0:0:0:0:
192,192,134514,1,0,0:0:0:0:
320,192,134574,1,0,0:0:0:0:
64,192,134634,1,0,0:0:0:0:
448,192,134634,1,0,0:0:0:0:
192,192,134694,1,0,0:0:0:0:
320,192,134754,1,0,0:0:0:0:
448,192,134814,1,0,0:0:0:0:
64,192,134874,1,0,0:0:0:0:
192,192,134874,1,0,0:0:0:0:
448,192,134934,1,0,0:0:0:0:
64,192,134994,1,0,0:0:0:0:
320,192,135054,1,0,0:0:0:0:
64,192,135114,1,0,0:0:0:0:
448,192,135114,1,0,0:0:0:0:
192,192,135174,1,0,0:0:0:0:
320,192,135234,1,0,0:0:0:0:
448,192,135294,1,0,0:0:0:0:
64,192,135354,1,0,0:0:0:0:
192,192,135354,1,0,0:0:0:0:
448,192,135414,1,0,0:0:0:0:
64,192,135474,1,0,0:0:0:0:
320,192,135534,1,0,0:0:0:0:
64,192,135594,1,0,0:0:0:0:
448,192,135594,1,0,0:0:0:0:
192,192,135654,1,0,0:0:0:0:
320,192,135714,1,0,0:0:0:0:
448,192,135774,1,0,0:0:0:0:
64,192,135834,1,0,0:0:0:0:
192,192,135834,1,0,0:0:0:0:
448,192,135894,1,0,0:0:0:0:
64,192,135954,1,0,0:0:0:0:
320,192,136014,1,0,0:0:0:0:
448,192,136074,1,0,0:0:0:0:
192,192,136134,1,0,0:0:0:0:
320,192,136194,1,0,0:0:0:0:
64,192,136254,1,0,0:0:0:0:
448,192,136314,1,0,0:0:0:0:
320,192,136314,1,0,0:0:0:0:
64,192,136374,1,0,0:0:0:0:
448,192,136434,1,0,0:0:0:0:
192,192,136494,1,0,0:0:0:0:
64,192,136554,1,0,0:0:0:0:
448,192,136554,1,0,0:0:0:0:
320,192,136614,1,0,0:0:0:0:
192,192,136674,1,0,0:0:0:0:
64,192,136734,1,0,0:0:0:0:
448,192,136794,1,0,0:0:0:0:
320,192,136794,1,0,0:0:0:0:
64,192,136854,1,0,0:0:0:0:
448,192,136914,1,0,0:0:0:0:
192,192,136974,1,0,0:0:0:0:
64,192,137034,1,0,0:0:0:0:
448,192,137034,1,0,0:0:0:0:
320,192,137094,1,0,0:0:0:0:
192,192,137154,1,0,0:0:0:0:
64,192,137214,1,0,0:0:0:0:
320,192,137274,1,0,0:0:0:0:
448,192,137274,1,0,0:0:0:0:
64,192,137334,1,0,0:0:0:0:
448,192,137394,1,0,0:0:0:0:
192,192,137454,1,0,0:0:0:0:
64,192,137514,1,0,0:0:0:0:
448,192,137514,1,0,0:0:0:0:
320,192,137574,1,0,0:0:0:0:
192,192,137634,1,0,0:0:0:0:
64,192,137694,1,0,0:0:0:0:
448,192,137754,1,0,0:0:0:0:
320,192,137754,1,0,0:0:0:0:
64,192,137814,1,0,0:0:0:0:
448,192,137874,1,0,0:0:0:0:
192,192,137934,1,0,0:0:0:0:
64,192,137994,1,0,0:0:0:0:
448,192,138034,1,0,0:0:0:0:
320,192,138074,1,0,0:0:0:0:
64,192,138114,1,0,0:0:0:0:
192,192,138154,1,0,0:0:0:0:
448,192,138194,1,0,0:0:0:0:
320,192,138234,1,0,0:0:0:0:
64,192,138234,1,0,0:0:0:0:
192,192,138354,1,0,0:0:0:0:
448,192,138354,1,0,0:0:0:0:
448,192,138474,1,0,0:0:0:0:
64,192,138474,1,0,0:0:0:0:
192,192,138534,1,0,0:0:0:0:
320,192,138594,1,0,0:0:0:0:
448,192,138654,1,0,0:0:0:0:
64,192,138714,1,0,0:0:0:0:
192,192,138714,1,0,0:0:0:0:
448,192,138774,1,0,0:0:0:0:
64,192,138834,1,0,0:0:0:0:
320,192,138894,1,0,0:0:0:0:
64,192,138954,1,0,0:0:0:0:
448,192,138954,1,0,0:0:0:0:
192,192,139014,1,0,0:0:0:0:
320,192,139074,1,0,0:0:0:0:
448,192,139134,1,0,0:0:0:0:
64,192,139194,1,0,0:0:0:0:
192,192,139194,1,0,0:0:0:0:
448,192,139254,1,0,0:0:0:0:
64,192,139314,1,0,0:0:0:0:
320,192,139374,1,0,0:0:0:0:
64,192,139434,1,0,0:0:0:0:
448,192,139434,1,0,0:0:0:0:
192,192,139494,1,0,0:0:0:0:
320,192,139554,1,0,0:0:0:0:
448,192,139614,1,0,0:0:0:0:
64,192,139674,1,0,0:0:0:0:
192,192,139674,1,0,0:0:0:0:
448,192,139734,1,0,0:0:0:0:
64,192,139794,1,0,0:0:0:0:
320,192,139854,1,0,0:0:0:0:
64,192,139914,1,0,0:0:0:0:
192,192,139954,1,0,0:0:0:0:
320,192,139994,1,0,0:0:0:0:
64,192,140034,1,0,0:0:0:0:
192,192,140074,1,0,0:0:0:0:
320,192,140114,1,0,0:0:0:0:
448,192,140154,1,0,0:0:0:0:
64,192,140394,1,0,0:0:0:0:
192,192,140394,1,0,0:0:0:0:
320,192,140454,1,0,0:0:0:0:
448,192,140514,1,0,0:0:0:0:
192,192,140554,1,0,0:0:0:0:
320,192,140594,1,0,0:0:0:0:
448,192,140634,1,0,0:0:0:0:
64,192,140634,1,0,0:0:0:0:
64,192,140874,1,0,0:0:0:0:
320,192,140874,1,0,0:0:0:0:
192,192,140934,1,0,0:0:0:0:
320,192,140994,1,0,0:0:0:0:
192,192,141054,1,0,0:0:0:0:
448,192,141114,1,0,0:0:0:0:
320,192,141114,1,0,0:0:0:0:
64,192,141234,1,0,0:0:0:0:
192,192,141234,1,0,0:0:0:0:
448,192,141294,1,0,0:0:0:0:
320,192,141294,1,0,0:0:0:0:
64,192,141414,1,0,0:0:0:0:
192,192,141414,1,0,0:0:0:0:
320,192,141474,1,0,0:0:0:0:
448,192,141474,1,0,0:0:0:0:
192,192,141594,1,0,0:0:0:0:
320,192,141594,1,0,0:0:0:0:
192,192,141714,1,0,0:0:0:0:
64,192,141714,1,0,0:0:0:0:
448,192,141834,1,0,0:0:0:0:
320,192,141834,1,0,0:0:0:0:
192,192,141894,1,0,0:0:0:0:
448,192,141954,1,0,0:0:0:0:
320,192,141954,1,0,0:0:0:0:
64,192,142014,1,0,0:0:0:0:
448,192,142074,1,0,0:0:0:0:
192,192,142074,1,0,0:0:0:0:
320,192,142134,1,0,0:0:0:0:
64,192,142194,1,0,0:0:0:0:
192,192,142254,1,0,0:0:0:0:
320,192,142314,1,0,0:0:0:0:
64,192,142314,1,0,0:0:0:0:
192,192,142434,1,0,0:0:0:0:
448,192,142434,1,0,0:0:0:0:
320,192,142554,1,0,0:0:0:0:
448,192,142554,1,0,0:0:0:0:
64,192,142674,1,0,0:0:0:0:
192,192,142794,1,0,0:0:0:0:
320,192,142794,1,0,0:0:0:0:
448,192,142914,1,0,0:0:0:0:
64,192,142914,1,0,0:0:0:0:
192,192,143034,1,0,0:0:0:0:
448,192,143034,1,0,0:0:0:0:
320,192,143154,1,0,0:0:0:0:
64,192,143274,1,0,0:0:0:0:
192,192,143274,1,0,0:0:0:0:
320,192,143394,1,0,0:0:0:0:
448,192,143394,1,0,0:0:0:0:
64,192,143514,1,0,0:0:0:0:
448,192,143514,1,0,0:0:0:0:
192,192,143634,1,0,0:0:0:0:
320,192,143754,1,0,0:0:0:0:
448,192,143814,1,0,0:0:0:0:
192,192,143874,1,0,0:0:0:0:
448,192,143934,1,0,0:0:0:0:
320,192,143994,1,0,0:0:0:0:
64,192,143994,1,0,0:0:0:0:
192,192,144114,1,0,0:0:0:0:
448,192,144234,1,0,0:0:0:0:
64,192,144234,1,0,0:0:0:0:
192,192,144354,1,0,0:0:0:0:
320,192,144354,1,0,0:0:0:0:
192,192,144474,1,0,0:0:0:0:
448,192,144474,1,0,0:0:0:0:
64,192,144594,1,0,0:0:0:0:
320,192,144714,1,0,0:0:0:0:
448,192,144714,1,0,0:0:0:0:
192,192,144834,1,0,0:0:0:0:
64,192,144834,1,0,0:0:0:0:
64,192,144954,1,0,0:0:0:0:
448,192,144954,1,0,0:0:0:0:
320,192,145074,1,0,0:0:0:0:
192,192,145194,1,0,0:0:0:0:
448,192,145194,1,0,0:0:0:0:
320,192,145314,1,0,0:0:0:0:
64,192,145314,1,0,0:0:0:0:
192,192,145434,1,0,0:0:0:0:
320,192,145434,1,0,0:0:0:0:
64,192,145554,1,0,0:0:0:0:
448,192,145674,1,0,0:0:0:0:
320,192,145714,1,0,0:0:0:0:
192,192,145754,1,0,0:0:0:0:
64,192,145794,1,0,0:0:0:0:
448,192,145834,1,0,0:0:0:0:
320,192,145874,1,0,0:0:0:0:
192,192,145914,1,0,0:0:0:0:
64,192,145914,1,0,0:0:0:0:
192,192,146034,1,0,0:0:0:0:
320,192,146034,1,0,0:0:0:0:
320,192,146154,1,0,0:0:0:0:
448,192,146154,1,0,0:0:0:0:
64,192,146274,1,0,0:0:0:0:
192,192,146274,1,0,0:0:0:0:
64,192,146394,1,0,0:0:0:0:
448,192,146394,1,0,0:0:0:0:
320,192,146514,1,0,0:0:0:0:
192,192,146634,1,0,0:0:0:0:
448,192,146634,1,0,0:0:0:0:
64,192,146754,1,0,0:0:0:0:
320,192,146754,1,0,0:0:0:0:
448,192,146874,1,0,0:0:0:0:
320,192,146874,1,0,0:0:0:0:
192,192,146994,1,0,0:0:0:0:
64,192,147114,1,0,0:0:0:0:
448,192,147114,1,0,0:0:0:0:
192,192,147234,1,0,0:0:0:0:
320,192,147234,1,0,0:0:0:0:
192,192,147354,1,0,0:0:0:0:
448,192,147354,1,0,0:0:0:0:
64,192,147474,1,0,0:0:0:0:
448,192,147594,1,0,0:0:0:0:
320,192,147634,1,0,0:0:0:0:
64,192,147674,1,0,0:0:0:0:
192,192,147714,1,0,0:0:0:0:
320,192,147754,1,0,0:0:0:0:
448,192,147794,1,0,0:0:0:0:
64,192,147834,1,0,0:0:0:0:
192,192,147834,1,0,0:0:0:0:
320,192,147954,1,0,0:0:0:0:
192,192,147954,1,0,0:0:0:0:
320,192,148074,1,0,0:0:0:0:
448,192,148074,1,0,0:0:0:0:
192,192,148194,1,0,0:0:0:0:
64,192,148194,1,0,0:0:0:0:
320,192,148314,1,0,0:0:0:0:
448,192,148314,1,0,0:0:0:0:
192,192,148434,1,0,0:0:0:0:
448,192,148434,1,0,0:0:0:0:
320,192,148554,1,0,0:0:0:0:
64,192,148554,1,0,0:0:0:0:
64,192,148674,1,0,0:0:0:0:
192,192,148674,1,0,0:0:0:0:
320,192,148794,1,0,0:0:0:0:
448,192,148794,1,0,0:0:0:0:
320,192,148914,1,0,0:0:0:0:
448,192,148914,1,0,0:0:0:0:
64,192,149034,1,0,0:0:0:0:
192,192,149034,1,0,0:0:0:0:
320,192,149094,1,0,0:0:0:0:
448,192,149154,1,0,0:0:0:0:
64,192,149154,1,0,0:0:0:0:
192,192,149214,1,0,0:0:0:0:
320,192,149274,1,0,0:0:0:0:
448,192,149274,1,0,0:0:0:0:
64,192,149394,1,0,0:0:0:0:
320,192,149394,1,0,0:0:0:0:
192,192,149514,1,0,0:0:0:0:
448,192,149514,1,0,0:0:0:0:
320,192,149574,1,0,0:0:0:0:
64,192,149634,1,0,0:0:0:0:
192,192,149694,1,0,0:0:0:0:
320,192,149754,1,0,0:0:0:0:
64,192,149754,1,0,0:0:0:0:
448,192,149814,1,0,0:0:0:0:
192,192,149874,1,0,0:0:0:0:
448,192,149934,1,0,0:0:0:0:
64,192,149994,1,0,0:0:0:0:
192,192,149994,1,0,0:0:0:0:
320,192,150114,1,0,0:0:0:0:
448,192,150114,1,0,0:0:0:0:
448,192,150234,1,0,0:0:0:0:
64,192,150234,1,0,0:0:0:0:
320,192,150354,1,0,0:0:0:0:
64,192,150474,1,0,0:0:0:0:
192,192,150474,1,0,0:0:0:0:
448,192,150594,1,0,0:0:0:0:
320,192,150594,1,0,0:0:0:0:
64,192,150714,1,0,0:0:0:0:
320,192,150714,1,0,0:0:0:0:
192,192,150834,1,0,0:0:0:0:
64,192,150954,1,0,0:0:0:0:
448,192,150954,1,0,0:0:0:0:
320,192,151074,1,0,0:0:0:0:
192,192,151074,1,0,0:0:0:0:
192,192,151194,1,0,0:0:0:0:
448,192,151194,1,0,0:0:0:0:
320,192,151314,1,0,0:0:0:0:
192,192,151434,1,0,0:0:0:0:
64,192,151494,1,0,0:0:0:0:
320,192,151554,1,0,0:0:0:0:
64,192,151614,1,0,0:0:0:0:
192,192,151674,1,0,0:0:0:0:
448,192,151674,1,0,0:0:0:0:
320,192,151794,1,0,0:0:0:0:
64,192,151914,1,0,0:0:0:0:
448,192,151914,1,0,0:0:0:0:
192,192,152034,1,0,0:0:0:0:
320,192,152034,1,0,0:0:0:0:
448,192,152154,1,0,0:0:0:0:
320,192,152154,1,0,0:0:0:0:
64,192,152274,1,0,0:0:0:0:
192,192,152394,1,0,0:0:0:0:
320,192,152394,1,0,0:0:0:0:
448,192,152514,1,0,0:0:0:0:
64,192,152514,1,0,0:0:0:0:
64,192,152634,1,0,0:0:0:0:
320,192,152634,1,0,0:0:0:0:
192,192,152754,1,0,0:0:0:0:
320,192,152874,1,0,0:0:0:0:
448,192,152874,1,0,0:0:0:0:
192,192,152994,1,0,0:0:0:0:
64,192,152994,1,0,0:0:0:0:
192,192,153114,1,0,0:0:0:0:
448,192,153114,1,0,0:0:0:0:
320,192,153234,1,0,0:0:0:0:
448,192,153354,1,0,0:0:0:0:
320,192,153394,1,0,0:0:0:0:
192,192,153434,1,0,0:0:0:0:
64,192,153474,1,0,0:0:0:0:
448,192,153514,1,0,0:0:0:0:
320,192,153554,1,0,0:0:0:0:
192,192,153594,1,0,0:0:0:0:
64,192,153594,1,0,0:0:0:0:
192,192,153714,1,0,0:0:0:0:
320,192,153714,1,0,0:0:0:0:
320,192,153834,1,0,0:0:0:0:
448,192,153834,1,0,0:0:0:0:
64,192,153954,1,0,0:0:0:0:
192,192,153954,1,0,0:0:0:0:
448,192,154074,1,0,0:0:0:0:
64,192,154074,1,0,0:0:0:0:
320,192,154194,1,0,0:0:0:0:
192,192,154314,1,0,0:0:0:0:
448,192,154314,1,0,0:0:0:0:
320,192,154434,1,0,0:0:0:0:
64,192,154434,1,0,0:0:0:0:
64,192,154554,1,0,0:0:0:0:
192,192,154554,1,0,0:0:0:0:
448,192,154674,1,0,0:0:0:0:
320,192,154794,1,0,0:0:0:0:
64,192,154794,1,0,0:0:0:0:
192,192,154914,1,0,0:0:0:0:
448,192,154914,1,0,0:0:0:0:
320,192,155034,1,0,0:0:0:0:
448,192,155034,1,0,0:0:0:0:
192,192,155154,1,0,0:0:0:0:
64,192,155274,1,0,0:0:0:0:
192,192,155314,1,0,0:0:0:0:
448,192,155354,1,0,0:0:0:0:
320,192,155394,1,0,0:0:0:0:
192,192,155434,1,0,0:0:0:0:
64,192,155474,1,0,0:0:0:0:
320,192,155514,1,0,0:0:0:0:
448,192,155514,1,0,0:0:0:0:
320,192,155634,1,0,0:0:0:0:
192,192,155634,1,0,0:0:0:0:
192,192,155754,1,0,0:0:0:0:
64,192,155754,1,0,0:0:0:0:
320,192,155874,1,0,0:0:0:0:
448,192,155874,1,0,0:0:0:0:
64,192,155994,1,0,0:0:0:0:
448,192,155994,1,0,0:0:0:0:
320,192,156114,1,0,0:0:0:0:
192,192,156114,1,0,0:0:0:0:
64,192,156234,1,0,0:0:0:0:
448,192,156234,1,0,0:0:0:0:
192,192,156354,1,0,0:0:0:0:
64,192,156354,1,0,0:0:0:0:
320,192,156474,1,0,0:0:0:0:
448,192,156474,1,0,0:0:0:0:
448,192,156594,1,0,0:0:0:0:
320,192,156594,1,0,0:0:0:0:
64,192,156714,1,0,0:0:0:0:
192,192,156714,1,0,0:0:0:0:
320,192,156774,1,0,0:0:0:0:
448,192,156834,1,0,0:0:0:0:
64,192,156834,1,0,0:0:0:0:
192,192,156894,1,0,0:0:0:0:
320,192,156954,1,0,0:0:0:0:
448,192,156954,1,0,0:0:0:0:
192,192,157074,1,0,0:0:0:0:
320,192,157074,1,0,0:0:0:0:
64,192,157194,1,0,0:0:0:0:
192,192,157234,1,0,0:0:0:0:
448,192,157274,1,0,0:0:0:0:
320,192,157314,1,0,0:0:0:0:
64,192,157354,1,0,0:0:0:0:
192,192,157394,1,0,0:0:0:0:
320,192,157434,1,0,0:0:0:0:
448,192,157434,1,0,0:0:0:0:
448,192,157554,1,0,0:0:0:0:
192,192,157674,1,0,0:0:0:0:
64,192,157674,1,0,0:0:0:0:
64,192,157794,1,0,0:0:0:0:
320,192,157794,1,0,0:0:0:0:
448,192,157914,1,0,0:0:0:0:
192,192,158034,1,0,0:0:0:0:
64,192,158034,1,0,0:0:0:0:
64,192,158154,1,0,0:0:0:0:
320,192,158154,1,0,0:0:0:0:
448,192,158274,1,0,0:0:0:0:
192,192,158394,1,0,0:0:0:0:
64,192,158394,1,0,0:0:0:0:
448,192,158454,1,0,0:0:0:0:
320,192,158514,1,0,0:0:0:0:
64,192,158514,1,0,0:0:0:0:
448,192,158634,1,0,0:0:0:0:
192,192,158754,1,0,0:0:0:0:
64,192,158754,1,0,0:0:0:0:
448,192,158814,1,0,0:0:0:0:
320,192,158874,1,0,0:0:0:0:
64,192,158874,1,0,0:0:0:0:
448,192,158994,1,0,0:0:0:0:
64,192,159114,1,0,0:0:0:0:
320,192,159114,1,0,0:0:0:0:
448,192,159174,1,0,0:0:0:0:
192,192,159234,1,0,0:0:0:0:
448,192,159294,1,0,0:0:0:0:
320,192,159354,1,0,0:0:0:0:
64,192,159354,1,0,0:0:0:0:
448,192,159474,1,0,0:0:0:0:
448,192,159594,1,0,0:0:0:0:
64,192,159714,1,0,0:0:0:0:
320,192,159714,1,0,0:0:0:0:
448,192,159834,1,0,0:0:0:0:
448,192,159954,1,0,0:0:0:0:
64,192,160074,1,0,0:0:0:0:
320,192,160074,1,0,0:0:0:0:
448,192,160194,1,0,0:0:0:0:
448,192,160314,1,0,0:0:0:0:
192,192,160374,1,0,0:0:0:0:
320,192,160434,1,0,0:0:0:0:
64,192,160434,1,0,0:0:0:0:
448,192,160554,1,0,0:0:0:0:
448,192,160674,1,0,0:0:0:0:
192,192,160734,1,0,0:0:0:0:
320,192,160794,1,0,0:0:0:0:
64,192,160794,1,0,0:0:0:0:
448,192,160914,1,0,0:0:0:0:
320,192,161034,1,0,0:0:0:0:
64,192,161034,1,0,0:0:0:0:
192,192,161154,1,0,0:0:0:0:
64,192,161154,1,0,0:0:0:0:
320,192,161214,1,0,0:0:0:0:
448,192,161274,1,0,0:0:0:0:
192,192,161274,1,0,0:0:0:0:
64,192,161394,1,0,0:0:0:0:
320,192,161514,1,0,0:0:0:0:
448,192,161514,1,0,0:0:0:0:
448,192,161634,1,0,0:0:0:0:
192,192,161634,1,0,0:0:0:0:
64,192,161754,1,0,0:0:0:0:
320,192,161874,1,0,0:0:0:0:
448,192,161874,1,0,0:0:0:0:
192,192,161994,1,0,0:0:0:0:
448,192,161994,1,0,0:0:0:0:
64,192,162114,1,0,0:0:0:0:
320,192,162234,1,0,0:0:0:0:
448,192,162234,1,0,0:0:0:0:
64,192,162294,1,0,0:0:0:0:
192,192,162354,1,0,0:0:0:0:
448,192,162354,1,0,0:0:0:0:
64,192,162474,1,0,0:0:0:0:
320,192,162594,1,0,0:0:0:0:
448,192,162594,1,0,0:0:0:0:
64,192,162654,1,0,0:0:0:0:
192,192,162714,1,0,0:0:0:0:
448,192,162714,1,0,0:0:0:0:
64,192,162834,1,0,0:0:0:0:
192,192,162954,1,0,0:0:0:0:
448,192,162954,1,0,0:0:0:0:
64,192,163014,1,0,0:0:0:0:
320,192,163074,1,0,0:0:0:0:
64,192,163134,1,0,0:0:0:0:
192,192,163194,1,0,0:0:0:0:
448,192,163194,1,0,0:0:0:0:
64,192,163314,1,0,0:0:0:0:
64,192,163434,1,0,0:0:0:0:
192,192,163554,1,0,0:0:0:0:
448,192,163554,1,0,0:0:0:0:
64,192,163674,1,0,0:0:0:0:
64,192,163794,1,0,0:0:0:0:
320,192,163854,1,0,0:0:0:0:
192,192,163914,1,0,0:0:0:0:
448,192,163914,1,0,0:0:0:0:
64,192,164034,1,0,0:0:0:0:
64,192,164154,1,0,0:0:0:0:
320,192,164214,1,0,0:0:0:0:
192,192,164274,1,0,0:0:0:0:
448,192,164274,1,0,0:0:0:0:
320,192,164334,1,0,0:0:0:0:
64,192,164394,1,0,0:0:0:0:
320,192,164454,1,0,0:0:0:0:
64,192,164514,1,0,0:0:0:0:
320,192,164574,1,0,0:0:0:0:
192,192,164634,1,0,0:0:0:0:
448,192,164634,1,0,0:0:0:0:
64,192,164754,1,0,0:0:0:0:
448,192,164874,1,0,0:0:0:0:
192,192,164874,1,0,0:0:0:0:
448,192,165114,1,0,0:0:0:0:
320,192,165114,1,0,0:0:0:0:
64,192,165174,1,0,0:0:0:0:
320,192,165234,1,0,0:0:0:0:
192,192,165234,1,0,0:0:0:0:
64,192,165354,1,0,0:0:0:0:
192,192,165354,1,0,0:0:0:0:
320,192,165414,1,0,0:0:0:0:
64,192,165474,1,0,0:0:0:0:
448,192,165474,1,0,0:0:0:0:
192,192,165534,1,0,0:0:0:0:
320,192,165594,1,0,0:0:0:0:
448,192,165594,1,0,0:0:0:0:
320,192,165714,1,0,0:0:0:0:
192,192,165714,1,0,0:0:0:0:
64,192,165834,1,0,0:0:0:0:
192,192,165834,1,0,0:0:0:0:
448,192,165894,1,0,0:0:0:0:
320,192,165954,1,0,0:0:0:0:
192,192,165954,1,0,0:0:0:0:
448,192,166074,1,0,0:0:0:0:
320,192,166074,1,0,0:0:0:0:
64,192,166134,1,0,0:0:0:0:
192,192,166194,1,0,0:0:0:0:
320,192,166194,1,0,0:0:0:0:
192,192,166314,1,0,0:0:0:0:
64,192,166314,1,0,0:0:0:0:
320,192,166374,1,0,0:0:0:0:
448,192,166434,1,0,0:0:0:0:
64,192,166434,1,0,0:0:0:0:
192,192,166494,1,0,0:0:0:0:
320,192,166554,1,0,0:0:0:0:
448,192,166554,1,0,0:0:0:0:
320,192,166674,1,0,0:0:0:0:
192,192,166674,1,0,0:0:0:0:
64,192,166794,1,0,0:0:0:0:
192,192,166794,1,0,0:0:0:0:
448,192,166854,1,0,0:0:0:0:
320,192,166894,1,0,0:0:0:0:
192,192,166934,1,0,0:0:0:0:
64,192,166974,1,0,0:0:0:0:
448,192,167034,1,0,0:0:0:0:
320,192,167034,1,0,0:0:0:0:
192,192,167154,1,0,0:0:0:0:
320,192,167154,1,0,0:0:0:0:
192,192,167274,1,0,0:0:0:0:
64,192,167274,1,0,0:0:0:0:
320,192,167334,1,0,0:0:0:0:
448,192,167394,1,0,0:0:0:0:
64,192,167394,1,0,0:0:0:0:
192,192,167454,1,0,0:0:0:0:
320,192,167514,1,0,0:0:0:0:
448,192,167514,1,0,0:0:0:0:
320,192,167634,1,0,0:0:0:0:
192,192,167634,1,0,0:0:0:0:
64,192,167754,1,0,0:0:0:0:
192,192,167754,1,0,0:0:0:0:
448,192,167814,1,0,0:0:0:0:
320,192,167874,1,0,0:0:0:0:
192,192,167874,1,0,0:0:0:0:
448,192,167994,1,0,0:0:0:0:
320,192,167994,1,0,0:0:0:0:
64,192,168054,1,0,0:0:0:0:
192,192,168114,1,0,0:0:0:0:
320,192,168114,1,0,0:0:0:0:
192,192,168234,1,0,0:0:0:0:
64,192,168234,1,0,0:0:0:0:
320,192,168294,1,0,0:0:0:0:
448,192,168354,1,0,0:0:0:0:
64,192,168354,1,0,0:0:0:0:
192,192,168414,1,0,0:0:0:0:
320,192,168474,1,0,0:0:0:0:
448,192,168474,1,0,0:0:0:0:
320,192,168594,1,0,0:0:0:0:
192,192,168594,1,0,0:0:0:0:
64,192,168714,1,0,0:0:0:0:
192,192,168714,1,0,0:0:0:0:
448,192,168774,1,0,0:0:0:0:
192,192,168834,1,0,0:0:0:0:
320,192,168834,1,0,0:0:0:0:
64,192,168894,1,0,0:0:0:0:
448,192,168954,1,0,0:0:0:0:
320,192,168954,1,0,0:0:0:0:
192,192,169074,1,0,0:0:0:0:
448,192,169074,1,0,0:0:0:0:
64,192,169194,1,0,0:0:0:0:
320,192,169194,1,0,0:0:0:0:
320,192,169314,1,0,0:0:0:0:
448,192,169314,1,0,0:0:0:0:
192,192,169434,1,0,0:0:0:0:
448,192,169434,1,0,0:0:0:0:
320,192,169554,1,0,0:0:0:0:
64,192,169554,1,0,0:0:0:0:
320,192,169674,1,0,0:0:0:0:
448,192,169674,1,0,0:0:0:0:
192,192,169794,1,0,0:0:0:0:
448,192,169794,1,0,0:0:0:0:
320,192,169854,1,0,0:0:0:0:
64,192,169914,1,0,0:0:0:0:
448,192,169914,1,0,0:0:0:0:
192,192,170034,1,0,0:0:0:0:
320,192,170034,1,0,0:0:0:0:
64,192,170154,1,0,0:0:0:0:
192,192,170154,1,0,0:0:0:0:
64,192,170274,1,0,0:0:0:0:
320,192,170274,1,0,0:0:0:0:
192,192,170394,1,0,0:0:0:0:
448,192,170394,1,0,0:0:0:0:
64,192,170514,1,0,0:0:0:0:
192,192,170514,1,0,0:0:0:0:
64,192,170634,1,0,0:0:0:0:
320,192,170634,1,0,0:0:0:0:
448,192,170694,1,0,0:0:0:0:
192,192,170754,1,0,0:0:0:0:
64,192,170754,1,0,0:0:0:0:
320,192,170814,1,0,0:0:0:0:
448,192,170874,1,0,0:0:0:0:
64,192,170874,1,0,0:0:0:0:
192,192,170994,1,0,0:0:0:0:
448,192,171084,1,0,0:0:0:0:
320,192,171204,1,0,0:0:0:0:
448,192,171324,1,0,0:0:0:0:
192,192,171444,1,0,0:0:0:0:
320,192,171564,1,0,0:0:0:0:
64,192,171684,1,0,0:0:0:0:
448,192,171804,1,0,0:0:0:0:
64,192,171834,5,0,0:0:0:0:
320,192,171834,1,0,0:0:0:0:
448,192,171924,1,0,0:0:0:0:
192,192,171954,1,0,0:0:0:0:
320,192,172044,1,0,0:0:0:0:
64,192,172074,1,0,0:0:0:0:
320,192,172164,1,0,0:0:0:0:
192,192,172194,1,0,0:0:0:0:
448,192,172284,1,0,0:0:0:0:
64,192,172314,1,0,0:0:0:0:
448,192,172404,1,0,0:0:0:0:
64,192,172434,1,0,0:0:0:0:
192,192,172434,1,0,0:0:0:0:
320,192,172524,1,0,0:0:0:0:
192,192,172554,1,0,0:0:0:0:
448,192,172614,1,0,0:0:0:0:
320,192,172644,1,0,0:0:0:0:
192,192,172674,1,0,0:0:0:0:
448,192,172794,1,0,0:0:0:0:
64,192,172794,1,0,0:0:0:0:
192,192,172854,1,0,0:0:0:0:
320,192,172914,1,0,0:0:0:0:
448,192,172974,1,0,0:0:0:0:
64,192,173034,1,0,0:0:0:0:
192,192,173074,1,0,0:0:0:0:
320,192,173114,1,0,0:0:0:0:
448,192,173154,1,0,0:0:0:0:
64,192,173194,1,0,0:0:0:0:
192,192,173234,1,0,0:0:0:0:
320,192,173274,1,0,0:0:0:0:
448,192,173274,1,0,0:0:0:0:
64,192,173334,1,0,0:0:0:0:
320,192,173394,1,0,0:0:0:0:
192,192,173454,1,0,0:0:0:0:
64,192,173514,1,0,0:0:0:0:
448,192,173514,1,0,0:0:0:0:
320,192,173574,1,0,0:0:0:0:
192,192,173634,1,0,0:0:0:0:
192,192,173754,1,0,0:0:0:0:
320,192,173874,1,0,0:0:0:0:
448,192,173994,1,0,0:0:0:0:
64,192,173994,1,0,0:0:0:0:
192,192,174054,1,0,0:0:0:0:
320,192,174114,1,0,0:0:0:0:
64,192,174174,1,0,0:0:0:0:
320,192,174234,1,0,0:0:0:0:
448,192,174234,1,0,0:0:0:0:
192,192,174354,1,0,0:0:0:0:
64,192,174474,1,0,0:0:0:0:
448,192,174514,1,0,0:0:0:0:
320,192,174554,1,0,0:0:0:0:
64,192,174594,1,0,0:0:0:0:
192,192,174634,1,0,0:0:0:0:
448,192,174674,1,0,0:0:0:0:
320,192,174714,1,0,0:0:0:0:
64,192,174714,1,0,0:0:0:0:
320,192,174834,1,0,0:0:0:0:
320,192,174954,1,0,0:0:0:0:
320,192,175074,1,0,0:0:0:0:
64,192,175194,1,0,0:0:0:0:
448,192,175194,1,0,0:0:0:0:
320,192,175314,1,0,0:0:0:0:
192,192,175434,1,0,0:0:0:0:
64,192,175434,1,0,0:0:0:0:
192,192,175554,1,0,0:0:0:0:
192,192,175674,1,0,0:0:0:0:
192,192,175794,1,0,0:0:0:0:
320,192,175914,1,0,0:0:0:0:
64,192,175914,1,0,0:0:0:0:
192,192,176034,1,0,0:0:0:0:
320,192,176154,1,0,0:0:0:0:
448,192,176154,1,0,0:0:0:0:
64,192,176214,1,0,0:0:0:0:
320,192,176334,1,0,0:0:0:0:
448,192,176334,1,0,0:0:0:0:
64,192,176394,1,0,0:0:0:0:
320,192,176514,1,0,0:0:0:0:
448,192,176514,1,0,0:0:0:0:
64,192,176574,1,0,0:0:0:0:
320,192,176634,1,0,0:0:0:0:
448,192,176634,1,0,0:0:0:0:
192,192,176694,1,0,0:0:0:0:
64,192,176754,1,0,0:0:0:0:
448,192,176814,1,0,0:0:0:0:
320,192,176874,1,0,0:0:0:0:
64,192,176914,1,0,0:0:0:0:
192,192,176954,1,0,0:0:0:0:
448,192,176994,1,0,0:0:0:0:
320,192,177034,1,0,0:0:0:0:
64,192,177074,1,0,0:0:0:0:
192,192,177114,1,0,0:0:0:0:
448,192,177114,1,0,0:0:0:0:
320,192,177174,1,0,0:0:0:0:
64,192,177234,1,0,0:0:0:0:
448,192,177294,1,0,0:0:0:0:
192,192,177354,1,0,0:0:0:0:
64,192,177354,1,0,0:0:0:0:
320,192,177414,1,0,0:0:0:0:
192,192,177474,1,0,0:0:0:0:
192,192,177594,1,0,0:0:0:0:
448,192,177714,1,0,0:0:0:0:
64,192,177834,1,0,0:0:0:0:
320,192,177834,1,0,0:0:0:0:
448,192,177894,1,0,0:0:0:0:
192,192,177954,1,0,0:0:0:0:
320,192,178014,1,0,0:0:0:0:
448,192,178074,1,0,0:0:0:0:
64,192,178074,1,0,0:0:0:0:
192,192,178194,1,0,0:0:0:0:
320,192,178314,1,0,0:0:0:0:
64,192,178354,1,0,0:0:0:0:
192,192,178394,1,0,0:0:0:0:
320,192,178434,1,0,0:0:0:0:
64,192,178474,1,0,0:0:0:0:
192,192,178514,1,0,0:0:0:0:
320,192,178554,1,0,0:0:0:0:
448,192,178554,1,0,0:0:0:0:
448,192,178674,1,0,0:0:0:0:
448,192,178794,1,0,0:0:0:0:
448,192,178914,1,0,0:0:0:0:
64,192,179034,1,0,0:0:0:0:
192,192,179034,1,0,0:0:0:0:
320,192,179154,1,0,0:0:0:0:
64,192,179274,1,0,0:0:0:0:
448,192,179274,1,0,0:0:0:0:
64,192,179394,1,0,0:0:0:0:
64,192,179514,1,0,0:0:0:0:
64,192,179634,1,0,0:0:0:0:
192,192,179754,1,0,0:0:0:0:
448,192,179754,1,0,0:0:0:0:
64,192,179874,1,0,0:0:0:0:
448,192,179994,1,0,0:0:0:0:
64,192,179994,1,0,0:0:0:0:
192,192,180054,1,0,0:0:0:0:
320,192,180114,1,0,0:0:0:0:
192,192,180174,1,0,0:0:0:0:
448,192,180234,1,0,0:0:0:0:
64,192,180234,1,0,0:0:0:0:
320,192,180294,1,0,0:0:0:0:
64,192,180354,1,0,0:0:0:0:
320,192,180414,1,0,0:0:0:0:
64,192,180474,1,0,0:0:0:0:
448,192,180474,1,0,0:0:0:0:
192,192,180534,1,0,0:0:0:0:
320,192,180594,1,0,0:0:0:0:
448,192,180654,1,0,0:0:0:0:
192,192,180714,1,0,0:0:0:0:
192,192,180834,1,0,0:0:0:0:
320,192,180894,1,0,0:0:0:0:
192,192,180954,1,0,0:0:0:0:
320,192,181074,1,0,0:0:0:0:
192,192,181194,1,0,0:0:0:0:
320,192,181434,1,0,0:0:0:0:
64,192,181434,1,0,0:0:0:0:
192,192,181554,1,0,0:0:0:0:
64,192,181674,1,0,0:0:0:0:
448,192,181674,1,0,0:0:0:0:
320,192,181734,1,0,0:0:0:0:
192,192,181794,1,0,0:0:0:0:
64,192,181854,1,0,0:0:0:0:
320,192,181914,1,0,0:0:0:0:
448,192,181914,1,0,0:0:0:0:
192,192,181954,1,0,0:0:0:0:
64,192,181994,1,0,0:0:0:0:
448,192,182034,1,0,0:0:0:0:
320,192,182074,1,0,0:0:0:0:
192,192,182154,1,0,0:0:0:0:
448,192,182194,1,0,0:0:0:0:
320,192,182234,1,0,0:0:0:0:
192,192,182274,1,0,0:0:0:0:
448,192,182314,1,0,0:0:0:0:
320,192,182354,1,0,0:0:0:0:
64,192,182394,1,0,0:0:0:0:
192,192,182394,1,0,0:0:0:0:
64,192,182514,1,0,0:0:0:0:
64,192,182634,1,0,0:0:0:0:
64,192,182754,1,0,0:0:0:0:
192,192,182874,1,0,0:0:0:0:
448,192,182874,1,0,0:0:0:0:
320,192,182994,1,0,0:0:0:0:
64,192,183114,1,0,0:0:0:0:
448,192,183114,1,0,0:0:0:0:
448,192,183234,1,0,0:0:0:0:
448,192,183354,1,0,0:0:0:0:
448,192,183474,1,0,0:0:0:0:
320,192,183594,1,0,0:0:0:0:
64,192,183594,1,0,0:0:0:0:
448,192,183714,1,0,0:0:0:0:
64,192,183834,1,0,0:0:0:0:
192,192,183834,1,0,0:0:0:0:
448,192,183894,1,0,0:0:0:0:
64,192,184014,1,0,0:0:0:0:
192,192,184014,1,0,0:0:0:0:
448,192,184074,1,0,0:0:0:0:
64,192,184194,1,0,0:0:0:0:
192,192,184194,1,0,0:0:0:0:
448,192,184254,1,0,0:0:0:0:
64,192,184314,1,0,0:0:0:0:
192,192,184314,1,0,0:0:0:0:
320,192,184374,1,0,0:0:0:0:
448,192,184434,1,0,0:0:0:0:
64,192,184494,1,0,0:0:0:0:
192,192,184554,1,0,0:0:0:0:
448,192,184594,1,0,0:0:0:0:
320,192,184634,1,0,0:0:0:0:
64,192,184674,1,0,0:0:0:0:
192,192,184714,1,0,0:0:0:0:
448,192,184754,1,0,0:0:0:0:
320,192,184794,1,0,0:0:0:0:
64,192,184794,1,0,0:0:0:0:
192,192,184854,1,0,0:0:0:0:
320,192,184914,1,0,0:0:0:0:
448,192,184974,1,0,0:0:0:0:
192,192,185034,1,0,0:0:0:0:
64,192,185034,1,0,0:0:0:0:
320,192,185094,1,0,0:0:0:0:
192,192,185154,1,0,0:0:0:0:
192,192,185274,1,0,0:0:0:0:
320,192,185394,1,0,0:0:0:0:
448,192,185514,1,0,0:0:0:0:
192,192,185514,1,0,0:0:0:0:
64,192,185574,1,0,0:0:0:0:
448,192,185634,1,0,0:0:0:0:
64,192,185694,1,0,0:0:0:0:
448,192,185754,1,0,0:0:0:0:
192,192,185754,1,0,0:0:0:0:
320,192,185874,1,0,0:0:0:0:
192,192,185994,1,0,0:0:0:0:
448,192,186034,1,0,0:0:0:0:
320,192,186074,1,0,0:0:0:0:
192,192,186114,1,0,0:0:0:0:
448,192,186154,1,0,0:0:0:0:
320,192,186194,1,0,0:0:0:0:
192,192,186234,1,0,0:0:0:0:
64,192,186234,1,0,0:0:0:0:
448,192,186294,1,0,0:0:0:0:
320,192,186354,1,0,0:0:0:0:
192,192,186414,1,0,0:0:0:0:
64,192,186474,1,0,0:0:0:0:
448,192,186474,1,0,0:0:0:0:
448,192,186594,1,0,0:0:0:0:
64,192,186714,1,0,0:0:0:0:
320,192,186714,1,0,0:0:0:0:
192,192,186834,1,0,0:0:0:0:
320,192,186954,1,0,0:0:0:0:
448,192,186954,1,0,0:0:0:0:
192,192,187074,1,0,0:0:0:0:
64,192,187074,1,0,0:0:0:0:
320,192,187134,1,0,0:0:0:0:
64,192,187194,1,0,0:0:0:0:
448,192,187194,1,0,0:0:0:0:
192,192,187314,1,0,0:0:0:0:
320,192,187314,1,0,0:0:0:0:
64,192,187434,1,0,0:0:0:0:
448,192,187434,1,0,0:0:0:0:
192,192,187554,1,0,0:0:0:0:
320,192,187554,1,0,0:0:0:0:
64,192,187674,1,0,0:0:0:0:
448,192,187674,1,0,0:0:0:0:
192,192,187754,1,0,0:0:0:0:
320,192,187754,1,0,0:0:0:0:
64,192,187834,1,0,0:0:0:0:
448,192,187834,1,0,0:0:0:0:
192,192,187914,1,0,0:0:0:0:
320,192,187914,1,0,0:0:0:0:
64,192,187994,1,0,0:0:0:0:
448,192,187994,1,0,0:0:0:0:
192,192,188074,1,0,0:0:0:0:
320,192,188074,1,0,0:0:0:0:
64,192,188154,1,0,0:0:0:0:
448,192,188154,1,0,0:0:0:0:
192,192,188214,1,0,0:0:0:0:
320,192,188274,1,0,0:0:0:0:
448,192,188334,1,0,0:0:0:0:
64,192,188394,1,0,0:0:0:0:
192,192,188434,1,0,0:0:0:0:
320,192,188474,1,0,0:0:0:0:
64,192,188514,1,0,0:0:0:0:
192,192,188554,1,0,0:0:0:0:
448,192,188594,1,0,0:0:0:0:
320,192,188634,1,0,0:0:0:0:
64,192,188694,1,0,0:0:0:0:
192,192,188754,1,0,0:0:0:0:
320,192,188814,1,0,0:0:0:0:
64,192,188874,1,0,0:0:0:0:
192,192,188994,1,0,0:0:0:0:
320,192,189114,1,0,0:0:0:0:
320,192,189234,1,0,0:0:0:0:
448,192,189354,1,0,0:0:0:0:
192,192,189414,1,0,0:0:0:0:
320,192,189474,1,0,0:0:0:0:
64,192,189534,1,0,0:0:0:0:
192,192,189594,1,0,0:0:0:0:
448,192,189654,1,0,0:0:0:0:
192,192,189714,1,0,0:0:0:0:
448,192,189774,1,0,0:0:0:0:
64,192,189834,1,0,0:0:0:0:
192,192,189874,1,0,0:0:0:0:
448,192,189914,1,0,0:0:0:0:
320,192,189954,1,0,0:0:0:0:
64,192,189994,1,0,0:0:0:0:
192,192,190034,1,0,0:0:0:0:
448,192,190074,1,0,0:0:0:0:
320,192,190074,1,0,0:0:0:0:
64,192,190134,1,0,0:0:0:0:
192,192,190194,1,0,0:0:0:0:
320,192,190254,1,0,0:0:0:0:
448,192,190314,1,0,0:0:0:0:
192,192,190434,1,0,0:0:0:0:
448,192,190554,1,0,0:0:0:0:
64,192,190594,1,0,0:0:0:0:
192,192,190634,1,0,0:0:0:0:
448,192,190674,1,0,0:0:0:0:
320,192,190714,1,0,0:0:0:0:
192,192,190754,1,0,0:0:0:0:
64,192,190794,1,0,0:0:0:0:
64,192,190914,1,0,0:0:0:0:
192,192,191034,1,0,0:0:0:0:
192,192,191154,1,0,0:0:0:0:
320,192,191274,1,0,0:0:0:0:
320,192,191394,1,0,0:0:0:0:
448,192,191514,1,0,0:0:0:0:
448,192,191634,1,0,0:0:0:0:
64,192,191754,1,0,0:0:0:0:
320,192,191754,1,0,0:0:0:0:
448,192,191874,1,0,0:0:0:0:
64,192,191994,1,0,0:0:0:0:
320,192,191994,1,0,0:0:0:0:
192,192,192054,1,0,0:0:0:0:
448,192,192114,1,0,0:0:0:0:
320,192,192174,1,0,0:0:0:0:
192,192,192234,1,0,0:0:0:0:
64,192,192274,1,0,0:0:0:0:
448,192,192314,1,0,0:0:0:0:
320,192,192354,1,0,0:0:0:0:
192,192,192394,1,0,0:0:0:0:
64,192,192434,1,0,0:0:0:0:
448,192,192474,1,0,0:0:0:0:
192,192,192534,1,0,0:0:0:0:
320,192,192594,1,0,0:0:0:0:
448,192,192654,1,0,0:0:0:0:
64,192,192714,1,0,0:0:0:0:
64,192,192834,1,0,0:0:0:0:
320,192,192954,1,0,0:0:0:0:
320,192,193074,1,0,0:0:0:0:
448,192,193194,1,0,0:0:0:0:
64,192,193254,1,0,0:0:0:0:
448,192,193314,1,0,0:0:0:0:
64,192,193374,1,0,0:0:0:0:
320,192,193434,1,0,0:0:0:0:
192,192,193494,1,0,0:0:0:0:
448,192,193554,1,0,0:0:0:0:
320,192,193584,1,0,0:0:0:0:
192,192,193614,1,0,0:0:0:0:
64,192,193644,1,0,0:0:0:0:
448,192,193674,1,0,0:0:0:0:
320,192,193714,1,0,0:0:0:0:
64,192,193754,1,0,0:0:0:0:
192,192,193794,1,0,0:0:0:0:
448,192,193834,1,0,0:0:0:0:
320,192,193874,1,0,0:0:0:0:
192,192,193914,1,0,0:0:0:0:
64,192,193914,1,0,0:0:0:0:
448,192,193974,1,0,0:0:0:0:
320,192,194034,1,0,0:0:0:0:
192,192,194094,1,0,0:0:0:0:
64,192,194154,1,0,0:0:0:0:
192,192,194274,1,0,0:0:0:0:
448,192,194394,1,0,0:0:0:0:
320,192,194514,1,0,0:0:0:0:
64,192,194634,1,0,0:0:0:0:
64,192,194754,1,0,0:0:0:0:
192,192,194874,1,0,0:0:0:0:
320,192,194874,1,0,0:0:0:0:
448,192,194934,1,0,0:0:0:0:
448,192,195054,1,0,0:0:0:0:
192,192,195114,1,0,0:0:0:0:
320,192,195114,1,0,0:0:0:0:
64,192,195174,1,0,0:0:0:0:
64,192,195294,1,0,0:0:0:0:
192,192,195354,1,0,0:0:0:0:
320,192,195354,1,0,0:0:0:0:
448,192,195414,1,0,0:0:0:0:
448,192,195534,1,0,0:0:0:0:
320,192,195594,1,0,0:0:0:0:
192,192,195594,1,0,0:0:0:0:
64,192,195654,1,0,0:0:0:0:
192,192,195714,1,0,0:0:0:0:
320,192,195714,1,0,0:0:0:0:
448,192,195774,1,0,0:0:0:0:
192,192,195834,1,0,0:0:0:0:
320,192,195834,1,0,0:0:0:0:
64,192,195894,1,0,0:0:0:0:
448,192,195954,1,0,0:0:0:0:
64,192,196074,1,0,0:0:0:0:
192,192,196074,1,0,0:0:0:0:
448,192,196134,1,0,0:0:0:0:
64,192,196194,1,0,0:0:0:0:
192,192,196314,1,0,0:0:0:0:
320,192,196314,1,0,0:0:0:0:
448,192,196374,1,0,0:0:0:0:
64,192,196434,1,0,0:0:0:0:
448,192,196554,1,0,0:0:0:0:
320,192,196554,1,0,0:0:0:0:
64,192,196614,1,0,0:0:0:0:
448,192,196674,1,0,0:0:0:0:
192,192,196794,1,0,0:0:0:0:
320,192,196794,1,0,0:0:0:0:
64,192,196854,1,0,0:0:0:0:
448,192,196914,1,0,0:0:0:0:
192,192,197034,1,0,0:0:0:0:
64,192,197034,1,0,0:0:0:0:
448,192,197094,1,0,0:0:0:0:
64,192,197154,1,0,0:0:0:0:
320,192,197274,1,0,0:0:0:0:
192,192,197274,1,0,0:0:0:0:
448,192,197334,1,0,0:0:0:0:
64,192,197394,1,0,0:0:0:0:
448,192,197514,1,0,0:0:0:0:
320,192,197514,1,0,0:0:0:0:
64,192,197574,1,0,0:0:0:0:
448,192,197634,1,0,0:0:0:0:
192,192,197754,1,0,0:0:0:0:
320,192,197754,1,0,0:0:0:0:
64,192,197814,1,0,0:0:0:0:
448,192,197874,1,0,0:0:0:0:
64,192,197994,1,0,0:0:0:0:
192,192,197994,1,0,0:0:0:0:
448,192,198054,1,0,0:0:0:0:
64,192,198114,1,0,0:0:0:0:
320,192,198234,1,0,0:0:0:0:
192,192,198234,1,0,0:0:0:0:
448,192,198294,1,0,0:0:0:0:
64,192,198354,1,0,0:0:0:0:
448,192,198474,1,0,0:0:0:0:
320,192,198474,1,0,0:0:0:0:
64,192,198534,1,0,0:0:0:0:
448,192,198594,1,0,0:0:0:0:
192,192,198714,1,0,0:0:0:0:
320,192,198714,1,0,0:0:0:0:
64,192,198774,1,0,0:0:0:0:
448,192,198834,1,0,0:0:0:0:
64,192,198954,1,0,0:0:0:0:
192,192,198954,1,0,0:0:0:0:
448,192,199014,1,0,0:0:0:0:
64,192,199074,1,0,0:0:0:0:
320,192,199194,1,0,0:0:0:0:
192,192,199194,1,0,0:0:0:0:
448,192,199254,1,0,0:0:0:0:
64,192,199314,1,0,0:0:0:0:
448,192,199434,1,0,0:0:0:0:
320,192,199434,1,0,0:0:0:0:
64,192,199494,1,0,0:0:0:0:
448,192,199554,1,0,0:0:0:0:
192,192,199674,1,0,0:0:0:0:
320,192,199674,1,0,0:0:0:0:
64,192,199794,1,0,0:0:0:0:
192,192,199794,1,0,0:0:0:0:
320,192,199914,1,0,0:0:0:0:
64,192,199914,1,0,0:0:0:0:
192,192,200034,1,0,0:0:0:0:
320,192,200034,1,0,0:0:0:0:
320,192,200154,1,0,0:0:0:0:
448,192,200154,1,0,0:0:0:0:
448,192,200274,1,0,0:0:0:0:
192,192,200274,1,0,0:0:0:0:
320,192,200394,1,0,0:0:0:0:
192,192,200394,1,0,0:0:0:0:
192,192,200514,1,0,0:0:0:0:
64,192,200514,1,0,0:0:0:0:
320,192,200634,1,0,0:0:0:0:
64,192,200634,1,0,0:0:0:0:
192,192,200754,1,0,0:0:0:0:
320,192,200754,1,0,0:0:0:0:
320,192,200874,1,0,0:0:0:0:
448,192,200874,1,0,0:0:0:0:
192,192,200994,1,0,0:0:0:0:
448,192,200994,1,0,0:0:0:0:
192,192,201114,1,0,0:0:0:0:
320,192,201114,1,0,0:0:0:0:
64,192,201234,1,0,0:0:0:0:
192,192,201234,1,0,0:0:0:0:
320,192,201354,1,0,0:0:0:0:
64,192,201354,1,0,0:0:0:0:
448,192,201474,1,0,0:0:0:0:
192,192,201474,1,0,0:0:0:0:
320,192,201594,1,0,0:0:0:0:
192,192,201594,1,0,0:0:0:0:
64,192,201654,1,0,0:0:0:0:
448,192,201714,1,0,0:0:0:0:
320,192,201714,1,0,0:0:0:0:
192,192,201774,1,0,0:0:0:0:
64,192,201834,1,0,0:0:0:0:
448,192,201834,1,0,0:0:0:0:
320,192,201894,1,0,0:0:0:0:
192,192,201954,1,0,0:0:0:0:
64,192,201954,1,0,0:0:0:0:
448,192,202014,1,0,0:0:0:0:
192,192,202074,1,0,0:0:0:0:
320,192,202074,1,0,0:0:0:0:
64,192,202134,1,0,0:0:0:0:
320,192,202194,1,0,0:0:0:0:
448,192,202194,1,0,0:0:0:0:
192,192,202254,1,0,0:0:0:0:
448,192,202314,1,0,0:0:0:0:
64,192,202314,1,0,0:0:0:0:
320,192,202374,1,0,0:0:0:0:
64,192,202434,1,0,0:0:0:0:
192,192,202434,1,0,0:0:0:0:
448,192,202494,1,0,0:0:0:0:
320,192,202554,1,0,0:0:0:0:
192,192,202554,1,0,0:0:0:0:
64,192,202614,1,0,0:0:0:0:
448,192,202674,1,0,0:0:0:0:
192,192,202794,1,0,0:0:0:0:
64,192,202974,1,0,0:0:0:0:
448,192,203034,1,0,0:0:0:0:
320,192,203274,1,0,0:0:0:0:
192,192,203394,1,0,0:0:0:0:
64,192,203514,1,0,0:0:0:0:
448,192,203514,1,0,0:0:0:0:
64,192,218874,5,0,0:0:0:30:
192,192,218874,1,0,0:0:0:30:
320,192,218994,1,0,0:0:0:25:
448,192,219114,1,0,0:0:0:25:
64,192,219234,1,0,0:0:0:25:
192,192,219354,1,0,0:0:0:25:
448,192,219474,1,0,0:0:0:25:
320,192,219594,1,0,0:0:0:25:
192,192,219714,1,0,0:0:0:25:
448,192,219834,1,0,0:0:0:25:
64,192,219954,1,0,0:0:0:25:
192,192,220074,1,0,0:0:0:25:
320,192,220194,1,0,0:0:0:25:
64,192,220314,1,0,0:0:0:25:
192,192,220434,1,0,0:0:0:25:
448,192,220554,1,0,0:0:0:25:
320,192,220674,1,0,0:0:0:25:
192,192,220794,1,0,0:0:0:25:
64,192,220914,1,0,0:0:0:25:
320,192,221034,1,0,0:0:0:25:
192,192,221154,1,0,0:0:0:25:
448,192,221274,1,0,0:0:0:25:
320,192,221394,1,0,0:0:0:25:
448,192,221514,1,0,0:0:0:25:
192,192,221634,1,0,0:0:0:25:
320,192,221754,1,0,0:0:0:25:
64,192,221874,1,0,0:0:0:25:
192,192,221994,1,0,0:0:0:25:
320,192,222114,1,0,0:0:0:25:
448,192,222234,1,0,0:0:0:25:
64,192,222354,1,0,0:0:0:25:
448,192,222474,1,0,0:0:0:25:
192,192,222594,1,0,0:0:0:25:
64,192,222714,1,0,0:0:0:25:
320,192,222834,1,0,0:0:0:25:
192,192,222954,1,0,0:0:0:25:
64,192,223074,1,0,0:0:0:25:
320,192,223194,1,0,0:0:0:25:
192,192,223314,1,0,0:0:0:25:
320,192,223434,1,0,0:0:0:25:
448,192,223554,1,0,0:0:0:25:
64,192,223674,1,0,0:0:0:25:
192,192,223794,1,0,0:0:0:25:
320,192,223914,1,0,0:0:0:25:
448,192,224034,1,0,0:0:0:25:
192,192,224154,1,0,0:0:0:25:
64,192,224274,1,0,0:0:0:25:
448,192,224394,1,0,0:0:0:25:
192,192,224514,1,0,0:0:0:25:
320,192,224634,1,0,0:0:0:25:
64,192,224754,1,0,0:0:0:25:
192,192,224874,1,0,0:0:0:25:
320,192,224994,1,0,0:0:0:25:
448,192,225114,1,0,0:0:0:25:
320,192,225234,1,0,0:0:0:25:
192,192,225354,1,0,0:0:0:25:
320,192,225474,1,0,0:0:0:25:
64,192,225594,1,0,0:0:0:25:
192,192,225714,1,0,0:0:0:25:
320,192,225834,1,0,0:0:0:25:
448,192,225954,1,0,0:0:0:25:
192,192,226074,1,0,0:0:0:25:
64,192,226194,1,0,0:0:0:25:
320,192,226314,1,0,0:0:0:25:
448,192,226434,1,0,0:0:0:25:
64,192,226554,1,0,0:0:0:25:
320,192,226674,1,0,0:0:0:25:
192,192,226794,1,0,0:0:0:25:
448,192,226914,1,0,0:0:0:25:
192,192,227034,1,0,0:0:0:25:
64,192,227154,1,0,0:0:0:25:
192,192,227274,1,0,0:0:0:25:
320,192,227394,1,0,0:0:0:25:
448,192,227514,1,0,0:0:0:25:
192,192,227634,1,0,0:0:0:25:
64,192,227754,1,0,0:0:0:25:
320,192,227874,1,0,0:0:0:25:
64,192,227994,1,0,0:0:0:25:
320,192,228114,1,0,0:0:0:25:
448,192,228234,1,0,0:0:0:25:
192,192,228354,1,0,0:0:0:25:
320,192,228474,1,0,0:0:0:25:
192,192,228594,1,0,0:0:0:25:
64,192,228714,1,0,0:0:0:25:
320,192,228834,1,0,0:0:0:25:
64,192,228954,1,0,0:0:0:25:
320,192,229074,1,0,0:0:0:25:
448,192,229194,1,0,0:0:0:25:
192,192,229314,1,0,0:0:0:25:
448,192,229434,1,0,0:0:0:25:
64,192,229554,1,0,0:0:0:25:
192,192,229674,1,0,0:0:0:25:
320,192,229794,1,0,0:0:0:25:
448,192,229914,1,0,0:0:0:25:
64,192,230034,1,0,0:0:0:25:
448,192,230154,1,0,0:0:0:25:
320,192,230274,1,0,0:0:0:25:
192,192,230394,1,0,0:0:0:25:
64,192,230514,1,0,0:0:0:25:
320,192,230634,1,0,0:0:0:25:
192,192,230754,1,0,0:0:0:25:
64,192,230874,1,0,0:0:0:25:
448,192,230914,1,0,0:0:0:25:
320,192,231114,1,0,0:0:0:25:
64,192,231154,1,0,0:0:0:25:
448,192,231354,1,0,0:0:0:25:
64,192,231394,1,0,0:0:0:25:
320,192,231434,1,0,0:0:0:25:
192,192,231594,1,0,0:0:0:25:
64,192,231714,1,0,0:0:0:25:
320,192,231834,1,0,0:0:0:25:
448,192,231874,1,0,0:0:0:25:
192,192,231914,1,0,0:0:0:25:
64,192,232074,1,0,0:0:0:25:
448,192,232194,1,0,0:0:0:25:
192,192,232314,1,0,0:0:0:25:
64,192,232434,1,0,0:0:0:25:
320,192,232554,1,0,0:0:0:25:
192,192,232674,1,0,0:0:0:25:
448,192,232794,1,0,0:0:0:25:
64,192,232914,1,0,0:0:0:25:
192,192,233034,1,0,0:0:0:25:
448,192,233154,1,0,0:0:0:25:
320,192,233274,1,0,0:0:0:25:
64,192,233394,1,0,0:0:0:25:
448,192,233514,1,0,0:0:0:25:
192,192,233634,1,0,0:0:0:25:
448,192,233754,1,0,0:0:0:25:
64,192,233874,1,0,0:0:0:25:
448,192,233994,1,0,0:0:0:0:
320,192,234054,1,0,0:0:0:0:
192,192,234114,1,0,0:0:0:0:
64,192,234174,1,0,0:0:0:0:
448,192,234234,1,0,0:0:0:0:
320,192,234234,1,0,0:0:0:0:
64,192,234294,1,0,0:0:0:0:
192,192,234354,1,0,0:0:0:0:
320,192,234414,1,0,0:0:0:0:
192,192,234474,1,0,0:0:0:0:
320,192,234534,1,0,0:0:0:0:
448,192,234594,1,0,0:0:0:0:
64,192,234654,1,0,0:0:0:0:
192,192,234714,1,0,0:0:0:0:
320,192,234774,1,0,0:0:0:0:
192,192,234834,1,0,0:0:0:0:
320,192,234894,1,0,0:0:0:0:
448,192,234954,1,0,0:0:0:0:
448,192,235074,1,0,0:0:0:0:
320,192,235194,1,0,0:0:0:0:
64,192,235194,1,0,0:0:0:0:
64,192,235434,1,0,0:0:0:0:
320,192,235554,1,0,0:0:0:0:
192,192,235674,1,0,0:0:0:0:
448,192,235674,1,0,0:0:0:0:
64,192,235914,1,0,0:0:0:0:
320,192,235914,1,0,0:0:0:0:
192,192,236154,1,0,0:0:0:0:
448,192,236154,1,0,0:0:0:0:
64,192,236274,1,0,0:0:0:0:
320,192,236394,1,0,0:0:0:0:
192,192,236394,1,0,0:0:0:0:
64,192,236514,1,0,0:0:0:0:
448,192,236634,1,0,0:0:0:0:
192,192,236634,1,0,0:0:0:0:
64,192,236754,1,0,0:0:0:0:
320,192,236874,1,0,0:0:0:0:
192,192,236874,1,0,0:0:0:0:
448,192,236994,1,0,0:0:0:0:
64,192,237114,1,0,0:0:0:0:
320,192,237114,1,0,0:0:0:0:
448,192,237234,1,0,0:0:0:0:
192,192,237354,1,0,0:0:0:0:
320,192,237354,1,0,0:0:0:0:
64,192,237474,1,0,0:0:0:0:
192,192,237594,1,0,0:0:0:0:
448,192,237594,1,0,0:0:0:0:
320,192,237714,1,0,0:0:0:0:
192,192,237834,1,0,0:0:0:0:
64,192,237834,1,0,0:0:0:0:
320,192,237954,1,0,0:0:0:0:
64,192,238074,1,0,0:0:0:0:
192,192,238074,1,0,0:0:0:0:
320,192,238134,1,0,0:0:0:0:
448,192,238134,1,0,0:0:0:0:
64,192,238234,1,0,0:0:0:0:
192,192,238314,1,0,0:0:0:0:
320,192,238394,1,0,0:0:0:0:
448,192,238474,1,0,0:0:0:0:
64,192,238554,1,0,0:0:0:0:
192,192,238634,1,0,0:0:0:0:
320,192,238714,1,0,0:0:0:0:
448,192,238794,1,0,0:0:0:0:
64,192,238874,1,0,0:0:0:0:
192,192,238954,1,0,0:0:0:0:
448,192,239034,1,0,0:0:0:0:
320,192,239034,1,0,0:0:0:0:
192,192,239114,1,0,0:0:0:0:
64,192,239194,1,0,0:0:0:0:
448,192,239274,1,0,0:0:0:0:
320,192,239354,1,0,0:0:0:0:
192,192,239434,1,0,0:0:0:0:
64,192,239514,1,0,0:0:0:0:
448,192,239594,1,0,0:0:0:0:
320,192,239674,1,0,0:0:0:0:
192,192,239754,1,0,0:0:0:0:
64,192,239834,1,0,0:0:0:0:
448,192,239914,1,0,0:0:0:0:
320,192,239994,1,0,0:0:0:0:
192,192,239994,1,0,0:0:0:0:
448,192,240074,1,0,0:0:0:0:
64,192,240154,1,0,0:0:0:0:
192,192,240234,1,0,0:0:0:0:
320,192,240314,1,0,0:0:0:0:
448,192,240394,1,0,0:0:0:0:
64,192,240474,1,0,0:0:0:0:
192,192,240474,1,0,0:0:0:0:
448,192,240554,1,0,0:0:0:0:
320,192,240634,1,0,0:0:0:0:
192,192,240714,1,0,0:0:0:0:
64,192,240794,1,0,0:0:0:0:
448,192,240874,1,0,0:0:0:0:
320,192,240954,1,0,0:0:0:0:
192,192,240954,1,0,0:0:0:0:
448,192,241034,1,0,0:0:0:0:
64,192,241114,1,0,0:0:0:0:
192,192,241194,1,0,0:0:0:0:
320,192,241274,1,0,0:0:0:0:
448,192,241354,1,0,0:0:0:0:
64,192,241434,1,0,0:0:0:0:
192,192,241434,1,0,0:0:0:0:
448,192,241514,1,0,0:0:0:0:
320,192,241594,1,0,0:0:0:0:
192,192,241674,1,0,0:0:0:0:
64,192,241754,1,0,0:0:0:0:
448,192,241834,1,0,0:0:0:0:
320,192,241914,1,0,0:0:0:0:
192,192,241914,1,0,0:0:0:0:
448,192,241994,1,0,0:0:0:0:
64,192,242074,1,0,0:0:0:0:
192,192,242154,1,0,0:0:0:0:
320,192,242234,1,0,0:0:0:0:
448,192,242314,1,0,0:0:0:0:
64,192,242394,1,0,0:0:0:0:
192,192,242474,1,0,0:0:0:0:
320,192,242554,1,0,0:0:0:0:
448,192,242634,1,0,0:0:0:0:
64,192,242714,1,0,0:0:0:0:
192,192,242794,1,0,0:0:0:0:
320,192,242874,1,0,0:0:0:0:
448,192,242874,1,0,0:0:0:0:
192,192,242954,1,0,0:0:0:0:
64,192,243034,1,0,0:0:0:0:
448,192,243114,1,0,0:0:0:0:
320,192,243194,1,0,0:0:0:0:
192,192,243274,1,0,0:0:0:0:
64,192,243354,1,0,0:0:0:0:
448,192,243354,1,0,0:0:0:0:
192,192,243434,1,0,0:0:0:0:
320,192,243514,1,0,0:0:0:0:
448,192,243594,1,0,0:0:0:0:
64,192,243674,1,0,0:0:0:0:
192,192,243754,1,0,0:0:0:0:
320,192,243834,1,0,0:0:0:0:
448,192,243834,1,0,0:0:0:0:
192,192,243914,1,0,0:0:0:0:
64,192,243994,1,0,0:0:0:0:
448,192,244074,1,0,0:0:0:0:
320,192,244154,1,0,0:0:0:0:
192,192,244234,1,0,0:0:0:0:
64,192,244314,1,0,0:0:0:0:
448,192,244394,1,0,0:0:0:0:
320,192,244474,1,0,0:0:0:0:
192,192,244554,1,0,0:0:0:0:
64,192,244634,1,0,0:0:0:0:
448,192,244714,1,0,0:0:0:0:
320,192,244794,1,0,0:0:0:0:
192,192,244794,1,0,0:0:0:0:
448,192,244874,1,0,0:0:0:0:
64,192,244954,1,0,0:0:0:0:
192,192,245034,1,0,0:0:0:0:
320,192,245114,1,0,0:0:0:0:
448,192,245194,1,0,0:0:0:0:
64,192,245274,1,0,0:0:0:0:
192,192,245274,1,0,0:0:0:0:
448,192,245354,1,0,0:0:0:0:
320,192,245434,1,0,0:0:0:0:
192,192,245514,1,0,0:0:0:0:
64,192,245594,1,0,0:0:0:0:
448,192,245674,1,0,0:0:0:0:
320,192,245754,1,0,0:0:0:0:
192,192,245754,1,0,0:0:0:0:
448,192,245834,1,0,0:0:0:0:
64,192,245914,1,0,0:0:0:0:
192,192,245994,1,0,0:0:0:0:
320,192,246074,1,0,0:0:0:0:
448,192,246154,1,0,0:0:0:0:
64,192,246234,1,0,0:0:0:0:
192,192,246314,1,0,0:0:0:0:
320,192,246394,1,0,0:0:0:0:
448,192,246474,1,0,0:0:0:0:
64,192,246554,1,0,0:0:0:0:
192,192,246634,1,0,0:0:0:0:
320,192,246714,1,0,0:0:0:0:
448,192,246794,1,0,0:0:0:0:
64,192,246874,1,0,0:0:0:0:
192,192,246954,1,0,0:0:0:0:
320,192,247034,1,0,0:0:0:0:
448,192,247114,1,0,0:0:0:0:
64,192,247194,1,0,0:0:0:0:
192,192,247274,1,0,0:0:0:0:
320,192,247354,1,0,0:0:0:0:
448,192,247434,1,0,0:0:0:0:
64,192,247514,1,0,0:0:0:0:
192,192,247594,1,0,0:0:0:0:
448,192,247674,1,0,0:0:0:0:
320,192,247674,1,0,0:0:0:0:
192,192,247754,1,0,0:0:0:0:
64,192,247834,1,0,0:0:0:0:
448,192,247914,1,0,0:0:0:0:
320,192,247994,1,0,0:0:0:0:
192,192,248074,1,0,0:0:0:0:
64,192,248154,1,0,0:0:0:0:
448,192,248234,1,0,0:0:0:0:
320,192,248314,1,0,0:0:0:0:
192,192,248394,1,0,0:0:0:0:
64,192,248474,1,0,0:0:0:0:
448,192,248554,1,0,0:0:0:0:
320,192,248634,1,0,0:0:0:0:
192,192,248634,1,0,0:0:0:0:
64,192,248714,1,0,0:0:0:0:
448,192,248794,1,0,0:0:0:0:
320,192,248874,1,0,0:0:0:0:
192,192,248954,1,0,0:0:0:0:
64,192,249034,1,0,0:0:0:0:
320,192,249114,1,0,0:0:0:0:
448,192,249114,1,0,0:0:0:0:
64,192,249194,1,0,0:0:0:0:
192,192,249274,1,0,0:0:0:0:
448,192,249354,1,0,0:0:0:0:
320,192,249354,1,0,0:0:0:0:
192,192,249434,1,0,0:0:0:0:
64,192,249514,1,0,0:0:0:0:
448,192,249594,1,0,0:0:0:0:
320,192,249594,1,0,0:0:0:0:
192,192,249714,1,0,0:0:0:0:
64,192,249714,1,0,0:0:0:0:
448,192,249834,1,0,0:0:0:0:
320,192,249834,1,0,0:0:0:0:
192,192,249954,1,0,0:0:0:0:
320,192,250074,1,0,0:0:0:0:
64,192,250074,1,0,0:0:0:0:
64,192,250194,1,0,0:0:0:0:
448,192,250194,1,0,0:0:0:0:
192,192,250314,1,0,0:0:0:0:
320,192,250434,1,0,0:0:0:0:
448,192,250434,1,0,0:0:0:0:
192,192,250554,1,0,0:0:0:0:
64,192,250674,1,0,0:0:0:0:
448,192,250794,1,0,0:0:0:0:
64,192,250794,1,0,0:0:0:0:
192,192,250914,1,0,0:0:0:0:
448,192,251034,1,0,0:0:0:0:
320,192,251034,1,0,0:0:0:0:
64,192,251154,1,0,0:0:0:0:
320,192,251154,1,0,0:0:0:0:
192,192,251274,1,0,0:0:0:0:
64,192,251394,1,0,0:0:0:0:
448,192,251394,1,0,0:0:0:0:
320,192,251514,1,0,0:0:0:0:
192,192,251634,1,0,0:0:0:0:
192,192,251754,1,0,0:0:0:0:
448,192,251754,1,0,0:0:0:0:
320,192,251874,1,0,0:0:0:0:
64,192,251994,1,0,0:0:0:0:
192,192,251994,1,0,0:0:0:0:
448,192,252114,1,0,0:0:0:0:
64,192,252114,1,0,0:0:0:0:
320,192,252234,1,0,0:0:0:0:
64,192,252354,1,0,0:0:0:0:
192,192,252354,1,0,0:0:0:0:
320,192,252474,1,0,0:0:0:0:
448,192,252594,1,0,0:0:0:0:
64,192,252714,1,0,0:0:0:0:
448,192,252714,1,0,0:0:0:0:
192,192,252834,1,0,0:0:0:0:
320,192,252954,1,0,0:0:0:0:
448,192,252954,1,0,0:0:0:0:
64,192,253074,1,0,0:0:0:0:
192,192,253074,1,0,0:0:0:0:
320,192,253194,1,0,0:0:0:0:
448,192,253194,1,0,0:0:0:0:
192,192,253314,1,0,0:0:0:0:
320,192,253314,1,0,0:0:0:0:
64,192,253434,1,0,0:0:0:0:
448,192,253434,1,0,0:0:0:0:
320,192,253554,1,0,0:0:0:0:
448,192,253674,1,0,0:0:0:0:
192,192,253674,1,0,0:0:0:0:
448,192,253914,1,0,0:0:0:0:
64,192,253914,1,0,0:0:0:0:
64,192,254034,1,0,0:0:0:0:
448,192,254154,1,0,0:0:0:0:
192,192,254154,1,0,0:0:0:0:
320,192,254274,1,0,0:0:0:0:
64,192,254394,1,0,0:0:0:0:
448,192,254394,1,0,0:0:0:0:
192,192,254514,1,0,0:0:0:0:
448,192,254634,1,0,0:0:0:0:
192,192,254634,1,0,0:0:0:0:
448,192,254874,1,0,0:0:0:0:
320,192,254874,1,0,0:0:0:0:
192,192,254994,1,0,0:0:0:0:
64,192,255114,1,0,0:0:0:0:
448,192,255114,1,0,0:0:0:0:
320,192,255234,1,0,0:0:0:0:
64,192,255354,1,0,0:0:0:0:
192,192,255354,1,0,0:0:0:0:
448,192,255474,1,0,0:0:0:0:
64,192,255474,1,0,0:0:0:0:
448,192,255594,1,0,0:0:0:0:
64,192,255594,1,0,0:0:0:0:
320,192,255714,1,0,0:0:0:0:
64,192,255714,1,0,0:0:0:0:
448,192,255834,1,0,0:0:0:0:
192,192,255834,1,0,0:0:0:0:
448,192,255954,1,0,0:0:0:0:
64,192,255954,1,0,0:0:0:0:
448,192,256074,1,0,0:0:0:0:
64,192,256074,1,0,0:0:0:0:
320,192,256194,1,0,0:0:0:0:
448,192,256194,1,0,0:0:0:0:
192,192,256314,1,0,0:0:0:0:
192,192,256434,1,0,0:0:0:0:
64,192,256554,1,0,0:0:0:0:
320,192,256614,1,0,0:0:0:0:
64,192,256674,1,0,0:0:0:0:
320,192,256734,1,0,0:0:0:0:
448,192,256794,1,0,0:0:0:0:
64,192,256854,1,0,0:0:0:0:
448,192,256914,1,0,0:0:0:0:
64,192,256974,1,0,0:0:0:0:
448,192,257034,1,0,0:0:0:0:
192,192,257094,1,0,0:0:0:0:
448,192,257154,1,0,0:0:0:0:
64,192,257214,1,0,0:0:0:0:
192,192,257274,1,0,0:0:0:0:
320,192,257274,1,0,0:0:0:0:
448,192,257394,1,0,0:0:0:0:
64,192,257394,1,0,0:0:0:0:
192,192,257514,1,0,0:0:0:0:
320,192,257574,1,0,0:0:0:0:
64,192,257634,1,0,0:0:0:0:
448,192,257634,1,0,0:0:0:0:
64,192,257754,1,0,0:0:0:0:
320,192,257754,1,0,0:0:0:0:
192,192,257874,1,0,0:0:0:0:
448,192,257874,1,0,0:0:0:0:
320,192,257994,1,0,0:0:0:0:
192,192,258054,1,0,0:0:0:0:
64,192,258114,1,0,0:0:0:0:
448,192,258114,1,0,0:0:0:0:
192,192,258234,1,0,0:0:0:0:
448,192,258234,1,0,0:0:0:0:
64,192,258354,1,0,0:0:0:0:
320,192,258354,1,0,0:0:0:0:
192,192,258474,1,0,0:0:0:0:
320,192,258534,1,0,0:0:0:0:
64,192,258594,1,0,0:0:0:0:
448,192,258594,1,0,0:0:0:0:
64,192,258714,1,0,0:0:0:0:
320,192,258714,1,0,0:0:0:0:
192,192,258834,1,0,0:0:0:0:
448,192,258834,1,0,0:0:0:0:
320,192,258954,1,0,0:0:0:0:
448,192,259194,1,0,0:0:0:0:
320,192,259194,1,0,0:0:0:0:
64,192,259314,1,0,0:0:0:0:
192,192,259314,1,0,0:0:0:0:
192,192,259434,1,0,0:0:0:0:
64,192,259494,1,0,0:0:0:0:
320,192,259554,1,0,0:0:0:0:
448,192,259554,1,0,0:0:0:0:
448,192,259674,1,0,0:0:0:0:
64,192,259674,1,0,0:0:0:0:
192,192,259794,1,0,0:0:0:0:
320,192,259794,1,0,0:0:0:0:
320,192,259914,1,0,0:0:0:0:
448,192,259974,1,0,0:0:0:0:
64,192,260034,1,0,0:0:0:0:
192,192,260034,1,0,0:0:0:0:
64,192,260154,1,0,0:0:0:0:
448,192,260154,1,0,0:0:0:0:
192,192,260274,1,0,0:0:0:0:
320,192,260274,1,0,0:0:0:0:
192,192,260394,1,0,0:0:0:0:
64,192,260454,1,0,0:0:0:0:
320,192,260514,1,0,0:0:0:0:
448,192,260514,1,0,0:0:0:0:
64,192,260634,1,0,0:0:0:0:
448,192,260634,1,0,0:0:0:0:
320,192,260754,1,0,0:0:0:0:
192,192,260754,1,0,0:0:0:0:
320,192,260874,1,0,0:0:0:0:
64,192,260874,1,0,0:0:0:0:
448,192,260934,1,0,0:0:0:0:
64,192,260994,1,0,0:0:0:0:
192,192,260994,1,0,0:0:0:0:
320,192,261054,1,0,0:0:0:0:
64,192,261114,1,0,0:0:0:0:
448,192,261114,1,0,0:0:0:0:
192,192,261234,1,0,0:0:0:0:
448,192,261234,1,0,0:0:0:0:
320,192,261354,1,0,0:0:0:0:
192,192,261414,1,0,0:0:0:0:
64,192,261474,1,0,0:0:0:0:
448,192,261474,1,0,0:0:0:0:
192,192,261594,1,0,0:0:0:0:
448,192,261594,1,0,0:0:0:0:
64,192,261714,1,0,0:0:0:0:
320,192,261714,1,0,0:0:0:0:
192,192,261834,1,0,0:0:0:0:
320,192,261894,1,0,0:0:0:0:
64,192,261954,5,0,0:0:0:0:
448,192,261954,1,0,0:0:0:0:
64,192,262074,1,0,0:0:0:0:
320,192,262074,1,0,0:0:0:0:
192,192,262194,1,0,0:0:0:0:
448,192,262194,1,0,0:0:0:0:
320,192,262314,1,0,0:0:0:0:
192,192,262374,1,0,0:0:0:0:
64,192,262434,1,0,0:0:0:0:
448,192,262434,1,0,0:0:0:0:
192,192,262554,1,0,0:0:0:0:
448,192,262554,1,0,0:0:0:0:
320,192,262674,1,0,0:0:0:0:
64,192,262674,1,0,0:0:0:0:
192,192,262794,1,0,0:0:0:0:
320,192,262914,5,0,0:0:0:0:
448,192,262914,1,0,0:0:0:0:
64,192,263034,1,0,0:0:0:0:
192,192,263034,1,0,0:0:0:0:
320,192,263094,1,0,0:0:0:0:
448,192,263154,1,0,0:0:0:0:
64,192,263154,1,0,0:0:0:0:
192,192,263214,1,0,0:0:0:0:
320,192,263274,1,0,0:0:0:0:
448,192,263274,1,0,0:0:0:0:
64,192,263334,1,0,0:0:0:0:
448,192,263394,1,0,0:0:0:0:
320,192,263394,1,0,0:0:0:0:
64,192,263454,1,0,0:0:0:0:
320,192,263514,1,0,0:0:0:0:
192,192,263514,1,0,0:0:0:0:
448,192,263574,1,0,0:0:0:0:
320,192,263634,1,0,0:0:0:0:
192,192,263634,1,0,0:0:0:0:
448,192,263694,1,0,0:0:0:0:
64,192,263754,1,0,0:0:0:0:
192,192,263754,1,0,0:0:0:0:
320,192,263814,1,0,0:0:0:0:
64,192,263874,1,0,0:0:0:0:
192,192,263874,1,0,0:0:0:0:
320,192,263934,1,0,0:0:0:0:
64,192,263994,1,0,0:0:0:0:
448,192,263994,1,0,0:0:0:0:
192,192,264114,1,0,0:0:0:0:
320,192,264174,1,0,0:0:0:0:
64,192,264234,1,0,0:0:0:0:
448,192,264234,1,0,0:0:0:0:
64,192,264354,1,0,0:0:0:0:
192,192,264474,1,0,0:0:0:0:
448,192,264474,1,0,0:0:0:0:
320,192,264534,1,0,0:0:0:0:
64,192,264594,1,0,0:0:0:0:
192,192,264594,1,0,0:0:0:0:
320,192,264654,1,0,0:0:0:0:
192,192,264714,1,0,0:0:0:0:
448,192,264714,1,0,0:0:0:0:
64,192,264774,1,0,0:0:0:0:
448,192,264834,1,0,0:0:0:0:
320,192,264834,1,0,0:0:0:0:
64,192,264894,1,0,0:0:0:0:
192,192,264894,1,0,0:0:0:0:
320,192,264954,1,0,0:0:0:0:
448,192,264954,1,0,0:0:0:0:
64,192,265074,1,0,0:0:0:0:
192,192,265074,1,0,0:0:0:0:
64,192,265194,1,0,0:0:0:0:
448,192,265194,1,0,0:0:0:0:
192,192,265254,1,0,0:0:0:0:
320,192,265314,1,0,0:0:0:0:
448,192,265314,1,0,0:0:0:0:
64,192,265434,1,0,0:0:0:0:
448,192,265434,1,0,0:0:0:0:
192,192,265554,1,0,0:0:0:0:
320,192,265554,1,0,0:0:0:0:
448,192,265674,1,0,0:0:0:0:
64,192,265674,1,0,0:0:0:0:
320,192,265734,1,0,0:0:0:0:
192,192,265794,1,0,0:0:0:0:
64,192,265794,1,0,0:0:0:0:
64,192,265914,1,0,0:0:0:0:
448,192,265914,1,0,0:0:0:0:
320,192,266034,1,0,0:0:0:0:
448,192,266034,1,0,0:0:0:0:
192,192,266154,1,0,0:0:0:0:
64,192,266154,1,0,0:0:0:0:
320,192,266214,1,0,0:0:0:0:
64,192,266274,1,0,0:0:0:0:
448,192,266274,1,0,0:0:0:0:
192,192,266394,1,0,0:0:0:0:
448,192,266394,1,0,0:0:0:0:
64,192,266514,1,0,0:0:0:0:
320,192,266514,1,0,0:0:0:0:
192,192,266634,1,0,0:0:0:0:
192,192,266754,1,0,0:0:0:0:
320,192,266814,1,0,0:0:0:0:
192,192,266874,1,0,0:0:0:0:
64,192,266874,1,0,0:0:0:0:
320,192,266994,1,0,0:0:0:0:
448,192,266994,1,0,0:0:0:0:
64,192,267114,1,0,0:0:0:0:
192,192,267114,1,0,0:0:0:0:
448,192,267174,1,0,0:0:0:0:
64,192,267234,1,0,0:0:0:0:
320,192,267234,1,0,0:0:0:0:
448,192,267354,1,0,0:0:0:0:
64,192,267354,1,0,0:0:0:0:
192,192,267474,1,0,0:0:0:0:
320,192,267474,1,0,0:0:0:0:
320,192,267594,1,0,0:0:0:0:
448,192,267594,1,0,0:0:0:0:
64,192,267654,1,0,0:0:0:0:
192,192,267714,1,0,0:0:0:0:
448,192,267714,1,0,0:0:0:0:
448,192,267834,1,0,0:0:0:0:
64,192,267834,1,0,0:0:0:0:
192,192,267954,1,0,0:0:0:0:
320,192,267954,1,0,0:0:0:0:
64,192,268074,1,0,0:0:0:0:
192,192,268074,1,0,0:0:0:0:
448,192,268134,1,0,0:0:0:0:
320,192,268194,1,0,0:0:0:0:
64,192,268194,1,0,0:0:0:0:
64,192,268314,1,0,0:0:0:0:
448,192,268314,1,0,0:0:0:0:
192,192,268434,1,0,0:0:0:0:
320,192,268434,1,0,0:0:0:0:
64,192,268554,1,0,0:0:0:0:
448,192,268554,1,0,0:0:0:0:
192,192,268614,1,0,0:0:0:0:
320,192,268674,1,0,0:0:0:0:
448,192,268674,1,0,0:0:0:0:
64,192,268734,1,0,0:0:0:0:
192,192,268794,1,0,0:0:0:0:
448,192,268794,1,0,0:0:0:0:
64,192,268914,1,0,0:0:0:0:
320,192,268914,1,0,0:0:0:0:
448,192,269034,1,0,0:0:0:0:
64,192,269034,1,0,0:0:0:0:
320,192,269094,1,0,0:0:0:0:
192,192,269154,1,0,0:0:0:0:
448,192,269154,1,0,0:0:0:0:
64,192,269274,1,0,0:0:0:0:
320,192,269274,1,0,0:0:0:0:
192,192,269394,1,0,0:0:0:0:
448,192,269394,1,0,0:0:0:0:
64,192,269514,1,0,0:0:0:0:
448,192,269514,1,0,0:0:0:0:
192,192,269574,5,0,0:0:0:0:
320,192,269634,1,0,0:0:0:0:
64,192,269634,1,0,0:0:0:0:
192,192,269754,1,0,0:0:0:0:
448,192,269754,1,0,0:0:0:0:
320,192,269874,1,0,0:0:0:0:
64,192,269874,1,0,0:0:0:0:
64,192,269994,1,0,0:0:0:0:
448,192,269994,1,0,0:0:0:0:
320,192,270054,1,0,0:0:0:0:
192,192,270114,1,0,0:0:0:0:
448,192,270114,1,0,0:0:0:0:
64,192,270234,1,0,0:0:0:0:
320,192,270234,1,0,0:0:0:0:
192,192,270354,1,0,0:0:0:0:
448,192,270354,1,0,0:0:0:0:
320,192,270474,1,0,0:0:0:0:
192,192,270594,1,0,0:0:0:0:
64,192,270594,1,0,0:0:0:0:
448,192,270714,1,0,0:0:0:0:
320,192,270714,1,0,0:0:0:0:
192,192,270774,1,0,0:0:0:0:
64,192,270834,1,0,0:0:0:0:
448,192,270834,1,0,0:0:0:0:
320,192,270894,1,0,0:0:0:0:
192,192,270954,1,0,0:0:0:0:
64,192,270954,1,0,0:0:0:0:
448,192,271014,1,0,0:0:0:0:
64,192,271074,1,0,0:0:0:0:
192,192,271074,1,0,0:0:0:0:
448,192,271134,1,0,0:0:0:0:
320,192,271194,1,0,0:0:0:0:
192,192,271194,1,0,0:0:0:0:
64,192,271254,1,0,0:0:0:0:
320,192,271314,1,0,0:0:0:0:
192,192,271314,1,0,0:0:0:0:
64,192,271374,1,0,0:0:0:0:
320,192,271434,1,0,0:0:0:0:
448,192,271434,1,0,0:0:0:0:
192,192,271494,1,0,0:0:0:0:
448,192,271554,1,0,0:0:0:0:
320,192,271554,1,0,0:0:0:0:
192,192,271614,1,0,0:0:0:0:
64,192,271674,1,0,0:0:0:0:
448,192,271674,1,0,0:0:0:0:
320,192,271794,1,0,0:0:0:0:
192,192,271854,1,0,0:0:0:0:
448,192,271914,1,0,0:0:0:0:
64,192,271914,1,0,0:0:0:0:
448,192,272034,1,0,0:0:0:0:
64,192,272154,1,0,0:0:0:0:
320,192,272154,1,0,0:0:0:0:
448,192,272274,1,0,0:0:0:0:
64,192,272394,1,0,0:0:0:0:
320,192,272394,1,0,0:0:0:0:
448,192,272514,1,0,0:0:0:0:
192,192,272574,1,0,0:0:0:0:
64,192,272574,1,0,0:0:0:0:
320,192,272634,1,0,0:0:0:0:
448,192,272634,1,0,0:0:0:0:
64,192,272754,1,0,0:0:0:0:
320,192,272754,1,0,0:0:0:0:
192,192,272874,1,0,0:0:0:0:
448,192,272934,1,0,0:0:0:0:
64,192,272994,1,0,0:0:0:0:
320,192,272994,1,0,0:0:0:0:
192,192,273114,1,0,0:0:0:0:
320,192,273234,1,0,0:0:0:0:
64,192,273234,1,0,0:0:0:0:
448,192,273294,1,0,0:0:0:0:
192,192,273354,1,0,0:0:0:0:
64,192,273354,1,0,0:0:0:0:
448,192,273414,1,0,0:0:0:0:
64,192,273474,1,0,0:0:0:0:
320,192,273474,1,0,0:0:0:0:
192,192,273594,1,0,0:0:0:0:
448,192,273594,1,0,0:0:0:0:
320,192,273714,1,0,0:0:0:0:
64,192,273714,1,0,0:0:0:0:
448,192,273834,1,0,0:0:0:0:
320,192,273834,1,0,0:0:0:0:
192,192,273894,1,0,0:0:0:0:
64,192,273954,1,0,0:0:0:0:
320,192,273954,1,0,0:0:0:0:
192,192,274074,1,0,0:0:0:0:
448,192,274074,1,0,0:0:0:0:
320,192,274194,1,0,0:0:0:0:
64,192,274194,1,0,0:0:0:0:
192,192,274314,1,0,0:0:0:0:
448,192,274314,1,0,0:0:0:0:
192,192,274554,1,0,0:0:0:0:
64,192,274554,1,0,0:0:0:0:
320,192,274614,1,0,0:0:0:0:
448,192,274674,1,0,0:0:0:0:
64,192,274674,1,0,0:0:0:0:
192,192,274734,1,0,0:0:0:0:
320,192,274794,1,0,0:0:0:0:
192,192,274854,1,0,0:0:0:0:
448,192,274914,1,0,0:0:0:0:
64,192,274914,1,0,0:0:0:0:
320,192,274974,1,0,0:0:0:0:
192,192,275034,1,0,0:0:0:0:
448,192,275094,1,0,0:0:0:0:
64,192,275154,1,0,0:0:0:0:
320,192,275154,1,0,0:0:0:0:
320,192,275274,1,0,0:0:0:0:
448,192,275274,1,0,0:0:0:0:
64,192,275334,1,0,0:0:0:0:
448,192,275394,1,0,0:0:0:0:
192,192,275394,1,0,0:0:0:0:
320,192,275514,1,0,0:0:0:0:
64,192,275514,1,0,0:0:0:0:
192,192,275634,1,0,0:0:0:0:
448,192,275634,1,0,0:0:0:0:
64,192,275754,1,0,0:0:0:0:
320,192,275754,1,0,0:0:0:0:
192,192,275814,1,0,0:0:0:0:
448,192,275874,1,0,0:0:0:0:
320,192,275874,1,0,0:0:0:0:
64,192,275934,1,0,0:0:0:0:
192,192,275994,1,0,0:0:0:0:
448,192,275994,1,0,0:0:0:0:
64,192,276114,1,0,0:0:0:0:
320,192,276114,1,0,0:0:0:0:
192,192,276234,1,0,0:0:0:0:
448,192,276234,1,0,0:0:0:0:
64,192,276294,1,0,0:0:0:0:
320,192,276354,1,0,0:0:0:0:
448,192,276354,1,0,0:0:0:0:
192,192,276414,1,0,0:0:0:0:
64,192,276474,1,0,0:0:0:0:
448,192,276474,1,0,0:0:0:0:
192,192,276594,1,0,0:0:0:0:
320,192,276594,1,0,0:0:0:0:
64,192,276714,1,0,0:0:0:0:
448,192,276714,1,0,0:0:0:0:
320,192,276834,1,0,0:0:0:0:
64,192,276834,1,0,0:0:0:0:
192,192,276954,1,0,0:0:0:0:
320,192,276954,1,0,0:0:0:0:
448,192,277074,1,0,0:0:0:0:
192,192,277074,1,0,0:0:0:0:
64,192,277194,1,0,0:0:0:0:
448,192,277194,1,0,0:0:0:0:
192,192,277314,1,0,0:0:0:0:
320,192,277374,1,0,0:0:0:0:
448,192,277434,1,0,0:0:0:0:
192,192,277434,1,0,0:0:0:0:
64,192,277554,1,0,0:0:0:0:
320,192,277554,1,0,0:0:0:0:
448,192,277674,1,0,0:0:0:0:
192,192,277674,1,0,0:0:0:0:
448,192,277794,1,0,0:0:0:0:
320,192,277794,1,0,0:0:0:0:
320,192,277914,1,0,0:0:0:0:
192,192,277914,1,0,0:0:0:0:
192,192,278034,1,0,0:0:0:0:
64,192,278034,1,0,0:0:0:0:
64,192,278154,1,0,0:0:0:0:
320,192,278154,1,0,0:0:0:0:
192,192,278274,1,0,0:0:0:0:
448,192,278394,5,0,0:0:0:0:
64,192,278394,1,0,0:0:0:0:
320,192,278454,1,0,0:0:0:0:
64,192,278514,1,0,0:0:0:0:
192,192,278514,1,0,0:0:0:0:
320,192,278574,1,0,0:0:0:0:
448,192,278634,1,0,0:0:0:0:
64,192,278634,1,0,0:0:0:0:
192,192,278694,1,0,0:0:0:0:
320,192,278754,1,0,0:0:0:0:
448,192,278754,1,0,0:0:0:0:
192,192,278814,1,0,0:0:0:0:
448,192,278874,1,0,0:0:0:0:
64,192,278874,1,0,0:0:0:0:
320,192,278934,1,0,0:0:0:0:
192,192,278994,1,0,0:0:0:0:
64,192,278994,1,0,0:0:0:0:
320,192,279054,1,0,0:0:0:0:
64,192,279114,1,0,0:0:0:0:
448,192,279114,1,0,0:0:0:0:
192,192,279174,1,0,0:0:0:0:
320,192,279234,1,0,0:0:0:0:
448,192,279234,1,0,0:0:0:0:
64,192,279294,1,0,0:0:0:0:
448,192,279354,1,0,0:0:0:0:
192,192,279354,1,0,0:0:0:0:
64,192,279474,1,0,0:0:0:0:
320,192,279474,1,0,0:0:0:0:
192,192,279534,1,0,0:0:0:0:
64,192,279594,1,0,0:0:0:0:
448,192,279594,1,0,0:0:0:0:
192,192,279714,1,0,0:0:0:0:
448,192,279714,1,0,0:0:0:0:
320,192,279834,1,0,0:0:0:0:
64,192,279834,1,0,0:0:0:0:
192,192,279954,1,0,0:0:0:0:
320,192,279954,1,0,0:0:0:0:
64,192,280074,1,0,0:0:0:0:
448,192,280074,1,0,0:0:0:0:
320,192,280194,1,0,0:0:0:0:
192,192,280194,1,0,0:0:0:0:
448,192,280254,1,0,0:0:0:0:
64,192,280314,1,0,0:0:0:0:
192,192,280314,1,0,0:0:0:0:
64,192,280434,1,0,0:0:0:0:
448,192,280434,1,0,0:0:0:0:
320,192,280554,1,0,0:0:0:0:
448,192,280554,1,0,0:0:0:0:
192,192,280614,1,0,0:0:0:0:
64,192,280674,1,0,0:0:0:0:
448,192,280674,1,0,0:0:0:0:
64,192,280794,1,0,0:0:0:0:
320,192,280794,1,0,0:0:0:0:
64,192,280914,1,0,0:0:0:0:
448,192,280914,1,0,0:0:0:0:
192,192,281034,1,0,0:0:0:0:
448,192,281034,1,0,0:0:0:0:
320,192,281094,1,0,0:0:0:0:
64,192,281154,1,0,0:0:0:0:
448,192,281154,1,0,0:0:0:0:
192,192,281274,1,0,0:0:0:0:
320,192,281274,1,0,0:0:0:0:
448,192,281394,1,0,0:0:0:0:
64,192,281394,1,0,0:0:0:0:
64,192,281514,1,0,0:0:0:0:
320,192,281514,1,0,0:0:0:0:
192,192,281574,1,0,0:0:0:0:
448,192,281634,1,0,0:0:0:0:
64,192,281634,1,0,0:0:0:0:
192,192,281754,1,0,0:0:0:0:
448,192,281754,1,0,0:0:0:0:
64,192,281874,1,0,0:0:0:0:
448,192,281874,1,0,0:0:0:0:
320,192,281994,1,0,0:0:0:0:
192,192,281994,1,0,0:0:0:0:
64,192,282114,1,0,0:0:0:0:
448,192,282114,1,0,0:0:0:0:
64,192,282234,1,0,0:0:0:0:
320,192,282234,1,0,0:0:0:0:
64,192,282354,1,0,0:0:0:0:
448,192,282354,1,0,0:0:0:0:
192,192,282474,1,0,0:0:0:0:
448,192,282474,1,0,0:0:0:0:
320,192,282534,1,0,0:0:0:0:
64,192,282594,1,0,0:0:0:0:
448,192,282594,1,0,0:0:0:0:
64,192,282714,1,0,0:0:0:0:
192,192,282714,1,0,0:0:0:0:
320,192,282774,1,0,0:0:0:0:
64,192,282834,1,0,0:0:0:0:
448,192,282834,1,0,0:0:0:0:
192,192,282954,1,0,0:0:0:0:
448,192,282954,1,0,0:0:0:0:
320,192,283014,1,0,0:0:0:0:
64,192,283074,1,0,0:0:0:0:
448,192,283074,1,0,0:0:0:0:
192,192,283194,1,0,0:0:0:0:
320,192,283194,1,0,0:0:0:0:
64,192,283314,1,0,0:0:0:0:
448,192,283314,1,0,0:0:0:0:
64,192,283434,1,0,0:0:0:0:
320,192,283434,1,0,0:0:0:0:
192,192,283494,1,0,0:0:0:0:
64,192,283554,1,0,0:0:0:0:
448,192,283554,1,0,0:0:0:0:
320,192,283614,1,0,0:0:0:0:
192,192,283674,1,0,0:0:0:0:
448,192,283674,1,0,0:0:0:0:
448,192,283794,1,0,0:0:0:0:
64,192,283794,1,0,0:0:0:0:
64,192,283914,1,0,0:0:0:0:
192,192,283914,1,0,0:0:0:0:
448,192,283974,1,0,0:0:0:0:
192,192,284034,1,0,0:0:0:0:
320,192,284034,1,0,0:0:0:0:
64,192,284094,1,0,0:0:0:0:
320,192,284154,1,0,0:0:0:0:
448,192,284154,1,0,0:0:0:0:
64,192,284274,1,0,0:0:0:0:
192,192,284274,1,0,0:0:0:0:
192,192,284394,1,0,0:0:0:0:
448,192,284394,1,0,0:0:0:0:
320,192,284514,1,0,0:0:0:0:
64,192,284514,1,0,0:0:0:0:
448,192,284634,1,0,0:0:0:0:
64,192,284754,1,0,0:0:0:0:
192,192,284754,1,0,0:0:0:0:
448,192,284874,1,0,0:0:0:0:
192,192,284874,1,0,0:0:0:0:
320,192,284994,5,0,0:0:0:0:
64,192,284994,1,0,0:0:0:0:
192,192,285114,1,0,0:0:0:0:
320,192,285234,1,0,0:0:0:0:
448,192,285234,1,0,0:0:0:0:
320,192,285354,1,0,0:0:0:0:
64,192,285354,1,0,0:0:0:0:
192,192,285474,1,0,0:0:0:0:
448,192,285474,1,0,0:0:0:0:
192,192,285594,1,0,0:0:0:0:
64,192,285594,1,0,0:0:0:0:
320,192,285714,1,0,0:0:0:0:
448,192,285714,1,0,0:0:0:0:
64,192,285834,1,0,0:0:0:0:
448,192,285834,1,0,0:0:0:0:
192,192,285894,1,0,0:0:0:0:
320,192,285954,1,0,0:0:0:0:
192,192,286074,5,0,0:0:0:0:
448,192,286074,1,0,0:0:0:0:
320,192,286134,1,0,0:0:0:0:
448,192,286194,1,0,0:0:0:0:
64,192,286194,1,0,0:0:0:0:
192,192,286254,1,0,0:0:0:0:
64,192,286314,1,0,0:0:0:0:
448,192,286314,1,0,0:0:0:0:
320,192,286374,1,0,0:0:0:0:
64,192,286434,1,0,0:0:0:0:
192,192,286434,1,0,0:0:0:0:
448,192,286494,1,0,0:0:0:0:
192,192,286554,1,0,0:0:0:0:
320,192,286554,1,0,0:0:0:0:
64,192,286614,1,0,0:0:0:0:
448,192,286674,1,0,0:0:0:0:
320,192,286674,1,0,0:0:0:0:
192,192,286734,1,0,0:0:0:0:
448,192,286794,1,0,0:0:0:0:
64,192,286794,1,0,0:0:0:0:
320,192,286854,1,0,0:0:0:0:
192,192,286914,1,0,0:0:0:0:
64,192,286914,1,0,0:0:0:0:
320,192,286974,1,0,0:0:0:0:
192,192,287034,1,0,0:0:0:0:
448,192,287034,1,0,0:0:0:0:
320,192,287154,1,0,0:0:0:0:
64,192,287154,1,0,0:0:0:0:
192,192,287214,1,0,0:0:0:0:
448,192,287274,1,0,0:0:0:0:
320,192,287274,1,0,0:0:0:0:
64,192,287394,1,0,0:0:0:0:
192,192,287394,1,0,0:0:0:0:
320,192,287454,1,0,0:0:0:0:
64,192,287514,1,0,0:0:0:0:
448,192,287514,1,0,0:0:0:0:
192,192,287574,1,0,0:0:0:0:
320,192,287634,1,0,0:0:0:0:
448,192,287634,1,0,0:0:0:0:
192,192,287754,1,0,0:0:0:0:
64,192,287754,1,0,0:0:0:0:
320,192,287874,1,0,0:0:0:0:
448,192,287874,1,0,0:0:0:0:
192,192,287934,1,0,0:0:0:0:
64,192,287994,1,0,0:0:0:0:
448,192,287994,1,0,0:0:0:0:
320,192,288114,1,0,0:0:0:0:
448,192,288114,1,0,0:0:0:0:
64,192,288234,1,0,0:0:0:0:
192,192,288234,1,0,0:0:0:0:
320,192,288294,1,0,0:0:0:0:
448,192,288294,1,0,0:0:0:0:
64,192,288354,1,0,0:0:0:0:
192,192,288354,1,0,0:0:0:0:
320,192,288474,1,0,0:0:0:0:
192,192,288594,1,0,0:0:0:0:
448,192,288594,1,0,0:0:0:0:
64,192,288714,1,0,0:0:0:0:
320,192,288714,1,0,0:0:0:0:
192,192,288834,1,0,0:0:0:0:
448,192,288834,1,0,0:0:0:0:
64,192,288954,1,0,0:0:0:0:
320,192,288954,1,0,0:0:0:0:
64,192,289074,1,0,0:0:0:0:
192,192,289074,1,0,0:0:0:0:
192,192,289194,1,0,0:0:0:0:
64,192,289194,1,0,0:0:0:0:
64,192,289314,1,0,0:0:0:0:
320,192,289314,1,0,0:0:0:0:
192,192,289374,1,0,0:0:0:0:
320,192,289434,1,0,0:0:0:0:
64,192,289494,1,0,0:0:0:0:
192,192,289554,1,0,0:0:0:0:
448,192,289554,1,0,0:0:0:0:
64,192,289674,1,0,0:0:0:0:
320,192,289674,1,0,0:0:0:0:
192,192,289794,1,0,0:0:0:0:
448,192,289794,1,0,0:0:0:0:
64,192,289914,1,0,0:0:0:0:
320,192,289914,1,0,0:0:0:0:
448,192,289974,1,0,0:0:0:0:
192,192,290034,1,0,0:0:0:0:
64,192,290034,1,0,0:0:0:0:
192,192,290154,1,0,0:0:0:0:
64,192,290154,1,0,0:0:0:0:
448,192,290214,1,0,0:0:0:0:
320,192,290274,1,0,0:0:0:0:
64,192,290274,1,0,0:0:0:0:
448,192,290394,1,0,0:0:0:0:
448,192,290514,1,0,0:0:0:0:
192,192,290514,1,0,0:0:0:0:
320,192,290634,1,0,0:0:0:0:
64,192,290634,1,0,0:0:0:0:
448,192,290754,1,0,0:0:0:0:
192,192,290754,1,0,0:0:0:0:
64,192,290874,1,0,0:0:0:0:
320,192,290874,1,0,0:0:0:0:
192,192,290994,1,0,0:0:0:0:
64,192,290994,1,0,0:0:0:0:
64,192,291114,1,0,0:0:0:0:
192,192,291114,1,0,0:0:0:0:
64,192,291234,1,0,0:0:0:0:
320,192,291234,1,0,0:0:0:0:
192,192,291294,1,0,0:0:0:0:
320,192,291354,1,0,0:0:0:0:
192,192,291474,1,0,0:0:0:0:
448,192,291474,1,0,0:0:0:0:
320,192,291594,1,0,0:0:0:0:
64,192,291594,1,0,0:0:0:0:
64,192,291714,1,0,0:0:0:0:
320,192,291714,1,0,0:0:0:0:
320,192,291834,1,0,0:0:0:0:
64,192,291834,1,0,0:0:0:0:
192,192,291954,1,0,0:0:0:0:
448,192,291954,1,0,0:0:0:0:
448,192,292074,1,0,0:0:0:0:
192,192,292074,1,0,0:0:0:0:
64,192,292194,1,0,0:0:0:0:
320,192,292194,1,0,0:0:0:0:
192,192,292314,1,0,0:0:0:0:
448,192,292314,1,0,0:0:0:0:
448,192,292434,1,0,0:0:0:0:
192,192,292434,1,0,0:0:0:0:
64,192,292554,1,0,0:0:0:0:
320,192,292554,1,0,0:0:0:0:
448,192,292674,1,0,0:0:0:0:
320,192,292674,1,0,0:0:0:0:
192,192,292734,1,0,0:0:0:0:
64,192,292794,1,0,0:0:0:0:
320,192,292794,1,0,0:0:0:0:
192,192,292914,1,0,0:0:0:0:
448,192,292914,1,0,0:0:0:0:
448,192,293034,1,0,0:0:0:0:
192,192,293034,1,0,0:0:0:0:
64,192,293154,1,0,0:0:0:0:
320,192,293154,1,0,0:0:0:0:
448,192,293274,1,0,0:0:0:0:
192,192,293274,1,0,0:0:0:0:
192,192,293394,1,0,0:0:0:0:
448,192,293394,1,0,0:0:0:0:
320,192,293514,1,0,0:0:0:0:
64,192,293514,1,0,0:0:0:0:
320,192,293634,1,0,0:0:0:0:
448,192,293634,1,0,0:0:0:0:
192,192,293694,1,0,0:0:0:0:
64,192,293754,1,0,0:0:0:0:
320,192,293754,1,0,0:0:0:0:
448,192,293874,1,0,0:0:0:0:
192,192,293874,1,0,0:0:0:0:
320,192,293934,1,0,0:0:0:0:
64,192,293934,1,0,0:0:0:0:
448,192,294054,1,0,0:0:0:0:
64,192,294114,1,0,0:0:0:0:
320,192,294114,1,0,0:0:0:0:
448,192,294174,1,0,0:0:0:0:
320,192,294234,1,0,0:0:0:0:
64,192,294234,1,0,0:0:0:0:
192,192,294354,1,0,0:0:0:0:
448,192,294354,1,0,0:0:0:0:
320,192,294414,1,0,0:0:0:0:
64,192,294414,1,0,0:0:0:0:
448,192,294534,1,0,0:0:0:0:
64,192,294594,1,0,0:0:0:0:
320,192,294594,1,0,0:0:0:0:
448,192,294654,1,0,0:0:0:0:
320,192,294714,1,0,0:0:0:0:
64,192,294714,1,0,0:0:0:0:
192,192,294834,1,0,0:0:0:0:
448,192,294834,1,0,0:0:0:0:
448,192,294954,1,0,0:0:0:0:
192,192,294954,1,0,0:0:0:0:
192,192,295074,1,0,0:0:0:0:
448,192,295074,1,0,0:0:0:0:
320,192,295194,1,0,0:0:0:0:
64,192,295674,5,0,0:0:0:0:
448,192,295674,1,0,0:0:0:0:
192,192,295794,1,0,0:0:0:0:
320,192,295794,1,0,0:0:0:0:
448,192,295914,1,0,0:0:0:0:
64,192,295914,1,0,0:0:0:0:
192,192,295974,1,0,0:0:0:0:
448,192,296034,1,0,0:0:0:0:
192,192,296094,1,0,0:0:0:0:
448,192,296154,1,0,0:0:0:0:
64,192,296154,1,0,0:0:0:0:
320,192,296214,1,0,0:0:0:0:
64,192,296274,1,0,0:0:0:0:
320,192,296334,1,0,0:0:0:0:
448,192,296394,1,0,0:0:0:0:
64,192,296394,1,0,0:0:0:0:
192,192,296454,1,0,0:0:0:0:
448,192,296514,1,0,0:0:0:0:
192,192,296574,1,0,0:0:0:0:
448,192,296634,1,0,0:0:0:0:
320,192,296674,1,0,0:0:0:0:
192,192,296714,1,0,0:0:0:0:
448,192,296754,1,0,0:0:0:0:
320,192,296794,1,0,0:0:0:0:
192,192,296834,1,0,0:0:0:0:
64,192,296874,1,0,0:0:0:0:
320,192,296934,1,0,0:0:0:0:
64,192,296994,1,0,0:0:0:0:
320,192,297054,1,0,0:0:0:0:
64,192,297114,1,0,0:0:0:0:
448,192,297114,1,0,0:0:0:0:
192,192,297174,1,0,0:0:0:0:
448,192,297234,1,0,0:0:0:0:
192,192,297294,1,0,0:0:0:0:
448,192,297354,1,0,0:0:0:0:
64,192,297354,1,0,0:0:0:0:
320,192,297414,1,0,0:0:0:0:
64,192,297474,1,0,0:0:0:0:
320,192,297534,1,0,0:0:0:0:
64,192,297594,1,0,0:0:0:0:
448,192,297594,1,0,0:0:0:0:
192,192,297714,1,0,0:0:0:0:
448,192,297714,1,0,0:0:0:0:
448,192,297834,1,0,0:0:0:0:
320,192,297874,1,0,0:0:0:0:
192,192,297914,1,0,0:0:0:0:
64,192,297954,1,0,0:0:0:0:
64,192,298074,1,0,0:0:0:0:
192,192,298114,1,0,0:0:0:0:
320,192,298154,1,0,0:0:0:0:
448,192,298194,1,0,0:0:0:0:
448,192,298314,1,0,0:0:0:0:
320,192,298354,1,0,0:0:0:0:
192,192,298394,1,0,0:0:0:0:
64,192,298434,1,0,0:0:0:0:
64,192,298554,1,0,0:0:0:0:
192,192,298594,1,0,0:0:0:0:
448,192,298634,1,0,0:0:0:0:
320,192,298674,1,0,0:0:0:0:
64,192,298714,1,0,0:0:0:0:
192,192,298754,1,0,0:0:0:0:
320,192,298794,1,0,0:0:0:0:
448,192,298794,1,0,0:0:0:0:
192,192,298914,1,0,0:0:0:0:
320,192,298914,1,0,0:0:0:0:
192,192,299034,1,0,0:0:0:0:
320,192,299034,1,0,0:0:0:0:
192,192,299154,1,0,0:0:0:0:
320,192,299154,1,0,0:0:0:0:
64,192,299274,1,0,0:0:0:0:
192,192,299314,1,0,0:0:0:0:
320,192,299354,1,0,0:0:0:0:
64,192,299394,1,0,0:0:0:0:
192,192,299434,1,0,0:0:0:0:
320,192,299474,1,0,0:0:0:0:
64,192,299514,1,0,0:0:0:0:
448,192,299514,1,0,0:0:0:0:
192,192,299634,1,0,0:0:0:0:
320,192,299634,1,0,0:0:0:0:
64,192,299754,1,0,0:0:0:0:
448,192,299754,1,0,0:0:0:0:
192,192,299814,1,0,0:0:0:0:
448,192,299874,1,0,0:0:0:0:
192,192,299934,1,0,0:0:0:0:
64,192,299994,1,0,0:0:0:0:
448,192,299994,1,0,0:0:0:0:
320,192,300054,1,0,0:0:0:0:
64,192,300114,1,0,0:0:0:0:
320,192,300174,1,0,0:0:0:0:
64,192,300234,1,0,0:0:0:0:
448,192,300234,1,0,0:0:0:0:
192,192,300294,1,0,0:0:0:0:
448,192,300354,1,0,0:0:0:0:
192,192,300414,1,0,0:0:0:0:
448,192,300474,1,0,0:0:0:0:
320,192,300514,1,0,0:0:0:0:
192,192,300554,1,0,0:0:0:0:
448,192,300594,1,0,0:0:0:0:
320,192,300634,1,0,0:0:0:0:
192,192,300674,1,0,0:0:0:0:
64,192,300714,1,0,0:0:0:0:
320,192,300774,1,0,0:0:0:0:
64,192,300834,1,0,0:0:0:0:
320,192,300894,1,0,0:0:0:0:
448,192,300954,1,0,0:0:0:0:
64,192,300954,1,0,0:0:0:0:
192,192,301014,1,0,0:0:0:0:
448,192,301074,1,0,0:0:0:0:
192,192,301134,1,0,0:0:0:0:
448,192,301194,1,0,0:0:0:0:
64,192,301194,1,0,0:0:0:0:
320,192,301254,1,0,0:0:0:0:
64,192,301314,1,0,0:0:0:0:
320,192,301374,1,0,0:0:0:0:
448,192,301434,1,0,0:0:0:0:
64,192,301434,1,0,0:0:0:0:
448,192,301554,1,0,0:0:0:0:
192,192,301554,1,0,0:0:0:0:
448,192,301674,1,0,0:0:0:0:
320,192,301714,1,0,0:0:0:0:
192,192,301754,1,0,0:0:0:0:
64,192,301794,1,0,0:0:0:0:
64,192,301914,1,0,0:0:0:0:
192,192,301954,1,0,0:0:0:0:
320,192,301994,1,0,0:0:0:0:
448,192,302034,1,0,0:0:0:0:
448,192,302154,1,0,0:0:0:0:
320,192,302194,1,0,0:0:0:0:
192,192,302234,1,0,0:0:0:0:
448,192,302274,1,0,0:0:0:0:
64,192,302394,1,0,0:0:0:0:
320,192,302394,1,0,0:0:0:0:
448,192,302514,1,0,0:0:0:0:
320,192,302514,1,0,0:0:0:0:
192,192,302574,1,0,0:0:0:0:
64,192,302634,1,0,0:0:0:0:
320,192,302634,1,0,0:0:0:0:
64,192,302754,1,0,0:0:0:0:
192,192,302754,1,0,0:0:0:0:
320,192,302814,1,0,0:0:0:0:
448,192,302874,1,0,0:0:0:0:
192,192,302874,1,0,0:0:0:0:
320,192,302994,1,0,0:0:0:0:
64,192,302994,1,0,0:0:0:0:
192,192,303054,1,0,0:0:0:0:
448,192,303114,1,0,0:0:0:0:
320,192,303154,1,0,0:0:0:0:
192,192,303194,1,0,0:0:0:0:
64,192,303234,1,0,0:0:0:0:
448,192,303274,1,0,0:0:0:0:
320,192,303314,1,0,0:0:0:0:
64,192,303354,1,0,0:0:0:0:
192,192,303354,1,0,0:0:0:0:
192,192,303474,1,0,0:0:0:0:
320,192,303474,1,0,0:0:0:0:
448,192,303594,1,0,0:0:0:0:
320,192,303594,1,0,0:0:0:0:
192,192,303654,1,0,0:0:0:0:
448,192,303714,1,0,0:0:0:0:
192,192,303774,1,0,0:0:0:0:
448,192,303834,1,0,0:0:0:0:
320,192,303834,1,0,0:0:0:0:
64,192,303894,1,0,0:0:0:0:
320,192,303954,1,0,0:0:0:0:
64,192,304014,1,0,0:0:0:0:
320,192,304074,1,0,0:0:0:0:
448,192,304074,1,0,0:0:0:0:
192,192,304134,1,0,0:0:0:0:
448,192,304194,1,0,0:0:0:0:
192,192,304254,1,0,0:0:0:0:
448,192,304314,1,0,0:0:0:0:
320,192,304354,1,0,0:0:0:0:
64,192,304394,1,0,0:0:0:0:
192,192,304434,1,0,0:0:0:0:
320,192,304474,1,0,0:0:0:0:
448,192,304514,1,0,0:0:0:0:
64,192,304554,1,0,0:0:0:0:
320,192,304614,1,0,0:0:0:0:
64,192,304674,1,0,0:0:0:0:
320,192,304734,1,0,0:0:0:0:
64,192,304794,1,0,0:0:0:0:
192,192,304794,1,0,0:0:0:0:
448,192,304854,1,0,0:0:0:0:
192,192,304914,1,0,0:0:0:0:
448,192,304974,1,0,0:0:0:0:
64,192,305034,1,0,0:0:0:0:
192,192,305034,1,0,0:0:0:0:
320,192,305094,1,0,0:0:0:0:
64,192,305154,1,0,0:0:0:0:
320,192,305214,1,0,0:0:0:0:
192,192,305274,1,0,0:0:0:0:
64,192,305274,1,0,0:0:0:0:
64,192,305394,1,0,0:0:0:0:
448,192,305394,1,0,0:0:0:0:
448,192,305514,1,0,0:0:0:0:
320,192,305554,1,0,0:0:0:0:
192,192,305594,1,0,0:0:0:0:
64,192,305634,1,0,0:0:0:0:
64,192,305754,1,0,0:0:0:0:
192,192,305794,1,0,0:0:0:0:
320,192,305834,1,0,0:0:0:0:
448,192,305874,1,0,0:0:0:0:
448,192,305994,1,0,0:0:0:0:
320,192,306034,1,0,0:0:0:0:
192,192,306074,1,0,0:0:0:0:
64,192,306114,1,0,0:0:0:0:
64,192,306234,1,0,0:0:0:0:
192,192,306274,1,0,0:0:0:0:
448,192,306314,1,0,0:0:0:0:
320,192,306354,1,0,0:0:0:0:
64,192,306394,1,0,0:0:0:0:
192,192,306434,1,0,0:0:0:0:
320,192,306474,1,0,0:0:0:0:
448,192,306474,1,0,0:0:0:0:
192,192,306594,1,0,0:0:0:0:
320,192,306594,1,0,0:0:0:0:
192,192,306714,1,0,0:0:0:0:
320,192,306714,1,0,0:0:0:0:
320,192,306834,1,0,0:0:0:0:
192,192,306834,1,0,0:0:0:0:
64,192,306954,1,0,0:0:0:0:
192,192,306994,1,0,0:0:0:0:
320,192,307034,1,0,0:0:0:0:
64,192,307074,1,0,0:0:0:0:
192,192,307114,1,0,0:0:0:0:
320,192,307154,1,0,0:0:0:0:
64,192,307194,1,0,0:0:0:0:
448,192,307194,1,0,0:0:0:0:
192,192,307314,1,0,0:0:0:0:
320,192,307314,1,0,0:0:0:0:
448,192,307434,1,0,0:0:0:0:
320,192,307434,1,0,0:0:0:0:
192,192,307494,1,0,0:0:0:0:
448,192,307554,1,0,0:0:0:0:
192,192,307614,1,0,0:0:0:0:
448,192,307674,1,0,0:0:0:0:
320,192,307674,1,0,0:0:0:0:
64,192,307734,1,0,0:0:0:0:
320,192,307794,1,0,0:0:0:0:
64,192,307854,1,0,0:0:0:0:
320,192,307914,1,0,0:0:0:0:
448,192,307914,1,0,0:0:0:0:
192,192,307974,1,0,0:0:0:0:
448,192,308034,1,0,0:0:0:0:
192,192,308094,1,0,0:0:0:0:
448,192,308154,1,0,0:0:0:0:
320,192,308194,1,0,0:0:0:0:
64,192,308234,1,0,0:0:0:0:
192,192,308274,1,0,0:0:0:0:
320,192,308314,1,0,0:0:0:0:
448,192,308354,1,0,0:0:0:0:
64,192,308394,1,0,0:0:0:0:
320,192,308454,1,0,0:0:0:0:
64,192,308514,1,0,0:0:0:0:
320,192,308574,1,0,0:0:0:0:
64,192,308634,1,0,0:0:0:0:
192,192,308634,1,0,0:0:0:0:
448,192,308694,1,0,0:0:0:0:
192,192,308754,1,0,0:0:0:0:
448,192,308814,1,0,0:0:0:0:
64,192,308874,1,0,0:0:0:0:
192,192,308874,1,0,0:0:0:0:
320,192,308934,1,0,0:0:0:0:
64,192,308994,1,0,0:0:0:0:
320,192,309054,1,0,0:0:0:0:
192,192,309114,1,0,0:0:0:0:
64,192,309114,1,0,0:0:0:0:
64,192,309234,1,0,0:0:0:0:
448,192,309234,1,0,0:0:0:0:
192,192,309354,1,0,0:0:0:0:
448,192,309354,1,0,0:0:0:0:
192,192,309474,1,0,0:0:0:0:
64,192,309594,1,0,0:0:0:0:
320,192,309594,1,0,0:0:0:0:
448,192,309714,1,0,0:0:0:0:
64,192,309834,1,0,0:0:0:0:
320,192,309834,1,0,0:0:0:0:
448,192,309954,1,0,0:0:0:0:
64,192,309954,1,0,0:0:0:0:
192,192,310074,1,0,0:0:0:0:
448,192,310074,1,0,0:0:0:0:
64,192,310194,1,0,0:0:0:0:
320,192,310194,1,0,0:0:0:0:
192,192,310254,1,0,0:0:0:0:
320,192,310314,1,0,0:0:0:0:
448,192,310314,1,0,0:0:0:0:
192,192,310434,1,0,0:0:0:0:
448,192,310434,1,0,0:0:0:0:
320,192,310494,1,0,0:0:0:0:
192,192,310554,1,0,0:0:0:0:
64,192,310554,1,0,0:0:0:0:
64,192,310674,1,0,0:0:0:0:
320,192,310674,1,0,0:0:0:0:
192,192,310734,1,0,0:0:0:0:
320,192,310794,1,0,0:0:0:0:
448,192,310794,1,0,0:0:0:0:
64,192,310834,1,0,0:0:0:0:
192,192,310874,1,0,0:0:0:0:
320,192,310914,1,0,0:0:0:0:
448,192,310954,1,0,0:0:0:0:
64,192,310994,1,0,0:0:0:0:
192,192,311034,1,0,0:0:0:0:
320,192,311154,1,0,0:0:0:0:
448,192,311154,1,0,0:0:0:0:
448,192,311274,1,0,0:0:0:0:
192,192,311274,1,0,0:0:0:0:
320,192,311394,1,0,0:0:0:0:
192,192,311454,1,0,0:0:0:0:
64,192,311514,1,0,0:0:0:0:
320,192,311514,1,0,0:0:0:0:
192,192,311634,1,0,0:0:0:0:
448,192,311634,1,0,0:0:0:0:
320,192,311754,1,0,0:0:0:0:
192,192,311754,1,0,0:0:0:0:
64,192,311874,1,0,0:0:0:0:
320,192,311874,1,0,0:0:0:0:
192,192,311994,1,0,0:0:0:0:
448,192,311994,1,0,0:0:0:0:
64,192,312114,1,0,0:0:0:0:
320,192,312114,1,0,0:0:0:0:
64,192,312234,1,0,0:0:0:0:
448,192,312234,1,0,0:0:0:0:
192,192,312354,1,0,0:0:0:0:
64,192,312474,1,0,0:0:0:0:
320,192,312474,1,0,0:0:0:0:
192,192,312594,1,0,0:0:0:0:
448,192,312594,1,0,0:0:0:0:
320,192,312714,1,0,0:0:0:0:
192,192,312714,1,0,0:0:0:0:
320,192,312834,1,0,0:0:0:0:
448,192,312834,1,0,0:0:0:0:
192,192,312954,1,0,0:0:0:0:
64,192,312954,1,0,0:0:0:0:
320,192,313074,1,0,0:0:0:0:
448,192,313074,1,0,0:0:0:0:
320,192,313194,1,0,0:0:0:0:
192,192,313194,1,0,0:0:0:0:
64,192,313314,1,0,0:0:0:0:
448,192,313434,1,0,0:0:0:0:
192,192,313434,1,0,0:0:0:0:
320,192,313554,1,0,0:0:0:0:
64,192,313554,1,0,0:0:0:0:
192,192,313674,1,0,0:0:0:0:
320,192,313674,1,0,0:0:0:0:
192,192,313794,1,0,0:0:0:0:
448,192,313794,1,0,0:0:0:0:
320,192,313914,1,0,0:0:0:0:
64,192,313914,1,0,0:0:0:0:
192,192,314034,1,0,0:0:0:0:
448,192,314034,1,0,0:0:0:0:
64,192,314154,1,0,0:0:0:0:
448,192,314154,1,0,0:0:0:0:
320,192,314274,1,0,0:0:0:0:
64,192,314394,1,0,0:0:0:0:
192,192,314394,1,0,0:0:0:0:
320,192,314514,1,0,0:0:0:0:
448,192,314514,1,0,0:0:0:0:
192,192,314634,1,0,0:0:0:0:
64,192,314634,1,0,0:0:0:0:
448,192,314754,1,0,0:0:0:0:
320,192,314814,1,0,0:0:0:0:
64,192,314874,1,0,0:0:0:0:
192,192,314874,1,0,0:0:0:0:
320,192,314994,1,0,0:0:0:0:
448,192,314994,1,0,0:0:0:0:
64,192,315114,1,0,0:0:0:0:
320,192,315114,1,0,0:0:0:0:
192,192,315234,1,0,0:0:0:0:
64,192,315234,1,0,0:0:0:0:
320,192,315354,1,0,0:0:0:0:
448,192,315354,1,0,0:0:0:0:
64,192,315474,1,0,0:0:0:0:
192,192,315474,1,0,0:0:0:0:
64,192,315594,1,0,0:0:0:0:
448,192,315594,1,0,0:0:0:0:
320,192,315714,1,0,0:0:0:0:
448,192,315834,1,0,0:0:0:0:
192,192,315834,1,0,0:0:0:0:
64,192,315954,1,0,0:0:0:0:
320,192,316074,1,0,0:0:0:0:
448,192,316074,1,0,0:0:0:0:
64,192,316194,1,0,0:0:0:0:
192,192,316194,1,0,0:0:0:0:
320,192,316314,1,0,0:0:0:0:
64,192,316434,1,0,0:0:0:0:
448,192,316434,1,0,0:0:0:0:
192,192,316554,1,0,0:0:0:0:
448,192,316554,1,0,0:0:0:0:
64,192,316674,1,0,0:0:0:0:
320,192,316674,1,0,0:0:0:0:
448,192,316794,1,0,0:0:0:0:
192,192,316794,1,0,0:0:0:0:
64,192,316914,1,0,0:0:0:0:
320,192,316914,1,0,0:0:0:0:
64,192,317034,1,0,0:0:0:0:
192,192,317034,1,0,0:0:0:0:
320,192,317154,1,0,0:0:0:0:
448,192,317154,1,0,0:0:0:0:
64,192,317274,1,0,0:0:0:0:
192,192,317394,1,0,0:0:0:0:
320,192,317394,1,0,0:0:0:0:
64,192,317514,1,0,0:0:0:0:
448,192,317514,1,0,0:0:0:0:
320,192,317634,1,0,0:0:0:0:
192,192,317754,1,0,0:0:0:0:
448,192,317754,1,0,0:0:0:0:
320,192,317874,1,0,0:0:0:0:
192,192,317934,1,0,0:0:0:0:
64,192,317994,1,0,0:0:0:0:
448,192,317994,1,0,0:0:0:0:
192,192,318114,1,0,0:0:0:0:
320,192,318174,1,0,0:0:0:0:
64,192,318234,1,0,0:0:0:0:
448,192,318234,1,0,0:0:0:0:
320,192,318354,1,0,0:0:0:0:
192,192,318414,1,0,0:0:0:0:
448,192,318474,1,0,0:0:0:0:
64,192,318474,1,0,0:0:0:0:
320,192,318534,1,0,0:0:0:0:
448,192,318594,1,0,0:0:0:0:
192,192,318594,1,0,0:0:0:0:
64,192,318654,1,0,0:0:0:0:
320,192,318714,1,0,0:0:0:0:
448,192,318714,1,0,0:0:0:0:
64,192,318834,1,0,0:0:0:0:
192,192,318834,1,0,0:0:0:0:
320,192,318954,1,0,0:0:0:0:
448,192,318954,1,0,0:0:0:0:
192,192,319074,1,0,0:0:0:0:
320,192,319134,1,0,0:0:0:0:
64,192,319194,1,0,0:0:0:0:
448,192,319194,1,0,0:0:0:0:
320,192,319314,1,0,0:0:0:0:
192,192,319314,1,0,0:0:0:0:
192,192,319434,1,0,0:0:0:0:
448,192,319434,1,0,0:0:0:0:
64,192,319554,1,0,0:0:0:0:
448,192,319554,1,0,0:0:0:0:
192,192,319674,1,0,0:0:0:0:
320,192,319674,1,0,0:0:0:0:
64,192,319794,1,0,0:0:0:0:
448,192,319794,1,0,0:0:0:0:
64,192,319914,1,0,0:0:0:0:
320,192,319914,1,0,0:0:0:0:
192,192,320034,1,0,0:0:0:0:
64,192,320154,1,0,0:0:0:0:
320,192,320154,1,0,0:0:0:0:
192,192,320274,1,0,0:0:0:0:
448,192,320274,1,0,0:0:0:0:
320,192,320394,1,0,0:0:0:0:
448,192,320394,1,0,0:0:0:0:
64,192,320514,1,0,0:0:0:0:
320,192,320514,1,0,0:0:0:0:
192,192,320634,1,0,0:0:0:0:
448,192,320634,1,0,0:0:0:0:
64,192,320754,1,0,0:0:0:0:
320,192,320754,1,0,0:0:0:0:
64,192,320874,1,0,0:0:0:0:
448,192,320874,1,0,0:0:0:0:
192,192,320994,1,0,0:0:0:0:
320,192,321114,1,0,0:0:0:0:
448,192,321114,1,0,0:0:0:0:
64,192,321234,1,0,0:0:0:0:
192,192,321234,1,0,0:0:0:0:
192,192,321354,1,0,0:0:0:0:
448,192,321354,1,0,0:0:0:0:
64,192,321474,1,0,0:0:0:0:
320,192,321474,1,0,0:0:0:0:
192,192,321594,1,0,0:0:0:0:
448,192,321594,1,0,0:0:0:0:
64,192,321714,1,0,0:0:0:0:
320,192,321714,1,0,0:0:0:0:
64,192,321834,1,0,0:0:0:0:
192,192,321834,1,0,0:0:0:0:
320,192,321954,1,0,0:0:0:0:
64,192,322074,1,0,0:0:0:0:
448,192,322074,1,0,0:0:0:0:
192,192,322194,1,0,0:0:0:0:
320,192,322194,1,0,0:0:0:0:
64,192,322314,1,0,0:0:0:0:
448,192,322314,1,0,0:0:0:0:
192,192,322434,1,0,0:0:0:0:
320,192,322494,1,0,0:0:0:0:
64,192,322554,1,0,0:0:0:0:
448,192,322554,1,0,0:0:0:0:
192,192,322674,1,0,0:0:0:0:
192,192,322794,1,0,0:0:0:0:
448,192,322794,1,0,0:0:0:0:
320,192,322914,1,0,0:0:0:0:
64,192,322914,1,0,0:0:0:0:
64,192,323034,1,0,0:0:0:0:
448,192,323034,1,0,0:0:0:0:
192,192,323154,1,0,0:0:0:0:
448,192,323154,1,0,0:0:0:0:
64,192,323274,1,0,0:0:0:0:
320,192,323274,1,0,0:0:0:0:
448,192,323394,1,0,0:0:0:0:
192,192,323394,1,0,0:0:0:0:
320,192,323454,1,0,0:0:0:0:
64,192,323514,1,0,0:0:0:0:
192,192,323514,1,0,0:0:0:0:
448,192,323634,1,0,0:0:0:0:
192,192,323754,1,0,0:0:0:0:
320,192,323754,1,0,0:0:0:0:
448,192,323874,1,0,0:0:0:0:
192,192,323874,1,0,0:0:0:0:
320,192,323994,1,0,0:0:0:0:
64,192,323994,1,0,0:0:0:0:
192,192,324114,1,0,0:0:0:0:
448,192,324114,1,0,0:0:0:0:
64,192,324234,1,0,0:0:0:0:
320,192,324234,1,0,0:0:0:0:
192,192,324354,1,0,0:0:0:0:
448,192,324354,1,0,0:0:0:0:
64,192,324414,1,0,0:0:0:0:
320,192,324474,1,0,0:0:0:0:
448,192,324474,1,0,0:0:0:0:
64,192,324594,1,0,0:0:0:0:
192,192,324594,1,0,0:0:0:0:
320,192,324714,1,0,0:0:0:0:
448,192,324714,1,0,0:0:0:0:
192,192,324834,1,0,0:0:0:0:
320,192,324834,1,0,0:0:0:0:
64,192,324954,1,0,0:0:0:0:
448,192,324954,1,0,0:0:0:0:
192,192,325074,1,0,0:0:0:0:
320,192,325074,1,0,0:0:0:0:
320,192,325194,1,0,0:0:0:0:
448,192,325194,1,0,0:0:0:0:
64,192,325314,1,0,0:0:0:0:
448,192,325314,1,0,0:0:0:0:
192,192,325374,1,0,0:0:0:0:
448,192,325434,1,0,0:0:0:0:
320,192,325434,1,0,0:0:0:0:
192,192,325514,1,0,0:0:0:0:
64,192,325594,1,0,0:0:0:0:
320,192,325674,1,0,0:0:0:0:
192,192,325674,1,0,0:0:0:0:
448,192,325754,1,0,0:0:0:0:
320,192,325834,1,0,0:0:0:0:
64,192,325914,1,0,0:0:0:0:
192,192,325914,1,0,0:0:0:0:
320,192,326034,1,0,0:0:0:0:
448,192,326154,1,0,0:0:0:0:
64,192,326214,1,0,0:0:0:0:
448,192,326274,1,0,0:0:0:0:
64,192,326334,1,0,0:0:0:0:
448,192,326394,1,0,0:0:0:0:
320,192,326394,1,0,0:0:0:0:
192,192,326474,1,0,0:0:0:0:
64,192,326554,1,0,0:0:0:0:
320,192,326634,1,0,0:0:0:0:
448,192,326634,1,0,0:0:0:0:
192,192,326714,1,0,0:0:0:0:
448,192,326794,1,0,0:0:0:0:
64,192,326874,1,0,0:0:0:0:
320,192,326874,1,0,0:0:0:0:
192,192,326954,1,0,0:0:0:0:
320,192,327034,1,0,0:0:0:0:
64,192,327114,1,0,0:0:0:0:
448,192,327114,1,0,0:0:0:0:
192,192,327194,1,0,0:0:0:0:
448,192,327274,1,0,0:0:0:0:
320,192,327354,1,0,0:0:0:0:
64,192,327354,1,0,0:0:0:0:
192,192,327434,1,0,0:0:0:0:
320,192,327514,1,0,0:0:0:0:
448,192,327594,1,0,0:0:0:0:
192,192,327594,1,0,0:0:0:0:
64,192,327674,1,0,0:0:0:0:
320,192,327754,1,0,0:0:0:0:
64,192,327834,1,0,0:0:0:0:
192,192,327834,1,0,0:0:0:0:
448,192,327914,1,0,0:0:0:0:
192,192,327994,1,0,0:0:0:0:
320,192,328074,1,0,0:0:0:0:
448,192,328074,1,0,0:0:0:0:
64,192,328134,1,0,0:0:0:0:
320,192,328194,1,0,0:0:0:0:
64,192,328254,1,0,0:0:0:0:
192,192,328314,1,0,0:0:0:0:
448,192,328314,1,0,0:0:0:0:
320,192,328394,1,0,0:0:0:0:
64,192,328474,1,0,0:0:0:0:
192,192,328554,1,0,0:0:0:0:
320,192,328554,1,0,0:0:0:0:
448,192,328634,1,0,0:0:0:0:
64,192,328714,1,0,0:0:0:0:
192,192,328794,1,0,0:0:0:0:
448,192,328794,1,0,0:0:0:0:
320,192,328874,1,0,0:0:0:0:
192,192,328954,1,0,0:0:0:0:
64,192,329034,1,0,0:0:0:0:
448,192,329034,1,0,0:0:0:0:
320,192,329114,1,0,0:0:0:0:
64,192,329194,1,0,0:0:0:0:
192,192,329274,1,0,0:0:0:0:
448,192,329274,1,0,0:0:0:0:
320,192,329354,1,0,0:0:0:0:
448,192,329434,1,0,0:0:0:0:
64,192,329514,1,0,0:0:0:0:
192,192,329514,1,0,0:0:0:0:
320,192,329594,1,0,0:0:0:0:
64,192,329674,1,0,0:0:0:0:
192,192,329754,1,0,0:0:0:0:
448,192,329754,1,0,0:0:0:0:
320,192,329814,1,0,0:0:0:0:
192,192,329874,1,0,0:0:0:0:
64,192,329934,1,0,0:0:0:0:
448,192,329994,1,0,0:0:0:0:
192,192,330054,1,0,0:0:0:0:
448,192,330114,1,0,0:0:0:0:
192,192,330174,1,0,0:0:0:0:
320,192,330234,1,0,0:0:0:0:
64,192,330234,1,0,0:0:0:0:
448,192,330354,1,0,0:0:0:0:
64,192,330474,1,0,0:0:0:0:
192,192,330474,1,0,0:0:0:0:
64,192,330594,1,0,0:0:0:0:
320,192,330594,1,0,0:0:0:0:
192,192,330714,1,0,0:0:0:0:
320,192,330834,1,0,0:0:0:0:
448,192,330834,1,0,0:0:0:0:
192,192,330954,1,0,0:0:0:0:
448,192,330954,1,0,0:0:0:0:
320,192,331074,1,0,0:0:0:0:
64,192,331194,1,0,0:0:0:0:
448,192,331194,1,0,0:0:0:0:
192,192,331314,1,0,0:0:0:0:
64,192,331434,1,0,0:0:0:0:
320,192,331434,1,0,0:0:0:0:
64,192,331554,1,0,0:0:0:0:
192,192,331554,1,0,0:0:0:0:
320,192,331674,1,0,0:0:0:0:
192,192,331794,1,0,0:0:0:0:
448,192,331794,1,0,0:0:0:0:
320,192,331914,1,0,0:0:0:0:
448,192,331914,1,0,0:0:0:0:
192,192,332034,1,0,0:0:0:0:
64,192,332034,1,0,0:0:0:0:
64,192,332154,1,0,0:0:0:0:
448,192,332154,1,0,0:0:0:0:
320,192,332274,1,0,0:0:0:0:
64,192,332394,1,0,0:0:0:0:
192,192,332394,1,0,0:0:0:0:
192,192,332514,1,0,0:0:0:0:
320,192,332514,1,0,0:0:0:0:
448,192,332634,1,0,0:0:0:0:
64,192,332754,1,0,0:0:0:0:
192,192,332754,1,0,0:0:0:0:
192,192,332874,1,0,0:0:0:0:
320,192,332874,1,0,0:0:0:0:
64,192,332994,1,0,0:0:0:0:
448,192,332994,1,0,0:0:0:0:
192,192,333114,1,0,0:0:0:0:
448,192,333114,1,0,0:0:0:0:
320,192,333234,1,0,0:0:0:0:
192,192,333294,1,0,0:0:0:0:
64,192,333354,1,0,0:0:0:0:
448,192,333354,1,0,0:0:0:0:
192,192,333414,1,0,0:0:0:0:
320,192,333474,1,0,0:0:0:0:
448,192,333474,1,0,0:0:0:0:
64,192,333534,1,0,0:0:0:0:
192,192,333534,1,0,0:0:0:0:
448,192,333594,1,0,0:0:0:0:
320,192,333594,1,0,0:0:0:0:
192,192,333714,1,0,0:0:0:0:
320,192,333774,1,0,0:0:0:0:
64,192,333834,1,0,0:0:0:0:
448,192,333834,1,0,0:0:0:0:
192,192,333894,1,0,0:0:0:0:
448,192,333954,1,0,0:0:0:0:
320,192,333954,1,0,0:0:0:0:
64,192,334014,1,0,0:0:0:0:
192,192,334074,1,0,0:0:0:0:
320,192,334074,1,0,0:0:0:0:
64,192,334194,1,0,0:0:0:0:
448,192,334194,1,0,0:0:0:0:
192,192,334314,1,0,0:0:0:0:
448,192,334314,1,0,0:0:0:0:
320,192,334434,1,0,0:0:0:0:
64,192,334434,1,0,0:0:0:0:
192,192,334554,1,0,0:0:0:0:
64,192,334554,1,0,0:0:0:0:
320,192,334674,1,0,0:0:0:0:
448,192,334674,1,0,0:0:0:0:
192,192,334794,1,0,0:0:0:0:
448,192,334794,1,0,0:0:0:0:
320,192,334914,1,0,0:0:0:0:
64,192,334914,1,0,0:0:0:0:
192,192,335034,1,0,0:0:0:0:
320,192,335034,1,0,0:0:0:0:
64,192,335154,1,0,0:0:0:0:
448,192,335154,1,0,0:0:0:0:
192,192,335274,1,0,0:0:0:0:
448,192,335274,1,0,0:0:0:0:
320,192,335394,1,0,0:0:0:0:
64,192,335394,1,0,0:0:0:0:
64,192,335514,1,0,0:0:0:0:
192,192,335514,1,0,0:0:0:0:
320,192,335634,1,0,0:0:0:0:
448,192,335634,1,0,0:0:0:0:
64,192,335754,1,0,0:0:0:0:
320,192,335754,1,0,0:0:0:0:
192,192,335814,1,0,0:0:0:0:
448,192,335874,1,0,0:0:0:0:
64,192,335874,1,0,0:0:0:0:
320,192,335934,1,0,0:0:0:0:
448,192,335994,1,0,0:0:0:0:
192,192,335994,1,0,0:0:0:0:
320,192,336114,1,0,0:0:0:0:
64,192,336114,1,0,0:0:0:0:
192,192,336234,1,0,0:0:0:0:
448,192,336234,1,0,0:0:0:0:
320,192,336354,1,0,0:0:0:0:
448,192,336354,1,0,0:0:0:0:
64,192,336474,1,0,0:0:0:0:
192,192,336474,1,0,0:0:0:0:
192,192,336594,1,0,0:0:0:0:
320,192,336594,1,0,0:0:0:0:
64,192,336714,1,0,0:0:0:0:
448,192,336714,1,0,0:0:0:0:
192,192,336834,1,0,0:0:0:0:
448,192,336834,1,0,0:0:0:0:
320,192,336954,1,0,0:0:0:0:
64,192,336954,1,0,0:0:0:0:
192,192,337074,1,0,0:0:0:0:
448,192,337074,1,0,0:0:0:0:
64,192,337194,1,0,0:0:0:0:
192,192,337194,1,0,0:0:0:0:
320,192,337314,1,0,0:0:0:0:
448,192,337314,1,0,0:0:0:0:
192,192,337434,1,0,0:0:0:0:
320,192,337434,1,0,0:0:0:0:
192,192,337554,1,0,0:0:0:0:
64,192,337554,1,0,0:0:0:0:
320,192,337674,1,0,0:0:0:0:
448,192,337794,1,0,0:0:0:0:
64,192,337914,1,0,0:0:0:0:
320,192,337914,1,0,0:0:0:0:
192,192,338034,1,0,0:0:0:0:
64,192,338034,1,0,0:0:0:0:
64,192,338154,1,0,0:0:0:0:
192,192,338154,1,0,0:0:0:0:
192,192,338274,1,0,0:0:0:0:
448,192,338274,1,0,0:0:0:0:
320,192,338394,1,0,0:0:0:0:
448,192,338394,1,0,0:0:0:0:
320,192,338514,1,0,0:0:0:0:
448,192,338514,1,0,0:0:0:0:
64,192,338634,1,0,0:0:0:0:
320,192,338634,1,0,0:0:0:0:
64,192,338754,1,0,0:0:0:0:
192,192,338754,1,0,0:0:0:0:
320,192,338814,1,0,0:0:0:0:
192,192,338874,1,0,0:0:0:0:
448,192,338874,1,0,0:0:0:0:
320,192,338994,1,0,0:0:0:0:
448,192,338994,1,0,0:0:0:0:
448,192,339114,1,0,0:0:0:0:
320,192,339114,1,0,0:0:0:0:
64,192,339234,1,0,0:0:0:0:
320,192,339234,1,0,0:0:0:0:
64,192,339354,1,0,0:0:0:0:
192,192,339354,1,0,0:0:0:0:
64,192,339474,1,0,0:0:0:0:
192,192,339474,1,0,0:0:0:0:
192,192,339594,1,0,0:0:0:0:
448,192,339594,1,0,0:0:0:0:
448,192,339714,1,0,0:0:0:0:
320,192,339714,1,0,0:0:0:0:
192,192,339774,1,0,0:0:0:0:
320,192,339834,1,0,0:0:0:0:
64,192,339834,1,0,0:0:0:0:
192,192,339954,1,0,0:0:0:0:
448,192,339954,1,0,0:0:0:0:
64,192,340014,1,0,0:0:0:0:
320,192,340014,1,0,0:0:0:0:
448,192,340134,1,0,0:0:0:0:
64,192,340194,1,0,0:0:0:0:
320,192,340194,1,0,0:0:0:0:
448,192,340254,1,0,0:0:0:0:
64,192,340314,1,0,0:0:0:0:
320,192,340314,1,0,0:0:0:0:
448,192,340434,1,0,0:0:0:0:
192,192,340434,1,0,0:0:0:0:
64,192,340494,1,0,0:0:0:0:
320,192,340494,1,0,0:0:0:0:
448,192,340614,1,0,0:0:0:0:
64,192,340674,1,0,0:0:0:0:
320,192,340674,1,0,0:0:0:0:
448,192,340734,1,0,0:0:0:0:
320,192,340794,1,0,0:0:0:0:
64,192,340794,1,0,0:0:0:0:
192,192,340914,1,0,0:0:0:0:
448,192,340914,1,0,0:0:0:0:
192,192,341034,1,0,0:0:0:0:
448,192,341034,1,0,0:0:0:0:
448,192,341154,1,0,0:0:0:0:
192,192,341154,1,0,0:0:0:0:
448,192,341274,1,0,0:0:0:0:
192,192,341274,1,0,0:0:0:0:
320,192,341514,1,0,0:0:0:0:
64,192,341754,1,0,0:0:0:0:
448,192,341754,1,0,0:0:0:0:
320,192,357114,5,0,0:0:0:25:
448,192,357114,1,0,0:0:0:25:
64,192,372474,5,0,0:0:0:25:
448,192,372474,1,0,0:0:0:25:
64,192,387834,5,0,0:0:0:25:
192,192,387834,1,0,0:0:0:25:
320,192,395514,5,0,0:0:0:30:
64,192,395514,1,0,0:0:0:30:
320,192,395874,1,0,0:0:0:30:
192,192,395934,1,0,0:0:0:30:
448,192,395994,1,0,0:0:0:30:
64,192,396234,1,0,0:0:0:30:
192,192,396474,1,0,0:0:0:30:
320,192,396834,1,0,0:0:0:30:
192,192,396894,1,0,0:0:0:30:
448,192,396954,1,0,0:0:0:30:
64,192,397194,1,0,0:0:0:30:
192,192,397434,1,0,0:0:0:30:
192,192,397794,1,0,0:0:0:30:
64,192,397854,1,0,0:0:0:30:
448,192,397914,1,0,0:0:0:30:
64,192,398154,1,0,0:0:0:30:
192,192,398394,1,0,0:0:0:30:
448,192,398754,1,0,0:0:0:30:
320,192,398874,1,0,0:0:0:30:
192,192,399114,1,0,0:0:0:30:
64,192,399354,1,0,0:0:0:30:
320,192,399714,1,0,0:0:0:30:
192,192,399774,1,0,0:0:0:30:
448,192,399834,1,0,0:0:0:30:
64,192,400074,1,0,0:0:0:30:
192,192,400314,1,0,0:0:0:30:
320,192,400674,1,0,0:0:0:30:
192,192,400734,1,0,0:0:0:30:
448,192,400794,1,0,0:0:0:30:
64,192,401034,1,0,0:0:0:30:
320,192,401274,1,0,0:0:0:30:
192,192,401634,1,0,0:0:0:30:
64,192,401694,1,0,0:0:0:30:
448,192,401754,1,0,0:0:0:30:
192,192,401994,1,0,0:0:0:30:
320,192,402234,1,0,0:0:0:30:
192,192,402594,1,0,0:0:0:30:
448,192,402714,1,0,0:0:0:30:
320,192,402954,1,0,0:0:0:30:
192,192,403074,1,0,0:0:0:30:
64,192,403194,1,0,0:0:0:30:
64,192,403554,1,0,0:0:0:30:
320,192,403674,1,0,0:0:0:30:
448,192,403914,1,0,0:0:0:30:
64,192,404154,1,0,0:0:0:30:
64,192,404514,1,0,0:0:0:30:
320,192,404634,1,0,0:0:0:30:
448,192,404874,1,0,0:0:0:30:
64,192,405114,1,0,0:0:0:30:
64,192,405474,1,0,0:0:0:30:
192,192,405594,1,0,0:0:0:30:
448,192,405834,1,0,0:0:0:30:
64,192,406074,1,0,0:0:0:30:
192,192,406434,1,0,0:0:0:30:
320,192,406554,1,0,0:0:0:30:
192,192,406794,1,0,0:0:0:30:
64,192,407034,1,0,0:0:0:30:
320,192,407394,1,0,0:0:0:30:
64,192,407514,1,0,0:0:0:30:
192,192,407874,1,0,0:0:0:30:
320,192,407994,1,0,0:0:0:30:
320,192,408354,1,0,0:0:0:30:
64,192,408474,1,0,0:0:0:30:
192,192,408834,1,0,0:0:0:30:
448,192,408954,1,0,0:0:0:30:
448,192,409314,1,0,0:0:0:30:
64,192,409434,1,0,0:0:0:30:
192,192,409794,1,0,0:0:0:30:
320,192,409914,1,0,0:0:0:30:
320,192,410274,1,0,0:0:0:30:
64,192,410394,1,0,0:0:0:30:
192,192,410754,1,0,0:0:0:30:
320,192,410874,1,0,0:0:0:0:
448,192,410874,1,0,0:0:0:0:
64,192,410994,1,0,0:0:0:0:
192,192,410994,1,0,0:0:0:0:
320,192,411114,1,0,0:0:0:0:
448,192,411114,1,0,0:0:0:0:
64,192,411234,1,0,0:0:0:0:
192,192,411234,1,0,0:0:0:0:
320,192,411294,1,0,0:0:0:0:
448,192,411354,1,0,0:0:0:0:
64,192,411354,1,0,0:0:0:0:
192,192,411474,1,0,0:0:0:0:
320,192,411474,1,0,0:0:0:0:
64,192,411594,1,0,0:0:0:0:
448,192,411594,1,0,0:0:0:0:
192,192,411714,1,0,0:0:0:0:
320,192,411714,1,0,0:0:0:0:
448,192,411774,1,0,0:0:0:0:
64,192,411834,1,0,0:0:0:0:
192,192,411834,1,0,0:0:0:0:
320,192,411954,1,0,0:0:0:0:
448,192,411954,1,0,0:0:0:0:
64,192,412074,1,0,0:0:0:0:
192,192,412074,1,0,0:0:0:0:
320,192,412194,1,0,0:0:0:0:
448,192,412194,1,0,0:0:0:0:
64,192,412254,1,0,0:0:0:0:
192,192,412314,1,0,0:0:0:0:
320,192,412314,1,0,0:0:0:0:
64,192,412434,1,0,0:0:0:0:
448,192,412434,1,0,0:0:0:0:
320,192,412554,1,0,0:0:0:0:
192,192,412554,1,0,0:0:0:0:
64,192,412674,1,0,0:0:0:0:
448,192,412674,1,0,0:0:0:0:
320,192,412734,1,0,0:0:0:0:
192,192,412734,1,0,0:0:0:0:
64,192,412794,1,0,0:0:0:0:
448,192,412794,1,0,0:0:0:0:
192,192,412914,1,0,0:0:0:0:
448,192,412914,1,0,0:0:0:0:
320,192,413034,1,0,0:0:0:0:
64,192,413034,1,0,0:0:0:0:
64,192,413154,1,0,0:0:0:0:
448,192,413154,1,0,0:0:0:0:
192,192,413214,1,0,0:0:0:0:
320,192,413274,1,0,0:0:0:0:
448,192,413274,1,0,0:0:0:0:
64,192,413394,1,0,0:0:0:0:
320,192,413394,1,0,0:0:0:0:
64,192,413514,1,0,0:0:0:0:
192,192,413514,1,0,0:0:0:0:
192,192,413634,1,0,0:0:0:0:
448,192,413634,1,0,0:0:0:0:
320,192,413694,1,0,0:0:0:0:
448,192,413754,1,0,0:0:0:0:
64,192,413754,1,0,0:0:0:0:
64,192,413874,1,0,0:0:0:0:
320,192,413874,1,0,0:0:0:0:
192,192,413994,1,0,0:0:0:0:
448,192,413994,1,0,0:0:0:0:
64,192,414114,1,0,0:0:0:0:
448,192,414114,1,0,0:0:0:0:
192,192,414174,1,0,0:0:0:0:
320,192,414234,1,0,0:0:0:0:
448,192,414234,1,0,0:0:0:0:
64,192,414354,1,0,0:0:0:0:
320,192,414354,1,0,0:0:0:0:
448,192,414474,1,0,0:0:0:0:
192,192,414474,1,0,0:0:0:0:
320,192,414534,1,0,0:0:0:0:
64,192,414594,1,0,0:0:0:0:
448,192,414594,1,0,0:0:0:0:
192,192,414654,1,0,0:0:0:0:
320,192,414714,1,0,0:0:0:0:
64,192,414714,1,0,0:0:0:0:
192,192,414834,1,0,0:0:0:0:
448,192,414834,1,0,0:0:0:0:
64,192,414954,1,0,0:0:0:0:
320,192,414954,1,0,0:0:0:0:
192,192,415074,1,0,0:0:0:0:
448,192,415074,1,0,0:0:0:0:
320,192,415134,1,0,0:0:0:0:
64,192,415194,1,0,0:0:0:0:
448,192,415194,1,0,0:0:0:0:
192,192,415314,1,0,0:0:0:0:
320,192,415314,1,0,0:0:0:0:
64,192,415434,1,0,0:0:0:0:
448,192,415434,1,0,0:0:0:0:
192,192,415554,1,0,0:0:0:0:
320,192,415554,1,0,0:0:0:0:
64,192,415614,1,0,0:0:0:0:
448,192,415674,1,0,0:0:0:0:
320,192,415674,1,0,0:0:0:0:
64,192,415794,1,0,0:0:0:0:
192,192,415794,1,0,0:0:0:0:
320,192,415914,1,0,0:0:0:0:
448,192,415914,1,0,0:0:0:0:
64,192,416034,1,0,0:0:0:0:
192,192,416034,1,0,0:0:0:0:
320,192,416094,1,0,0:0:0:0:
448,192,416154,1,0,0:0:0:0:
192,192,416154,1,0,0:0:0:0:
320,192,416274,1,0,0:0:0:0:
64,192,416274,1,0,0:0:0:0:
192,192,416394,1,0,0:0:0:0:
448,192,416394,1,0,0:0:0:0:
64,192,416514,1,0,0:0:0:0:
320,192,416514,1,0,0:0:0:0:
192,192,416574,1,0,0:0:0:0:
448,192,416574,1,0,0:0:0:0:
320,192,416634,1,0,0:0:0:0:
64,192,416634,1,0,0:0:0:0:
192,192,416754,1,0,0:0:0:0:
320,192,416754,1,0,0:0:0:0:
448,192,416874,1,0,0:0:0:0:
192,192,416874,1,0,0:0:0:0:
64,192,416934,1,0,0:0:0:0:
320,192,416994,1,0,0:0:0:0:
448,192,416994,1,0,0:0:0:0:
192,192,417054,1,0,0:0:0:0:
448,192,417114,1,0,0:0:0:0:
64,192,417114,1,0,0:0:0:0:
320,192,417234,1,0,0:0:0:0:
192,192,417234,1,0,0:0:0:0:
192,192,417354,1,0,0:0:0:0:
448,192,417354,1,0,0:0:0:0:
448,192,417474,1,0,0:0:0:0:
64,192,417474,1,0,0:0:0:0:
320,192,417534,1,0,0:0:0:0:
192,192,417594,1,0,0:0:0:0:
448,192,417594,1,0,0:0:0:0:
64,192,417714,1,0,0:0:0:0:
320,192,417714,1,0,0:0:0:0:
448,192,417834,1,0,0:0:0:0:
192,192,417834,1,0,0:0:0:0:
64,192,417954,1,0,0:0:0:0:
320,192,417954,1,0,0:0:0:0:
192,192,418014,1,0,0:0:0:0:
320,192,418074,1,0,0:0:0:0:
448,192,418074,1,0,0:0:0:0:
64,192,418194,1,0,0:0:0:0:
320,192,418234,1,0,0:0:0:0:
192,192,418274,1,0,0:0:0:0:
448,192,418314,1,0,0:0:0:0:
64,192,418314,1,0,0:0:0:0:
64,192,418554,1,0,0:0:0:0:
192,192,418594,1,0,0:0:0:0:
320,192,418634,1,0,0:0:0:0:
448,192,418674,1,0,0:0:0:0:
64,192,418734,1,0,0:0:0:0:
448,192,418794,1,0,0:0:0:0:
192,192,418854,1,0,0:0:0:0:
448,192,418914,1,0,0:0:0:0:
320,192,418954,1,0,0:0:0:0:
192,192,418994,1,0,0:0:0:0:
64,192,419034,1,0,0:0:0:0:
448,192,419094,1,0,0:0:0:0:
64,192,419154,1,0,0:0:0:0:
320,192,419214,1,0,0:0:0:0:
64,192,419274,1,0,0:0:0:0:
192,192,419314,1,0,0:0:0:0:
320,192,419354,1,0,0:0:0:0:
448,192,419394,1,0,0:0:0:0:
64,192,419454,1,0,0:0:0:0:
448,192,419514,1,0,0:0:0:0:
320,192,419554,1,0,0:0:0:0:
192,192,419594,1,0,0:0:0:0:
64,192,419634,1,0,0:0:0:0:
448,192,419694,1,0,0:0:0:0:
64,192,419754,1,0,0:0:0:0:
192,192,419794,1,0,0:0:0:0:
320,192,419834,1,0,0:0:0:0:
64,192,419874,1,0,0:0:0:0:
192,192,419914,1,0,0:0:0:0:
320,192,419954,1,0,0:0:0:0:
448,192,419994,1,0,0:0:0:0:
64,192,420054,1,0,0:0:0:0:
448,192,420114,1,0,0:0:0:0:
192,192,420174,1,0,0:0:0:0:
448,192,420234,1,0,0:0:0:0:
320,192,420274,1,0,0:0:0:0:
192,192,420314,1,0,0:0:0:0:
64,192,420354,1,0,0:0:0:0:
448,192,420414,1,0,0:0:0:0:
64,192,420474,1,0,0:0:0:0:
192,192,420514,1,0,0:0:0:0:
320,192,420554,1,0,0:0:0:0:
448,192,420594,1,0,0:0:0:0:
64,192,420654,1,0,0:0:0:0:
448,192,420714,1,0,0:0:0:0:
192,192,420774,1,0,0:0:0:0:
448,192,420834,1,0,0:0:0:0:
320,192,420874,1,0,0:0:0:0:
192,192,420914,1,0,0:0:0:0:
64,192,420954,1,0,0:0:0:0:
448,192,421014,1,0,0:0:0:0:
64,192,421074,1,0,0:0:0:0:
320,192,421134,1,0,0:0:0:0:
64,192,421194,1,0,0:0:0:0:
192,192,421234,1,0,0:0:0:0:
320,192,421274,1,0,0:0:0:0:
448,192,421314,1,0,0:0:0:0:
64,192,421374,1,0,0:0:0:0:
448,192,421434,1,0,0:0:0:0:
320,192,421474,1,0,0:0:0:0:
192,192,421514,1,0,0:0:0:0:
64,192,421554,1,0,0:0:0:0:
448,192,421614,1,0,0:0:0:0:
64,192,421674,1,0,0:0:0:0:
192,192,421714,1,0,0:0:0:0:
320,192,421754,1,0,0:0:0:0:
64,192,421794,1,0,0:0:0:0:
192,192,421834,1,0,0:0:0:0:
320,192,421874,1,0,0:0:0:0:
448,192,421914,1,0,0:0:0:0:
64,192,421974,1,0,0:0:0:0:
448,192,422034,1,0,0:0:0:0:
192,192,422094,1,0,0:0:0:0:
448,192,422154,1,0,0:0:0:0:
320,192,422194,1,0,0:0:0:0:
192,192,422234,1,0,0:0:0:0:
64,192,422274,1,0,0:0:0:0:
448,192,422334,1,0,0:0:0:0:
64,192,422394,1,0,0:0:0:0:
320,192,422394,1,0,0:0:0:0:
192,192,422454,1,0,0:0:0:0:
320,192,422514,1,0,0:0:0:0:
192,192,422574,1,0,0:0:0:0:
448,192,422634,1,0,0:0:0:0:
320,192,422634,1,0,0:0:0:0:
64,192,422674,1,0,0:0:0:0:
192,192,422714,1,0,0:0:0:0:
448,192,422754,1,0,0:0:0:0:
320,192,422794,1,0,0:0:0:0:
64,192,422834,1,0,0:0:0:0:
192,192,422874,1,0,0:0:0:0:
320,192,422934,1,0,0:0:0:0:
192,192,422994,1,0,0:0:0:0:
320,192,423054,1,0,0:0:0:0:
64,192,423114,1,0,0:0:0:0:
192,192,423114,1,0,0:0:0:0:
448,192,423154,5,0,0:0:0:0:
320,192,423194,1,0,0:0:0:0:
64,192,423234,1,0,0:0:0:0:
192,192,423274,1,0,0:0:0:0:
448,192,423314,1,0,0:0:0:0:
320,192,423354,1,0,0:0:0:0:
192,192,423414,1,0,0:0:0:0:
320,192,423474,1,0,0:0:0:0:
192,192,423534,1,0,0:0:0:0:
448,192,423594,1,0,0:0:0:0:
320,192,423594,1,0,0:0:0:0:
64,192,423634,1,0,0:0:0:0:
192,192,423674,1,0,0:0:0:0:
448,192,423714,1,0,0:0:0:0:
320,192,423754,1,0,0:0:0:0:
64,192,423794,1,0,0:0:0:0:
192,192,423834,1,0,0:0:0:0:
320,192,423874,1,0,0:0:0:0:
448,192,423914,1,0,0:0:0:0:
64,192,423954,1,0,0:0:0:0:
192,192,423994,1,0,0:0:0:0:
320,192,424034,1,0,0:0:0:0:
448,192,424074,1,0,0:0:0:0:
64,192,424114,1,0,0:0:0:0:
192,192,424154,1,0,0:0:0:0:
448,192,424194,1,0,0:0:0:0:
320,192,424234,1,0,0:0:0:0:
192,192,424274,1,0,0:0:0:0:
448,192,424314,5,0,0:0:0:30:
64,192,424314,1,0,0:0:0:30:
320,192,424374,1,0,0:0:0:30:
192,192,424434,1,0,0:0:0:30:
64,192,424494,1,0,0:0:0:30:
448,192,424554,1,0,0:0:0:30:
192,192,424614,1,0,0:0:0:30:
320,192,424674,1,0,0:0:0:30:
64,192,424734,1,0,0:0:0:30:
192,192,424794,1,0,0:0:0:30:
320,192,424914,1,0,0:0:0:30:
192,192,424974,1,0,0:0:0:30:
64,192,425034,1,0,0:0:0:35:
448,192,425154,1,0,0:0:0:35:
64,192,425274,1,0,0:0:0:30:
192,192,425274,1,0,0:0:0:30:
320,192,425334,1,0,0:0:0:35:
448,192,425394,1,0,0:0:0:35:
320,192,425454,1,0,0:0:0:35:
64,192,425514,1,0,0:0:0:35:
320,192,425574,1,0,0:0:0:35:
192,192,425634,1,0,0:0:0:35:
320,192,425694,1,0,0:0:0:35:
448,192,425754,1,0,0:0:0:0:
192,192,425814,1,0,0:0:0:0:
448,192,425874,1,0,0:0:0:0:
192,192,425934,1,0,0:0:0:0:
448,192,425994,1,0,0:0:0:0:
64,192,426054,1,0,0:0:0:0:
448,192,426114,1,0,0:0:0:0:
64,192,426174,1,0,0:0:0:0:
192,192,426234,1,0,0:0:0:0:
320,192,426234,1,0,0:0:0:0:
192,192,426354,1,0,0:0:0:0:
320,192,426354,1,0,0:0:0:0:
448,192,426474,1,0,0:0:0:0:
64,192,426474,1,0,0:0:0:0:
192,192,426534,1,0,0:0:0:0:
448,192,426594,1,0,0:0:0:0:
320,192,426594,1,0,0:0:0:0:
192,192,426654,1,0,0:0:0:0:
64,192,426654,1,0,0:0:0:0:
320,192,426714,1,0,0:0:0:0:
448,192,426774,1,0,0:0:0:0:
64,192,426834,1,0,0:0:0:0:
192,192,426894,1,0,0:0:0:0:
448,192,426954,1,0,0:0:0:0:
320,192,427014,1,0,0:0:0:0:
64,192,427074,1,0,0:0:0:0:
192,192,427134,1,0,0:0:0:0:
320,192,427194,1,0,0:0:0:0:
448,192,427254,1,0,0:0:0:0:
192,192,427314,1,0,0:0:0:0:
320,192,427374,1,0,0:0:0:0:
448,192,427434,1,0,0:0:0:0:
64,192,427494,1,0,0:0:0:0:
192,192,427554,1,0,0:0:0:0:
320,192,427554,1,0,0:0:0:0:
64,192,427614,1,0,0:0:0:0:
448,192,427614,1,0,0:0:0:0:
192,192,427674,1,0,0:0:0:0:
320,192,427734,1,0,0:0:0:0:
64,192,427794,1,0,0:0:0:0:
192,192,427854,1,0,0:0:0:0:
448,192,427914,1,0,0:0:0:0:
320,192,427974,1,0,0:0:0:0:
64,192,428034,1,0,0:0:0:0:
448,192,428094,1,0,0:0:0:0:
192,192,428154,1,0,0:0:0:0:
64,192,428214,1,0,0:0:0:0:
320,192,428274,1,0,0:0:0:0:
192,192,428334,1,0,0:0:0:0:
448,192,428394,1,0,0:0:0:0:
320,192,428454,1,0,0:0:0:0:
64,192,428514,1,0,0:0:0:0:
192,192,428514,1,0,0:0:0:0:
320,192,428574,1,0,0:0:0:0:
448,192,428574,1,0,0:0:0:0:
192,192,428634,1,0,0:0:0:0:
64,192,428694,1,0,0:0:0:0:
320,192,428754,1,0,0:0:0:0:
192,192,428814,1,0,0:0:0:0:
448,192,428874,1,0,0:0:0:0:
320,192,428934,1,0,0:0:0:0:
192,192,428994,1,0,0:0:0:0:
64,192,429054,1,0,0:0:0:0:
448,192,429114,1,0,0:0:0:0:
192,192,429174,1,0,0:0:0:0:
320,192,429234,1,0,0:0:0:0:
448,192,429294,1,0,0:0:0:0:
64,192,429354,1,0,0:0:0:0:
192,192,429414,1,0,0:0:0:0:
448,192,429474,1,0,0:0:0:0:
320,192,429474,1,0,0:0:0:0:
192,192,429534,1,0,0:0:0:0:
448,192,429594,1,0,0:0:0:0:
320,192,429654,1,0,0:0:0:0:
64,192,429654,1,0,0:0:0:0:
192,192,429714,1,0,0:0:0:0:
448,192,429774,1,0,0:0:0:0:
320,192,429834,1,0,0:0:0:0:
192,192,429894,1,0,0:0:0:0:
64,192,429894,1,0,0:0:0:0:
320,192,429954,1,0,0:0:0:0:
192,192,430074,1,0,0:0:0:0:
320,192,430134,1,0,0:0:0:0:
448,192,430194,1,0,0:0:0:0:
64,192,430254,1,0,0:0:0:0:
192,192,430314,1,0,0:0:0:0:
448,192,430374,1,0,0:0:0:0:
320,192,430374,1,0,0:0:0:0:
192,192,430434,1,0,0:0:0:0:
64,192,430434,1,0,0:0:0:0:
320,192,430494,1,0,0:0:0:0:
448,192,430494,1,0,0:0:0:0:
64,192,430554,1,0,0:0:0:0:
192,192,430614,1,0,0:0:0:0:
448,192,430674,1,0,0:0:0:0:
320,192,430734,1,0,0:0:0:0:
192,192,430794,1,0,0:0:0:0:
64,192,430854,1,0,0:0:0:0:
448,192,430914,1,0,0:0:0:0:
320,192,430974,1,0,0:0:0:0:
192,192,431034,1,0,0:0:0:0:
448,192,431094,1,0,0:0:0:0:
64,192,431154,1,0,0:0:0:0:
192,192,431214,1,0,0:0:0:0:
320,192,431274,1,0,0:0:0:0:
64,192,431334,1,0,0:0:0:0:
448,192,431334,1,0,0:0:0:0:
192,192,431394,1,0,0:0:0:0:
320,192,431394,1,0,0:0:0:0:
64,192,431454,1,0,0:0:0:0:
448,192,431454,1,0,0:0:0:0:
192,192,431514,1,0,0:0:0:0:
320,192,431574,1,0,0:0:0:0:
448,192,431634,1,0,0:0:0:0:
64,192,431694,1,0,0:0:0:0:
192,192,431754,1,0,0:0:0:0:
448,192,431814,1,0,0:0:0:0:
320,192,431874,1,0,0:0:0:0:
64,192,431934,1,0,0:0:0:0:
448,192,431994,1,0,0:0:0:0:
192,192,432054,1,0,0:0:0:0:
64,192,432114,1,0,0:0:0:0:
448,192,432174,1,0,0:0:0:0:
320,192,432234,1,0,0:0:0:0:
64,192,432294,1,0,0:0:0:0:
192,192,432294,1,0,0:0:0:0:
320,192,432354,1,0,0:0:0:0:
448,192,432354,1,0,0:0:0:0:
64,192,432414,1,0,0:0:0:0:
192,192,432414,1,0,0:0:0:0:
448,192,432474,1,0,0:0:0:0:
320,192,432534,1,0,0:0:0:0:
192,192,432594,1,0,0:0:0:0:
448,192,432654,1,0,0:0:0:0:
320,192,432714,1,0,0:0:0:0:
64,192,432774,1,0,0:0:0:0:
192,192,432834,1,0,0:0:0:0:
320,192,432894,1,0,0:0:0:0:
448,192,432954,1,0,0:0:0:0:
64,192,433014,1,0,0:0:0:0:
320,192,433074,1,0,0:0:0:0:
448,192,433134,1,0,0:0:0:0:
64,192,433194,1,0,0:0:0:0:
192,192,433254,1,0,0:0:0:0:
320,192,433314,1,0,0:0:0:0:
448,192,433314,1,0,0:0:0:0:
64,192,433374,1,0,0:0:0:0:
192,192,433434,1,0,0:0:0:0:
320,192,433494,1,0,0:0:0:0:
448,192,433494,1,0,0:0:0:0:
192,192,433554,1,0,0:0:0:0:
448,192,433614,1,0,0:0:0:0:
64,192,433674,1,0,0:0:0:0:
320,192,433674,1,0,0:0:0:0:
448,192,433794,1,0,0:0:0:0:
192,192,433794,1,0,0:0:0:0:
192,192,433914,1,0,0:0:0:0:
320,192,433914,1,0,0:0:0:0:
192,192,434034,1,0,0:0:0:0:
320,192,434034,1,0,0:0:0:0:
64,192,434154,1,0,0:0:0:0:
448,192,434154,1,0,0:0:0:0:
320,192,434214,1,0,0:0:0:0:
64,192,434274,1,0,0:0:0:0:
192,192,434274,1,0,0:0:0:0:
448,192,434334,1,0,0:0:0:0:
320,192,434394,1,0,0:0:0:0:
64,192,434454,1,0,0:0:0:0:
192,192,434454,1,0,0:0:0:0:
448,192,434514,1,0,0:0:0:0:
320,192,434574,1,0,0:0:0:0:
64,192,434634,1,0,0:0:0:0:
448,192,434694,1,0,0:0:0:0:
192,192,434694,1,0,0:0:0:0:
192,192,434874,1,0,0:0:0:0:
64,192,434934,1,0,0:0:0:0:
448,192,434994,1,0,0:0:0:0:
320,192,435054,1,0,0:0:0:0:
64,192,435114,1,0,0:0:0:0:
192,192,435174,1,0,0:0:0:0:
448,192,435234,1,0,0:0:0:0:
320,192,435234,1,0,0:0:0:0:
64,192,435294,1,0,0:0:0:0:
192,192,435354,1,0,0:0:0:0:
448,192,435414,1,0,0:0:0:0:
320,192,435414,1,0,0:0:0:0:
64,192,435474,1,0,0:0:0:0:
192,192,435534,1,0,0:0:0:0:
448,192,435594,1,0,0:0:0:0:
320,192,435654,1,0,0:0:0:0:
64,192,435654,1,0,0:0:0:0:
320,192,435834,1,0,0:0:0:0:
448,192,435894,1,0,0:0:0:0:
64,192,435954,1,0,0:0:0:0:
192,192,436014,1,0,0:0:0:0:
448,192,436074,1,0,0:0:0:0:
320,192,436134,1,0,0:0:0:0:
192,192,436194,1,0,0:0:0:0:
64,192,436194,1,0,0:0:0:0:
448,192,436254,1,0,0:0:0:0:
320,192,436314,1,0,0:0:0:0:
192,192,436374,1,0,0:0:0:0:
64,192,436374,1,0,0:0:0:0:
448,192,436434,1,0,0:0:0:0:
320,192,436494,1,0,0:0:0:0:
64,192,436554,1,0,0:0:0:0:
448,192,436614,1,0,0:0:0:0:
192,192,436614,1,0,0:0:0:0:
192,192,436794,1,0,0:0:0:0:
64,192,436854,1,0,0:0:0:0:
448,192,436914,1,0,0:0:0:0:
320,192,436974,1,0,0:0:0:0:
64,192,437034,1,0,0:0:0:0:
192,192,437094,1,0,0:0:0:0:
448,192,437154,1,0,0:0:0:0:
320,192,437154,1,0,0:0:0:0:
64,192,437214,1,0,0:0:0:0:
192,192,437274,1,0,0:0:0:0:
320,192,437334,1,0,0:0:0:0:
448,192,437334,1,0,0:0:0:0:
64,192,437394,1,0,0:0:0:0:
192,192,437454,1,0,0:0:0:0:
448,192,437514,1,0,0:0:0:0:
320,192,437574,1,0,0:0:0:0:
64,192,437574,1,0,0:0:0:0:
64,192,437754,1,0,0:0:0:0:
192,192,437814,1,0,0:0:0:0:
320,192,437874,1,0,0:0:0:0:
448,192,437934,1,0,0:0:0:0:
192,192,437994,1,0,0:0:0:0:
320,192,438054,1,0,0:0:0:0:
64,192,438114,1,0,0:0:0:0:
448,192,438114,1,0,0:0:0:0:
192,192,438174,1,0,0:0:0:0:
320,192,438234,1,0,0:0:0:0:
448,192,438294,1,0,0:0:0:0:
64,192,438294,1,0,0:0:0:0:
192,192,438354,1,0,0:0:0:0:
320,192,438414,1,0,0:0:0:0:
64,192,438474,1,0,0:0:0:0:
448,192,438534,1,0,0:0:0:0:
192,192,438594,1,0,0:0:0:0:
64,192,438654,1,0,0:0:0:0:
448,192,438714,1,0,0:0:0:0:
320,192,438774,1,0,0:0:0:0:
64,192,438834,1,0,0:0:0:0:
448,192,438894,1,0,0:0:0:0:
320,192,438954,1,0,0:0:0:0:
192,192,439014,1,0,0:0:0:0:
64,192,439074,1,0,0:0:0:0:
448,192,439074,1,0,0:0:0:0:
320,192,439134,1,0,0:0:0:0:
192,192,439194,1,0,0:0:0:0:
64,192,439254,1,0,0:0:0:0:
448,192,439254,1,0,0:0:0:0:
320,192,439314,1,0,0:0:0:0:
192,192,439374,1,0,0:0:0:0:
448,192,439434,1,0,0:0:0:0:
320,192,439494,1,0,0:0:0:0:
64,192,439554,1,0,0:0:0:0:
192,192,439614,1,0,0:0:0:0:
320,192,439674,1,0,0:0:0:0:
448,192,439734,1,0,0:0:0:0:
64,192,439794,1,0,0:0:0:0:
192,192,439854,1,0,0:0:0:0:
448,192,439914,1,0,0:0:0:0:
320,192,439974,1,0,0:0:0:0:
64,192,440034,1,0,0:0:0:0:
192,192,440034,1,0,0:0:0:0:
448,192,440094,1,0,0:0:0:0:
320,192,440154,1,0,0:0:0:0:
192,192,440214,1,0,0:0:0:0:
64,192,440214,1,0,0:0:0:0:
448,192,440274,1,0,0:0:0:0:
320,192,440334,1,0,0:0:0:0:
64,192,440394,1,0,0:0:0:0:
448,192,440454,1,0,0:0:0:0:
192,192,440514,1,0,0:0:0:0:
64,192,440574,1,0,0:0:0:0:
448,192,440634,1,0,0:0:0:0:
320,192,440694,1,0,0:0:0:0:
192,192,440754,1,0,0:0:0:0:
448,192,440814,1,0,0:0:0:0:
64,192,440874,1,0,0:0:0:0:
192,192,440934,1,0,0:0:0:0:
320,192,440994,1,0,0:0:0:0:
448,192,440994,1,0,0:0:0:0:
64,192,441054,1,0,0:0:0:0:
192,192,441114,1,0,0:0:0:0:
320,192,441174,1,0,0:0:0:0:
448,192,441174,1,0,0:0:0:0:
64,192,441234,1,0,0:0:0:0:
192,192,441294,1,0,0:0:0:0:
320,192,441354,1,0,0:0:0:0:
64,192,441414,1,0,0:0:0:0:
448,192,441474,1,0,0:0:0:0:
192,192,441534,1,0,0:0:0:0:
64,192,441594,1,0,0:0:0:0:
320,192,441654,1,0,0:0:0:0:
320,192,441834,1,0,0:0:0:0:
192,192,441894,1,0,0:0:0:0:
64,192,441954,1,0,0:0:0:0:
320,192,441954,1,0,0:0:0:0:
192,192,442014,1,0,0:0:0:0:
448,192,442014,1,0,0:0:0:0:
320,192,442074,1,0,0:0:0:0:
64,192,442134,1,0,0:0:0:0:
448,192,442194,1,0,0:0:0:0:
192,192,442254,1,0,0:0:0:0:
320,192,442314,1,0,0:0:0:0:
64,192,442374,1,0,0:0:0:0:
192,192,442434,1,0,0:0:0:0:
448,192,442494,1,0,0:0:0:0:
64,192,442554,1,0,0:0:0:0:
192,192,442614,1,0,0:0:0:0:
320,192,442674,1,0,0:0:0:0:
448,192,442734,1,0,0:0:0:0:
192,192,442794,1,0,0:0:0:0:
320,192,442854,1,0,0:0:0:0:
192,192,442914,1,0,0:0:0:0:
448,192,442914,1,0,0:0:0:0:
64,192,442974,1,0,0:0:0:0:
320,192,442974,1,0,0:0:0:0:
192,192,443034,1,0,0:0:0:0:
448,192,443094,1,0,0:0:0:0:
64,192,443154,1,0,0:0:0:0:
320,192,443214,1,0,0:0:0:0:
192,192,443274,1,0,0:0:0:0:
448,192,443334,1,0,0:0:0:0:
320,192,443394,1,0,0:0:0:0:
64,192,443454,1,0,0:0:0:0:
448,192,443514,1,0,0:0:0:0:
320,192,443574,1,0,0:0:0:0:
192,192,443634,1,0,0:0:0:0:
64,192,443694,1,0,0:0:0:0:
320,192,443754,1,0,0:0:0:0:
192,192,443814,1,0,0:0:0:0:
320,192,443874,1,0,0:0:0:0:
64,192,443874,1,0,0:0:0:0:
448,192,443934,1,0,0:0:0:0:
192,192,443934,1,0,0:0:0:0:
320,192,443994,1,0,0:0:0:0:
64,192,444054,1,0,0:0:0:0:
448,192,444114,1,0,0:0:0:0:
192,192,444174,1,0,0:0:0:0:
64,192,444234,1,0,0:0:0:0:
448,192,444294,1,0,0:0:0:0:
320,192,444354,1,0,0:0:0:0:
64,192,444414,1,0,0:0:0:0:
448,192,444474,1,0,0:0:0:0:
192,192,444534,1,0,0:0:0:0:
64,192,444594,1,0,0:0:0:0:
448,192,444654,1,0,0:0:0:0:
320,192,444714,1,0,0:0:0:0:
64,192,444774,1,0,0:0:0:0:
192,192,444834,1,0,0:0:0:0:
448,192,444834,1,0,0:0:0:0:
320,192,444894,1,0,0:0:0:0:
192,192,444954,1,0,0:0:0:0:
64,192,445014,1,0,0:0:0:0:
448,192,445014,1,0,0:0:0:0:
320,192,445074,1,0,0:0:0:0:
192,192,445134,1,0,0:0:0:0:
64,192,445194,1,0,0:0:0:0:
448,192,445254,1,0,0:0:0:0:
320,192,445254,1,0,0:0:0:0:
192,192,445314,1,0,0:0:0:0:
320,192,445434,1,0,0:0:0:0:
64,192,445494,1,0,0:0:0:0:
192,192,445554,1,0,0:0:0:0:
448,192,445614,1,0,0:0:0:0:
320,192,445674,1,0,0:0:0:0:
448,192,445734,1,0,0:0:0:0:
192,192,445734,1,0,0:0:0:0:
64,192,445794,1,0,0:0:0:0:
320,192,445794,1,0,0:0:0:0:
192,192,445854,1,0,0:0:0:0:
448,192,445854,1,0,0:0:0:0:
64,192,445914,1,0,0:0:0:0:
320,192,445974,1,0,0:0:0:0:
192,192,446034,1,0,0:0:0:0:
448,192,446094,1,0,0:0:0:0:
320,192,446154,1,0,0:0:0:0:
192,192,446214,1,0,0:0:0:0:
64,192,446274,1,0,0:0:0:0:
448,192,446334,1,0,0:0:0:0:
320,192,446394,1,0,0:0:0:0:
192,192,446454,1,0,0:0:0:0:
448,192,446514,1,0,0:0:0:0:
64,192,446574,1,0,0:0:0:0:
192,192,446634,1,0,0:0:0:0:
64,192,446694,1,0,0:0:0:0:
320,192,446694,1,0,0:0:0:0:
448,192,446754,1,0,0:0:0:0:
192,192,446754,1,0,0:0:0:0:
64,192,446814,1,0,0:0:0:0:
320,192,446814,1,0,0:0:0:0:
448,192,446874,1,0,0:0:0:0:
192,192,446934,1,0,0:0:0:0:
320,192,446994,1,0,0:0:0:0:
64,192,447054,1,0,0:0:0:0:
192,192,447114,1,0,0:0:0:0:
448,192,447174,1,0,0:0:0:0:
320,192,447234,1,0,0:0:0:0:
64,192,447294,1,0,0:0:0:0:
448,192,447354,1,0,0:0:0:0:
192,192,447414,1,0,0:0:0:0:
64,192,447474,1,0,0:0:0:0:
448,192,447534,1,0,0:0:0:0:
320,192,447594,1,0,0:0:0:0:
192,192,447654,1,0,0:0:0:0:
448,192,447654,1,0,0:0:0:0:
320,192,447714,1,0,0:0:0:0:
64,192,447714,1,0,0:0:0:0:
192,192,447774,1,0,0:0:0:0:
448,192,447774,1,0,0:0:0:0:
64,192,447834,1,0,0:0:0:0:
320,192,447894,1,0,0:0:0:0:
192,192,447954,1,0,0:0:0:0:
448,192,448014,1,0,0:0:0:0:
320,192,448074,1,0,0:0:0:0:
64,192,448134,1,0,0:0:0:0:
448,192,448194,1,0,0:0:0:0:
192,192,448254,1,0,0:0:0:0:
64,192,448314,1,0,0:0:0:0:
448,192,448374,1,0,0:0:0:0:
320,192,448434,1,0,0:0:0:0:
64,192,448494,1,0,0:0:0:0:
192,192,448554,1,0,0:0:0:0:
320,192,448614,1,0,0:0:0:0:
448,192,448674,1,0,0:0:0:0:
64,192,448674,1,0,0:0:0:0:
192,192,448734,1,0,0:0:0:0:
320,192,448794,1,0,0:0:0:0:
448,192,448854,1,0,0:0:0:0:
64,192,448854,1,0,0:0:0:0:
192,192,448914,1,0,0:0:0:0:
448,192,448974,1,0,0:0:0:0:
64,192,449034,1,0,0:0:0:0:
320,192,449034,1,0,0:0:0:0:
192,192,449154,1,0,0:0:0:0:
448,192,449154,1,0,0:0:0:0:
64,192,449274,1,0,0:0:0:0:
192,192,449274,1,0,0:0:0:0:
64,192,449394,1,0,0:0:0:0:
192,192,449394,1,0,0:0:0:0:
448,192,449514,1,0,0:0:0:0:
320,192,449514,1,0,0:0:0:0:
64,192,449574,1,0,0:0:0:0:
192,192,449634,1,0,0:0:0:0:
320,192,449634,1,0,0:0:0:0:
448,192,449694,1,0,0:0:0:0:
64,192,449754,1,0,0:0:0:0:
192,192,449814,1,0,0:0:0:0:
320,192,449814,1,0,0:0:0:0:
448,192,449874,1,0,0:0:0:0:
64,192,449934,1,0,0:0:0:0:
192,192,449994,1,0,0:0:0:0:
448,192,450054,1,0,0:0:0:0:
320,192,450054,1,0,0:0:0:0:
64,192,450174,1,0,0:0:0:0:
320,192,450234,1,0,0:0:0:0:
448,192,450294,1,0,0:0:0:0:
192,192,450354,1,0,0:0:0:0:
64,192,450414,1,0,0:0:0:0:
320,192,450474,1,0,0:0:0:0:
192,192,450534,1,0,0:0:0:0:
64,192,450594,1,0,0:0:0:0:
448,192,450594,1,0,0:0:0:0:
320,192,450654,1,0,0:0:0:0:
192,192,450714,1,0,0:0:0:0:
64,192,450774,1,0,0:0:0:0:
448,192,450774,1,0,0:0:0:0:
320,192,450834,1,0,0:0:0:0:
64,192,450894,1,0,0:0:0:0:
192,192,450954,1,0,0:0:0:0:
448,192,451014,1,0,0:0:0:0:
320,192,451014,1,0,0:0:0:0:
64,192,451134,1,0,0:0:0:0:
192,192,451194,1,0,0:0:0:0:
448,192,451254,1,0,0:0:0:0:
320,192,451314,1,0,0:0:0:0:
64,192,451374,1,0,0:0:0:0:
192,192,451434,1,0,0:0:0:0:
448,192,451494,1,0,0:0:0:0:
64,192,451554,1,0,0:0:0:0:
320,192,451554,1,0,0:0:0:0:
192,192,451614,1,0,0:0:0:0:
448,192,451674,1,0,0:0:0:0:
64,192,451734,1,0,0:0:0:0:
320,192,451734,1,0,0:0:0:0:
192,192,451794,1,0,0:0:0:0:
320,192,451854,1,0,0:0:0:0:
64,192,451914,1,0,0:0:0:0:
192,192,451974,1,0,0:0:0:0:
448,192,451974,1,0,0:0:0:0:
320,192,452094,1,0,0:0:0:0:
192,192,452154,1,0,0:0:0:0:
64,192,452214,1,0,0:0:0:0:
448,192,452274,1,0,0:0:0:0:
192,192,452334,1,0,0:0:0:0:
64,192,452394,1,0,0:0:0:0:
320,192,452454,1,0,0:0:0:0:
448,192,452514,1,0,0:0:0:0:
192,192,452514,1,0,0:0:0:0:
64,192,452574,1,0,0:0:0:0:
320,192,452634,1,0,0:0:0:0:
448,192,452694,1,0,0:0:0:0:
192,192,452694,1,0,0:0:0:0:
64,192,452754,1,0,0:0:0:0:
448,192,452814,1,0,0:0:0:0:
320,192,452874,1,0,0:0:0:0:
192,192,452934,1,0,0:0:0:0:
64,192,452934,1,0,0:0:0:0:
448,192,452994,1,0,0:0:0:0:
320,192,453054,1,0,0:0:0:0:
192,192,453114,1,0,0:0:0:0:
64,192,453114,1,0,0:0:0:0:
192,192,453234,1,0,0:0:0:0:
320,192,453234,1,0,0:0:0:0:
320,192,453354,1,0,0:0:0:0:
448,192,453354,1,0,0:0:0:0:
64,192,453474,1,0,0:0:0:0:
448,192,453474,1,0,0:0:0:0:
192,192,453594,1,0,0:0:0:0:
64,192,453594,1,0,0:0:0:0:
192,192,453714,1,0,0:0:0:0:
320,192,453714,1,0,0:0:0:0:
448,192,453834,1,0,0:0:0:0:
64,192,453834,1,0,0:0:0:0:
64,192,453954,1,0,0:0:0:0:
192,192,453954,1,0,0:0:0:0:
320,192,454014,1,0,0:0:0:0:
448,192,454014,1,0,0:0:0:0:
192,192,454074,1,0,0:0:0:0:
64,192,454074,1,0,0:0:0:0:
320,192,454194,1,0,0:0:0:0:
448,192,454194,1,0,0:0:0:0:
320,192,454314,1,0,0:0:0:0:
192,192,454314,1,0,0:0:0:0:
64,192,454434,1,0,0:0:0:0:
448,192,454434,1,0,0:0:0:0:
320,192,454554,1,0,0:0:0:0:
448,192,454554,1,0,0:0:0:0:
320,192,454674,1,0,0:0:0:0:
192,192,454674,1,0,0:0:0:0:
64,192,454794,1,0,0:0:0:0:
192,192,454794,1,0,0:0:0:0:
448,192,454854,1,0,0:0:0:0:
192,192,454914,1,0,0:0:0:0:
320,192,454914,1,0,0:0:0:0:
64,192,454974,1,0,0:0:0:0:
320,192,455034,1,0,0:0:0:0:
448,192,455034,1,0,0:0:0:0:
64,192,455154,1,0,0:0:0:0:
192,192,455154,1,0,0:0:0:0:
320,192,455214,1,0,0:0:0:0:
448,192,455214,1,0,0:0:0:0:
64,192,455334,1,0,0:0:0:0:
192,192,455334,1,0,0:0:0:0:
320,192,455394,1,0,0:0:0:0:
448,192,455394,1,0,0:0:0:0:
192,192,455514,1,0,0:0:0:0:
320,192,455514,1,0,0:0:0:0:
64,192,455634,1,0,0:0:0:0:
192,192,455634,1,0,0:0:0:0:
320,192,455694,1,0,0:0:0:0:
448,192,455694,1,0,0:0:0:0:
64,192,455814,1,0,0:0:0:0:
192,192,455814,1,0,0:0:0:0:
320,192,455874,1,0,0:0:0:0:
448,192,455874,1,0,0:0:0:0:
192,192,455994,1,0,0:0:0:0:
320,192,455994,1,0,0:0:0:0:
192,192,456114,1,0,0:0:0:0:
64,192,456114,1,0,0:0:0:0:
320,192,456174,1,0,0:0:0:0:
192,192,456234,1,0,0:0:0:0:
64,192,456234,1,0,0:0:0:0:
320,192,456354,1,0,0:0:0:0:
448,192,456354,1,0,0:0:0:0:
192,192,456414,1,0,0:0:0:0:
320,192,456474,1,0,0:0:0:0:
448,192,456474,1,0,0:0:0:0:
192,192,456594,1,0,0:0:0:0:
64,192,456594,1,0,0:0:0:0:
320,192,456654,1,0,0:0:0:0:
448,192,456714,1,0,0:0:0:0:
64,192,456714,1,0,0:0:0:0:
192,192,456834,1,0,0:0:0:0:
320,192,456954,1,0,0:0:0:0:
448,192,456954,1,0,0:0:0:0:
192,192,457014,1,0,0:0:0:0:
320,192,457134,1,0,0:0:0:0:
64,192,457194,1,0,0:0:0:0:
192,192,457194,1,0,0:0:0:0:
320,192,457254,1,0,0:0:0:0:
448,192,457314,1,0,0:0:0:0:
64,192,457314,1,0,0:0:0:0:
192,192,457374,1,0,0:0:0:0:
320,192,457374,1,0,0:0:0:0:
448,192,457434,1,0,0:0:0:0:
64,192,457494,1,0,0:0:0:0:
192,192,457554,1,0,0:0:0:0:
448,192,457614,1,0,0:0:0:0:
64,192,457674,1,0,0:0:0:0:
320,192,457674,1,0,0:0:0:0:
192,192,457734,1,0,0:0:0:0:
320,192,457794,1,0,0:0:0:0:
448,192,457854,1,0,0:0:0:0:
64,192,457914,1,0,0:0:0:0:
320,192,457974,1,0,0:0:0:0:
192,192,458034,1,0,0:0:0:0:
448,192,458094,1,0,0:0:0:0:
320,192,458154,1,0,0:0:0:0:
64,192,458154,1,0,0:0:0:0:
192,192,458214,1,0,0:0:0:0:
320,192,458274,1,0,0:0:0:0:
448,192,458274,1,0,0:0:0:0:
64,192,458334,1,0,0:0:0:0:
192,192,458334,1,0,0:0:0:0:
448,192,458394,1,0,0:0:0:0:
320,192,458454,1,0,0:0:0:0:
64,192,458514,1,0,0:0:0:0:
192,192,458574,1,0,0:0:0:0:
320,192,458634,1,0,0:0:0:0:
448,192,458634,1,0,0:0:0:0:
64,192,458694,1,0,0:0:0:0:
192,192,458754,1,0,0:0:0:0:
448,192,458814,1,0,0:0:0:0:
64,192,458874,1,0,0:0:0:0:
320,192,458934,1,0,0:0:0:0:
448,192,458994,1,0,0:0:0:0:
64,192,459054,1,0,0:0:0:0:
192,192,459114,1,0,0:0:0:0:
448,192,459114,1,0,0:0:0:0:
320,192,459174,1,0,0:0:0:0:
64,192,459234,1,0,0:0:0:0:
192,192,459234,1,0,0:0:0:0:
320,192,459294,1,0,0:0:0:0:
448,192,459294,1,0,0:0:0:0:
64,192,459354,1,0,0:0:0:0:
192,192,459414,1,0,0:0:0:0:
448,192,459474,1,0,0:0:0:0:
320,192,459534,1,0,0:0:0:0:
64,192,459594,1,0,0:0:0:0:
192,192,459594,1,0,0:0:0:0:
448,192,459654,1,0,0:0:0:0:
192,192,459714,1,0,0:0:0:0:
64,192,459774,1,0,0:0:0:0:
448,192,459834,1,0,0:0:0:0:
320,192,459894,1,0,0:0:0:0:
192,192,459954,1,0,0:0:0:0:
448,192,460014,1,0,0:0:0:0:
320,192,460074,1,0,0:0:0:0:
64,192,460074,1,0,0:0:0:0:
192,192,460134,1,0,0:0:0:0:
448,192,460194,1,0,0:0:0:0:
64,192,460194,1,0,0:0:0:0:
320,192,460254,1,0,0:0:0:0:
192,192,460314,1,0,0:0:0:0:
448,192,460374,1,0,0:0:0:0:
64,192,460374,1,0,0:0:0:0:
320,192,460434,1,0,0:0:0:0:
192,192,460494,1,0,0:0:0:0:
320,192,460554,1,0,0:0:0:0:
448,192,460554,1,0,0:0:0:0:
64,192,460614,1,0,0:0:0:0:
192,192,460614,1,0,0:0:0:0:
448,192,460674,1,0,0:0:0:0:
320,192,460734,1,0,0:0:0:0:
64,192,460794,1,0,0:0:0:0:
192,192,460854,1,0,0:0:0:0:
320,192,460914,1,0,0:0:0:0:
448,192,460974,1,0,0:0:0:0:
64,192,461034,1,0,0:0:0:0:
192,192,461034,1,0,0:0:0:0:
320,192,461094,1,0,0:0:0:0:
448,192,461094,1,0,0:0:0:0:
64,192,461154,1,0,0:0:0:0:
192,192,461154,1,0,0:0:0:0:
320,192,461214,1,0,0:0:0:0:
448,192,461214,1,0,0:0:0:0:
64,192,461274,1,0,0:0:0:0:
192,192,461334,1,0,0:0:0:0:
320,192,461394,1,0,0:0:0:0:
64,192,461454,1,0,0:0:0:0:
448,192,461514,1,0,0:0:0:0:
192,192,461514,1,0,0:0:0:0:
320,192,461574,1,0,0:0:0:0:
192,192,461634,1,0,0:0:0:0:
64,192,461694,1,0,0:0:0:0:
448,192,461754,1,0,0:0:0:0:
320,192,461814,1,0,0:0:0:0:
192,192,461874,1,0,0:0:0:0:
448,192,461934,1,0,0:0:0:0:
320,192,461994,1,0,0:0:0:0:
64,192,461994,1,0,0:0:0:0:
192,192,462054,1,0,0:0:0:0:
448,192,462054,1,0,0:0:0:0:
64,192,462114,1,0,0:0:0:0:
320,192,462114,1,0,0:0:0:0:
192,192,462174,1,0,0:0:0:0:
448,192,462174,1,0,0:0:0:0:
64,192,462234,1,0,0:0:0:0:
320,192,462294,1,0,0:0:0:0:
192,192,462354,1,0,0:0:0:0:
448,192,462414,1,0,0:0:0:0:
320,192,462474,1,0,0:0:0:0:
64,192,462474,1,0,0:0:0:0:
192,192,462534,1,0,0:0:0:0:
448,192,462594,1,0,0:0:0:0:
320,192,462654,1,0,0:0:0:0:
192,192,462714,1,0,0:0:0:0:
448,192,462774,1,0,0:0:0:0:
64,192,462834,1,0,0:0:0:0:
192,192,462894,1,0,0:0:0:0:
320,192,462954,1,0,0:0:0:0:
448,192,462954,1,0,0:0:0:0:
64,192,463014,1,0,0:0:0:0:
192,192,463014,1,0,0:0:0:0:
320,192,463074,1,0,0:0:0:0:
448,192,463074,1,0,0:0:0:0:
64,192,463134,1,0,0:0:0:0:
192,192,463134,1,0,0:0:0:0:
320,192,463194,1,0,0:0:0:0:
448,192,463254,1,0,0:0:0:0:
64,192,463314,1,0,0:0:0:0:
192,192,463374,1,0,0:0:0:0:
448,192,463434,1,0,0:0:0:0:
320,192,463434,1,0,0:0:0:0:
64,192,463494,1,0,0:0:0:0:
192,192,463554,1,0,0:0:0:0:
448,192,463614,1,0,0:0:0:0:
64,192,463674,1,0,0:0:0:0:
320,192,463734,1,0,0:0:0:0:
448,192,463794,1,0,0:0:0:0:
192,192,463854,1,0,0:0:0:0:
64,192,463914,1,0,0:0:0:0:
320,192,463914,1,0,0:0:0:0:
448,192,463974,1,0,0:0:0:0:
64,192,464034,1,0,0:0:0:0:
192,192,464034,1,0,0:0:0:0:
320,192,464094,1,0,0:0:0:0:
448,192,464154,1,0,0:0:0:0:
192,192,464214,1,0,0:0:0:0:
64,192,464214,1,0,0:0:0:0:
320,192,464274,1,0,0:0:0:0:
64,192,464334,1,0,0:0:0:0:
192,192,464394,1,0,0:0:0:0:
448,192,464394,1,0,0:0:0:0:
320,192,464454,1,0,0:0:0:0:
448,192,464514,1,0,0:0:0:0:
64,192,464514,1,0,0:0:0:0:
64,192,464634,1,0,0:0:0:0:
192,192,464634,1,0,0:0:0:0:
320,192,464754,1,0,0:0:0:0:
192,192,464754,1,0,0:0:0:0:
448,192,464874,1,0,0:0:0:0:
320,192,464874,1,0,0:0:0:0:
64,192,464934,1,0,0:0:0:0:
192,192,464994,1,0,0:0:0:0:
320,192,464994,1,0,0:0:0:0:
448,192,465054,1,0,0:0:0:0:
64,192,465114,1,0,0:0:0:0:
192,192,465174,1,0,0:0:0:0:
320,192,465174,1,0,0:0:0:0:
448,192,465234,1,0,0:0:0:0:
64,192,465294,1,0,0:0:0:0:
192,192,465354,1,0,0:0:0:0:
320,192,465354,1,0,0:0:0:0:
448,192,465414,1,0,0:0:0:0:
64,192,465414,1,0,0:0:0:0:
448,192,465594,1,0,0:0:0:0:
320,192,465654,1,0,0:0:0:0:
192,192,465714,1,0,0:0:0:0:
448,192,465774,1,0,0:0:0:0:
64,192,465834,1,0,0:0:0:0:
320,192,465834,1,0,0:0:0:0:
192,192,465894,1,0,0:0:0:0:
320,192,465954,1,0,0:0:0:0:
448,192,465954,1,0,0:0:0:0:
64,192,466014,1,0,0:0:0:0:
192,192,466074,1,0,0:0:0:0:
448,192,466134,1,0,0:0:0:0:
320,192,466134,1,0,0:0:0:0:
64,192,466194,1,0,0:0:0:0:
192,192,466254,1,0,0:0:0:0:
320,192,466314,1,0,0:0:0:0:
64,192,466314,1,0,0:0:0:0:
192,192,466374,1,0,0:0:0:0:
448,192,466374,1,0,0:0:0:0:
448,192,466554,1,0,0:0:0:0:
320,192,466614,1,0,0:0:0:0:
64,192,466674,1,0,0:0:0:0:
192,192,466734,1,0,0:0:0:0:
320,192,466794,1,0,0:0:0:0:
448,192,466794,1,0,0:0:0:0:
192,192,466854,1,0,0:0:0:0:
64,192,466914,1,0,0:0:0:0:
320,192,466914,1,0,0:0:0:0:
448,192,466974,1,0,0:0:0:0:
192,192,467034,1,0,0:0:0:0:
64,192,467094,1,0,0:0:0:0:
320,192,467094,1,0,0:0:0:0:
448,192,467154,1,0,0:0:0:0:
192,192,467214,1,0,0:0:0:0:
320,192,467274,1,0,0:0:0:0:
64,192,467274,1,0,0:0:0:0:
192,192,467334,1,0,0:0:0:0:
448,192,467334,1,0,0:0:0:0:
192,192,467514,1,0,0:0:0:0:
64,192,467574,1,0,0:0:0:0:
320,192,467634,1,0,0:0:0:0:
448,192,467694,1,0,0:0:0:0:
64,192,467754,1,0,0:0:0:0:
192,192,467754,1,0,0:0:0:0:
320,192,467814,1,0,0:0:0:0:
192,192,467874,1,0,0:0:0:0:
448,192,467874,1,0,0:0:0:0:
64,192,467934,1,0,0:0:0:0:
320,192,467994,1,0,0:0:0:0:
192,192,468054,1,0,0:0:0:0:
448,192,468054,1,0,0:0:0:0:
64,192,468114,1,0,0:0:0:0:
320,192,468174,1,0,0:0:0:0:
192,192,468234,1,0,0:0:0:0:
448,192,468234,1,0,0:0:0:0:
320,192,468294,1,0,0:0:0:0:
64,192,468294,1,0,0:0:0:0:
320,192,468474,1,0,0:0:0:0:
64,192,468534,1,0,0:0:0:0:
192,192,468594,1,0,0:0:0:0:
448,192,468654,1,0,0:0:0:0:
320,192,468714,1,0,0:0:0:0:
64,192,468714,1,0,0:0:0:0:
192,192,468774,1,0,0:0:0:0:
64,192,468834,1,0,0:0:0:0:
448,192,468834,1,0,0:0:0:0:
320,192,468894,1,0,0:0:0:0:
192,192,468954,1,0,0:0:0:0:
64,192,469014,1,0,0:0:0:0:
448,192,469014,1,0,0:0:0:0:
320,192,469074,1,0,0:0:0:0:
64,192,469134,1,0,0:0:0:0:
448,192,469194,1,0,0:0:0:0:
192,192,469194,1,0,0:0:0:0:
320,192,469254,1,0,0:0:0:0:
64,192,469314,1,0,0:0:0:0:
192,192,469374,1,0,0:0:0:0:
448,192,469434,1,0,0:0:0:0:
64,192,469494,1,0,0:0:0:0:
192,192,469554,1,0,0:0:0:0:
320,192,469614,1,0,0:0:0:0:
448,192,469674,1,0,0:0:0:0:
64,192,469674,1,0,0:0:0:0:
192,192,469734,1,0,0:0:0:0:
320,192,469794,1,0,0:0:0:0:
448,192,469794,1,0,0:0:0:0:
64,192,469854,1,0,0:0:0:0:
192,192,469914,1,0,0:0:0:0:
320,192,469974,1,0,0:0:0:0:
448,192,469974,1,0,0:0:0:0:
192,192,470034,1,0,0:0:0:0:
448,192,470094,1,0,0:0:0:0:
320,192,470154,1,0,0:0:0:0:
64,192,470154,1,0,0:0:0:0:
192,192,470214,1,0,0:0:0:0:
320,192,470274,1,0,0:0:0:0:
448,192,470334,1,0,0:0:0:0:
192,192,470394,1,0,0:0:0:0:
320,192,470454,1,0,0:0:0:0:
64,192,470514,1,0,0:0:0:0:
192,192,470574,1,0,0:0:0:0:
448,192,470634,1,0,0:0:0:0:
320,192,470634,1,0,0:0:0:0:
192,192,470694,1,0,0:0:0:0:
448,192,470754,1,0,0:0:0:0:
64,192,470754,1,0,0:0:0:0:
320,192,470814,1,0,0:0:0:0:
192,192,470874,1,0,0:0:0:0:
448,192,470934,1,0,0:0:0:0:
64,192,470934,1,0,0:0:0:0:
320,192,470994,1,0,0:0:0:0:
64,192,471054,1,0,0:0:0:0:
448,192,471114,1,0,0:0:0:0:
192,192,471114,1,0,0:0:0:0:
320,192,471174,1,0,0:0:0:0:
64,192,471234,1,0,0:0:0:0:
448,192,471294,1,0,0:0:0:0:
192,192,471354,1,0,0:0:0:0:
64,192,471414,1,0,0:0:0:0:
320,192,471474,1,0,0:0:0:0:
192,192,471534,1,0,0:0:0:0:
64,192,471594,1,0,0:0:0:0:
448,192,471594,1,0,0:0:0:0:
320,192,471654,1,0,0:0:0:0:
192,192,471714,1,0,0:0:0:0:
64,192,471714,1,0,0:0:0:0:
448,192,471774,1,0,0:0:0:0:
320,192,471834,1,0,0:0:0:0:
192,192,471894,1,0,0:0:0:0:
64,192,471894,1,0,0:0:0:0:
320,192,471954,1,0,0:0:0:0:
64,192,472014,1,0,0:0:0:0:
448,192,472074,1,0,0:0:0:0:
192,192,472074,1,0,0:0:0:0:
320,192,472134,1,0,0:0:0:0:
64,192,472194,1,0,0:0:0:0:
192,192,472254,1,0,0:0:0:0:
320,192,472314,1,0,0:0:0:0:
448,192,472374,1,0,0:0:0:0:
64,192,472374,1,0,0:0:0:0:
320,192,472554,5,0,0:0:0:0:
64,192,472554,1,0,0:0:0:0:
192,192,472614,1,0,0:0:0:0:
448,192,472614,1,0,0:0:0:0:
320,192,472674,1,0,0:0:0:0:
64,192,472734,1,0,0:0:0:0:
448,192,472734,1,0,0:0:0:0:
192,192,472794,1,0,0:0:0:0:
320,192,472854,1,0,0:0:0:0:
448,192,472854,1,0,0:0:0:0:
64,192,472914,1,0,0:0:0:0:
192,192,472974,1,0,0:0:0:0:
448,192,473034,1,0,0:0:0:0:
320,192,473034,1,0,0:0:0:0:
64,192,473154,1,0,0:0:0:0:
192,192,473154,1,0,0:0:0:0:
320,192,473274,1,0,0:0:0:0:
192,192,473334,1,0,0:0:0:0:
64,192,473394,1,0,0:0:0:0:
448,192,473394,1,0,0:0:0:0:
320,192,473454,1,0,0:0:0:0:
192,192,473514,1,0,0:0:0:0:
64,192,473514,1,0,0:0:0:0:
448,192,473574,1,0,0:0:0:0:
320,192,473574,1,0,0:0:0:0:
64,192,473634,1,0,0:0:0:0:
192,192,473694,1,0,0:0:0:0:
448,192,473694,1,0,0:0:0:0:
320,192,473754,1,0,0:0:0:0:
192,192,473814,1,0,0:0:0:0:
64,192,473814,1,0,0:0:0:0:
448,192,473874,1,0,0:0:0:0:
320,192,473934,1,0,0:0:0:0:
64,192,473994,1,0,0:0:0:0:
192,192,473994,1,0,0:0:0:0:
448,192,474114,1,0,0:0:0:0:
320,192,474114,1,0,0:0:0:0:
64,192,474234,1,0,0:0:0:0:
192,192,474294,1,0,0:0:0:0:
320,192,474354,1,0,0:0:0:0:
448,192,474354,1,0,0:0:0:0:
64,192,474414,1,0,0:0:0:0:
320,192,474474,1,0,0:0:0:0:
192,192,474474,1,0,0:0:0:0:
448,192,474534,1,0,0:0:0:0:
64,192,474534,1,0,0:0:0:0:
192,192,474594,1,0,0:0:0:0:
320,192,474654,1,0,0:0:0:0:
448,192,474654,1,0,0:0:0:0:
64,192,474714,1,0,0:0:0:0:
192,192,474774,1,0,0:0:0:0:
448,192,474774,1,0,0:0:0:0:
320,192,474834,1,0,0:0:0:0:
64,192,474894,1,0,0:0:0:0:
192,192,474954,1,0,0:0:0:0:
320,192,474954,1,0,0:0:0:0:
64,192,475074,1,0,0:0:0:0:
448,192,475074,1,0,0:0:0:0:
320,192,475194,1,0,0:0:0:0:
192,192,475194,1,0,0:0:0:0:
448,192,475254,1,0,0:0:0:0:
64,192,475314,1,0,0:0:0:0:
320,192,475374,1,0,0:0:0:0:
192,192,475434,1,0,0:0:0:0:
448,192,475434,1,0,0:0:0:0:
64,192,475494,1,0,0:0:0:0:
320,192,475554,1,0,0:0:0:0:
448,192,475554,1,0,0:0:0:0:
192,192,475614,1,0,0:0:0:0:
448,192,475674,1,0,0:0:0:0:
64,192,475674,1,0,0:0:0:0:
320,192,475734,1,0,0:0:0:0:
192,192,475794,1,0,0:0:0:0:
64,192,475794,1,0,0:0:0:0:
448,192,475854,1,0,0:0:0:0:
320,192,475914,1,0,0:0:0:0:
192,192,475914,1,0,0:0:0:0:
64,192,476034,1,0,0:0:0:0:
448,192,476034,1,0,0:0:0:0:
192,192,476154,1,0,0:0:0:0:
320,192,476154,1,0,0:0:0:0:
64,192,476214,1,0,0:0:0:0:
448,192,476274,1,0,0:0:0:0:
320,192,476334,1,0,0:0:0:0:
192,192,476394,5,0,0:0:0:0:
64,192,476394,1,0,0:0:0:0:
320,192,476454,1,0,0:0:0:0:
448,192,476454,1,0,0:0:0:0:
64,192,476514,1,0,0:0:0:0:
448,192,476574,1,0,0:0:0:0:
192,192,476574,1,0,0:0:0:0:
320,192,476634,1,0,0:0:0:0:
64,192,476694,1,0,0:0:0:0:
192,192,476694,1,0,0:0:0:0:
320,192,476754,1,0,0:0:0:0:
448,192,476814,1,0,0:0:0:0:
64,192,476874,1,0,0:0:0:0:
192,192,476874,1,0,0:0:0:0:
320,192,476994,1,0,0:0:0:0:
448,192,476994,1,0,0:0:0:0:
192,192,477114,1,0,0:0:0:0:
320,192,477174,1,0,0:0:0:0:
448,192,477234,1,0,0:0:0:0:
64,192,477234,1,0,0:0:0:0:
192,192,477294,1,0,0:0:0:0:
320,192,477354,1,0,0:0:0:0:
448,192,477354,1,0,0:0:0:0:
64,192,477414,1,0,0:0:0:0:
192,192,477414,1,0,0:0:0:0:
448,192,477474,1,0,0:0:0:0:
320,192,477534,1,0,0:0:0:0:
64,192,477534,1,0,0:0:0:0:
192,192,477594,1,0,0:0:0:0:
320,192,477654,1,0,0:0:0:0:
448,192,477654,1,0,0:0:0:0:
64,192,477714,1,0,0:0:0:0:
192,192,477774,1,0,0:0:0:0:
448,192,477834,1,0,0:0:0:0:
320,192,477834,1,0,0:0:0:0:
64,192,477954,1,0,0:0:0:0:
192,192,477954,1,0,0:0:0:0:
448,192,478074,1,0,0:0:0:0:
320,192,478134,1,0,0:0:0:0:
192,192,478194,1,0,0:0:0:0:
64,192,478194,1,0,0:0:0:0:
448,192,478254,1,0,0:0:0:0:
192,192,478314,1,0,0:0:0:0:
320,192,478314,1,0,0:0:0:0:
64,192,478374,1,0,0:0:0:0:
448,192,478374,1,0,0:0:0:0:
320,192,478434,1,0,0:0:0:0:
192,192,478494,1,0,0:0:0:0:
64,192,478494,1,0,0:0:0:0:
448,192,478554,1,0,0:0:0:0:
320,192,478614,1,0,0:0:0:0:
64,192,478614,1,0,0:0:0:0:
192,192,478674,1,0,0:0:0:0:
448,192,478734,1,0,0:0:0:0:
320,192,478794,1,0,0:0:0:0:
192,192,478794,1,0,0:0:0:0:
448,192,478914,1,0,0:0:0:0:
64,192,478914,1,0,0:0:0:0:
192,192,479034,1,0,0:0:0:0:
320,192,479034,1,0,0:0:0:0:
64,192,479094,1,0,0:0:0:0:
448,192,479154,1,0,0:0:0:0:
192,192,479214,1,0,0:0:0:0:
64,192,479274,1,0,0:0:0:0:
320,192,479274,1,0,0:0:0:0:
448,192,479334,1,0,0:0:0:0:
64,192,479394,1,0,0:0:0:0:
192,192,479394,1,0,0:0:0:0:
320,192,479454,1,0,0:0:0:0:
64,192,479514,1,0,0:0:0:0:
448,192,479574,1,0,0:0:0:0:
192,192,479574,1,0,0:0:0:0:
320,192,479634,1,0,0:0:0:0:
64,192,479694,1,0,0:0:0:0:
192,192,479754,1,0,0:0:0:0:
320,192,479754,1,0,0:0:0:0:
448,192,479814,1,0,0:0:0:0:
64,192,479814,1,0,0:0:0:0:
192,192,479874,1,0,0:0:0:0:
320,192,479874,1,0,0:0:0:0:
64,192,479994,1,0,0:0:0:0:
448,192,479994,1,0,0:0:0:0:
64,192,480114,1,0,0:0:0:0:
448,192,480114,1,0,0:0:0:0:
320,192,480234,1,0,0:0:0:0:
192,192,480234,1,0,0:0:0:0:
64,192,480294,1,0,0:0:0:0:
320,192,480354,1,0,0:0:0:0:
448,192,480354,1,0,0:0:0:0:
192,192,480414,1,0,0:0:0:0:
448,192,480474,1,0,0:0:0:0:
64,192,480534,1,0,0:0:0:0:
320,192,480534,1,0,0:0:0:0:
192,192,480594,1,0,0:0:0:0:
448,192,480654,1,0,0:0:0:0:
320,192,480714,1,0,0:0:0:0:
64,192,480714,1,0,0:0:0:0:
192,192,480774,1,0,0:0:0:0:
448,192,480774,1,0,0:0:0:0:
64,192,480954,1,0,0:0:0:0:
192,192,480954,1,0,0:0:0:0:
448,192,481014,1,0,0:0:0:0:
192,192,481074,1,0,0:0:0:0:
320,192,481134,1,0,0:0:0:0:
64,192,481194,1,0,0:0:0:0:
448,192,481194,1,0,0:0:0:0:
192,192,481254,1,0,0:0:0:0:
320,192,481314,1,0,0:0:0:0:
64,192,481314,1,0,0:0:0:0:
448,192,481374,1,0,0:0:0:0:
192,192,481434,1,0,0:0:0:0:
320,192,481494,1,0,0:0:0:0:
448,192,481494,1,0,0:0:0:0:
64,192,481554,1,0,0:0:0:0:
192,192,481614,1,0,0:0:0:0:
448,192,481674,1,0,0:0:0:0:
320,192,481674,1,0,0:0:0:0:
192,192,481794,1,0,0:0:0:0:
320,192,481794,1,0,0:0:0:0:
448,192,481914,1,0,0:0:0:0:
64,192,481914,1,0,0:0:0:0:
320,192,481974,1,0,0:0:0:0:
192,192,482034,1,0,0:0:0:0:
448,192,482094,1,0,0:0:0:0:
320,192,482154,1,0,0:0:0:0:
64,192,482154,1,0,0:0:0:0:
192,192,482214,1,0,0:0:0:0:
448,192,482274,1,0,0:0:0:0:
320,192,482274,1,0,0:0:0:0:
64,192,482334,1,0,0:0:0:0:
192,192,482394,1,0,0:0:0:0:
320,192,482454,1,0,0:0:0:0:
64,192,482454,1,0,0:0:0:0:
448,192,482514,1,0,0:0:0:0:
192,192,482574,1,0,0:0:0:0:
320,192,482634,1,0,0:0:0:0:
64,192,482634,1,0,0:0:0:0:
448,192,482694,1,0,0:0:0:0:
192,192,482694,1,0,0:0:0:0:
320,192,482874,1,0,0:0:0:0:
192,192,482874,1,0,0:0:0:0:
448,192,482934,1,0,0:0:0:0:
64,192,482994,1,0,0:0:0:0:
192,192,483054,1,0,0:0:0:0:
320,192,483114,1,0,0:0:0:0:
448,192,483114,1,0,0:0:0:0:
64,192,483174,1,0,0:0:0:0:
192,192,483234,1,0,0:0:0:0:
448,192,483234,1,0,0:0:0:0:
320,192,483294,1,0,0:0:0:0:
64,192,483354,1,0,0:0:0:0:
448,192,483414,1,0,0:0:0:0:
320,192,483414,1,0,0:0:0:0:
192,192,483474,1,0,0:0:0:0:
64,192,483534,1,0,0:0:0:0:
320,192,483594,1,0,0:0:0:0:
448,192,483594,1,0,0:0:0:0:
64,192,483654,1,0,0:0:0:0:
192,192,483654,1,0,0:0:0:0:
448,192,483714,1,0,0:0:0:0:
320,192,483774,1,0,0:0:0:0:
64,192,483834,1,0,0:0:0:0:
192,192,483834,1,0,0:0:0:0:
192,192,483954,1,0,0:0:0:0:
320,192,483954,1,0,0:0:0:0:
320,192,484074,1,0,0:0:0:0:
448,192,484074,1,0,0:0:0:0:
64,192,484194,1,0,0:0:0:0:
448,192,484194,1,0,0:0:0:0:
192,192,484314,1,0,0:0:0:0:
64,192,484314,1,0,0:0:0:0:
192,192,484434,1,0,0:0:0:0:
320,192,484434,1,0,0:0:0:0:
64,192,484554,1,0,0:0:0:0:
448,192,484554,1,0,0:0:0:0:
64,192,484674,1,0,0:0:0:0:
192,192,484674,1,0,0:0:0:0:
320,192,484734,1,0,0:0:0:0:
448,192,484734,1,0,0:0:0:0:
192,192,484794,1,0,0:0:0:0:
64,192,484794,1,0,0:0:0:0:
448,192,484914,1,0,0:0:0:0:
320,192,484914,1,0,0:0:0:0:
320,192,485034,1,0,0:0:0:0:
192,192,485034,1,0,0:0:0:0:
64,192,485154,1,0,0:0:0:0:
448,192,485154,1,0,0:0:0:0:
320,192,485274,1,0,0:0:0:0:
448,192,485274,1,0,0:0:0:0:
320,192,485394,1,0,0:0:0:0:
192,192,485394,1,0,0:0:0:0:
192,192,485514,1,0,0:0:0:0:
64,192,485514,1,0,0:0:0:0:
448,192,485574,1,0,0:0:0:0:
192,192,485634,1,0,0:0:0:0:
320,192,485634,1,0,0:0:0:0:
64,192,485694,1,0,0:0:0:0:
320,192,485754,1,0,0:0:0:0:
448,192,485754,1,0,0:0:0:0:
64,192,485874,1,0,0:0:0:0:
192,192,485874,1,0,0:0:0:0:
320,192,485934,1,0,0:0:0:0:
448,192,485934,1,0,0:0:0:0:
192,192,486054,1,0,0:0:0:0:
64,192,486054,1,0,0:0:0:0:
320,192,486114,1,0,0:0:0:0:
448,192,486114,1,0,0:0:0:0:
320,192,486234,1,0,0:0:0:0:
192,192,486234,1,0,0:0:0:0:
64,192,486354,1,0,0:0:0:0:
192,192,486354,1,0,0:0:0:0:
320,192,486414,1,0,0:0:0:0:
448,192,486414,1,0,0:0:0:0:
64,192,486534,1,0,0:0:0:0:
192,192,486534,1,0,0:0:0:0:
320,192,486594,1,0,0:0:0:0:
448,192,486594,1,0,0:0:0:0:
192,192,486714,1,0,0:0:0:0:
320,192,486714,1,0,0:0:0:0:
64,192,486834,1,0,0:0:0:0:
192,192,486834,1,0,0:0:0:0:
320,192,486894,1,0,0:0:0:0:
64,192,486954,1,0,0:0:0:0:
192,192,486954,1,0,0:0:0:0:
448,192,487074,1,0,0:0:0:0:
320,192,487074,1,0,0:0:0:0:
192,192,487134,1,0,0:0:0:0:
320,192,487194,1,0,0:0:0:0:
448,192,487194,1,0,0:0:0:0:
192,192,487314,1,0,0:0:0:0:
64,192,487314,1,0,0:0:0:0:
320,192,487374,1,0,0:0:0:0:
448,192,487434,1,0,0:0:0:0:
64,192,487434,1,0,0:0:0:0:
192,192,487554,1,0,0:0:0:0:
64,192,487674,1,0,0:0:0:0:
320,192,487674,1,0,0:0:0:0:
192,192,487794,1,0,0:0:0:0:
320,192,487914,1,0,0:0:0:0:
448,192,488034,1,0,0:0:0:0:
192,192,488094,1,0,0:0:0:0:
448,192,488154,1,0,0:0:0:0:
64,192,488274,1,0,0:0:0:0:
320,192,488394,1,0,0:0:0:0:
192,192,488514,1,0,0:0:0:0:
448,192,488634,1,0,0:0:0:0:
320,192,488634,1,0,0:0:0:0:
192,192,488694,1,0,0:0:0:0:
320,192,488754,1,0,0:0:0:0:
192,192,488814,1,0,0:0:0:0:
64,192,488874,1,0,0:0:0:0:
448,192,488994,1,0,0:0:0:0:
192,192,489054,1,0,0:0:0:0:
448,192,489114,1,0,0:0:0:0:
64,192,489234,1,0,0:0:0:0:
448,192,489354,1,0,0:0:0:0:
64,192,489474,1,0,0:0:0:0:
320,192,489594,1,0,0:0:0:0:
448,192,489594,1,0,0:0:0:0:
192,192,489714,1,0,0:0:0:0:
64,192,489834,1,0,0:0:0:0:
448,192,489954,1,0,0:0:0:0:
192,192,490014,1,0,0:0:0:0:
448,192,490074,1,0,0:0:0:0:
64,192,490194,1,0,0:0:0:0:
320,192,490314,1,0,0:0:0:0:
192,192,490434,1,0,0:0:0:0:
320,192,490554,1,0,0:0:0:0:
448,192,490554,1,0,0:0:0:0:
192,192,490614,1,0,0:0:0:0:
320,192,490674,1,0,0:0:0:0:
192,192,490734,1,0,0:0:0:0:
64,192,490794,1,0,0:0:0:0:
320,192,490914,1,0,0:0:0:0:
192,192,490974,1,0,0:0:0:0:
320,192,491034,1,0,0:0:0:0:
64,192,491154,1,0,0:0:0:0:
448,192,491274,1,0,0:0:0:0:
320,192,491394,1,0,0:0:0:0:
448,192,491514,1,0,0:0:0:0:
64,192,491514,1,0,0:0:0:0:
64,192,491634,1,0,0:0:0:0:
192,192,491634,1,0,0:0:0:0:
320,192,491754,1,0,0:0:0:0:
192,192,491754,1,0,0:0:0:0:
64,192,491874,1,0,0:0:0:0:
448,192,491874,1,0,0:0:0:0:
192,192,491934,1,0,0:0:0:0:
320,192,491994,1,0,0:0:0:0:
448,192,491994,1,0,0:0:0:0:
192,192,492114,1,0,0:0:0:0:
320,192,492114,1,0,0:0:0:0:
64,192,492234,1,0,0:0:0:0:
448,192,492234,1,0,0:0:0:0:
320,192,492354,1,0,0:0:0:0:
448,192,492354,1,0,0:0:0:0:
192,192,492414,1,0,0:0:0:0:
64,192,492414,1,0,0:0:0:0:
448,192,492474,1,0,0:0:0:0:
320,192,492474,1,0,0:0:0:0:
64,192,492594,1,0,0:0:0:0:
192,192,492594,1,0,0:0:0:0:
320,192,492714,1,0,0:0:0:0:
192,192,492714,1,0,0:0:0:0:
64,192,492834,1,0,0:0:0:0:
448,192,492834,1,0,0:0:0:0:
192,192,492894,1,0,0:0:0:0:
320,192,492954,1,0,0:0:0:0:
448,192,492954,1,0,0:0:0:0:
320,192,493074,1,0,0:0:0:0:
192,192,493074,1,0,0:0:0:0:
64,192,493194,1,0,0:0:0:0:
448,192,493194,1,0,0:0:0:0:
320,192,493314,1,0,0:0:0:0:
448,192,493314,1,0,0:0:0:0:
64,192,493374,1,0,0:0:0:0:
192,192,493374,1,0,0:0:0:0:
320,192,493434,1,0,0:0:0:0:
448,192,493434,1,0,0:0:0:0:
192,192,493554,1,0,0:0:0:0:
64,192,493554,1,0,0:0:0:0:
320,192,493614,1,0,0:0:0:0:
448,192,493614,1,0,0:0:0:0:
64,192,493734,1,0,0:0:0:0:
192,192,493734,1,0,0:0:0:0:
320,192,493794,1,0,0:0:0:0:
448,192,493794,1,0,0:0:0:0:
192,192,493854,1,0,0:0:0:0:
320,192,493914,1,0,0:0:0:0:
448,192,493914,1,0,0:0:0:0:
64,192,494034,1,0,0:0:0:0:
192,192,494034,1,0,0:0:0:0:
320,192,494094,1,0,0:0:0:0:
448,192,494094,1,0,0:0:0:0:
64,192,494214,1,0,0:0:0:0:
192,192,494214,1,0,0:0:0:0:
320,192,494274,1,0,0:0:0:0:
448,192,494274,1,0,0:0:0:0:
192,192,494394,1,0,0:0:0:0:
448,192,494394,1,0,0:0:0:0:
192,192,494514,1,0,0:0:0:0:
448,192,494514,1,0,0:0:0:0:
192,192,494634,1,0,0:0:0:0:
448,192,494634,1,0,0:0:0:0:
192,192,494754,1,0,0:0:0:0:
448,192,494754,1,0,0:0:0:0:
320,192,494874,1,0,0:0:0:0:
64,192,495354,1,0,0:0:0:0:
192,192,495354,1,0,0:0:0:0:
64,192,495474,1,0,0:0:0:0:
192,192,495474,1,0,0:0:0:0:
192,192,495594,1,0,0:0:0:0:
320,192,495594,1,0,0:0:0:0:
192,192,495714,1,0,0:0:0:0:
320,192,495714,1,0,0:0:0:0:
320,192,495834,1,0,0:0:0:0:
448,192,495834,1,0,0:0:0:0:
448,192,495954,1,0,0:0:0:0:
320,192,495954,1,0,0:0:0:0:
64,192,496074,1,0,0:0:0:0:
448,192,496074,1,0,0:0:0:0:
320,192,496134,1,0,0:0:0:0:
192,192,496134,1,0,0:0:0:0:
64,192,496194,1,0,0:0:0:0:
448,192,496194,1,0,0:0:0:0:
320,192,496254,1,0,0:0:0:0:
64,192,496314,1,0,0:0:0:0:
192,192,496314,1,0,0:0:0:0:
192,192,496434,1,0,0:0:0:0:
320,192,496434,1,0,0:0:0:0:
64,192,496554,1,0,0:0:0:0:
448,192,496554,1,0,0:0:0:0:
192,192,496614,1,0,0:0:0:0:
448,192,496674,1,0,0:0:0:0:
320,192,496714,1,0,0:0:0:0:
64,192,496754,1,0,0:0:0:0:
192,192,496794,1,0,0:0:0:0:
448,192,496834,1,0,0:0:0:0:
320,192,496874,1,0,0:0:0:0:
64,192,496914,1,0,0:0:0:0:
192,192,496914,1,0,0:0:0:0:
448,192,497034,1,0,0:0:0:0:
320,192,497034,1,0,0:0:0:0:
192,192,497094,1,0,0:0:0:0:
320,192,497154,1,0,0:0:0:0:
448,192,497154,1,0,0:0:0:0:
192,192,497214,1,0,0:0:0:0:
64,192,497274,1,0,0:0:0:0:
448,192,497274,1,0,0:0:0:0:
320,192,497334,1,0,0:0:0:0:
192,192,497394,1,0,0:0:0:0:
64,192,497394,1,0,0:0:0:0:
320,192,497454,1,0,0:0:0:0:
64,192,497514,1,0,0:0:0:0:
448,192,497514,1,0,0:0:0:0:
192,192,497634,1,0,0:0:0:0:
320,192,497634,1,0,0:0:0:0:
64,192,497754,1,0,0:0:0:0:
448,192,497754,1,0,0:0:0:0:
320,192,497814,1,0,0:0:0:0:
64,192,497874,1,0,0:0:0:0:
192,192,497914,1,0,0:0:0:0:
320,192,497954,1,0,0:0:0:0:
448,192,497994,1,0,0:0:0:0:
64,192,497994,1,0,0:0:0:0:
192,192,498054,1,0,0:0:0:0:
320,192,498114,1,0,0:0:0:0:
448,192,498114,1,0,0:0:0:0:
448,192,498234,1,0,0:0:0:0:
320,192,498274,1,0,0:0:0:0:
64,192,498314,1,0,0:0:0:0:
192,192,498354,1,0,0:0:0:0:
320,192,498414,1,0,0:0:0:0:
64,192,498474,1,0,0:0:0:0:
448,192,498474,1,0,0:0:0:0:
192,192,498534,1,0,0:0:0:0:
320,192,498594,1,0,0:0:0:0:
448,192,498594,1,0,0:0:0:0:
64,192,498654,1,0,0:0:0:0:
192,192,498714,1,0,0:0:0:0:
448,192,498754,1,0,0:0:0:0:
320,192,498794,1,0,0:0:0:0:
64,192,498834,1,0,0:0:0:0:
192,192,498894,1,0,0:0:0:0:
448,192,498954,1,0,0:0:0:0:
320,192,498994,1,0,0:0:0:0:
192,192,499034,1,0,0:0:0:0:
64,192,499074,1,0,0:0:0:0:
448,192,499114,1,0,0:0:0:0:
320,192,499154,1,0,0:0:0:0:
192,192,499194,1,0,0:0:0:0:
64,192,499194,1,0,0:0:0:0:
320,192,499314,1,0,0:0:0:0:
192,192,499374,1,0,0:0:0:0:
448,192,499434,1,0,0:0:0:0:
320,192,499434,1,0,0:0:0:0:
64,192,499554,1,0,0:0:0:0:
192,192,499614,1,0,0:0:0:0:
448,192,499674,1,0,0:0:0:0:
320,192,499674,1,0,0:0:0:0:
64,192,499734,1,0,0:0:0:0:
192,192,499794,1,0,0:0:0:0:
320,192,499854,1,0,0:0:0:0:
64,192,499914,1,0,0:0:0:0:
192,192,499914,1,0,0:0:0:0:
448,192,500034,1,0,0:0:0:0:
320,192,500094,1,0,0:0:0:0:
64,192,500154,1,0,0:0:0:0:
192,192,500154,1,0,0:0:0:0:
448,192,500214,1,0,0:0:0:0:
320,192,500274,1,0,0:0:0:0:
192,192,500334,1,0,0:0:0:0:
320,192,500394,1,0,0:0:0:0:
448,192,500394,1,0,0:0:0:0:
64,192,500514,1,0,0:0:0:0:
192,192,500574,1,0,0:0:0:0:
320,192,500634,1,0,0:0:0:0:
448,192,500634,1,0,0:0:0:0:
64,192,500694,1,0,0:0:0:0:
192,192,500754,1,0,0:0:0:0:
320,192,500814,1,0,0:0:0:0:
192,192,500874,1,0,0:0:0:0:
64,192,500874,1,0,0:0:0:0:
192,192,501114,1,0,0:0:0:0:
448,192,501114,1,0,0:0:0:0:
320,192,501234,1,0,0:0:0:0:
64,192,501274,1,0,0:0:0:0:
192,192,501314,1,0,0:0:0:0:
320,192,501354,1,0,0:0:0:0:
448,192,501354,1,0,0:0:0:0:
192,192,501474,1,0,0:0:0:0:
448,192,501474,1,0,0:0:0:0:
64,192,501594,1,0,0:0:0:0:
320,192,501594,1,0,0:0:0:0:
192,192,501714,1,0,0:0:0:0:
448,192,501714,1,0,0:0:0:0:
64,192,501834,1,0,0:0:0:0:
192,192,501834,1,0,0:0:0:0:
320,192,501894,1,0,0:0:0:0:
64,192,501954,1,0,0:0:0:0:
448,192,501954,1,0,0:0:0:0:
192,192,502074,1,0,0:0:0:0:
448,192,502074,1,0,0:0:0:0:
320,192,502254,1,0,0:0:0:0:
320,192,502434,1,0,0:0:0:0:
64,192,502554,1,0,0:0:0:0:
448,192,502554,1,0,0:0:0:0:
192,192,502614,1,0,0:0:0:0:
320,192,502674,1,0,0:0:0:0:
192,192,502734,1,0,0:0:0:0:
64,192,502794,1,0,0:0:0:0:
448,192,502794,1,0,0:0:0:0:
320,192,502854,1,0,0:0:0:0:
64,192,502914,1,0,0:0:0:0:
448,192,502914,1,0,0:0:0:0:
192,192,502974,1,0,0:0:0:0:
64,192,503034,1,0,0:0:0:0:
448,192,503034,1,0,0:0:0:0:
192,192,503154,1,0,0:0:0:0:
320,192,503154,1,0,0:0:0:0:
192,192,503274,1,0,0:0:0:0:
448,192,503274,1,0,0:0:0:0:
64,192,503394,1,0,0:0:0:0:
448,192,503394,1,0,0:0:0:0:
192,192,503514,1,0,0:0:0:0:
320,192,503514,1,0,0:0:0:0:
64,192,503634,1,0,0:0:0:0:
448,192,503634,1,0,0:0:0:0:
192,192,503754,1,0,0:0:0:0:
448,192,503754,1,0,0:0:0:0:
64,192,503874,1,0,0:0:0:0:
320,192,503874,1,0,0:0:0:0:
448,192,503934,1,0,0:0:0:0:
64,192,503994,1,0,0:0:0:0:
192,192,503994,1,0,0:0:0:0:
320,192,504114,1,0,0:0:0:0:
448,192,504114,1,0,0:0:0:0:
192,192,504234,1,0,0:0:0:0:
64,192,504234,1,0,0:0:0:0:
448,192,504354,1,0,0:0:0:0:
320,192,504394,1,0,0:0:0:0:
192,192,504434,1,0,0:0:0:0:
64,192,504474,1,0,0:0:0:0:
448,192,504514,1,0,0:0:0:0:
320,192,504554,1,0,0:0:0:0:
192,192,504594,1,0,0:0:0:0:
64,192,504714,1,0,0:0:0:0:
192,192,504714,1,0,0:0:0:0:
320,192,504774,1,0,0:0:0:0:
448,192,504834,1,0,0:0:0:0:
64,192,504874,1,0,0:0:0:0:
192,192,504914,1,0,0:0:0:0:
320,192,504954,1,0,0:0:0:0:
448,192,505014,1,0,0:0:0:0:
64,192,505074,1,0,0:0:0:0:
192,192,505074,1,0,0:0:0:0:
448,192,505134,1,0,0:0:0:0:
64,192,505194,1,0,0:0:0:0:
192,192,505194,1,0,0:0:0:0:
192,192,505314,1,0,0:0:0:0:
320,192,505314,1,0,0:0:0:0:
320,192,505434,1,0,0:0:0:0:
448,192,505434,1,0,0:0:0:0:
192,192,505554,1,0,0:0:0:0:
320,192,505554,1,0,0:0:0:0:
192,192,505674,1,0,0:0:0:0:
64,192,505674,1,0,0:0:0:0:
192,192,505794,1,0,0:0:0:0:
320,192,505794,1,0,0:0:0:0:
448,192,505914,1,0,0:0:0:0:
320,192,505954,1,0,0:0:0:0:
192,192,505994,1,0,0:0:0:0:
64,192,506034,1,0,0:0:0:0:
448,192,506094,1,0,0:0:0:0:
64,192,506154,1,0,0:0:0:0:
320,192,506214,1,0,0:0:0:0:
64,192,506274,1,0,0:0:0:0:
192,192,506334,1,0,0:0:0:0:
448,192,506394,1,0,0:0:0:0:
320,192,506434,1,0,0:0:0:0:
192,192,506474,1,0,0:0:0:0:
64,192,506514,1,0,0:0:0:0:
448,192,506574,1,0,0:0:0:0:
64,192,506634,1,0,0:0:0:0:
192,192,506674,1,0,0:0:0:0:
320,192,506714,1,0,0:0:0:0:
64,192,506754,1,0,0:0:0:0:
192,192,506794,1,0,0:0:0:0:
320,192,506834,1,0,0:0:0:0:
448,192,506874,1,0,0:0:0:0:
192,192,506994,1,0,0:0:0:0:
448,192,506994,1,0,0:0:0:0:
64,192,507114,1,0,0:0:0:0:
448,192,507114,1,0,0:0:0:0:
64,192,507234,1,0,0:0:0:0:
320,192,507234,1,0,0:0:0:0:
448,192,507354,1,0,0:0:0:0:
192,192,507354,1,0,0:0:0:0:
320,192,507474,1,0,0:0:0:0:
64,192,507474,1,0,0:0:0:0:
64,192,507594,1,0,0:0:0:0:
448,192,507594,1,0,0:0:0:0:
192,192,507714,1,0,0:0:0:0:
448,192,507714,1,0,0:0:0:0:
64,192,507834,1,0,0:0:0:0:
320,192,507834,1,0,0:0:0:0:
192,192,507954,1,0,0:0:0:0:
448,192,507954,1,0,0:0:0:0:
64,192,508074,1,0,0:0:0:0:
448,192,508074,1,0,0:0:0:0:
320,192,508194,1,0,0:0:0:0:
64,192,508194,1,0,0:0:0:0:
192,192,508314,1,0,0:0:0:0:
448,192,508314,1,0,0:0:0:0:
64,192,508434,1,0,0:0:0:0:
320,192,508434,1,0,0:0:0:0:
64,192,508554,1,0,0:0:0:0:
448,192,508554,1,0,0:0:0:0:
192,192,508674,1,0,0:0:0:0:
448,192,508674,1,0,0:0:0:0:
320,192,508734,1,0,0:0:0:0:
64,192,508794,1,0,0:0:0:0:
448,192,508794,1,0,0:0:0:0:
64,192,509034,1,0,0:0:0:0:
192,192,509034,1,0,0:0:0:0:
320,192,509094,1,0,0:0:0:0:
448,192,509154,1,0,0:0:0:0:
192,192,509194,1,0,0:0:0:0:
320,192,509234,1,0,0:0:0:0:
64,192,509274,1,0,0:0:0:0:
448,192,509274,1,0,0:0:0:0:
64,192,509514,1,0,0:0:0:0:
320,192,509514,1,0,0:0:0:0:
192,192,509574,1,0,0:0:0:0:
320,192,509634,1,0,0:0:0:0:
192,192,509694,1,0,0:0:0:0:
448,192,509754,1,0,0:0:0:0:
320,192,509754,1,0,0:0:0:0:
64,192,509874,1,0,0:0:0:0:
192,192,509874,1,0,0:0:0:0:
320,192,509934,1,0,0:0:0:0:
448,192,509934,1,0,0:0:0:0:
64,192,510054,1,0,0:0:0:0:
192,192,510054,1,0,0:0:0:0:
320,192,510114,1,0,0:0:0:0:
448,192,510114,1,0,0:0:0:0:
192,192,510234,1,0,0:0:0:0:
320,192,510234,1,0,0:0:0:0:
64,192,510354,1,0,0:0:0:0:
192,192,510354,1,0,0:0:0:0:
448,192,510414,1,0,0:0:0:0:
320,192,510474,1,0,0:0:0:0:
192,192,510474,1,0,0:0:0:0:
64,192,510534,1,0,0:0:0:0:
320,192,510594,1,0,0:0:0:0:
448,192,510594,1,0,0:0:0:0:
192,192,510654,1,0,0:0:0:0:
64,192,510714,1,0,0:0:0:0:
448,192,510714,1,0,0:0:0:0:
320,192,510954,1,0,0:0:0:0:
448,192,510954,1,0,0:0:0:0:
192,192,511014,1,0,0:0:0:0:
64,192,511074,1,0,0:0:0:0:
320,192,511114,1,0,0:0:0:0:
192,192,511154,1,0,0:0:0:0:
448,192,511194,1,0,0:0:0:0:
64,192,511194,1,0,0:0:0:0:
64,192,511434,1,0,0:0:0:0:
320,192,511434,1,0,0:0:0:0:
192,192,511494,1,0,0:0:0:0:
320,192,511554,1,0,0:0:0:0:
192,192,511614,1,0,0:0:0:0:
320,192,511674,1,0,0:0:0:0:
448,192,511674,1,0,0:0:0:0:
64,192,511794,1,0,0:0:0:0:
192,192,511794,1,0,0:0:0:0:
320,192,511854,1,0,0:0:0:0:
448,192,511854,1,0,0:0:0:0:
64,192,511974,1,0,0:0:0:0:
192,192,511974,1,0,0:0:0:0:
320,192,512034,1,0,0:0:0:0:
448,192,512034,1,0,0:0:0:0:
192,192,512154,1,0,0:0:0:0:
320,192,512154,1,0,0:0:0:0:
448,192,512214,1,0,0:0:0:0:
192,192,512274,1,0,0:0:0:0:
64,192,512274,1,0,0:0:0:0:
320,192,512334,1,0,0:0:0:0:
64,192,512394,1,0,0:0:0:0:
448,192,512394,1,0,0:0:0:0:
192,192,512454,1,0,0:0:0:0:
320,192,512454,1,0,0:0:0:0:
448,192,512514,1,0,0:0:0:0:
64,192,512574,1,0,0:0:0:0:
448,192,512634,1,0,0:0:0:0:
192,192,512634,1,0,0:0:0:0:
64,192,512694,1,0,0:0:0:0:
320,192,512754,1,0,0:0:0:0:
192,192,512814,1,0,0:0:0:0:
448,192,512874,1,0,0:0:0:0:
320,192,512934,1,0,0:0:0:0:
448,192,512994,1,0,0:0:0:0:
192,192,513034,1,0,0:0:0:0:
320,192,513074,1,0,0:0:0:0:
448,192,513114,1,0,0:0:0:0:
64,192,513114,1,0,0:0:0:0:
192,192,513174,1,0,0:0:0:0:
320,192,513234,1,0,0:0:0:0:
448,192,513294,1,0,0:0:0:0:
64,192,513354,1,0,0:0:0:0:
192,192,513354,1,0,0:0:0:0:
320,192,513414,1,0,0:0:0:0:
64,192,513474,1,0,0:0:0:0:
192,192,513534,1,0,0:0:0:0:
448,192,513594,1,0,0:0:0:0:
320,192,513594,1,0,0:0:0:0:
64,192,513714,1,0,0:0:0:0:
320,192,513774,1,0,0:0:0:0:
448,192,513774,1,0,0:0:0:0:
192,192,513834,1,0,0:0:0:0:
320,192,513954,1,0,0:0:0:0:
448,192,513954,1,0,0:0:0:0:
64,192,514074,1,0,0:0:0:0:
192,192,514074,1,0,0:0:0:0:
448,192,514134,1,0,0:0:0:0:
64,192,514194,1,0,0:0:0:0:
448,192,514254,1,0,0:0:0:0:
320,192,514314,1,0,0:0:0:0:
192,192,514354,1,0,0:0:0:0:
448,192,514394,1,0,0:0:0:0:
320,192,514434,1,0,0:0:0:0:
64,192,514474,1,0,0:0:0:0:
192,192,514514,1,0,0:0:0:0:
320,192,514554,1,0,0:0:0:0:
448,192,514554,1,0,0:0:0:0:
192,192,514674,1,0,0:0:0:0:
64,192,514794,1,0,0:0:0:0:
192,192,514854,1,0,0:0:0:0:
320,192,514914,1,0,0:0:0:0:
64,192,514954,1,0,0:0:0:0:
192,192,514994,1,0,0:0:0:0:
448,192,515034,1,0,0:0:0:0:
320,192,515034,1,0,0:0:0:0:
64,192,515154,1,0,0:0:0:0:
192,192,515274,1,0,0:0:0:0:
320,192,515274,1,0,0:0:0:0:
192,192,515394,1,0,0:0:0:0:
64,192,515454,1,0,0:0:0:0:
320,192,515514,1,0,0:0:0:0:
448,192,515514,1,0,0:0:0:0:
192,192,515634,1,0,0:0:0:0:
320,192,515694,1,0,0:0:0:0:
448,192,515694,1,0,0:0:0:0:
64,192,515814,1,0,0:0:0:0:
448,192,515874,1,0,0:0:0:0:
320,192,515874,1,0,0:0:0:0:
192,192,515994,1,0,0:0:0:0:
64,192,515994,1,0,0:0:0:0:
320,192,516114,1,0,0:0:0:0:
448,192,516234,1,0,0:0:0:0:
64,192,516234,1,0,0:0:0:0:
192,192,516294,1,0,0:0:0:0:
320,192,516354,1,0,0:0:0:0:
448,192,516414,1,0,0:0:0:0:
192,192,516474,1,0,0:0:0:0:
64,192,516474,1,0,0:0:0:0:
64,192,516714,1,0,0:0:0:0:
448,192,516714,1,0,0:0:0:0:
320,192,516774,1,0,0:0:0:0:
192,192,516834,1,0,0:0:0:0:
64,192,516894,1,0,0:0:0:0:
320,192,516954,1,0,0:0:0:0:
448,192,516954,1,0,0:0:0:0:
192,192,517014,1,0,0:0:0:0:
448,192,517074,1,0,0:0:0:0:
320,192,517134,1,0,0:0:0:0:
192,192,517194,1,0,0:0:0:0:
64,192,517194,1,0,0:0:0:0:
320,192,517254,1,0,0:0:0:0:
448,192,517314,1,0,0:0:0:0:
64,192,517374,1,0,0:0:0:0:
192,192,517434,1,0,0:0:0:0:
320,192,517434,1,0,0:0:0:0:
448,192,517494,1,0,0:0:0:0:
192,192,517554,1,0,0:0:0:0:
320,192,517614,1,0,0:0:0:0:
448,192,517674,1,0,0:0:0:0:
64,192,517674,1,0,0:0:0:0:
192,192,517734,1,0,0:0:0:0:
320,192,517794,1,0,0:0:0:0:
64,192,517854,1,0,0:0:0:0:
448,192,517914,1,0,0:0:0:0:
192,192,517914,1,0,0:0:0:0:
320,192,517974,1,0,0:0:0:0:
192,192,518034,1,0,0:0:0:0:
64,192,518094,1,0,0:0:0:0:
448,192,518154,1,0,0:0:0:0:
64,192,518214,1,0,0:0:0:0:
448,192,518274,1,0,0:0:0:0:
64,192,518334,1,0,0:0:0:0:
192,192,518394,1,0,0:0:0:0:
448,192,518394,1,0,0:0:0:0:
320,192,518454,1,0,0:0:0:0:
64,192,518514,1,0,0:0:0:0:
192,192,518574,1,0,0:0:0:0:
448,192,518634,1,0,0:0:0:0:
320,192,518634,1,0,0:0:0:0:
64,192,518694,1,0,0:0:0:0:
192,192,518754,1,0,0:0:0:0:
320,192,518814,1,0,0:0:0:0:
64,192,518874,1,0,0:0:0:0:
448,192,518874,1,0,0:0:0:0:
192,192,518934,1,0,0:0:0:0:
448,192,518994,1,0,0:0:0:0:
320,192,519054,1,0,0:0:0:0:
192,192,519114,1,0,0:0:0:0:
64,192,519114,1,0,0:0:0:0:
448,192,519174,1,0,0:0:0:0:
320,192,519234,1,0,0:0:0:0:
192,192,519294,1,0,0:0:0:0:
448,192,519354,1,0,0:0:0:0:
64,192,519354,1,0,0:0:0:0:
320,192,519414,1,0,0:0:0:0:
192,192,519474,1,0,0:0:0:0:
320,192,519534,1,0,0:0:0:0:
448,192,519594,1,0,0:0:0:0:
64,192,519594,1,0,0:0:0:0:
192,192,519654,1,0,0:0:0:0:
320,192,519714,1,0,0:0:0:0:
64,192,519774,1,0,0:0:0:0:
192,192,519834,1,0,0:0:0:0:
448,192,519834,1,0,0:0:0:0:
320,192,519894,1,0,0:0:0:0:
192,192,519954,1,0,0:0:0:0:
64,192,520014,1,0,0:0:0:0:
448,192,520074,1,0,0:0:0:0:
320,192,520114,1,0,0:0:0:0:
64,192,520154,1,0,0:0:0:0:
192,192,520194,1,0,0:0:0:0:
320,192,520234,1,0,0:0:0:0:
448,192,520274,1,0,0:0:0:0:
64,192,520314,1,0,0:0:0:0:
192,192,520314,1,0,0:0:0:0:
192,192,520434,1,0,0:0:0:0:
320,192,520434,1,0,0:0:0:0:
320,192,520554,1,0,0:0:0:0:
448,192,520554,1,0,0:0:0:0:
64,192,520614,1,0,0:0:0:0:
192,192,520674,1,0,0:0:0:0:
320,192,520734,1,0,0:0:0:0:
64,192,520794,1,0,0:0:0:0:
448,192,520794,1,0,0:0:0:0:
192,192,520854,1,0,0:0:0:0:
448,192,520914,1,0,0:0:0:0:
320,192,520974,1,0,0:0:0:0:
64,192,521034,1,0,0:0:0:0:
192,192,521034,1,0,0:0:0:0:
448,192,521094,1,0,0:0:0:0:
320,192,521154,1,0,0:0:0:0:
64,192,521214,1,0,0:0:0:0:
192,192,521274,1,0,0:0:0:0:
448,192,521274,1,0,0:0:0:0:
320,192,521334,1,0,0:0:0:0:
64,192,521394,1,0,0:0:0:0:
192,192,521454,1,0,0:0:0:0:
448,192,521514,1,0,0:0:0:0:
320,192,521514,1,0,0:0:0:0:
192,192,521574,1,0,0:0:0:0:
64,192,521634,1,0,0:0:0:0:
448,192,521694,1,0,0:0:0:0:
64,192,521754,1,0,0:0:0:0:
320,192,521754,1,0,0:0:0:0:
192,192,521814,1,0,0:0:0:0:
448,192,521874,1,0,0:0:0:0:
320,192,521914,1,0,0:0:0:0:
64,192,521954,1,0,0:0:0:0:
192,192,521994,1,0,0:0:0:0:
448,192,522034,1,0,0:0:0:0:
320,192,522074,1,0,0:0:0:0:
64,192,522114,1,0,0:0:0:0:
192,192,522154,1,0,0:0:0:0:
320,192,522194,1,0,0:0:0:0:
448,192,522234,1,0,0:0:0:0:
64,192,522234,1,0,0:0:0:0:
320,192,522354,1,0,0:0:0:0:
192,192,522354,1,0,0:0:0:0:
448,192,522474,1,0,0:0:0:0:
64,192,522474,1,0,0:0:0:0:
320,192,522534,1,0,0:0:0:0:
192,192,522594,1,0,0:0:0:0:
448,192,522654,1,0,0:0:0:0:
320,192,522714,1,0,0:0:0:0:
64,192,522714,1,0,0:0:0:0:
192,192,522774,1,0,0:0:0:0:
320,192,522834,1,0,0:0:0:0:
64,192,522894,1,0,0:0:0:0:
192,192,522954,1,0,0:0:0:0:
448,192,522954,1,0,0:0:0:0:
320,192,523014,1,0,0:0:0:0:
192,192,523074,1,0,0:0:0:0:
64,192,523134,1,0,0:0:0:0:
320,192,523194,1,0,0:0:0:0:
448,192,523194,1,0,0:0:0:0:
192,192,523314,1,0,0:0:0:0:
320,192,523314,1,0,0:0:0:0:
64,192,523434,1,0,0:0:0:0:
192,192,523434,1,0,0:0:0:0:
448,192,523494,1,0,0:0:0:0:
320,192,523554,1,0,0:0:0:0:
192,192,523554,1,0,0:0:0:0:
64,192,523614,1,0,0:0:0:0:
448,192,523674,1,0,0:0:0:0:
320,192,523674,1,0,0:0:0:0:
192,192,523794,1,0,0:0:0:0:
448,192,523794,1,0,0:0:0:0:
448,192,523914,1,0,0:0:0:0:
64,192,523914,1,0,0:0:0:0:
192,192,523974,1,0,0:0:0:0:
320,192,524034,1,0,0:0:0:0:
192,192,524094,1,0,0:0:0:0:
64,192,524154,1,0,0:0:0:0:
448,192,524214,1,0,0:0:0:0:
64,192,524274,1,0,0:0:0:0:
448,192,524334,1,0,0:0:0:0:
64,192,524394,1,0,0:0:0:0:
320,192,524394,1,0,0:0:0:0:
192,192,524454,1,0,0:0:0:0:
448,192,524514,1,0,0:0:0:0:
320,192,524574,1,0,0:0:0:0:
192,192,524634,1,0,0:0:0:0:
64,192,524634,1,0,0:0:0:0:
320,192,524694,1,0,0:0:0:0:
448,192,524754,1,0,0:0:0:0:
64,192,524814,1,0,0:0:0:0:
448,192,524874,1,0,0:0:0:0:
192,192,524874,1,0,0:0:0:0:
64,192,524934,1,0,0:0:0:0:
320,192,524994,1,0,0:0:0:0:
192,192,525054,1,0,0:0:0:0:
448,192,525114,1,0,0:0:0:0:
64,192,525114,1,0,0:0:0:0:
320,192,525174,1,0,0:0:0:0:
64,192,525234,1,0,0:0:0:0:
192,192,525294,1,0,0:0:0:0:
320,192,525354,1,0,0:0:0:0:
448,192,525354,1,0,0:0:0:0:
64,192,525414,1,0,0:0:0:0:
192,192,525474,1,0,0:0:0:0:
320,192,525534,1,0,0:0:0:0:
64,192,525594,1,0,0:0:0:0:
448,192,525594,1,0,0:0:0:0:
192,192,525654,1,0,0:0:0:0:
320,192,525714,1,0,0:0:0:0:
64,192,525774,1,0,0:0:0:0:
192,192,525834,1,0,0:0:0:0:
448,192,525894,1,0,0:0:0:0:
192,192,525954,1,0,0:0:0:0:
448,192,526014,1,0,0:0:0:0:
192,192,526074,1,0,0:0:0:0:
320,192,526074,1,0,0:0:0:0:
64,192,526134,1,0,0:0:0:0:
320,192,526194,1,0,0:0:0:0:
192,192,526254,1,0,0:0:0:0:
448,192,526314,1,0,0:0:0:0:
64,192,526314,1,0,0:0:0:0:
320,192,526374,1,0,0:0:0:0:
192,192,526434,1,0,0:0:0:0:
448,192,526494,1,0,0:0:0:0:
320,192,526554,1,0,0:0:0:0:
64,192,526554,1,0,0:0:0:0:
192,192,526614,1,0,0:0:0:0:
320,192,526674,1,0,0:0:0:0:
448,192,526734,1,0,0:0:0:0:
64,192,526794,1,0,0:0:0:0:
192,192,526794,1,0,0:0:0:0:
320,192,526854,1,0,0:0:0:0:
448,192,526914,1,0,0:0:0:0:
192,192,526974,1,0,0:0:0:0:
320,192,527034,1,0,0:0:0:0:
448,192,527034,1,0,0:0:0:0:
64,192,527094,1,0,0:0:0:0:
192,192,527154,1,0,0:0:0:0:
320,192,527214,1,0,0:0:0:0:
64,192,527274,1,0,0:0:0:0:
448,192,527274,1,0,0:0:0:0:
192,192,527334,1,0,0:0:0:0:
320,192,527394,1,0,0:0:0:0:
64,192,527454,1,0,0:0:0:0:
192,192,527514,1,0,0:0:0:0:
448,192,527514,1,0,0:0:0:0:
320,192,527574,1,0,0:0:0:0:
192,192,527634,1,0,0:0:0:0:
448,192,527694,1,0,0:0:0:0:
320,192,527754,1,0,0:0:0:0:
64,192,527754,1,0,0:0:0:0:
192,192,527874,1,0,0:0:0:0:
448,192,527874,1,0,0:0:0:0:
64,192,527994,1,0,0:0:0:0:
320,192,527994,1,0,0:0:0:0:
320,192,528114,1,0,0:0:0:0:
192,192,528114,1,0,0:0:0:0:
448,192,528234,1,0,0:0:0:0:
192,192,528234,1,0,0:0:0:0:
64,192,528294,1,0,0:0:0:0:
320,192,528354,1,0,0:0:0:0:
192,192,528414,1,0,0:0:0:0:
448,192,528474,1,0,0:0:0:0:
64,192,528474,1,0,0:0:0:0:
320,192,528534,1,0,0:0:0:0:
192,192,528594,1,0,0:0:0:0:
448,192,528654,1,0,0:0:0:0:
320,192,528714,1,0,0:0:0:0:
64,192,528714,1,0,0:0:0:0:
192,192,528774,1,0,0:0:0:0:
448,192,528834,1,0,0:0:0:0:
320,192,528894,1,0,0:0:0:0:
64,192,528954,1,0,0:0:0:0:
192,192,528954,1,0,0:0:0:0:
448,192,529014,1,0,0:0:0:0:
320,192,529074,1,0,0:0:0:0:
192,192,529134,1,0,0:0:0:0:
64,192,529194,1,0,0:0:0:0:
448,192,529194,1,0,0:0:0:0:
320,192,529254,1,0,0:0:0:0:
192,192,529314,1,0,0:0:0:0:
448,192,529374,1,0,0:0:0:0:
320,192,529434,1,0,0:0:0:0:
64,192,529434,1,0,0:0:0:0:
192,192,529494,1,0,0:0:0:0:
448,192,529554,1,0,0:0:0:0:
320,192,529614,1,0,0:0:0:0:
64,192,529674,1,0,0:0:0:0:
192,192,529714,1,0,0:0:0:0:
320,192,529754,1,0,0:0:0:0:
448,192,529794,1,0,0:0:0:0:
64,192,529834,1,0,0:0:0:0:
192,192,529874,1,0,0:0:0:0:
448,192,529914,1,0,0:0:0:0:
320,192,529914,1,0,0:0:0:0:
192,192,530034,1,0,0:0:0:0:
320,192,530034,1,0,0:0:0:0:
192,192,530154,1,0,0:0:0:0:
64,192,530154,1,0,0:0:0:0:
448,192,530214,1,0,0:0:0:0:
320,192,530274,1,0,0:0:0:0:
192,192,530334,1,0,0:0:0:0:
64,192,530394,1,0,0:0:0:0:
448,192,530394,1,0,0:0:0:0:
320,192,530454,1,0,0:0:0:0:
192,192,530514,1,0,0:0:0:0:
64,192,530574,1,0,0:0:0:0:
448,192,530634,1,0,0:0:0:0:
320,192,530634,1,0,0:0:0:0:
192,192,530694,1,0,0:0:0:0:
64,192,530754,1,0,0:0:0:0:
448,192,530814,1,0,0:0:0:0:
320,192,530874,1,0,0:0:0:0:
192,192,530874,1,0,0:0:0:0:
320,192,530994,1,0,0:0:0:0:
192,192,530994,1,0,0:0:0:0:
64,192,531114,1,0,0:0:0:0:
448,192,531114,1,0,0:0:0:0:
320,192,531174,1,0,0:0:0:0:
64,192,531234,1,0,0:0:0:0:
192,192,531234,1,0,0:0:0:0:
320,192,531294,1,0,0:0:0:0:
448,192,531354,1,0,0:0:0:0:
64,192,531354,1,0,0:0:0:0:
192,192,531474,1,0,0:0:0:0:
448,192,531474,1,0,0:0:0:0:
320,192,531594,1,0,0:0:0:0:
448,192,531594,1,0,0:0:0:0:
64,192,531654,1,0,0:0:0:0:
320,192,531714,1,0,0:0:0:0:
192,192,531774,1,0,0:0:0:0:
64,192,531834,1,0,0:0:0:0:
64,192,532074,1,0,0:0:0:0:
320,192,532134,1,0,0:0:0:0:
64,192,532194,1,0,0:0:0:0:
192,192,532194,1,0,0:0:0:0:
448,192,532254,1,0,0:0:0:0:
192,192,532314,1,0,0:0:0:0:
320,192,532374,1,0,0:0:0:0:
64,192,532434,1,0,0:0:0:0:
192,192,532434,1,0,0:0:0:0:
448,192,532494,1,0,0:0:0:0:
64,192,532554,1,0,0:0:0:0:
320,192,532614,1,0,0:0:0:0:
64,192,532674,1,0,0:0:0:0:
192,192,532674,1,0,0:0:0:0:
320,192,532734,1,0,0:0:0:0:
448,192,532794,1,0,0:0:0:0:
192,192,532854,1,0,0:0:0:0:
448,192,532914,1,0,0:0:0:0:
320,192,532914,1,0,0:0:0:0:
64,192,532974,1,0,0:0:0:0:
320,192,533034,1,0,0:0:0:0:
192,192,533094,1,0,0:0:0:0:
448,192,533154,1,0,0:0:0:0:
320,192,533154,1,0,0:0:0:0:
64,192,533214,1,0,0:0:0:0:
448,192,533274,1,0,0:0:0:0:
192,192,533334,1,0,0:0:0:0:
320,192,533394,1,0,0:0:0:0:
448,192,533434,1,0,0:0:0:0:
64,192,533474,1,0,0:0:0:0:
192,192,533514,1,0,0:0:0:0:
448,192,533574,1,0,0:0:0:0:
64,192,533634,1,0,0:0:0:0:
320,192,533694,1,0,0:0:0:0:
448,192,533754,1,0,0:0:0:0:
64,192,533814,1,0,0:0:0:0:
448,192,533874,1,0,0:0:0:0:
320,192,533874,1,0,0:0:0:0:
64,192,533934,1,0,0:0:0:0:
448,192,533994,1,0,0:0:0:0:
192,192,534054,1,0,0:0:0:0:
320,192,534114,1,0,0:0:0:0:
448,192,534114,1,0,0:0:0:0:
64,192,534174,1,0,0:0:0:0:
320,192,534234,1,0,0:0:0:0:
192,192,534294,1,0,0:0:0:0:
320,192,534354,1,0,0:0:0:0:
448,192,534354,1,0,0:0:0:0:
64,192,534414,1,0,0:0:0:0:
448,192,534474,1,0,0:0:0:0:
192,192,534534,1,0,0:0:0:0:
320,192,534594,1,0,0:0:0:0:
448,192,534594,1,0,0:0:0:0:
192,192,534654,1,0,0:0:0:0:
64,192,534714,1,0,0:0:0:0:
320,192,534774,1,0,0:0:0:0:
192,192,534834,1,0,0:0:0:0:
64,192,534834,1,0,0:0:0:0:
448,192,534894,1,0,0:0:0:0:
192,192,534954,1,0,0:0:0:0:
320,192,535014,1,0,0:0:0:0:
64,192,535074,1,0,0:0:0:0:
192,192,535074,1,0,0:0:0:0:
448,192,535134,1,0,0:0:0:0:
64,192,535194,1,0,0:0:0:0:
320,192,535254,1,0,0:0:0:0:
192,192,535314,1,0,0:0:0:0:
64,192,535314,1,0,0:0:0:0:
448,192,535374,1,0,0:0:0:0:
192,192,535434,1,0,0:0:0:0:
320,192,535474,1,0,0:0:0:0:
448,192,535514,1,0,0:0:0:0:
64,192,535554,1,0,0:0:0:0:
192,192,535594,1,0,0:0:0:0:
320,192,535634,1,0,0:0:0:0:
448,192,535674,1,0,0:0:0:0:
64,192,535734,1,0,0:0:0:0:
192,192,535794,1,0,0:0:0:0:
448,192,535854,1,0,0:0:0:0:
64,192,535914,1,0,0:0:0:0:
320,192,535914,1,0,0:0:0:0:
192,192,535974,1,0,0:0:0:0:
448,192,536034,1,0,0:0:0:0:
320,192,536094,1,0,0:0:0:0:
192,192,536154,1,0,0:0:0:0:
64,192,536154,1,0,0:0:0:0:
320,192,536214,1,0,0:0:0:0:
64,192,536274,1,0,0:0:0:0:
192,192,536334,1,0,0:0:0:0:
320,192,536394,1,0,0:0:0:0:
448,192,536394,1,0,0:0:0:0:
64,192,536454,1,0,0:0:0:0:
192,192,536514,1,0,0:0:0:0:
320,192,536574,1,0,0:0:0:0:
64,192,536634,1,0,0:0:0:0:
448,192,536634,1,0,0:0:0:0:
192,192,536694,1,0,0:0:0:0:
448,192,536754,1,0,0:0:0:0:
320,192,536814,1,0,0:0:0:0:
64,192,536874,1,0,0:0:0:0:
192,192,536874,1,0,0:0:0:0:
320,192,536934,1,0,0:0:0:0:
448,192,536994,1,0,0:0:0:0:
192,192,537054,1,0,0:0:0:0:
320,192,537114,1,0,0:0:0:0:
64,192,537114,1,0,0:0:0:0:
448,192,537174,1,0,0:0:0:0:
192,192,537234,1,0,0:0:0:0:
320,192,537294,1,0,0:0:0:0:
448,192,537354,1,0,0:0:0:0:
64,192,537394,1,0,0:0:0:0:
192,192,537434,1,0,0:0:0:0:
320,192,537474,1,0,0:0:0:0:
448,192,537514,1,0,0:0:0:0:
64,192,537554,1,0,0:0:0:0:
192,192,537594,1,0,0:0:0:0:
320,192,537594,1,0,0:0:0:0:
192,192,537714,1,0,0:0:0:0:
320,192,537714,1,0,0:0:0:0:
64,192,537834,1,0,0:0:0:0:
448,192,537834,1,0,0:0:0:0:
320,192,537894,1,0,0:0:0:0:
192,192,537954,1,0,0:0:0:0:
64,192,538014,1,0,0:0:0:0:
448,192,538074,1,0,0:0:0:0:
320,192,538074,1,0,0:0:0:0:
192,192,538134,1,0,0:0:0:0:
64,192,538194,1,0,0:0:0:0:
448,192,538254,1,0,0:0:0:0:
64,192,538314,1,0,0:0:0:0:
320,192,538314,1,0,0:0:0:0:
192,192,538374,1,0,0:0:0:0:
320,192,538434,1,0,0:0:0:0:
64,192,538494,1,0,0:0:0:0:
192,192,538554,1,0,0:0:0:0:
448,192,538554,1,0,0:0:0:0:
192,192,538674,1,0,0:0:0:0:
448,192,538674,1,0,0:0:0:0:
320,192,538794,1,0,0:0:0:0:
64,192,538794,1,0,0:0:0:0:
192,192,538914,1,0,0:0:0:0:
448,192,538914,1,0,0:0:0:0:
320,192,538974,1,0,0:0:0:0:
64,192,539034,1,0,0:0:0:0:
192,192,539034,1,0,0:0:0:0:
192,192,539154,1,0,0:0:0:0:
320,192,539154,1,0,0:0:0:0:
448,192,539274,1,0,0:0:0:0:
64,192,539274,1,0,0:0:0:0:
192,192,539334,1,0,0:0:0:0:
320,192,539394,1,0,0:0:0:0:
192,192,539454,1,0,0:0:0:0:
64,192,539514,1,0,0:0:0:0:
448,192,539514,1,0,0:0:0:0:
320,192,539574,1,0,0:0:0:0:
64,192,539634,1,0,0:0:0:0:
448,192,539694,1,0,0:0:0:0:
192,192,539754,1,0,0:0:0:0:
64,192,539754,1,0,0:0:0:0:
320,192,539814,1,0,0:0:0:0:
192,192,539874,1,0,0:0:0:0:
448,192,539934,1,0,0:0:0:0:
64,192,539994,1,0,0:0:0:0:
320,192,540054,1,0,0:0:0:0:
64,192,540114,1,0,0:0:0:0:
448,192,540174,1,0,0:0:0:0:
64,192,540234,1,0,0:0:0:0:
192,192,540234,1,0,0:0:0:0:
320,192,540294,1,0,0:0:0:0:
192,192,540354,1,0,0:0:0:0:
448,192,540414,1,0,0:0:0:0:
64,192,540474,1,0,0:0:0:0:
320,192,540534,1,0,0:0:0:0:
64,192,540594,1,0,0:0:0:0:
448,192,540654,1,0,0:0:0:0:
64,192,540714,1,0,0:0:0:0:
192,192,540714,1,0,0:0:0:0:
320,192,540774,1,0,0:0:0:0:
192,192,540834,1,0,0:0:0:0:
448,192,540894,1,0,0:0:0:0:
64,192,540954,1,0,0:0:0:0:
320,192,541014,1,0,0:0:0:0:
64,192,541074,1,0,0:0:0:0:
448,192,541134,1,0,0:0:0:0:
320,192,541194,1,0,0:0:0:0:
192,192,541254,1,0,0:0:0:0:
64,192,541314,1,0,0:0:0:0:
448,192,541374,1,0,0:0:0:0:
320,192,541434,1,0,0:0:0:0:
64,192,541494,1,0,0:0:0:0:
320,192,541554,1,0,0:0:0:0:
192,192,541614,1,0,0:0:0:0:
320,192,541674,1,0,0:0:0:0:
448,192,541674,1,0,0:0:0:0:
64,192,541734,1,0,0:0:0:0:
448,192,541794,1,0,0:0:0:0:
192,192,541854,1,0,0:0:0:0:
320,192,541914,1,0,0:0:0:0:
64,192,541974,1,0,0:0:0:0:
320,192,542034,1,0,0:0:0:0:
192,192,542094,1,0,0:0:0:0:
448,192,542154,1,0,0:0:0:0:
320,192,542154,1,0,0:0:0:0:
64,192,542214,1,0,0:0:0:0:
448,192,542274,1,0,0:0:0:0:
192,192,542334,1,0,0:0:0:0:
320,192,542394,1,0,0:0:0:0:
64,192,542454,1,0,0:0:0:0:
320,192,542514,1,0,0:0:0:0:
192,192,542574,1,0,0:0:0:0:
320,192,542634,1,0,0:0:0:0:
448,192,542634,1,0,0:0:0:0:
64,192,542694,1,0,0:0:0:0:
448,192,542754,1,0,0:0:0:0:
192,192,542814,1,0,0:0:0:0:
320,192,542874,1,0,0:0:0:0:
64,192,542934,1,0,0:0:0:0:
320,192,542994,1,0,0:0:0:0:
192,192,543054,1,0,0:0:0:0:
320,192,543114,1,0,0:0:0:0:
448,192,543114,1,0,0:0:0:0:
64,192,543234,1,0,0:0:0:0:
192,192,543234,1,0,0:0:0:0:
320,192,543354,1,0,0:0:0:0:
448,192,543354,1,0,0:0:0:0:
64,192,543414,1,0,0:0:0:0:
320,192,543474,1,0,0:0:0:0:
448,192,543474,1,0,0:0:0:0:
192,192,543534,1,0,0:0:0:0:
64,192,543594,1,0,0:0:0:0:
448,192,543594,1,0,0:0:0:0:
320,192,543654,1,0,0:0:0:0:
192,192,543714,1,0,0:0:0:0:
64,192,543714,1,0,0:0:0:0:
320,192,543774,1,0,0:0:0:0:
64,192,543834,1,0,0:0:0:0:
192,192,543834,1,0,0:0:0:0:
448,192,543894,1,0,0:0:0:0:
64,192,543954,1,0,0:0:0:0:
192,192,543954,1,0,0:0:0:0:
320,192,544014,1,0,0:0:0:0:
448,192,544074,1,0,0:0:0:0:
64,192,544074,1,0,0:0:0:0:
192,192,544134,1,0,0:0:0:0:
320,192,544194,1,0,0:0:0:0:
448,192,544194,1,0,0:0:0:0:
192,192,544254,1,0,0:0:0:0:
320,192,544314,1,0,0:0:0:0:
448,192,544314,1,0,0:0:0:0:
64,192,544374,1,0,0:0:0:0:
320,192,544434,1,0,0:0:0:0:
448,192,544434,1,0,0:0:0:0:
192,192,544494,1,0,0:0:0:0:
448,192,544554,1,0,0:0:0:0:
64,192,544554,1,0,0:0:0:0:
320,192,544614,1,0,0:0:0:0:
192,192,544674,1,0,0:0:0:0:
64,192,544674,1,0,0:0:0:0:
320,192,544734,1,0,0:0:0:0:
64,192,544794,1,0,0:0:0:0:
192,192,544794,1,0,0:0:0:0:
448,192,544854,1,0,0:0:0:0:
64,192,544914,1,0,0:0:0:0:
192,192,544914,1,0,0:0:0:0:
320,192,544974,1,0,0:0:0:0:
448,192,545034,1,0,0:0:0:0:
64,192,545074,1,0,0:0:0:0:
192,192,545114,1,0,0:0:0:0:
448,192,545154,1,0,0:0:0:0:
320,192,545154,1,0,0:0:0:0:
64,192,545194,1,0,0:0:0:0:
192,192,545234,1,0,0:0:0:0:
320,192,545274,1,0,0:0:0:0:
448,192,545274,1,0,0:0:0:0:
64,192,545394,1,0,0:0:0:0:
192,192,545394,1,0,0:0:0:0:
192,192,545514,1,0,0:0:0:0:
320,192,545514,1,0,0:0:0:0:
448,192,545574,1,0,0:0:0:0:
64,192,545634,1,0,0:0:0:0:
192,192,545694,1,0,0:0:0:0:
320,192,545754,1,0,0:0:0:0:
448,192,545754,1,0,0:0:0:0:
64,192,545814,1,0,0:0:0:0:
192,192,545874,1,0,0:0:0:0:
320,192,545934,1,0,0:0:0:0:
448,192,545994,1,0,0:0:0:0:
64,192,545994,1,0,0:0:0:0:
192,192,546054,1,0,0:0:0:0:
448,192,546114,1,0,0:0:0:0:
320,192,546174,1,0,0:0:0:0:
192,192,546234,1,0,0:0:0:0:
64,192,546234,1,0,0:0:0:0:
192,192,546354,1,0,0:0:0:0:
320,192,546354,1,0,0:0:0:0:
448,192,546474,1,0,0:0:0:0:
320,192,546474,1,0,0:0:0:0:
64,192,546534,1,0,0:0:0:0:
192,192,546594,1,0,0:0:0:0:
320,192,546594,1,0,0:0:0:0:
448,192,546654,1,0,0:0:0:0:
64,192,546714,1,0,0:0:0:0:
192,192,546714,1,0,0:0:0:0:
192,192,546834,1,0,0:0:0:0:
320,192,546834,1,0,0:0:0:0:
64,192,546954,1,0,0:0:0:0:
448,192,546954,1,0,0:0:0:0:
320,192,547014,1,0,0:0:0:0:
192,192,547074,1,0,0:0:0:0:
64,192,547134,1,0,0:0:0:0:
320,192,547194,1,0,0:0:0:0:
448,192,547194,1,0,0:0:0:0:
192,192,547254,1,0,0:0:0:0:
320,192,547314,1,0,0:0:0:0:
64,192,547374,1,0,0:0:0:0:
448,192,547434,1,0,0:0:0:0:
192,192,547554,1,0,0:0:0:0:
320,192,547554,1,0,0:0:0:0:
64,192,547614,1,0,0:0:0:0:
448,192,547674,1,0,0:0:0:0:
192,192,547734,1,0,0:0:0:0:
320,192,547794,1,0,0:0:0:0:
64,192,547914,1,0,0:0:0:0:
192,192,547914,1,0,0:0:0:0:
320,192,547974,1,0,0:0:0:0:
64,192,548034,1,0,0:0:0:0:
448,192,548094,1,0,0:0:0:0:
192,192,548154,1,0,0:0:0:0:
320,192,548274,1,0,0:0:0:0:
448,192,548274,1,0,0:0:0:0:
192,192,548334,1,0,0:0:0:0:
320,192,548394,1,0,0:0:0:0:
64,192,548454,1,0,0:0:0:0:
448,192,548514,1,0,0:0:0:0:
192,192,548634,1,0,0:0:0:0:
320,192,548634,1,0,0:0:0:0:
64,192,548694,1,0,0:0:0:0:
448,192,548754,1,0,0:0:0:0:
192,192,548814,1,0,0:0:0:0:
320,192,548874,1,0,0:0:0:0:
448,192,548874,1,0,0:0:0:0:
64,192,548934,1,0,0:0:0:0:
192,192,548994,1,0,0:0:0:0:
320,192,549114,1,0,0:0:0:0:
448,192,549114,1,0,0:0:0:0:
192,192,549174,1,0,0:0:0:0:
320,192,549234,1,0,0:0:0:0:
64,192,549294,1,0,0:0:0:0:
448,192,549354,1,0,0:0:0:0:
192,192,549474,1,0,0:0:0:0:
320,192,549474,1,0,0:0:0:0:
64,192,549534,1,0,0:0:0:0:
448,192,549594,1,0,0:0:0:0:
192,192,549654,1,0,0:0:0:0:
320,192,549714,1,0,0:0:0:0:
64,192,549834,1,0,0:0:0:0:
192,192,549834,1,0,0:0:0:0:
320,192,549894,1,0,0:0:0:0:
64,192,549954,1,0,0:0:0:0:
448,192,550014,1,0,0:0:0:0:
192,192,550074,1,0,0:0:0:0:
320,192,550194,1,0,0:0:0:0:
448,192,550194,1,0,0:0:0:0:
192,192,550254,1,0,0:0:0:0:
320,192,550314,1,0,0:0:0:0:
64,192,550374,1,0,0:0:0:0:
448,192,550434,1,0,0:0:0:0:
192,192,550554,1,0,0:0:0:0:
320,192,550554,1,0,0:0:0:0:
64,192,550614,1,0,0:0:0:0:
448,192,550674,1,0,0:0:0:0:
192,192,550734,1,0,0:0:0:0:
320,192,550794,1,0,0:0:0:0:
448,192,550834,1,0,0:0:0:0:
64,192,550874,1,0,0:0:0:0:
192,192,550914,1,0,0:0:0:0:
320,192,550954,1,0,0:0:0:0:
448,192,550994,1,0,0:0:0:0:
64,192,551034,1,0,0:0:0:0:
192,192,551034,1,0,0:0:0:0:
320,192,551094,1,0,0:0:0:0:
64,192,551154,1,0,0:0:0:0:
320,192,551214,1,0,0:0:0:0:
64,192,551274,1,0,0:0:0:0:
192,192,551334,1,0,0:0:0:0:
320,192,551394,1,0,0:0:0:0:
448,192,551394,1,0,0:0:0:0:
192,192,551454,1,0,0:0:0:0:
448,192,551514,1,0,0:0:0:0:
192,192,551574,1,0,0:0:0:0:
448,192,551634,1,0,0:0:0:0:
320,192,551694,1,0,0:0:0:0:
64,192,551754,1,0,0:0:0:0:
192,192,551754,1,0,0:0:0:0:
320,192,551814,1,0,0:0:0:0:
64,192,551874,1,0,0:0:0:0:
320,192,551934,1,0,0:0:0:0:
64,192,551994,1,0,0:0:0:0:
192,192,552054,1,0,0:0:0:0:
448,192,552114,1,0,0:0:0:0:
320,192,552114,1,0,0:0:0:0:
192,192,552174,1,0,0:0:0:0:
448,192,552234,1,0,0:0:0:0:
192,192,552294,1,0,0:0:0:0:
448,192,552354,1,0,0:0:0:0:
320,192,552414,1,0,0:0:0:0:
64,192,552474,1,0,0:0:0:0:
192,192,552474,1,0,0:0:0:0:
448,192,552534,1,0,0:0:0:0:
64,192,552594,1,0,0:0:0:0:
448,192,552654,1,0,0:0:0:0:
64,192,552714,1,0,0:0:0:0:
192,192,552754,1,0,0:0:0:0:
320,192,552794,1,0,0:0:0:0:
448,192,552834,1,0,0:0:0:0:
64,192,552894,1,0,0:0:0:0:
320,192,552954,1,0,0:0:0:0:
192,192,552954,1,0,0:0:0:0:
64,192,553014,1,0,0:0:0:0:
448,192,553074,1,0,0:0:0:0:
320,192,553114,1,0,0:0:0:0:
192,192,553154,1,0,0:0:0:0:
64,192,553194,1,0,0:0:0:0:
448,192,553234,1,0,0:0:0:0:
320,192,553274,1,0,0:0:0:0:
192,192,553314,1,0,0:0:0:0:
64,192,553314,1,0,0:0:0:0:
448,192,553374,1,0,0:0:0:0:
64,192,553434,1,0,0:0:0:0:
192,192,553474,1,0,0:0:0:0:
320,192,553514,1,0,0:0:0:0:
448,192,553554,1,0,0:0:0:0:
64,192,553594,1,0,0:0:0:0:
192,192,553634,1,0,0:0:0:0:
448,192,553674,1,0,0:0:0:0:
320,192,553674,1,0,0:0:0:0:
64,192,553734,1,0,0:0:0:0:
448,192,553794,1,0,0:0:0:0:
320,192,553834,1,0,0:0:0:0:
192,192,553874,1,0,0:0:0:0:
64,192,553914,1,0,0:0:0:0:
448,192,553954,1,0,0:0:0:0:
320,192,553994,1,0,0:0:0:0:
64,192,554034,1,0,0:0:0:0:
192,192,554034,1,0,0:0:0:0:
448,192,554094,1,0,0:0:0:0:
64,192,554154,1,0,0:0:0:0:
192,192,554194,1,0,0:0:0:0:
320,192,554234,1,0,0:0:0:0:
448,192,554274,1,0,0:0:0:0:
64,192,554314,1,0,0:0:0:0:
192,192,554354,1,0,0:0:0:0:
448,192,554394,1,0,0:0:0:0:
320,192,554434,1,0,0:0:0:0:
192,192,554474,1,0,0:0:0:0:
64,192,554514,1,0,0:0:0:0:
448,192,554554,1,0,0:0:0:0:
320,192,554594,1,0,0:0:0:0:
64,192,554634,1,0,0:0:0:0:
192,192,554674,1,0,0:0:0:0:
320,192,554714,1,0,0:0:0:0:
448,192,554754,1,0,0:0:0:0:
64,192,554794,1,0,0:0:0:0:
192,192,554834,1,0,0:0:0:0:
320,192,554874,1,0,0:0:0:0:
