osu file format v14

[General]
AudioFilename: audio.ogg
AudioLeadIn: 0
PreviewTime: 240669
Countdown: 0
SampleSet: Soft
StackLeniency: 0.7
Mode: 3
LetterboxInBreaks: 0
SpecialStyle: 0
WidescreenStoryboard: 1

[Editor]
Bookmarks: 28097,50040,71983,126840,176212,209126,242040,263983,285926,296897,318840
DistanceSpacing: 1.2
BeatDivisor: 4
GridSize: 4
TimelineZoom: 2.999995

[Metadata]
Title:Clinozoisite
TitleUnicode:Clinozoisite
Artist:Ludicin
ArtistUnicode:Ludicin
Creator:ruka
Version:Intangible
Source:
Tags:HARDCORE UTOPIA 5 HCU5 osu!mania 7K Chinese National Cup 2024 mcnc Finals Tiebreaker electronic instrumental drum'n'bass dnb artcore experimental j-core jersey club uk hardcore tech hybrid LN long notes tb marathon
BeatmapID:4478869
BeatmapSetID:2129939

[Difficulty]
HPDrainRate:8.8
CircleSize:7
OverallDifficulty:6.6
ApproachRate:5
SliderMultiplier:1.4
SliderTickRate:1

[Events]
//Background and Video events
0,0,"bg.jpg",0,0
//Break Periods
2,170926,174840
//Storyboard Layer 0 (Background)
//Storyboard Layer 1 (Fail)
//Storyboard Layer 2 (Pass)
//Storyboard Layer 3 (Foreground)
//Storyboard Layer 4 (Overlay)
//Storyboard Sound Samples

[TimingPoints]
6155,342.857142857143,4,2,1,50,1,0
82955,-100,4,2,1,50,0,1
93926,-100,4,2,1,50,0,0
104897,-100,4,2,1,50,0,1
115869,-100,4,2,1,50,0,0
242040,-100,4,2,1,50,0,1
252326,-100,4,2,1,50,0,0
253012,-100,4,2,1,50,0,1
263640,-100,4,2,1,50,0,0
263983,-100,4,2,1,50,0,1
274269,-100,4,2,1,50,0,0
274955,-100,4,2,1,50,0,1
285926,-100,4,2,1,50,0,0

[HitObjects]
36,192,6154,5,0,0:0:0:0:
329,192,6154,1,0,0:0:0:0:
475,192,6154,1,0,0:0:0:0:
109,192,6326,1,0,0:0:0:0:
402,192,6326,1,0,0:0:0:0:
182,192,6497,1,0,0:0:0:0:
329,192,6669,1,0,0:0:0:0:
36,192,6840,1,0,0:0:0:0:
109,192,7012,1,0,0:0:0:0:
182,192,7183,1,0,0:0:0:0:
329,192,7354,1,0,0:0:0:0:
36,192,7526,1,0,0:0:0:0:
109,192,7697,1,0,0:0:0:0:
182,192,7869,1,0,0:0:0:0:
329,192,8040,1,0,0:0:0:0:
36,192,8212,1,0,0:0:0:0:
109,192,8383,1,0,0:0:0:0:
182,192,8554,1,0,0:0:0:0:
329,192,8726,1,0,0:0:0:0:
109,192,8897,1,0,0:0:0:0:
402,192,8897,1,0,0:0:0:0:
182,192,9069,1,0,0:0:0:0:
256,192,9240,1,0,0:0:0:0:
402,192,9412,1,0,0:0:0:0:
109,192,9583,1,0,0:0:0:0:
182,192,9755,1,0,0:0:0:0:
256,192,9926,1,0,0:0:0:0:
402,192,10097,1,0,0:0:0:0:
109,192,10269,1,0,0:0:0:0:
475,192,10269,1,0,0:0:0:0:
182,192,10440,1,0,0:0:0:0:
256,192,10612,1,0,0:0:0:0:
402,192,10783,1,0,0:0:0:0:
109,192,10955,1,0,0:0:0:0:
182,192,11126,1,0,0:0:0:0:
256,192,11297,1,0,0:0:0:0:
402,192,11469,1,0,0:0:0:0:
475,192,11640,1,0,0:0:0:0:
36,192,11640,1,0,0:0:0:0:
182,192,11640,1,0,0:0:0:0:
402,192,11812,1,0,0:0:0:0:
109,192,11812,1,0,0:0:0:0:
329,192,11983,1,0,0:0:0:0:
182,192,12155,1,0,0:0:0:0:
475,192,12326,1,0,0:0:0:0:
402,192,12497,1,0,0:0:0:0:
329,192,12669,1,0,0:0:0:0:
182,192,12840,1,0,0:0:0:0:
475,192,13012,1,0,0:0:0:0:
402,192,13183,1,0,0:0:0:0:
329,192,13355,1,0,0:0:0:0:
182,192,13526,1,0,0:0:0:0:
475,192,13697,1,0,0:0:0:0:
402,192,13869,1,0,0:0:0:0:
329,192,14040,1,0,0:0:0:0:
182,192,14212,1,0,0:0:0:0:
402,192,14383,1,0,0:0:0:0:
109,192,14383,1,0,0:0:0:0:
329,192,14555,1,0,0:0:0:0:
256,192,14726,1,0,0:0:0:0:
109,192,14897,1,0,0:0:0:0:
402,192,15069,1,0,0:0:0:0:
329,192,15240,1,0,0:0:0:0:
256,192,15412,1,0,0:0:0:0:
109,192,15583,1,0,0:0:0:0:
402,192,15755,1,0,0:0:0:0:
36,192,15755,1,0,0:0:0:0:
329,192,15926,1,0,0:0:0:0:
256,192,16097,1,0,0:0:0:0:
109,192,16269,1,0,0:0:0:0:
402,192,16440,1,0,0:0:0:0:
329,192,16612,1,0,0:0:0:0:
256,192,16783,1,0,0:0:0:0:
475,192,16783,1,0,0:0:0:0:
109,192,16955,1,0,0:0:0:0:
329,192,16955,1,0,0:0:0:0:
36,192,17126,1,0,0:0:0:0:
256,192,17126,1,0,0:0:0:0:
109,192,17297,1,0,0:0:0:0:
182,192,17469,1,0,0:0:0:0:
329,192,17640,1,0,0:0:0:0:
36,192,17812,1,0,0:0:0:0:
109,192,17983,1,0,0:0:0:0:
182,192,18155,1,0,0:0:0:0:
329,192,18326,1,0,0:0:0:0:
36,192,18497,1,0,0:0:0:0:
109,192,18669,1,0,0:0:0:0:
182,192,18840,1,0,0:0:0:0:
329,192,19012,1,0,0:0:0:0:
36,192,19183,1,0,0:0:0:0:
109,192,19355,1,0,0:0:0:0:
182,192,19526,1,0,0:0:0:0:
329,192,19697,1,0,0:0:0:0:
109,192,19869,1,0,0:0:0:0:
402,192,19869,1,0,0:0:0:0:
182,192,20040,1,0,0:0:0:0:
256,192,20212,1,0,0:0:0:0:
402,192,20383,1,0,0:0:0:0:
109,192,20555,1,0,0:0:0:0:
182,192,20726,1,0,0:0:0:0:
256,192,20897,1,0,0:0:0:0:
402,192,21069,1,0,0:0:0:0:
109,192,21240,1,0,0:0:0:0:
475,192,21240,1,0,0:0:0:0:
182,192,21412,1,0,0:0:0:0:
256,192,21583,1,0,0:0:0:0:
402,192,21755,1,0,0:0:0:0:
109,192,21926,1,0,0:0:0:0:
329,192,21926,1,0,0:0:0:0:
182,192,22097,1,0,0:0:0:0:
256,192,22269,1,0,0:0:0:0:
402,192,22440,1,0,0:0:0:0:
475,192,22612,1,0,0:0:0:0:
182,192,22612,1,0,0:0:0:0:
402,192,22783,1,0,0:0:0:0:
109,192,22783,1,0,0:0:0:0:
329,192,22955,1,0,0:0:0:0:
182,192,23126,1,0,0:0:0:0:
475,192,23297,1,0,0:0:0:0:
402,192,23469,1,0,0:0:0:0:
329,192,23640,1,0,0:0:0:0:
36,192,23640,1,0,0:0:0:0:
182,192,23812,1,0,0:0:0:0:
475,192,23983,1,0,0:0:0:0:
402,192,24155,1,0,0:0:0:0:
329,192,24326,1,0,0:0:0:0:
182,192,24497,1,0,0:0:0:0:
475,192,24669,1,0,0:0:0:0:
402,192,24840,1,0,0:0:0:0:
329,192,25012,1,0,0:0:0:0:
182,192,25183,1,0,0:0:0:0:
36,192,25355,128,0,26640:0:0:0:0:
475,192,25355,1,0,0:0:0:0:
109,192,25355,1,0,0:0:0:0:
182,192,25526,1,0,0:0:0:0:
256,192,25697,1,0,0:0:0:0:
402,192,25869,1,0,0:0:0:0:
109,192,26040,1,0,0:0:0:0:
182,192,26212,1,0,0:0:0:0:
256,192,26383,1,0,0:0:0:0:
402,192,26555,1,0,0:0:0:0:
256,192,26726,128,0,28012:0:0:0:0:
36,192,26726,1,0,0:0:0:0:
475,192,26726,1,0,0:0:0:0:
182,192,26897,1,0,0:0:0:0:
36,192,27069,1,0,0:0:0:0:
329,192,27069,1,0,0:0:0:0:
402,192,27240,1,0,0:0:0:0:
109,192,27240,1,0,0:0:0:0:
475,192,27412,1,0,0:0:0:0:
182,192,27412,1,0,0:0:0:0:
329,192,27583,1,0,0:0:0:0:
402,192,27755,128,0,28183:0:0:0:0:
475,192,27755,128,0,27840:0:0:0:0:
109,192,27926,128,0,28355:0:0:0:0:
182,192,27926,128,0,28012:0:0:0:0:
36,192,28012,1,0,0:0:0:0:
329,192,28097,1,0,0:0:0:0:
256,192,28097,1,0,0:0:0:0:
475,192,28097,128,0,28526:0:0:0:0:
182,192,28097,1,0,0:0:0:0:
36,192,28269,128,0,28697:0:0:0:0:
329,192,28269,128,0,28355:0:0:0:0:
402,192,28440,128,0,28869:0:0:0:0:
256,192,28440,1,0,0:0:0:0:
182,192,28440,1,0,0:0:0:0:
109,192,28440,1,0,0:0:0:0:
109,192,28612,128,0,29040:0:0:0:0:
256,192,28612,128,0,28697:0:0:0:0:
475,192,28783,128,0,29212:0:0:0:0:
36,192,28783,1,0,0:0:0:0:
182,192,28783,1,0,0:0:0:0:
329,192,28783,1,0,0:0:0:0:
329,192,28955,128,0,29040:0:0:0:0:
36,192,28955,128,0,29383:0:0:0:0:
402,192,29126,128,0,29555:0:0:0:0:
256,192,29126,1,0,0:0:0:0:
182,192,29126,1,0,0:0:0:0:
109,192,29126,1,0,0:0:0:0:
256,192,29297,128,0,29383:0:0:0:0:
109,192,29297,128,0,29726:0:0:0:0:
475,192,29469,128,0,29897:0:0:0:0:
329,192,29469,1,0,0:0:0:0:
182,192,29469,1,0,0:0:0:0:
36,192,29469,1,0,0:0:0:0:
329,192,29640,128,0,29726:0:0:0:0:
36,192,29640,128,0,30069:0:0:0:0:
402,192,29812,128,0,30240:0:0:0:0:
256,192,29812,1,0,0:0:0:0:
182,192,29812,1,0,0:0:0:0:
109,192,29812,1,0,0:0:0:0:
109,192,29983,128,0,30412:0:0:0:0:
256,192,29983,128,0,30069:0:0:0:0:
329,192,30155,1,0,0:0:0:0:
182,192,30155,1,0,0:0:0:0:
36,192,30155,1,0,0:0:0:0:
475,192,30155,128,0,30583:0:0:0:0:
329,192,30326,128,0,30412:0:0:0:0:
36,192,30326,128,0,30755:0:0:0:0:
256,192,30497,1,0,0:0:0:0:
182,192,30497,1,0,0:0:0:0:
109,192,30497,1,0,0:0:0:0:
402,192,30497,128,0,30926:0:0:0:0:
256,192,30669,128,0,30755:0:0:0:0:
109,192,30669,128,0,30926:0:0:0:0:
182,192,30840,128,0,31269:0:0:0:0:
256,192,30840,1,0,0:0:0:0:
329,192,30840,1,0,0:0:0:0:
36,192,30840,1,0,0:0:0:0:
475,192,30840,128,0,31440:0:0:0:0:
36,192,31012,128,0,31097:0:0:0:0:
109,192,31183,128,0,31612:0:0:0:0:
329,192,31183,1,0,0:0:0:0:
256,192,31183,1,0,0:0:0:0:
402,192,31183,1,0,0:0:0:0:
256,192,31355,128,0,31440:0:0:0:0:
402,192,31355,128,0,31783:0:0:0:0:
36,192,31526,128,0,31955:0:0:0:0:
475,192,31526,1,0,0:0:0:0:
329,192,31526,1,0,0:0:0:0:
182,192,31526,1,0,0:0:0:0:
182,192,31697,128,0,31783:0:0:0:0:
475,192,31697,128,0,32126:0:0:0:0:
109,192,31869,128,0,32297:0:0:0:0:
256,192,31869,1,0,0:0:0:0:
329,192,31869,1,0,0:0:0:0:
402,192,31869,1,0,0:0:0:0:
256,192,32040,128,0,32126:0:0:0:0:
402,192,32040,128,0,32469:0:0:0:0:
36,192,32212,128,0,32640:0:0:0:0:
182,192,32212,1,0,0:0:0:0:
329,192,32212,1,0,0:0:0:0:
475,192,32212,1,0,0:0:0:0:
256,192,32212,1,0,0:0:0:0:
182,192,32383,128,0,32469:0:0:0:0:
475,192,32383,128,0,32812:0:0:0:0:
109,192,32555,128,0,32983:0:0:0:0:
256,192,32555,1,0,0:0:0:0:
329,192,32555,1,0,0:0:0:0:
402,192,32555,1,0,0:0:0:0:
256,192,32726,128,0,32812:0:0:0:0:
402,192,32726,128,0,33155:0:0:0:0:
329,192,32897,1,0,0:0:0:0:
182,192,32897,128,0,33326:0:0:0:0:
36,192,32897,1,0,0:0:0:0:
475,192,32897,1,0,0:0:0:0:
329,192,33069,128,0,33497:0:0:0:0:
475,192,33069,128,0,33155:0:0:0:0:
256,192,33240,1,0,0:0:0:0:
402,192,33240,1,0,0:0:0:0:
109,192,33240,128,0,33326:0:0:0:0:
36,192,33240,128,0,33669:0:0:0:0:
475,192,33412,128,0,34012:0:0:0:0:
402,192,33412,128,0,33497:0:0:0:0:
256,192,33583,1,0,0:0:0:0:
182,192,33583,128,0,33840:0:0:0:0:
329,192,33583,1,0,0:0:0:0:
402,192,33583,1,0,0:0:0:0:
109,192,33583,128,0,33669:0:0:0:0:
329,192,33755,128,0,33840:0:0:0:0:
256,192,33755,128,0,34183:0:0:0:0:
109,192,33926,1,0,0:0:0:0:
402,192,33926,128,0,34697:0:0:0:0:
36,192,33926,1,0,0:0:0:0:
182,192,33926,1,0,0:0:0:0:
182,192,34097,128,0,34183:0:0:0:0:
109,192,34097,128,0,34869:0:0:0:0:
256,192,34269,1,0,0:0:0:0:
36,192,34269,1,0,0:0:0:0:
475,192,34269,1,0,0:0:0:0:
329,192,34440,128,0,34526:0:0:0:0:
475,192,34612,128,0,35040:0:0:0:0:
182,192,34612,1,0,0:0:0:0:
256,192,34612,1,0,0:0:0:0:
36,192,34612,1,0,0:0:0:0:
182,192,34783,128,0,35383:0:0:0:0:
256,192,34783,128,0,34869:0:0:0:0:
402,192,34955,128,0,35726:0:0:0:0:
329,192,34955,1,0,0:0:0:0:
36,192,34955,1,0,0:0:0:0:
109,192,34955,1,0,0:0:0:0:
329,192,35126,128,0,35212:0:0:0:0:
256,192,35297,128,0,36069:0:0:0:0:
475,192,35297,1,0,0:0:0:0:
109,192,35297,1,0,0:0:0:0:
36,192,35297,1,0,0:0:0:0:
109,192,35469,128,0,35555:0:0:0:0:
475,192,35640,128,0,36240:0:0:0:0:
329,192,35640,1,0,0:0:0:0:
182,192,35640,1,0,0:0:0:0:
36,192,35640,1,0,0:0:0:0:
329,192,35812,128,0,35897:0:0:0:0:
182,192,35983,128,0,36069:0:0:0:0:
109,192,35983,128,0,36412:0:0:0:0:
402,192,35983,1,0,0:0:0:0:
36,192,35983,1,0,0:0:0:0:
402,192,36155,128,0,36240:0:0:0:0:
329,192,36155,128,0,36755:0:0:0:0:
36,192,36326,128,0,36926:0:0:0:0:
182,192,36326,1,0,0:0:0:0:
256,192,36326,1,0,0:0:0:0:
475,192,36326,1,0,0:0:0:0:
402,192,36326,1,0,0:0:0:0:
475,192,36497,128,0,36583:0:0:0:0:
402,192,36669,128,0,37097:0:0:0:0:
256,192,36669,1,0,0:0:0:0:
109,192,36669,1,0,0:0:0:0:
182,192,36669,1,0,0:0:0:0:
109,192,36840,128,0,37612:0:0:0:0:
256,192,36840,128,0,36926:0:0:0:0:
329,192,37012,128,0,37440:0:0:0:0:
182,192,37012,1,0,0:0:0:0:
36,192,37012,1,0,0:0:0:0:
475,192,37012,1,0,0:0:0:0:
182,192,37183,128,0,37269:0:0:0:0:
402,192,37355,128,0,37783:0:0:0:0:
475,192,37355,1,0,0:0:0:0:
256,192,37355,1,0,0:0:0:0:
36,192,37355,1,0,0:0:0:0:
182,192,37526,128,0,37955:0:0:0:0:
256,192,37526,128,0,37612:0:0:0:0:
109,192,37697,1,0,0:0:0:0:
36,192,37697,1,0,0:0:0:0:
475,192,37697,128,0,38126:0:0:0:0:
329,192,37697,1,0,0:0:0:0:
256,192,37869,128,0,38297:0:0:0:0:
329,192,37869,128,0,37955:0:0:0:0:
182,192,38040,1,0,0:0:0:0:
36,192,38040,1,0,0:0:0:0:
402,192,38040,128,0,38469:0:0:0:0:
109,192,38040,1,0,0:0:0:0:
182,192,38212,128,0,38640:0:0:0:0:
36,192,38212,128,0,38297:0:0:0:0:
475,192,38383,128,0,38812:0:0:0:0:
256,192,38383,1,0,0:0:0:0:
109,192,38383,1,0,0:0:0:0:
329,192,38383,1,0,0:0:0:0:
256,192,38555,128,0,38983:0:0:0:0:
109,192,38555,128,0,38640:0:0:0:0:
402,192,38726,128,0,39155:0:0:0:0:
329,192,38726,1,0,0:0:0:0:
182,192,38726,1,0,0:0:0:0:
36,192,38726,1,0,0:0:0:0:
36,192,38897,128,0,38983:0:0:0:0:
329,192,38897,128,0,38983:0:0:0:0:
109,192,38897,128,0,38983:0:0:0:0:
256,192,39069,1,0,0:0:0:0:
182,192,39069,1,0,0:0:0:0:
36,192,39069,1,0,0:0:0:0:
475,192,39069,128,0,39669:0:0:0:0:
109,192,39155,1,0,0:0:0:0:
402,192,39240,1,0,0:0:0:0:
329,192,39240,1,0,0:0:0:0:
182,192,39326,1,0,0:0:0:0:
256,192,39412,1,0,0:0:0:0:
36,192,39412,1,0,0:0:0:0:
402,192,39497,1,0,0:0:0:0:
182,192,39583,1,0,0:0:0:0:
109,192,39583,1,0,0:0:0:0:
329,192,39669,1,0,0:0:0:0:
256,192,39755,1,0,0:0:0:0:
475,192,39755,128,0,40355:0:0:0:0:
109,192,39840,1,0,0:0:0:0:
329,192,39926,1,0,0:0:0:0:
402,192,39926,1,0,0:0:0:0:
182,192,40012,1,0,0:0:0:0:
256,192,40097,1,0,0:0:0:0:
36,192,40097,1,0,0:0:0:0:
402,192,40183,1,0,0:0:0:0:
182,192,40269,1,0,0:0:0:0:
109,192,40269,1,0,0:0:0:0:
329,192,40355,1,0,0:0:0:0:
256,192,40440,1,0,0:0:0:0:
475,192,40440,1,0,0:0:0:0:
36,192,40440,128,0,41040:0:0:0:0:
109,192,40526,1,0,0:0:0:0:
402,192,40612,1,0,0:0:0:0:
329,192,40612,1,0,0:0:0:0:
182,192,40697,1,0,0:0:0:0:
256,192,40783,1,0,0:0:0:0:
475,192,40783,1,0,0:0:0:0:
402,192,40869,1,0,0:0:0:0:
182,192,40955,1,0,0:0:0:0:
109,192,40955,1,0,0:0:0:0:
329,192,41040,1,0,0:0:0:0:
256,192,41126,1,0,0:0:0:0:
36,192,41126,128,0,41726:0:0:0:0:
109,192,41212,1,0,0:0:0:0:
329,192,41297,1,0,0:0:0:0:
402,192,41297,1,0,0:0:0:0:
182,192,41383,1,0,0:0:0:0:
256,192,41469,1,0,0:0:0:0:
475,192,41469,1,0,0:0:0:0:
402,192,41555,1,0,0:0:0:0:
182,192,41640,1,0,0:0:0:0:
109,192,41640,1,0,0:0:0:0:
329,192,41726,1,0,0:0:0:0:
256,192,41812,1,0,0:0:0:0:
109,192,41812,1,0,0:0:0:0:
402,192,41812,1,0,0:0:0:0:
36,192,41897,1,0,0:0:0:0:
182,192,41897,1,0,0:0:0:0:
475,192,41983,1,0,0:0:0:0:
329,192,41983,1,0,0:0:0:0:
182,192,42069,1,0,0:0:0:0:
402,192,42069,1,0,0:0:0:0:
256,192,42155,1,0,0:0:0:0:
109,192,42155,1,0,0:0:0:0:
36,192,42155,1,0,0:0:0:0:
475,192,42240,1,0,0:0:0:0:
329,192,42240,1,0,0:0:0:0:
182,192,42326,1,0,0:0:0:0:
36,192,42326,1,0,0:0:0:0:
329,192,42412,1,0,0:0:0:0:
109,192,42412,1,0,0:0:0:0:
256,192,42497,1,0,0:0:0:0:
402,192,42497,1,0,0:0:0:0:
475,192,42497,1,0,0:0:0:0:
36,192,42583,1,0,0:0:0:0:
182,192,42583,1,0,0:0:0:0:
329,192,42669,1,0,0:0:0:0:
475,192,42669,1,0,0:0:0:0:
182,192,42755,1,0,0:0:0:0:
402,192,42755,1,0,0:0:0:0:
256,192,42840,1,0,0:0:0:0:
109,192,42840,1,0,0:0:0:0:
36,192,42840,1,0,0:0:0:0:
475,192,42926,1,0,0:0:0:0:
329,192,42926,1,0,0:0:0:0:
182,192,43012,1,0,0:0:0:0:
36,192,43012,1,0,0:0:0:0:
402,192,43097,1,0,0:0:0:0:
256,192,43183,1,0,0:0:0:0:
182,192,43183,1,0,0:0:0:0:
329,192,43183,1,0,0:0:0:0:
36,192,43269,1,0,0:0:0:0:
109,192,43269,1,0,0:0:0:0:
475,192,43355,1,0,0:0:0:0:
402,192,43355,1,0,0:0:0:0:
109,192,43440,1,0,0:0:0:0:
329,192,43440,1,0,0:0:0:0:
256,192,43526,1,0,0:0:0:0:
182,192,43526,1,0,0:0:0:0:
36,192,43526,1,0,0:0:0:0:
475,192,43612,1,0,0:0:0:0:
402,192,43612,1,0,0:0:0:0:
109,192,43697,1,0,0:0:0:0:
36,192,43697,1,0,0:0:0:0:
402,192,43783,1,0,0:0:0:0:
182,192,43783,1,0,0:0:0:0:
256,192,43869,1,0,0:0:0:0:
329,192,43869,1,0,0:0:0:0:
475,192,43869,1,0,0:0:0:0:
36,192,43955,1,0,0:0:0:0:
109,192,43955,1,0,0:0:0:0:
402,192,44040,1,0,0:0:0:0:
475,192,44040,1,0,0:0:0:0:
109,192,44126,1,0,0:0:0:0:
329,192,44126,1,0,0:0:0:0:
256,192,44212,1,0,0:0:0:0:
182,192,44212,1,0,0:0:0:0:
36,192,44212,1,0,0:0:0:0:
475,192,44297,1,0,0:0:0:0:
402,192,44297,1,0,0:0:0:0:
109,192,44383,1,0,0:0:0:0:
182,192,44383,1,0,0:0:0:0:
329,192,44469,1,0,0:0:0:0:
402,192,44469,1,0,0:0:0:0:
256,192,44555,1,0,0:0:0:0:
36,192,44555,1,0,0:0:0:0:
475,192,44555,128,0,44726:0:0:0:0:
182,192,44640,1,0,0:0:0:0:
109,192,44640,1,0,0:0:0:0:
402,192,44726,1,0,0:0:0:0:
329,192,44726,128,0,44812:0:0:0:0:
182,192,44812,1,0,0:0:0:0:
475,192,44812,1,0,0:0:0:0:
256,192,44897,1,0,0:0:0:0:
109,192,44897,1,0,0:0:0:0:
36,192,44897,128,0,44983:0:0:0:0:
329,192,44983,1,0,0:0:0:0:
402,192,44983,1,0,0:0:0:0:
109,192,45069,1,0,0:0:0:0:
182,192,45069,128,0,45155:0:0:0:0:
329,192,45155,1,0,0:0:0:0:
36,192,45155,128,0,45240:0:0:0:0:
256,192,45240,1,0,0:0:0:0:
402,192,45240,1,0,0:0:0:0:
475,192,45240,128,0,45326:0:0:0:0:
182,192,45326,1,0,0:0:0:0:
109,192,45326,1,0,0:0:0:0:
402,192,45412,1,0,0:0:0:0:
329,192,45412,128,0,45497:0:0:0:0:
182,192,45497,1,0,0:0:0:0:
475,192,45497,128,0,45583:0:0:0:0:
256,192,45583,1,0,0:0:0:0:
109,192,45583,1,0,0:0:0:0:
36,192,45583,128,0,45669:0:0:0:0:
329,192,45669,1,0,0:0:0:0:
402,192,45669,1,0,0:0:0:0:
109,192,45755,128,0,45840:0:0:0:0:
182,192,45755,1,0,0:0:0:0:
475,192,45840,1,0,0:0:0:0:
256,192,45926,1,0,0:0:0:0:
36,192,45926,1,0,0:0:0:0:
182,192,45926,1,0,0:0:0:0:
402,192,46012,1,0,0:0:0:0:
329,192,46012,1,0,0:0:0:0:
109,192,46097,1,0,0:0:0:0:
182,192,46097,128,0,46183:0:0:0:0:
329,192,46183,128,0,46355:0:0:0:0:
475,192,46183,1,0,0:0:0:0:
36,192,46269,1,0,0:0:0:0:
402,192,46269,128,0,46355:0:0:0:0:
256,192,46269,1,0,0:0:0:0:
182,192,46355,1,0,0:0:0:0:
109,192,46355,1,0,0:0:0:0:
402,192,46440,1,0,0:0:0:0:
329,192,46440,128,0,46526:0:0:0:0:
36,192,46526,1,0,0:0:0:0:
182,192,46526,128,0,46697:0:0:0:0:
256,192,46612,1,0,0:0:0:0:
475,192,46612,1,0,0:0:0:0:
109,192,46612,128,0,46697:0:0:0:0:
329,192,46697,1,0,0:0:0:0:
402,192,46697,1,0,0:0:0:0:
109,192,46783,1,0,0:0:0:0:
182,192,46783,128,0,46869:0:0:0:0:
329,192,46869,1,0,0:0:0:0:
475,192,46869,128,0,47040:0:0:0:0:
256,192,46955,1,0,0:0:0:0:
402,192,46955,128,0,47040:0:0:0:0:
36,192,46955,1,0,0:0:0:0:
182,192,47040,1,0,0:0:0:0:
109,192,47040,1,0,0:0:0:0:
402,192,47126,1,0,0:0:0:0:
329,192,47126,128,0,47212:0:0:0:0:
182,192,47212,1,0,0:0:0:0:
256,192,47297,1,0,0:0:0:0:
402,192,47297,1,0,0:0:0:0:
109,192,47297,1,0,0:0:0:0:
36,192,47297,128,0,47469:0:0:0:0:
475,192,47383,1,0,0:0:0:0:
329,192,47383,1,0,0:0:0:0:
109,192,47469,1,0,0:0:0:0:
182,192,47469,128,0,47555:0:0:0:0:
329,192,47555,1,0,0:0:0:0:
402,192,47555,1,0,0:0:0:0:
256,192,47640,1,0,0:0:0:0:
109,192,47640,1,0,0:0:0:0:
475,192,47640,128,0,47726:0:0:0:0:
36,192,47726,1,0,0:0:0:0:
182,192,47726,1,0,0:0:0:0:
475,192,47812,1,0,0:0:0:0:
329,192,47812,128,0,47897:0:0:0:0:
182,192,47897,1,0,0:0:0:0:
109,192,47897,128,0,47983:0:0:0:0:
402,192,47983,1,0,0:0:0:0:
36,192,47983,1,0,0:0:0:0:
256,192,47983,128,0,48069:0:0:0:0:
475,192,48069,1,0,0:0:0:0:
329,192,48069,1,0,0:0:0:0:
182,192,48155,128,0,48240:0:0:0:0:
36,192,48155,1,0,0:0:0:0:
329,192,48240,1,0,0:0:0:0:
402,192,48240,128,0,48326:0:0:0:0:
109,192,48326,1,0,0:0:0:0:
475,192,48326,1,0,0:0:0:0:
256,192,48326,128,0,48412:0:0:0:0:
182,192,48412,1,0,0:0:0:0:
36,192,48412,1,0,0:0:0:0:
475,192,48497,1,0,0:0:0:0:
329,192,48497,128,0,48583:0:0:0:0:
402,192,48583,1,0,0:0:0:0:
256,192,48669,1,0,0:0:0:0:
329,192,48669,1,0,0:0:0:0:
36,192,48669,1,0,0:0:0:0:
109,192,48755,1,0,0:0:0:0:
475,192,48755,1,0,0:0:0:0:
402,192,48840,128,0,49012:0:0:0:0:
182,192,48840,1,0,0:0:0:0:
329,192,48926,128,0,49012:0:0:0:0:
109,192,48926,1,0,0:0:0:0:
475,192,49012,1,0,0:0:0:0:
256,192,49012,1,0,0:0:0:0:
182,192,49012,128,0,49097:0:0:0:0:
402,192,49097,1,0,0:0:0:0:
36,192,49097,1,0,0:0:0:0:
109,192,49183,128,0,49355:0:0:0:0:
329,192,49183,1,0,0:0:0:0:
402,192,49269,1,0,0:0:0:0:
182,192,49269,128,0,49355:0:0:0:0:
36,192,49355,1,0,0:0:0:0:
256,192,49355,1,0,0:0:0:0:
329,192,49355,128,0,49440:0:0:0:0:
109,192,49440,1,0,0:0:0:0:
475,192,49440,1,0,0:0:0:0:
402,192,49526,128,0,49697:0:0:0:0:
182,192,49526,1,0,0:0:0:0:
109,192,49612,1,0,0:0:0:0:
329,192,49612,128,0,49697:0:0:0:0:
182,192,49697,1,0,0:0:0:0:
256,192,49697,1,0,0:0:0:0:
475,192,49697,1,0,0:0:0:0:
329,192,50040,128,0,50383:0:0:0:0:
402,192,50040,128,0,50126:0:0:0:0:
36,192,50040,1,0,0:0:0:0:
182,192,50040,1,0,0:0:0:0:
475,192,50040,1,0,0:0:0:0:
256,192,50126,1,0,0:0:0:0:
402,192,50212,1,0,0:0:0:0:
109,192,50212,1,0,0:0:0:0:
256,192,50297,128,0,50383:0:0:0:0:
182,192,50297,128,0,50640:0:0:0:0:
475,192,50297,1,0,0:0:0:0:
36,192,50297,1,0,0:0:0:0:
109,192,50383,1,0,0:0:0:0:
402,192,50383,1,0,0:0:0:0:
256,192,50469,1,0,0:0:0:0:
109,192,50555,128,0,50640:0:0:0:0:
36,192,50555,128,0,51126:0:0:0:0:
329,192,50555,1,0,0:0:0:0:
402,192,50555,128,0,50983:0:0:0:0:
475,192,50555,1,0,0:0:0:0:
256,192,50640,1,0,0:0:0:0:
182,192,50726,1,0,0:0:0:0:
329,192,50726,128,0,50769:0:0:0:0:
475,192,50812,128,0,50983:0:0:0:0:
109,192,50812,128,0,50855:0:0:0:0:
329,192,50897,1,0,0:0:0:0:
256,192,50897,128,0,50940:0:0:0:0:
109,192,50983,128,0,51326:0:0:0:0:
182,192,50983,128,0,51026:0:0:0:0:
256,192,51069,1,0,0:0:0:0:
329,192,51069,128,0,51126:0:0:0:0:
402,192,51069,128,0,51269:0:0:0:0:
475,192,51155,5,0,0:0:0:0:
182,192,51155,128,0,51212:0:0:0:0:
256,192,51212,128,0,51355:0:0:0:0:
329,192,51240,1,0,0:0:0:0:
36,192,51240,1,0,0:0:0:0:
475,192,51269,128,0,51326:0:0:0:0:
182,192,51326,1,0,0:0:0:0:
329,192,51355,128,0,51412:0:0:0:0:
402,192,51412,128,0,51455:0:0:0:0:
475,192,51412,128,0,51497:0:0:0:0:
109,192,51412,128,0,51455:0:0:0:0:
36,192,51412,128,0,51497:0:0:0:0:
182,192,51583,1,0,0:0:0:0:
329,192,51583,1,0,0:0:0:0:
109,192,51669,1,0,0:0:0:0:
256,192,51669,1,0,0:0:0:0:
402,192,51669,1,0,0:0:0:0:
36,192,51755,1,0,0:0:0:0:
329,192,51755,1,0,0:0:0:0:
475,192,51840,1,0,0:0:0:0:
256,192,51840,1,0,0:0:0:0:
109,192,51840,1,0,0:0:0:0:
475,192,51926,1,0,0:0:0:0:
182,192,51926,1,0,0:0:0:0:
329,192,51926,1,0,0:0:0:0:
402,192,52012,1,0,0:0:0:0:
256,192,52012,1,0,0:0:0:0:
36,192,52097,1,0,0:0:0:0:
182,192,52097,1,0,0:0:0:0:
329,192,52097,1,0,0:0:0:0:
402,192,52183,1,0,0:0:0:0:
36,192,52183,1,0,0:0:0:0:
256,192,52183,1,0,0:0:0:0:
182,192,52269,1,0,0:0:0:0:
475,192,52269,1,0,0:0:0:0:
329,192,52269,1,0,0:0:0:0:
109,192,52355,128,0,52483:0:0:0:0:
36,192,52376,128,0,52419:0:0:0:0:
182,192,52419,128,0,52462:0:0:0:0:
475,192,52440,1,0,0:0:0:0:
402,192,52440,1,0,0:0:0:0:
402,192,52526,1,0,0:0:0:0:
329,192,52526,1,0,0:0:0:0:
182,192,52612,1,0,0:0:0:0:
36,192,52612,1,0,0:0:0:0:
256,192,52655,1,0,0:0:0:0:
329,192,52697,1,0,0:0:0:0:
402,192,52740,1,0,0:0:0:0:
109,192,52783,128,0,53126:0:0:0:0:
36,192,52783,128,0,52869:0:0:0:0:
256,192,52783,1,0,0:0:0:0:
475,192,52783,1,0,0:0:0:0:
182,192,52869,1,0,0:0:0:0:
36,192,52955,1,0,0:0:0:0:
329,192,52955,1,0,0:0:0:0:
182,192,53040,128,0,53126:0:0:0:0:
256,192,53040,128,0,53383:0:0:0:0:
402,192,53040,1,0,0:0:0:0:
475,192,53040,1,0,0:0:0:0:
329,192,53126,1,0,0:0:0:0:
36,192,53126,1,0,0:0:0:0:
182,192,53212,1,0,0:0:0:0:
329,192,53297,128,0,53383:0:0:0:0:
402,192,53297,128,0,54069:0:0:0:0:
109,192,53297,1,0,0:0:0:0:
36,192,53297,1,0,0:0:0:0:
475,192,53297,1,0,0:0:0:0:
256,192,53469,1,0,0:0:0:0:
182,192,53469,128,0,53512:0:0:0:0:
329,192,53469,1,0,0:0:0:0:
109,192,53490,128,0,53555:0:0:0:0:
36,192,53512,128,0,53726:0:0:0:0:
329,192,53555,128,0,53769:0:0:0:0:
182,192,53640,1,0,0:0:0:0:
256,192,53726,128,0,53790:0:0:0:0:
475,192,53726,128,0,54069:0:0:0:0:
182,192,53769,128,0,53812:0:0:0:0:
109,192,53812,128,0,54155:0:0:0:0:
36,192,53812,128,0,53855:0:0:0:0:
256,192,53897,1,0,0:0:0:0:
329,192,53897,128,0,53940:0:0:0:0:
182,192,53983,128,0,54026:0:0:0:0:
36,192,53983,1,0,0:0:0:0:
329,192,54069,1,0,0:0:0:0:
256,192,54069,128,0,54112:0:0:0:0:
36,192,54155,1,0,0:0:0:0:
182,192,54155,1,0,0:0:0:0:
475,192,54155,1,0,0:0:0:0:
402,192,54176,1,0,0:0:0:0:
329,192,54219,1,0,0:0:0:0:
256,192,54283,1,0,0:0:0:0:
402,192,54412,1,0,0:0:0:0:
182,192,54412,1,0,0:0:0:0:
329,192,54476,1,0,0:0:0:0:
36,192,54497,1,0,0:0:0:0:
256,192,54519,1,0,0:0:0:0:
182,192,54540,1,0,0:0:0:0:
402,192,54540,1,0,0:0:0:0:
329,192,54669,1,0,0:0:0:0:
109,192,54669,1,0,0:0:0:0:
182,192,54690,1,0,0:0:0:0:
256,192,54733,1,0,0:0:0:0:
475,192,54755,1,0,0:0:0:0:
329,192,54797,1,0,0:0:0:0:
182,192,54840,1,0,0:0:0:0:
36,192,54840,1,0,0:0:0:0:
475,192,54926,128,0,55012:0:0:0:0:
329,192,54926,128,0,55012:0:0:0:0:
402,192,54947,128,0,54990:0:0:0:0:
109,192,55012,1,0,0:0:0:0:
36,192,55012,1,0,0:0:0:0:
109,192,55097,1,0,0:0:0:0:
182,192,55097,1,0,0:0:0:0:
329,192,55183,128,0,55240:0:0:0:0:
402,192,55183,1,0,0:0:0:0:
256,192,55212,128,0,55383:0:0:0:0:
182,192,55240,128,0,55297:0:0:0:0:
109,192,55269,1,0,0:0:0:0:
475,192,55297,5,0,0:0:0:0:
402,192,55326,128,0,55497:0:0:0:0:
329,192,55355,1,0,0:0:0:0:
36,192,55355,1,0,0:0:0:0:
182,192,55412,1,0,0:0:0:0:
475,192,55412,128,0,55469:0:0:0:0:
329,192,55469,128,0,55526:0:0:0:0:
182,192,55526,128,0,55869:0:0:0:0:
109,192,55526,128,0,55612:0:0:0:0:
256,192,55526,1,0,0:0:0:0:
36,192,55526,1,0,0:0:0:0:
329,192,55612,1,0,0:0:0:0:
109,192,55697,1,0,0:0:0:0:
402,192,55697,1,0,0:0:0:0:
256,192,55783,128,0,55869:0:0:0:0:
329,192,55783,128,0,56126:0:0:0:0:
475,192,55783,1,0,0:0:0:0:
36,192,55783,1,0,0:0:0:0:
402,192,55869,1,0,0:0:0:0:
109,192,55869,1,0,0:0:0:0:
256,192,55955,1,0,0:0:0:0:
402,192,56040,128,0,56126:0:0:0:0:
475,192,56040,128,0,56612:0:0:0:0:
182,192,56040,1,0,0:0:0:0:
109,192,56040,128,0,56469:0:0:0:0:
36,192,56040,1,0,0:0:0:0:
256,192,56126,1,0,0:0:0:0:
182,192,56212,128,0,56255:0:0:0:0:
329,192,56212,1,0,0:0:0:0:
36,192,56297,128,0,56469:0:0:0:0:
402,192,56297,128,0,56340:0:0:0:0:
182,192,56383,1,0,0:0:0:0:
256,192,56383,128,0,56426:0:0:0:0:
402,192,56469,128,0,56812:0:0:0:0:
329,192,56469,128,0,56512:0:0:0:0:
256,192,56555,1,0,0:0:0:0:
182,192,56555,128,0,56612:0:0:0:0:
109,192,56555,128,0,56755:0:0:0:0:
36,192,56640,5,0,0:0:0:0:
329,192,56640,128,0,56697:0:0:0:0:
256,192,56697,128,0,56840:0:0:0:0:
182,192,56726,1,0,0:0:0:0:
475,192,56726,1,0,0:0:0:0:
36,192,56755,128,0,56812:0:0:0:0:
329,192,56812,1,0,0:0:0:0:
182,192,56840,128,0,56897:0:0:0:0:
109,192,56897,128,0,56940:0:0:0:0:
402,192,56897,128,0,56940:0:0:0:0:
475,192,56897,128,0,56983:0:0:0:0:
36,192,56897,128,0,56983:0:0:0:0:
329,192,57069,1,0,0:0:0:0:
182,192,57069,1,0,0:0:0:0:
402,192,57155,1,0,0:0:0:0:
256,192,57155,1,0,0:0:0:0:
109,192,57155,1,0,0:0:0:0:
475,192,57240,1,0,0:0:0:0:
182,192,57240,1,0,0:0:0:0:
36,192,57326,1,0,0:0:0:0:
256,192,57326,1,0,0:0:0:0:
402,192,57326,1,0,0:0:0:0:
36,192,57412,1,0,0:0:0:0:
329,192,57412,1,0,0:0:0:0:
182,192,57412,1,0,0:0:0:0:
109,192,57497,1,0,0:0:0:0:
256,192,57497,1,0,0:0:0:0:
475,192,57583,1,0,0:0:0:0:
329,192,57583,1,0,0:0:0:0:
182,192,57583,1,0,0:0:0:0:
109,192,57669,1,0,0:0:0:0:
475,192,57669,1,0,0:0:0:0:
256,192,57669,1,0,0:0:0:0:
329,192,57755,1,0,0:0:0:0:
36,192,57755,1,0,0:0:0:0:
182,192,57755,1,0,0:0:0:0:
402,192,57840,128,0,57969:0:0:0:0:
475,192,57862,128,0,57905:0:0:0:0:
329,192,57905,128,0,57947:0:0:0:0:
36,192,57926,1,0,0:0:0:0:
109,192,57926,1,0,0:0:0:0:
256,192,58012,1,0,0:0:0:0:
182,192,58012,1,0,0:0:0:0:
402,192,58097,1,0,0:0:0:0:
109,192,58097,1,0,0:0:0:0:
256,192,58183,1,0,0:0:0:0:
329,192,58183,1,0,0:0:0:0:
36,192,58269,1,0,0:0:0:0:
402,192,58269,128,0,58612:0:0:0:0:
475,192,58269,128,0,58355:0:0:0:0:
109,192,58269,1,0,0:0:0:0:
182,192,58269,1,0,0:0:0:0:
329,192,58355,1,0,0:0:0:0:
475,192,58440,1,0,0:0:0:0:
182,192,58440,1,0,0:0:0:0:
329,192,58526,128,0,58612:0:0:0:0:
256,192,58526,128,0,58869:0:0:0:0:
109,192,58526,1,0,0:0:0:0:
36,192,58526,1,0,0:0:0:0:
182,192,58612,1,0,0:0:0:0:
475,192,58612,1,0,0:0:0:0:
329,192,58697,1,0,0:0:0:0:
182,192,58783,128,0,58869:0:0:0:0:
109,192,58783,128,0,59297:0:0:0:0:
402,192,58783,1,0,0:0:0:0:
475,192,58783,1,0,0:0:0:0:
36,192,58783,1,0,0:0:0:0:
475,192,58955,128,0,59469:0:0:0:0:
182,192,58955,1,0,0:0:0:0:
402,192,58955,128,0,59040:0:0:0:0:
256,192,58955,1,0,0:0:0:0:
329,192,58955,1,0,0:0:0:0:
182,192,59212,128,0,59555:0:0:0:0:
256,192,59212,128,0,59297:0:0:0:0:
402,192,59383,128,0,59726:0:0:0:0:
329,192,59383,128,0,59469:0:0:0:0:
109,192,59469,128,0,60069:0:0:0:0:
36,192,59469,128,0,59555:0:0:0:0:
329,192,59640,128,0,60326:0:0:0:0:
256,192,59640,128,0,59726:0:0:0:0:
182,192,59640,1,0,0:0:0:0:
475,192,59640,1,0,0:0:0:0:
36,192,59983,128,0,60669:0:0:0:0:
182,192,59983,128,0,60069:0:0:0:0:
256,192,59983,1,0,0:0:0:0:
182,192,60326,1,0,0:0:0:0:
329,192,60412,1,0,0:0:0:0:
402,192,60497,1,0,0:0:0:0:
475,192,60526,1,0,0:0:0:0:
109,192,60669,1,0,0:0:0:0:
182,192,60669,128,0,60712:0:0:0:0:
256,192,60669,1,0,0:0:0:0:
475,192,60755,1,0,0:0:0:0:
402,192,60755,128,0,60797:0:0:0:0:
182,192,60840,128,0,60926:0:0:0:0:
36,192,60840,1,0,0:0:0:0:
329,192,60926,1,0,0:0:0:0:
402,192,60926,128,0,61183:0:0:0:0:
36,192,61012,1,0,0:0:0:0:
256,192,61012,1,0,0:0:0:0:
182,192,61012,128,0,61097:0:0:0:0:
109,192,61012,128,0,61183:0:0:0:0:
475,192,61097,128,0,61183:0:0:0:0:
329,192,61097,128,0,61355:0:0:0:0:
36,192,61183,128,0,61355:0:0:0:0:
256,192,61183,128,0,61269:0:0:0:0:
402,192,61269,128,0,61526:0:0:0:0:
475,192,61269,1,0,0:0:0:0:
182,192,61269,128,0,61612:0:0:0:0:
109,192,61355,1,0,0:0:0:0:
256,192,61355,1,0,0:0:0:0:
36,192,61440,1,0,0:0:0:0:
475,192,61440,128,0,61526:0:0:0:0:
109,192,61526,128,0,61612:0:0:0:0:
329,192,61526,128,0,61869:0:0:0:0:
256,192,61526,128,0,61612:0:0:0:0:
402,192,61612,1,0,0:0:0:0:
475,192,61612,128,0,61697:0:0:0:0:
182,192,61697,1,0,0:0:0:0:
109,192,61697,128,0,61783:0:0:0:0:
36,192,61697,128,0,61869:0:0:0:0:
402,192,61783,128,0,61869:0:0:0:0:
256,192,61783,128,0,62040:0:0:0:0:
475,192,61869,128,0,62040:0:0:0:0:
182,192,61869,128,0,61955:0:0:0:0:
329,192,61955,128,0,62212:0:0:0:0:
109,192,61955,128,0,62297:0:0:0:0:
402,192,61955,1,0,0:0:0:0:
36,192,62040,1,0,0:0:0:0:
182,192,62040,1,0,0:0:0:0:
475,192,62126,1,0,0:0:0:0:
402,192,62126,128,0,62212:0:0:0:0:
36,192,62212,128,0,62297:0:0:0:0:
256,192,62212,128,0,62555:0:0:0:0:
182,192,62212,128,0,62297:0:0:0:0:
329,192,62297,1,0,0:0:0:0:
402,192,62297,128,0,62383:0:0:0:0:
109,192,62383,1,0,0:0:0:0:
36,192,62383,128,0,62469:0:0:0:0:
475,192,62383,128,0,62555:0:0:0:0:
329,192,62469,128,0,62555:0:0:0:0:
182,192,62469,128,0,62726:0:0:0:0:
402,192,62555,128,0,62726:0:0:0:0:
109,192,62555,128,0,62640:0:0:0:0:
329,192,62640,1,0,0:0:0:0:
256,192,62640,128,0,62897:0:0:0:0:
36,192,62640,128,0,62983:0:0:0:0:
475,192,62726,1,0,0:0:0:0:
109,192,62726,1,0,0:0:0:0:
402,192,62812,1,0,0:0:0:0:
329,192,62812,128,0,62897:0:0:0:0:
475,192,62897,128,0,62983:0:0:0:0:
182,192,62897,128,0,63240:0:0:0:0:
109,192,62897,128,0,62983:0:0:0:0:
256,192,62983,1,0,0:0:0:0:
329,192,62983,128,0,63069:0:0:0:0:
36,192,63069,1,0,0:0:0:0:
475,192,63069,128,0,63155:0:0:0:0:
402,192,63069,128,0,63240:0:0:0:0:
256,192,63155,128,0,63240:0:0:0:0:
109,192,63155,128,0,63412:0:0:0:0:
36,192,63240,128,0,63326:0:0:0:0:
329,192,63240,128,0,63412:0:0:0:0:
256,192,63326,1,0,0:0:0:0:
182,192,63326,128,0,63583:0:0:0:0:
475,192,63326,128,0,63669:0:0:0:0:
402,192,63412,1,0,0:0:0:0:
36,192,63412,1,0,0:0:0:0:
256,192,63497,128,0,63583:0:0:0:0:
329,192,63497,1,0,0:0:0:0:
402,192,63583,128,0,63669:0:0:0:0:
36,192,63583,1,0,0:0:0:0:
109,192,63626,128,0,63755:0:0:0:0:
182,192,63669,1,0,0:0:0:0:
36,192,63712,128,0,63926:0:0:0:0:
475,192,63755,1,0,0:0:0:0:
256,192,63755,1,0,0:0:0:0:
329,192,63755,128,0,63840:0:0:0:0:
402,192,63755,128,0,63926:0:0:0:0:
109,192,63840,128,0,63926:0:0:0:0:
182,192,63840,128,0,64097:0:0:0:0:
475,192,63926,128,0,64097:0:0:0:0:
256,192,63926,128,0,64012:0:0:0:0:
109,192,64012,128,0,64269:0:0:0:0:
36,192,64012,1,0,0:0:0:0:
329,192,64012,128,0,64355:0:0:0:0:
402,192,64097,1,0,0:0:0:0:
256,192,64097,1,0,0:0:0:0:
475,192,64183,1,0,0:0:0:0:
36,192,64183,128,0,64269:0:0:0:0:
402,192,64269,128,0,64355:0:0:0:0:
182,192,64269,128,0,64612:0:0:0:0:
256,192,64269,128,0,64355:0:0:0:0:
109,192,64355,1,0,0:0:0:0:
36,192,64355,128,0,64440:0:0:0:0:
329,192,64440,1,0,0:0:0:0:
402,192,64440,128,0,64526:0:0:0:0:
475,192,64440,128,0,64612:0:0:0:0:
109,192,64526,128,0,64612:0:0:0:0:
256,192,64526,128,0,64783:0:0:0:0:
36,192,64612,128,0,64783:0:0:0:0:
329,192,64612,128,0,64697:0:0:0:0:
182,192,64697,128,0,64955:0:0:0:0:
402,192,64697,128,0,65040:0:0:0:0:
109,192,64697,1,0,0:0:0:0:
475,192,64783,1,0,0:0:0:0:
329,192,64783,1,0,0:0:0:0:
36,192,64869,1,0,0:0:0:0:
109,192,64869,128,0,64955:0:0:0:0:
475,192,64955,128,0,65040:0:0:0:0:
256,192,64955,128,0,65297:0:0:0:0:
329,192,64955,128,0,65040:0:0:0:0:
182,192,65040,1,0,0:0:0:0:
109,192,65040,128,0,65126:0:0:0:0:
402,192,65126,1,0,0:0:0:0:
475,192,65126,128,0,65212:0:0:0:0:
36,192,65126,128,0,65297:0:0:0:0:
182,192,65212,128,0,65297:0:0:0:0:
329,192,65212,128,0,65469:0:0:0:0:
109,192,65297,128,0,65469:0:0:0:0:
402,192,65297,128,0,65383:0:0:0:0:
182,192,65383,1,0,0:0:0:0:
256,192,65383,128,0,65640:0:0:0:0:
475,192,65383,128,0,65726:0:0:0:0:
36,192,65469,1,0,0:0:0:0:
402,192,65469,1,0,0:0:0:0:
109,192,65555,1,0,0:0:0:0:
182,192,65555,128,0,65640:0:0:0:0:
36,192,65640,128,0,65726:0:0:0:0:
329,192,65640,128,0,65983:0:0:0:0:
402,192,65640,128,0,65726:0:0:0:0:
256,192,65726,1,0,0:0:0:0:
182,192,65726,128,0,65812:0:0:0:0:
475,192,65812,1,0,0:0:0:0:
36,192,65812,128,0,65897:0:0:0:0:
109,192,65812,128,0,65983:0:0:0:0:
256,192,65897,128,0,65983:0:0:0:0:
402,192,65897,128,0,66155:0:0:0:0:
475,192,65983,128,0,66069:0:0:0:0:
182,192,65983,128,0,66155:0:0:0:0:
256,192,66069,1,0,0:0:0:0:
329,192,66069,128,0,66326:0:0:0:0:
36,192,66069,128,0,66412:0:0:0:0:
109,192,66155,1,0,0:0:0:0:
475,192,66155,1,0,0:0:0:0:
256,192,66240,128,0,66326:0:0:0:0:
182,192,66240,1,0,0:0:0:0:
109,192,66326,128,0,66412:0:0:0:0:
475,192,66326,1,0,0:0:0:0:
402,192,66369,128,0,66497:0:0:0:0:
329,192,66412,1,0,0:0:0:0:
475,192,66455,128,0,66669:0:0:0:0:
109,192,66497,128,0,66755:0:0:0:0:
182,192,66497,128,0,66583:0:0:0:0:
256,192,66497,1,0,0:0:0:0:
36,192,66497,128,0,66583:0:0:0:0:
402,192,66583,1,0,0:0:0:0:
329,192,66583,128,0,66669:0:0:0:0:
256,192,66669,128,0,66755:0:0:0:0:
182,192,66669,1,0,0:0:0:0:
475,192,66755,128,0,66840:0:0:0:0:
36,192,66755,128,0,67097:0:0:0:0:
402,192,66755,128,0,66840:0:0:0:0:
329,192,66755,128,0,66926:0:0:0:0:
182,192,66840,128,0,67097:0:0:0:0:
109,192,66840,1,0,0:0:0:0:
256,192,66840,1,0,0:0:0:0:
475,192,66926,1,0,0:0:0:0:
402,192,66926,1,0,0:0:0:0:
109,192,67012,128,0,67097:0:0:0:0:
256,192,67012,128,0,67183:0:0:0:0:
329,192,67055,1,0,0:0:0:0:
475,192,67097,128,0,67183:0:0:0:0:
402,192,67097,128,0,67269:0:0:0:0:
36,192,67183,128,0,67440:0:0:0:0:
329,192,67183,128,0,67355:0:0:0:0:
109,192,67183,128,0,67269:0:0:0:0:
182,192,67183,1,0,0:0:0:0:
256,192,67269,128,0,67355:0:0:0:0:
475,192,67269,1,0,0:0:0:0:
182,192,67355,128,0,67440:0:0:0:0:
109,192,67355,1,0,0:0:0:0:
402,192,67440,128,0,67526:0:0:0:0:
475,192,67440,128,0,67783:0:0:0:0:
329,192,67440,128,0,67526:0:0:0:0:
256,192,67440,128,0,67612:0:0:0:0:
109,192,67526,128,0,67783:0:0:0:0:
36,192,67526,1,0,0:0:0:0:
182,192,67526,1,0,0:0:0:0:
402,192,67612,1,0,0:0:0:0:
329,192,67612,1,0,0:0:0:0:
36,192,67697,128,0,67783:0:0:0:0:
182,192,67697,128,0,67869:0:0:0:0:
256,192,67740,1,0,0:0:0:0:
402,192,67783,128,0,67869:0:0:0:0:
329,192,67783,128,0,67955:0:0:0:0:
475,192,67869,128,0,68126:0:0:0:0:
256,192,67869,128,0,68040:0:0:0:0:
36,192,67869,128,0,67955:0:0:0:0:
109,192,67869,1,0,0:0:0:0:
182,192,67955,128,0,68040:0:0:0:0:
402,192,67955,1,0,0:0:0:0:
109,192,68040,128,0,68126:0:0:0:0:
36,192,68040,1,0,0:0:0:0:
329,192,68126,128,0,68212:0:0:0:0:
402,192,68126,128,0,68469:0:0:0:0:
256,192,68126,128,0,68212:0:0:0:0:
182,192,68126,128,0,68297:0:0:0:0:
36,192,68212,128,0,68469:0:0:0:0:
475,192,68212,1,0,0:0:0:0:
109,192,68212,1,0,0:0:0:0:
329,192,68297,1,0,0:0:0:0:
256,192,68297,1,0,0:0:0:0:
475,192,68383,128,0,68469:0:0:0:0:
109,192,68383,128,0,68555:0:0:0:0:
182,192,68426,1,0,0:0:0:0:
256,192,68469,128,0,68555:0:0:0:0:
329,192,68469,128,0,68555:0:0:0:0:
402,192,68555,128,0,68812:0:0:0:0:
475,192,68555,128,0,68640:0:0:0:0:
182,192,68555,128,0,68726:0:0:0:0:
36,192,68555,1,0,0:0:0:0:
109,192,68640,128,0,68726:0:0:0:0:
256,192,68640,1,0,0:0:0:0:
329,192,68640,128,0,68726:0:0:0:0:
36,192,68726,128,0,68812:0:0:0:0:
475,192,68726,1,0,0:0:0:0:
256,192,68812,128,0,68897:0:0:0:0:
329,192,68812,128,0,69069:0:0:0:0:
182,192,68812,128,0,68897:0:0:0:0:
109,192,68812,128,0,68983:0:0:0:0:
475,192,68897,128,0,68983:0:0:0:0:
402,192,68897,1,0,0:0:0:0:
36,192,68897,1,0,0:0:0:0:
256,192,68983,1,0,0:0:0:0:
182,192,68983,1,0,0:0:0:0:
475,192,69069,1,0,0:0:0:0:
402,192,69069,128,0,69155:0:0:0:0:
36,192,69069,128,0,69155:0:0:0:0:
109,192,69112,1,0,0:0:0:0:
182,192,69155,128,0,69240:0:0:0:0:
256,192,69155,1,0,0:0:0:0:
329,192,69155,128,0,69240:0:0:0:0:
475,192,69240,1,0,0:0:0:0:
36,192,69240,1,0,0:0:0:0:
402,192,69240,1,0,0:0:0:0:
329,192,69497,1,0,0:0:0:0:
475,192,69497,1,0,0:0:0:0:
329,192,69755,1,0,0:0:0:0:
475,192,69755,1,0,0:0:0:0:
109,192,69926,1,0,0:0:0:0:
402,192,69926,1,0,0:0:0:0:
256,192,69926,1,0,0:0:0:0:
402,192,70012,1,0,0:0:0:0:
109,192,70012,1,0,0:0:0:0:
256,192,70012,1,0,0:0:0:0:
182,192,70183,1,0,0:0:0:0:
36,192,70183,1,0,0:0:0:0:
402,192,70355,1,0,0:0:0:0:
109,192,70355,1,0,0:0:0:0:
256,192,70440,1,0,0:0:0:0:
402,192,70526,1,0,0:0:0:0:
109,192,70526,1,0,0:0:0:0:
182,192,70612,1,0,0:0:0:0:
475,192,70612,1,0,0:0:0:0:
36,192,70612,1,0,0:0:0:0:
329,192,70612,1,0,0:0:0:0:
109,192,70783,1,0,0:0:0:0:
402,192,70783,1,0,0:0:0:0:
256,192,70783,1,0,0:0:0:0:
36,192,70955,1,0,0:0:0:0:
475,192,70955,1,0,0:0:0:0:
182,192,70955,1,0,0:0:0:0:
329,192,70955,1,0,0:0:0:0:
109,192,71126,1,0,0:0:0:0:
402,192,71126,1,0,0:0:0:0:
256,192,71126,1,0,0:0:0:0:
182,192,71297,1,0,0:0:0:0:
256,192,71297,1,0,0:0:0:0:
329,192,71297,1,0,0:0:0:0:
182,192,71469,1,0,0:0:0:0:
329,192,71469,1,0,0:0:0:0:
36,192,71469,128,0,71512:0:0:0:0:
475,192,71469,128,0,71512:0:0:0:0:
182,192,71555,1,0,0:0:0:0:
329,192,71555,1,0,0:0:0:0:
256,192,71640,1,0,0:0:0:0:
109,192,71640,128,0,71683:0:0:0:0:
36,192,71640,1,0,0:0:0:0:
402,192,71640,128,0,71683:0:0:0:0:
475,192,71640,1,0,0:0:0:0:
182,192,71777,128,0,71846:0:0:0:0:
256,192,71777,128,0,71846:0:0:0:0:
329,192,71777,128,0,71846:0:0:0:0:
475,192,71983,128,0,72155:0:0:0:0:
402,192,71983,128,0,72069:0:0:0:0:
329,192,71983,128,0,72026:0:0:0:0:
182,192,71983,128,0,72069:0:0:0:0:
109,192,72026,128,0,72112:0:0:0:0:
36,192,72069,128,0,72240:0:0:0:0:
256,192,72112,128,0,72197:0:0:0:0:
329,192,72155,128,0,72283:0:0:0:0:
402,192,72197,1,0,0:0:0:0:
182,192,72197,128,0,72326:0:0:0:0:
475,192,72240,128,0,72412:0:0:0:0:
109,192,72283,1,0,0:0:0:0:
256,192,72283,128,0,72369:0:0:0:0:
36,192,72326,128,0,72583:0:0:0:0:
402,192,72369,128,0,72455:0:0:0:0:
329,192,72412,128,0,72497:0:0:0:0:
109,192,72412,128,0,72583:0:0:0:0:
182,192,72455,128,0,72583:0:0:0:0:
256,192,72497,1,0,0:0:0:0:
475,192,72497,1,0,0:0:0:0:
36,192,72669,1,0,0:0:0:0:
109,192,72669,1,0,0:0:0:0:
475,192,72669,1,0,0:0:0:0:
182,192,72669,1,0,0:0:0:0:
402,192,72690,1,0,0:0:0:0:
256,192,72755,1,0,0:0:0:0:
329,192,72776,1,0,0:0:0:0:
36,192,72840,1,0,0:0:0:0:
402,192,72840,1,0,0:0:0:0:
109,192,72862,1,0,0:0:0:0:
475,192,72926,1,0,0:0:0:0:
256,192,72926,1,0,0:0:0:0:
182,192,72947,1,0,0:0:0:0:
109,192,73012,1,0,0:0:0:0:
329,192,73012,1,0,0:0:0:0:
402,192,73055,1,0,0:0:0:0:
36,192,73097,1,0,0:0:0:0:
256,192,73119,1,0,0:0:0:0:
109,192,73183,1,0,0:0:0:0:
475,192,73183,1,0,0:0:0:0:
182,192,73205,1,0,0:0:0:0:
402,192,73217,1,0,0:0:0:0:
329,192,73269,1,0,0:0:0:0:
256,192,73355,1,0,0:0:0:0:
475,192,73440,1,0,0:0:0:0:
36,192,73440,1,0,0:0:0:0:
109,192,73462,1,0,0:0:0:0:
402,192,73483,1,0,0:0:0:0:
329,192,73505,1,0,0:0:0:0:
182,192,73526,1,0,0:0:0:0:
475,192,73697,1,0,0:0:0:0:
329,192,73697,1,0,0:0:0:0:
36,192,73719,1,0,0:0:0:0:
256,192,73740,1,0,0:0:0:0:
182,192,73783,1,0,0:0:0:0:
109,192,73869,1,0,0:0:0:0:
402,192,73869,1,0,0:0:0:0:
109,192,73955,1,0,0:0:0:0:
402,192,73955,1,0,0:0:0:0:
256,192,74040,1,0,0:0:0:0:
329,192,74040,128,0,74126:0:0:0:0:
475,192,74040,128,0,74126:0:0:0:0:
182,192,74062,1,0,0:0:0:0:
109,192,74105,1,0,0:0:0:0:
36,192,74169,1,0,0:0:0:0:
329,192,74212,1,0,0:0:0:0:
402,192,74233,1,0,0:0:0:0:
109,192,74297,1,0,0:0:0:0:
256,192,74340,1,0,0:0:0:0:
475,192,74383,1,0,0:0:0:0:
329,192,74383,128,0,74469:0:0:0:0:
182,192,74426,128,0,74512:0:0:0:0:
36,192,74469,128,0,74555:0:0:0:0:
402,192,74512,1,0,0:0:0:0:
256,192,74555,128,0,74726:0:0:0:0:
475,192,74555,128,0,74640:0:0:0:0:
109,192,74597,128,0,74683:0:0:0:0:
329,192,74640,128,0,74726:0:0:0:0:
182,192,74726,1,0,0:0:0:0:
36,192,74726,1,0,0:0:0:0:
402,192,74726,1,0,0:0:0:0:
475,192,74726,1,0,0:0:0:0:
109,192,74897,128,0,74940:0:0:0:0:
182,192,74897,128,0,74940:0:0:0:0:
329,192,74897,128,0,74940:0:0:0:0:
256,192,74897,1,0,0:0:0:0:
402,192,74897,128,0,74940:0:0:0:0:
109,192,75069,5,0,0:0:0:0:
36,192,75069,128,0,75155:0:0:0:0:
329,192,75069,128,0,75412:0:0:0:0:
402,192,75069,1,0,0:0:0:0:
475,192,75069,128,0,75326:0:0:0:0:
182,192,75155,1,0,0:0:0:0:
256,192,75155,128,0,75240:0:0:0:0:
36,192,75240,1,0,0:0:0:0:
109,192,75240,128,0,75326:0:0:0:0:
402,192,75240,128,0,75326:0:0:0:0:
256,192,75326,1,0,0:0:0:0:
182,192,75326,128,0,75755:0:0:0:0:
402,192,75412,1,0,0:0:0:0:
475,192,75412,128,0,75497:0:0:0:0:
109,192,75412,1,0,0:0:0:0:
36,192,75412,128,0,75669:0:0:0:0:
329,192,75497,1,0,0:0:0:0:
256,192,75497,128,0,75583:0:0:0:0:
475,192,75583,1,0,0:0:0:0:
402,192,75583,128,0,75669:0:0:0:0:
109,192,75583,128,0,75669:0:0:0:0:
256,192,75669,1,0,0:0:0:0:
329,192,75669,128,0,76097:0:0:0:0:
36,192,75755,5,0,0:0:0:0:
109,192,75755,128,0,75840:0:0:0:0:
402,192,75755,1,0,0:0:0:0:
475,192,75755,128,0,76012:0:0:0:0:
182,192,75840,1,0,0:0:0:0:
256,192,75840,128,0,75926:0:0:0:0:
109,192,75926,1,0,0:0:0:0:
36,192,75926,128,0,76012:0:0:0:0:
402,192,75926,128,0,76012:0:0:0:0:
256,192,76012,1,0,0:0:0:0:
182,192,76012,128,0,76440:0:0:0:0:
36,192,76097,1,0,0:0:0:0:
402,192,76097,128,0,76355:0:0:0:0:
475,192,76097,1,0,0:0:0:0:
109,192,76097,128,0,76183:0:0:0:0:
256,192,76183,128,0,76269:0:0:0:0:
329,192,76183,1,0,0:0:0:0:
36,192,76269,128,0,76355:0:0:0:0:
109,192,76269,1,0,0:0:0:0:
475,192,76269,128,0,76355:0:0:0:0:
256,192,76355,1,0,0:0:0:0:
329,192,76355,128,0,76783:0:0:0:0:
36,192,76440,5,0,0:0:0:0:
402,192,76440,128,0,76526:0:0:0:0:
109,192,76440,128,0,76697:0:0:0:0:
475,192,76440,1,0,0:0:0:0:
182,192,76526,1,0,0:0:0:0:
256,192,76526,128,0,76612:0:0:0:0:
402,192,76612,1,0,0:0:0:0:
36,192,76612,128,0,76697:0:0:0:0:
475,192,76612,128,0,76697:0:0:0:0:
256,192,76697,1,0,0:0:0:0:
182,192,76697,128,0,77126:0:0:0:0:
475,192,76783,1,0,0:0:0:0:
109,192,76783,128,0,76869:0:0:0:0:
36,192,76783,1,0,0:0:0:0:
402,192,76783,128,0,77040:0:0:0:0:
329,192,76869,1,0,0:0:0:0:
256,192,76869,128,0,76955:0:0:0:0:
109,192,76955,1,0,0:0:0:0:
475,192,76955,128,0,77040:0:0:0:0:
36,192,76955,128,0,77040:0:0:0:0:
256,192,77040,1,0,0:0:0:0:
329,192,77040,128,0,77383:0:0:0:0:
36,192,77126,5,0,0:0:0:0:
109,192,77126,128,0,77383:0:0:0:0:
402,192,77126,128,0,77212:0:0:0:0:
475,192,77126,1,0,0:0:0:0:
256,192,77212,128,0,77297:0:0:0:0:
182,192,77255,1,0,0:0:0:0:
36,192,77297,128,0,77383:0:0:0:0:
475,192,77297,128,0,77383:0:0:0:0:
402,192,77340,1,0,0:0:0:0:
256,192,77383,1,0,0:0:0:0:
36,192,77469,128,0,77640:0:0:0:0:
109,192,77469,128,0,77555:0:0:0:0:
182,192,77469,128,0,77512:0:0:0:0:
329,192,77469,128,0,77555:0:0:0:0:
402,192,77512,128,0,77597:0:0:0:0:
475,192,77555,128,0,77726:0:0:0:0:
256,192,77597,128,0,77683:0:0:0:0:
182,192,77640,128,0,77769:0:0:0:0:
109,192,77683,1,0,0:0:0:0:
329,192,77683,128,0,77812:0:0:0:0:
36,192,77726,128,0,77897:0:0:0:0:
402,192,77769,1,0,0:0:0:0:
256,192,77769,128,0,77855:0:0:0:0:
475,192,77812,128,0,78069:0:0:0:0:
109,192,77855,128,0,77940:0:0:0:0:
182,192,77897,128,0,77983:0:0:0:0:
402,192,77897,128,0,78069:0:0:0:0:
329,192,77940,128,0,78069:0:0:0:0:
256,192,77983,1,0,0:0:0:0:
36,192,77983,1,0,0:0:0:0:
475,192,78155,1,0,0:0:0:0:
402,192,78155,1,0,0:0:0:0:
36,192,78155,1,0,0:0:0:0:
329,192,78155,1,0,0:0:0:0:
109,192,78176,1,0,0:0:0:0:
256,192,78240,1,0,0:0:0:0:
182,192,78262,1,0,0:0:0:0:
475,192,78326,1,0,0:0:0:0:
109,192,78326,1,0,0:0:0:0:
402,192,78347,1,0,0:0:0:0:
36,192,78412,1,0,0:0:0:0:
256,192,78412,1,0,0:0:0:0:
329,192,78433,1,0,0:0:0:0:
402,192,78497,1,0,0:0:0:0:
182,192,78497,1,0,0:0:0:0:
109,192,78540,1,0,0:0:0:0:
475,192,78583,1,0,0:0:0:0:
256,192,78605,1,0,0:0:0:0:
402,192,78669,1,0,0:0:0:0:
36,192,78669,1,0,0:0:0:0:
329,192,78690,1,0,0:0:0:0:
109,192,78703,1,0,0:0:0:0:
182,192,78755,1,0,0:0:0:0:
256,192,78840,1,0,0:0:0:0:
36,192,78926,1,0,0:0:0:0:
475,192,78926,1,0,0:0:0:0:
402,192,78947,1,0,0:0:0:0:
109,192,78969,1,0,0:0:0:0:
182,192,78990,1,0,0:0:0:0:
329,192,79012,1,0,0:0:0:0:
36,192,79183,1,0,0:0:0:0:
182,192,79183,1,0,0:0:0:0:
475,192,79205,1,0,0:0:0:0:
256,192,79226,1,0,0:0:0:0:
329,192,79269,1,0,0:0:0:0:
109,192,79355,1,0,0:0:0:0:
402,192,79355,1,0,0:0:0:0:
402,192,79440,1,0,0:0:0:0:
109,192,79440,1,0,0:0:0:0:
256,192,79526,1,0,0:0:0:0:
36,192,79526,128,0,79612:0:0:0:0:
182,192,79526,128,0,79612:0:0:0:0:
329,192,79547,1,0,0:0:0:0:
402,192,79590,1,0,0:0:0:0:
475,192,79655,1,0,0:0:0:0:
182,192,79697,1,0,0:0:0:0:
109,192,79719,1,0,0:0:0:0:
402,192,79783,128,0,79869:0:0:0:0:
256,192,79783,1,0,0:0:0:0:
182,192,79869,128,0,79955:0:0:0:0:
36,192,79869,128,0,79955:0:0:0:0:
329,192,79955,1,0,0:0:0:0:
475,192,79955,128,0,80126:0:0:0:0:
109,192,80040,1,0,0:0:0:0:
402,192,80040,128,0,80126:0:0:0:0:
256,192,80040,128,0,80212:0:0:0:0:
36,192,80040,1,0,0:0:0:0:
182,192,80126,128,0,80212:0:0:0:0:
329,192,80212,1,0,0:0:0:0:
402,192,80212,128,0,80255:0:0:0:0:
475,192,80212,128,0,80255:0:0:0:0:
36,192,80212,128,0,80255:0:0:0:0:
109,192,80383,128,0,80426:0:0:0:0:
256,192,80383,1,0,0:0:0:0:
329,192,80383,1,0,0:0:0:0:
475,192,80383,128,0,80426:0:0:0:0:
36,192,80383,128,0,80426:0:0:0:0:
256,192,80469,1,0,0:0:0:0:
329,192,80469,1,0,0:0:0:0:
475,192,80555,5,0,0:0:0:0:
109,192,80555,128,0,80640:0:0:0:0:
182,192,80555,128,0,80897:0:0:0:0:
402,192,80555,128,0,80812:0:0:0:0:
36,192,80555,1,0,0:0:0:0:
329,192,80640,1,0,0:0:0:0:
256,192,80640,128,0,80726:0:0:0:0:
109,192,80726,1,0,0:0:0:0:
475,192,80726,128,0,80812:0:0:0:0:
36,192,80726,128,0,80812:0:0:0:0:
256,192,80812,1,0,0:0:0:0:
329,192,80812,128,0,81240:0:0:0:0:
36,192,80897,1,0,0:0:0:0:
402,192,80897,128,0,80983:0:0:0:0:
475,192,80897,1,0,0:0:0:0:
109,192,80897,128,0,81155:0:0:0:0:
182,192,80983,1,0,0:0:0:0:
256,192,80983,128,0,81069:0:0:0:0:
402,192,81069,1,0,0:0:0:0:
36,192,81069,128,0,81155:0:0:0:0:
475,192,81069,128,0,81155:0:0:0:0:
256,192,81155,1,0,0:0:0:0:
182,192,81155,128,0,81583:0:0:0:0:
36,192,81240,1,0,0:0:0:0:
402,192,81240,128,0,81497:0:0:0:0:
109,192,81240,128,0,81326:0:0:0:0:
475,192,81240,1,0,0:0:0:0:
329,192,81326,1,0,0:0:0:0:
256,192,81326,128,0,81412:0:0:0:0:
36,192,81412,128,0,81497:0:0:0:0:
109,192,81412,1,0,0:0:0:0:
475,192,81412,128,0,81497:0:0:0:0:
256,192,81497,1,0,0:0:0:0:
329,192,81497,128,0,81926:0:0:0:0:
402,192,81583,1,0,0:0:0:0:
36,192,81583,1,0,0:0:0:0:
109,192,81583,128,0,81669:0:0:0:0:
475,192,81583,128,0,81840:0:0:0:0:
256,192,81669,128,0,81755:0:0:0:0:
182,192,81669,1,0,0:0:0:0:
402,192,81755,128,0,81840:0:0:0:0:
36,192,81755,128,0,81840:0:0:0:0:
109,192,81755,1,0,0:0:0:0:
256,192,81840,1,0,0:0:0:0:
182,192,81840,128,0,82269:0:0:0:0:
109,192,81926,5,0,0:0:0:0:
402,192,81926,1,0,0:0:0:0:
36,192,81926,128,0,82183:0:0:0:0:
475,192,81926,128,0,82012:0:0:0:0:
329,192,82012,1,0,0:0:0:0:
256,192,82012,128,0,82097:0:0:0:0:
109,192,82097,128,0,82183:0:0:0:0:
402,192,82097,128,0,82183:0:0:0:0:
475,192,82097,1,0,0:0:0:0:
256,192,82183,1,0,0:0:0:0:
329,192,82183,128,0,82612:0:0:0:0:
402,192,82269,1,0,0:0:0:0:
109,192,82269,1,0,0:0:0:0:
36,192,82269,128,0,82355:0:0:0:0:
475,192,82269,128,0,82355:0:0:0:0:
182,192,82355,1,0,0:0:0:0:
256,192,82355,128,0,82440:0:0:0:0:
402,192,82440,128,0,82526:0:0:0:0:
109,192,82440,128,0,82526:0:0:0:0:
36,192,82440,1,0,0:0:0:0:
475,192,82440,1,0,0:0:0:0:
256,192,82526,1,0,0:0:0:0:
182,192,82526,128,0,82783:0:0:0:0:
36,192,82612,128,0,82697:0:0:0:0:
109,192,82612,1,0,0:0:0:0:
402,192,82612,1,0,0:0:0:0:
475,192,82612,128,0,82869:0:0:0:0:
256,192,82697,128,0,82783:0:0:0:0:
329,192,82740,1,0,0:0:0:0:
109,192,82783,1,0,0:0:0:0:
402,192,82783,128,0,82869:0:0:0:0:
36,192,82826,1,0,0:0:0:0:
256,192,82869,1,0,0:0:0:0:
182,192,82912,1,0,0:0:0:0:
109,192,82955,1,0,0:0:0:0:
36,192,82955,128,0,83340:0:0:0:0:
402,192,82955,128,0,82997:0:0:0:0:
475,192,82955,128,0,83126:0:0:0:0:
329,192,82997,128,0,83126:0:0:0:0:
256,192,83040,128,0,83083:0:0:0:0:
182,192,83083,128,0,83212:0:0:0:0:
109,192,83126,128,0,83383:0:0:0:0:
402,192,83126,1,0,0:0:0:0:
329,192,83212,128,0,83297:0:0:0:0:
256,192,83212,1,0,0:0:0:0:
402,192,83255,128,0,83297:0:0:0:0:
182,192,83297,128,0,83512:0:0:0:0:
475,192,83297,128,0,83555:0:0:0:0:
256,192,83340,128,0,83426:0:0:0:0:
329,192,83383,128,0,83469:0:0:0:0:
36,192,83426,1,0,0:0:0:0:
402,192,83469,128,0,83597:0:0:0:0:
109,192,83512,128,0,83640:0:0:0:0:
256,192,83555,1,0,0:0:0:0:
36,192,83555,128,0,83812:0:0:0:0:
329,192,83597,128,0,83812:0:0:0:0:
182,192,83640,128,0,83726:0:0:0:0:
475,192,83640,1,0,0:0:0:0:
256,192,83683,128,0,83769:0:0:0:0:
402,192,83726,128,0,83983:0:0:0:0:
475,192,83769,128,0,84155:0:0:0:0:
109,192,83812,128,0,83855:0:0:0:0:
182,192,83812,128,0,83897:0:0:0:0:
256,192,83897,1,0,0:0:0:0:
329,192,83940,128,0,84026:0:0:0:0:
109,192,83983,1,0,0:0:0:0:
182,192,83983,128,0,84112:0:0:0:0:
36,192,83983,128,0,84197:0:0:0:0:
256,192,84026,128,0,84069:0:0:0:0:
109,192,84112,128,0,84155:0:0:0:0:
329,192,84155,1,0,0:0:0:0:
402,192,84155,1,0,0:0:0:0:
256,192,84240,1,0,0:0:0:0:
182,192,84240,1,0,0:0:0:0:
36,192,84326,128,0,84583:0:0:0:0:
329,192,84326,1,0,0:0:0:0:
475,192,84326,128,0,84412:0:0:0:0:
109,192,84326,1,0,0:0:0:0:
402,192,84326,128,0,84583:0:0:0:0:
256,192,84412,1,0,0:0:0:0:
182,192,84412,128,0,84497:0:0:0:0:
329,192,84497,128,0,84583:0:0:0:0:
109,192,84540,128,0,84840:0:0:0:0:
475,192,84583,1,0,0:0:0:0:
182,192,84583,128,0,84669:0:0:0:0:
256,192,84626,128,0,84755:0:0:0:0:
36,192,84669,128,0,84840:0:0:0:0:
402,192,84669,128,0,84840:0:0:0:0:
329,192,84669,1,0,0:0:0:0:
475,192,84755,128,0,85183:0:0:0:0:
182,192,84755,1,0,0:0:0:0:
256,192,84840,128,0,85055:0:0:0:0:
329,192,84840,128,0,84926:0:0:0:0:
182,192,84926,128,0,84969:0:0:0:0:
109,192,84926,128,0,85012:0:0:0:0:
402,192,84926,1,0,0:0:0:0:
36,192,84969,128,0,85183:0:0:0:0:
329,192,85012,128,0,85226:0:0:0:0:
402,192,85097,128,0,85440:0:0:0:0:
182,192,85097,1,0,0:0:0:0:
109,192,85140,128,0,85355:0:0:0:0:
256,192,85183,128,0,85269:0:0:0:0:
182,192,85226,128,0,85269:0:0:0:0:
36,192,85269,128,0,85440:0:0:0:0:
475,192,85312,128,0,85440:0:0:0:0:
256,192,85355,1,0,0:0:0:0:
329,192,85355,128,0,85526:0:0:0:0:
182,192,85440,128,0,85612:0:0:0:0:
109,192,85440,1,0,0:0:0:0:
475,192,85526,1,0,0:0:0:0:
402,192,85526,1,0,0:0:0:0:
36,192,85526,128,0,85612:0:0:0:0:
256,192,85612,1,0,0:0:0:0:
329,192,85612,1,0,0:0:0:0:
475,192,85697,128,0,86083:0:0:0:0:
109,192,85697,128,0,85740:0:0:0:0:
402,192,85697,1,0,0:0:0:0:
36,192,85697,128,0,85869:0:0:0:0:
182,192,85740,128,0,85869:0:0:0:0:
256,192,85783,128,0,85826:0:0:0:0:
402,192,85826,128,0,85912:0:0:0:0:
329,192,85869,128,0,86126:0:0:0:0:
109,192,85869,1,0,0:0:0:0:
182,192,85955,128,0,86040:0:0:0:0:
256,192,85955,1,0,0:0:0:0:
109,192,85997,128,0,86212:0:0:0:0:
402,192,86040,128,0,86255:0:0:0:0:
36,192,86040,128,0,86169:0:0:0:0:
256,192,86083,128,0,86169:0:0:0:0:
182,192,86169,128,0,86340:0:0:0:0:
475,192,86212,1,0,0:0:0:0:
329,192,86255,128,0,86426:0:0:0:0:
256,192,86297,1,0,0:0:0:0:
109,192,86340,128,0,86555:0:0:0:0:
475,192,86340,128,0,86555:0:0:0:0:
402,192,86383,128,0,86469:0:0:0:0:
36,192,86383,1,0,0:0:0:0:
256,192,86426,128,0,86512:0:0:0:0:
182,192,86469,128,0,86726:0:0:0:0:
36,192,86512,128,0,86897:0:0:0:0:
402,192,86555,128,0,86597:0:0:0:0:
329,192,86555,128,0,86640:0:0:0:0:
256,192,86640,1,0,0:0:0:0:
475,192,86640,128,0,86940:0:0:0:0:
109,192,86683,128,0,86769:0:0:0:0:
402,192,86726,1,0,0:0:0:0:
329,192,86726,128,0,86855:0:0:0:0:
256,192,86769,128,0,86812:0:0:0:0:
402,192,86855,128,0,86897:0:0:0:0:
109,192,86897,1,0,0:0:0:0:
182,192,86897,1,0,0:0:0:0:
256,192,86983,1,0,0:0:0:0:
329,192,86983,1,0,0:0:0:0:
109,192,87069,128,0,87455:0:0:0:0:
182,192,87069,1,0,0:0:0:0:
36,192,87069,128,0,87240:0:0:0:0:
475,192,87069,128,0,87112:0:0:0:0:
402,192,87069,128,0,87240:0:0:0:0:
329,192,87155,128,0,87197:0:0:0:0:
182,192,87197,128,0,87283:0:0:0:0:
475,192,87240,1,0,0:0:0:0:
256,192,87240,128,0,87497:0:0:0:0:
329,192,87326,1,0,0:0:0:0:
402,192,87326,128,0,87412:0:0:0:0:
475,192,87369,128,0,87583:0:0:0:0:
182,192,87412,128,0,87626:0:0:0:0:
36,192,87412,128,0,87755:0:0:0:0:
329,192,87455,128,0,87540:0:0:0:0:
402,192,87540,128,0,87712:0:0:0:0:
109,192,87583,1,0,0:0:0:0:
256,192,87626,128,0,87797:0:0:0:0:
329,192,87669,1,0,0:0:0:0:
109,192,87712,128,0,88012:0:0:0:0:
475,192,87712,128,0,88097:0:0:0:0:
182,192,87755,128,0,87840:0:0:0:0:
329,192,87797,128,0,87883:0:0:0:0:
402,192,87840,128,0,87969:0:0:0:0:
36,192,87883,128,0,88012:0:0:0:0:
256,192,87926,128,0,88012:0:0:0:0:
182,192,87926,128,0,87969:0:0:0:0:
329,192,88012,128,0,88183:0:0:0:0:
402,192,88055,128,0,88140:0:0:0:0:
256,192,88097,128,0,88269:0:0:0:0:
36,192,88097,128,0,88355:0:0:0:0:
109,192,88097,1,0,0:0:0:0:
182,192,88140,128,0,88226:0:0:0:0:
475,192,88183,1,0,0:0:0:0:
329,192,88269,1,0,0:0:0:0:
109,192,88269,128,0,88355:0:0:0:0:
402,192,88269,1,0,0:0:0:0:
256,192,88355,1,0,0:0:0:0:
182,192,88355,1,0,0:0:0:0:
329,192,88440,128,0,88612:0:0:0:0:
402,192,88440,128,0,88526:0:0:0:0:
475,192,88440,128,0,88483:0:0:0:0:
36,192,88440,128,0,88526:0:0:0:0:
109,192,88483,128,0,88569:0:0:0:0:
182,192,88526,128,0,88697:0:0:0:0:
256,192,88569,128,0,88655:0:0:0:0:
475,192,88612,128,0,88740:0:0:0:0:
402,192,88655,1,0,0:0:0:0:
36,192,88655,128,0,88783:0:0:0:0:
329,192,88697,128,0,88955:0:0:0:0:
109,192,88740,1,0,0:0:0:0:
182,192,88783,128,0,89040:0:0:0:0:
256,192,88783,128,0,88869:0:0:0:0:
402,192,88826,128,0,88955:0:0:0:0:
475,192,88869,128,0,88955:0:0:0:0:
109,192,88869,128,0,89040:0:0:0:0:
36,192,88912,128,0,89040:0:0:0:0:
256,192,88955,1,0,0:0:0:0:
329,192,89040,128,0,89212:0:0:0:0:
402,192,89040,128,0,89126:0:0:0:0:
475,192,89040,128,0,89383:0:0:0:0:
36,192,89126,128,0,89383:0:0:0:0:
182,192,89126,1,0,0:0:0:0:
109,192,89126,128,0,89297:0:0:0:0:
402,192,89212,1,0,0:0:0:0:
256,192,89212,128,0,89383:0:0:0:0:
182,192,89255,128,0,89340:0:0:0:0:
329,192,89297,128,0,89469:0:0:0:0:
402,192,89340,128,0,89426:0:0:0:0:
109,192,89383,1,0,0:0:0:0:
182,192,89426,1,0,0:0:0:0:
256,192,89469,128,0,89640:0:0:0:0:
36,192,89469,128,0,89726:0:0:0:0:
475,192,89469,1,0,0:0:0:0:
402,192,89512,1,0,0:0:0:0:
182,192,89555,128,0,89640:0:0:0:0:
329,192,89555,128,0,89726:0:0:0:0:
402,192,89640,128,0,89726:0:0:0:0:
475,192,89640,128,0,89812:0:0:0:0:
182,192,89726,128,0,89812:0:0:0:0:
109,192,89726,128,0,89897:0:0:0:0:
256,192,89726,128,0,90069:0:0:0:0:
36,192,89812,128,0,90069:0:0:0:0:
402,192,89812,1,0,0:0:0:0:
329,192,89812,128,0,89983:0:0:0:0:
475,192,89897,128,0,90069:0:0:0:0:
182,192,89897,1,0,0:0:0:0:
402,192,89940,128,0,90026:0:0:0:0:
109,192,89983,128,0,90155:0:0:0:0:
182,192,90026,128,0,90112:0:0:0:0:
329,192,90069,1,0,0:0:0:0:
402,192,90112,1,0,0:0:0:0:
475,192,90155,128,0,90326:0:0:0:0:
36,192,90155,128,0,90412:0:0:0:0:
256,192,90155,1,0,0:0:0:0:
182,192,90197,1,0,0:0:0:0:
402,192,90240,128,0,90326:0:0:0:0:
109,192,90240,128,0,90412:0:0:0:0:
182,192,90326,128,0,90412:0:0:0:0:
256,192,90326,128,0,90497:0:0:0:0:
329,192,90412,128,0,90583:0:0:0:0:
402,192,90412,128,0,90497:0:0:0:0:
475,192,90412,128,0,90755:0:0:0:0:
109,192,90497,128,0,90669:0:0:0:0:
36,192,90497,128,0,90755:0:0:0:0:
182,192,90497,1,0,0:0:0:0:
402,192,90583,1,0,0:0:0:0:
256,192,90583,128,0,90755:0:0:0:0:
182,192,90626,128,0,90712:0:0:0:0:
329,192,90669,128,0,90840:0:0:0:0:
402,192,90712,128,0,90797:0:0:0:0:
109,192,90755,1,0,0:0:0:0:
182,192,90797,1,0,0:0:0:0:
36,192,90840,1,0,0:0:0:0:
475,192,90840,1,0,0:0:0:0:
256,192,90840,1,0,0:0:0:0:
109,192,90926,1,0,0:0:0:0:
329,192,90926,1,0,0:0:0:0:
402,192,91012,1,0,0:0:0:0:
109,192,91012,1,0,0:0:0:0:
182,192,91012,1,0,0:0:0:0:
329,192,91097,1,0,0:0:0:0:
256,192,91097,1,0,0:0:0:0:
182,192,91183,128,0,91355:0:0:0:0:
475,192,91183,128,0,91269:0:0:0:0:
36,192,91183,128,0,91226:0:0:0:0:
109,192,91183,128,0,91269:0:0:0:0:
402,192,91226,128,0,91312:0:0:0:0:
329,192,91269,128,0,91440:0:0:0:0:
256,192,91312,128,0,91397:0:0:0:0:
36,192,91355,128,0,91483:0:0:0:0:
109,192,91397,1,0,0:0:0:0:
475,192,91397,128,0,91526:0:0:0:0:
182,192,91440,128,0,91697:0:0:0:0:
402,192,91483,1,0,0:0:0:0:
329,192,91526,128,0,91783:0:0:0:0:
256,192,91526,128,0,91612:0:0:0:0:
109,192,91569,128,0,91697:0:0:0:0:
36,192,91612,128,0,91697:0:0:0:0:
402,192,91612,128,0,91783:0:0:0:0:
475,192,91655,128,0,91869:0:0:0:0:
256,192,91697,1,0,0:0:0:0:
182,192,91783,128,0,91955:0:0:0:0:
109,192,91783,128,0,91869:0:0:0:0:
36,192,91783,128,0,92126:0:0:0:0:
402,192,91869,1,0,0:0:0:0:
256,192,91869,128,0,92126:0:0:0:0:
329,192,91869,128,0,92040:0:0:0:0:
475,192,91955,128,0,92126:0:0:0:0:
109,192,91955,1,0,0:0:0:0:
402,192,91997,128,0,92083:0:0:0:0:
182,192,92040,128,0,92212:0:0:0:0:
109,192,92083,128,0,92169:0:0:0:0:
329,192,92126,1,0,0:0:0:0:
402,192,92169,1,0,0:0:0:0:
475,192,92212,128,0,92383:0:0:0:0:
256,192,92212,128,0,92469:0:0:0:0:
36,192,92212,1,0,0:0:0:0:
109,192,92255,1,0,0:0:0:0:
402,192,92297,128,0,92383:0:0:0:0:
182,192,92297,128,0,92469:0:0:0:0:
109,192,92383,128,0,92469:0:0:0:0:
36,192,92383,128,0,92555:0:0:0:0:
402,192,92469,128,0,92555:0:0:0:0:
329,192,92469,128,0,92640:0:0:0:0:
475,192,92469,128,0,92812:0:0:0:0:
256,192,92555,128,0,92812:0:0:0:0:
109,192,92555,1,0,0:0:0:0:
182,192,92555,128,0,92726:0:0:0:0:
36,192,92640,128,0,92812:0:0:0:0:
402,192,92640,1,0,0:0:0:0:
109,192,92683,128,0,92769:0:0:0:0:
329,192,92726,128,0,92897:0:0:0:0:
402,192,92769,128,0,92855:0:0:0:0:
182,192,92812,1,0,0:0:0:0:
109,192,92855,1,0,0:0:0:0:
36,192,92897,128,0,93069:0:0:0:0:
256,192,92897,128,0,93155:0:0:0:0:
475,192,92897,1,0,0:0:0:0:
402,192,92940,1,0,0:0:0:0:
109,192,92983,128,0,93069:0:0:0:0:
329,192,92983,128,0,93155:0:0:0:0:
402,192,93069,128,0,93155:0:0:0:0:
475,192,93069,128,0,93240:0:0:0:0:
182,192,93155,128,0,93326:0:0:0:0:
109,192,93155,128,0,93240:0:0:0:0:
36,192,93155,128,0,93326:0:0:0:0:
329,192,93240,128,0,93412:0:0:0:0:
402,192,93240,1,0,0:0:0:0:
256,192,93240,128,0,93497:0:0:0:0:
109,192,93326,1,0,0:0:0:0:
475,192,93326,128,0,93497:0:0:0:0:
402,192,93369,128,0,93455:0:0:0:0:
182,192,93412,128,0,93583:0:0:0:0:
36,192,93412,1,0,0:0:0:0:
109,192,93455,128,0,93540:0:0:0:0:
329,192,93497,128,0,93669:0:0:0:0:
402,192,93540,1,0,0:0:0:0:
256,192,93583,1,0,0:0:0:0:
475,192,93583,128,0,93626:0:0:0:0:
36,192,93583,128,0,93755:0:0:0:0:
109,192,93626,1,0,0:0:0:0:
182,192,93669,128,0,93712:0:0:0:0:
402,192,93755,1,0,0:0:0:0:
329,192,93755,1,0,0:0:0:0:
182,192,93840,1,0,0:0:0:0:
109,192,93840,1,0,0:0:0:0:
36,192,93926,5,0,0:0:0:0:
256,192,93926,1,0,0:0:0:0:
329,192,93926,128,0,93969:0:0:0:0:
402,192,93926,128,0,94012:0:0:0:0:
475,192,93926,128,0,94183:0:0:0:0:
109,192,93969,128,0,94140:0:0:0:0:
182,192,94012,128,0,94097:0:0:0:0:
36,192,94055,128,0,94183:0:0:0:0:
256,192,94097,128,0,94355:0:0:0:0:
329,192,94140,128,0,94226:0:0:0:0:
402,192,94183,1,0,0:0:0:0:
182,192,94226,128,0,94312:0:0:0:0:
475,192,94269,128,0,94397:0:0:0:0:
36,192,94269,128,0,94526:0:0:0:0:
109,192,94269,1,0,0:0:0:0:
402,192,94312,128,0,94526:0:0:0:0:
329,192,94355,128,0,94440:0:0:0:0:
109,192,94440,128,0,94526:0:0:0:0:
182,192,94483,128,0,94526:0:0:0:0:
475,192,94526,1,0,0:0:0:0:
256,192,94526,1,0,0:0:0:0:
109,192,94612,128,0,94697:0:0:0:0:
182,192,94612,128,0,94655:0:0:0:0:
329,192,94612,128,0,94697:0:0:0:0:
36,192,94612,128,0,94869:0:0:0:0:
402,192,94655,128,0,94740:0:0:0:0:
256,192,94697,128,0,94826:0:0:0:0:
475,192,94697,128,0,94783:0:0:0:0:
182,192,94783,128,0,94912:0:0:0:0:
109,192,94783,1,0,0:0:0:0:
329,192,94826,128,0,94955:0:0:0:0:
475,192,94869,128,0,95212:0:0:0:0:
402,192,94869,1,0,0:0:0:0:
256,192,94912,128,0,95040:0:0:0:0:
36,192,94955,128,0,95040:0:0:0:0:
109,192,94997,128,0,95083:0:0:0:0:
182,192,95040,128,0,95126:0:0:0:0:
402,192,95040,128,0,95212:0:0:0:0:
329,192,95083,128,0,95212:0:0:0:0:
256,192,95126,1,0,0:0:0:0:
36,192,95126,1,0,0:0:0:0:
182,192,95212,1,0,0:0:0:0:
109,192,95212,1,0,0:0:0:0:
256,192,95297,1,0,0:0:0:0:
36,192,95297,1,0,0:0:0:0:
402,192,95297,1,0,0:0:0:0:
475,192,95297,1,0,0:0:0:0:
329,192,95383,1,0,0:0:0:0:
109,192,95469,1,0,0:0:0:0:
402,192,95469,1,0,0:0:0:0:
256,192,95469,1,0,0:0:0:0:
182,192,95469,128,0,95512:0:0:0:0:
329,192,95555,128,0,95597:0:0:0:0:
36,192,95555,128,0,95597:0:0:0:0:
182,192,95640,128,0,96069:0:0:0:0:
475,192,95640,1,0,0:0:0:0:
109,192,95640,128,0,95683:0:0:0:0:
256,192,95640,1,0,0:0:0:0:
402,192,95726,128,0,95769:0:0:0:0:
329,192,95747,1,0,0:0:0:0:
256,192,95812,128,0,95855:0:0:0:0:
109,192,95833,1,0,0:0:0:0:
329,192,95897,128,0,95940:0:0:0:0:
402,192,95919,1,0,0:0:0:0:
256,192,95983,128,0,96069:0:0:0:0:
109,192,95983,128,0,96069:0:0:0:0:
36,192,95983,128,0,96412:0:0:0:0:
475,192,95983,128,0,96412:0:0:0:0:
256,192,96155,1,0,0:0:0:0:
329,192,96155,1,0,0:0:0:0:
182,192,96155,1,0,0:0:0:0:
109,192,96240,1,0,0:0:0:0:
402,192,96240,1,0,0:0:0:0:
182,192,96326,128,0,96412:0:0:0:0:
329,192,96326,128,0,96412:0:0:0:0:
256,192,96326,128,0,96755:0:0:0:0:
402,192,96497,1,0,0:0:0:0:
475,192,96497,1,0,0:0:0:0:
109,192,96497,1,0,0:0:0:0:
36,192,96497,1,0,0:0:0:0:
329,192,96669,128,0,97183:0:0:0:0:
109,192,96669,128,0,97097:0:0:0:0:
182,192,96669,128,0,96755:0:0:0:0:
36,192,96669,128,0,96755:0:0:0:0:
402,192,96669,128,0,96755:0:0:0:0:
475,192,96669,128,0,96755:0:0:0:0:
182,192,96840,128,0,96883:0:0:0:0:
256,192,96840,128,0,96883:0:0:0:0:
402,192,96840,128,0,96883:0:0:0:0:
475,192,96840,128,0,96883:0:0:0:0:
36,192,97012,128,0,97055:0:0:0:0:
402,192,97012,1,0,0:0:0:0:
475,192,97012,1,0,0:0:0:0:
182,192,97055,128,0,97440:0:0:0:0:
256,192,97097,128,0,97140:0:0:0:0:
402,192,97140,128,0,97226:0:0:0:0:
36,192,97183,1,0,0:0:0:0:
109,192,97183,128,0,97269:0:0:0:0:
475,192,97183,128,0,97440:0:0:0:0:
329,192,97269,1,0,0:0:0:0:
256,192,97269,128,0,97355:0:0:0:0:
109,192,97355,1,0,0:0:0:0:
36,192,97355,128,0,97612:0:0:0:0:
402,192,97355,128,0,97612:0:0:0:0:
329,192,97440,128,0,97526:0:0:0:0:
256,192,97440,1,0,0:0:0:0:
109,192,97526,128,0,97612:0:0:0:0:
182,192,97526,128,0,97869:0:0:0:0:
475,192,97526,128,0,97740:0:0:0:0:
329,192,97612,1,0,0:0:0:0:
256,192,97612,128,0,97697:0:0:0:0:
109,192,97697,1,0,0:0:0:0:
36,192,97697,128,0,97783:0:0:0:0:
402,192,97697,128,0,97783:0:0:0:0:
329,192,97740,128,0,98126:0:0:0:0:
256,192,97783,128,0,97826:0:0:0:0:
109,192,97826,128,0,97912:0:0:0:0:
475,192,97869,1,0,0:0:0:0:
402,192,97869,128,0,97955:0:0:0:0:
36,192,97869,128,0,98126:0:0:0:0:
182,192,97955,1,0,0:0:0:0:
256,192,97955,128,0,98040:0:0:0:0:
402,192,98040,1,0,0:0:0:0:
475,192,98040,128,0,98297:0:0:0:0:
109,192,98040,128,0,98297:0:0:0:0:
182,192,98126,128,0,98212:0:0:0:0:
256,192,98126,1,0,0:0:0:0:
329,192,98212,128,0,98555:0:0:0:0:
402,192,98212,128,0,98297:0:0:0:0:
36,192,98212,128,0,98426:0:0:0:0:
182,192,98297,1,0,0:0:0:0:
256,192,98297,128,0,98383:0:0:0:0:
402,192,98383,1,0,0:0:0:0:
475,192,98383,128,0,98469:0:0:0:0:
109,192,98383,128,0,98469:0:0:0:0:
182,192,98426,128,0,98812:0:0:0:0:
256,192,98469,128,0,98512:0:0:0:0:
402,192,98512,128,0,98597:0:0:0:0:
109,192,98555,128,0,98640:0:0:0:0:
36,192,98555,1,0,0:0:0:0:
475,192,98555,128,0,98812:0:0:0:0:
256,192,98640,128,0,98726:0:0:0:0:
329,192,98640,1,0,0:0:0:0:
36,192,98726,128,0,98983:0:0:0:0:
109,192,98726,1,0,0:0:0:0:
402,192,98726,128,0,98983:0:0:0:0:
256,192,98812,1,0,0:0:0:0:
329,192,98812,128,0,98897:0:0:0:0:
109,192,98897,128,0,98983:0:0:0:0:
475,192,98897,128,0,99112:0:0:0:0:
182,192,98940,128,0,99326:0:0:0:0:
256,192,98983,128,0,99069:0:0:0:0:
329,192,98983,1,0,0:0:0:0:
109,192,99069,1,0,0:0:0:0:
36,192,99069,128,0,99155:0:0:0:0:
402,192,99069,128,0,99155:0:0:0:0:
329,192,99112,128,0,99240:0:0:0:0:
256,192,99155,128,0,99197:0:0:0:0:
109,192,99197,128,0,99283:0:0:0:0:
475,192,99240,128,0,99326:0:0:0:0:
36,192,99240,1,0,0:0:0:0:
402,192,99240,1,0,0:0:0:0:
256,192,99326,1,0,0:0:0:0:
329,192,99369,1,0,0:0:0:0:
475,192,99412,5,0,0:0:0:0:
182,192,99412,128,0,99455:0:0:0:0:
36,192,99412,128,0,99669:0:0:0:0:
109,192,99412,128,0,99497:0:0:0:0:
402,192,99455,128,0,99626:0:0:0:0:
329,192,99497,128,0,99583:0:0:0:0:
475,192,99540,128,0,99669:0:0:0:0:
256,192,99583,128,0,99840:0:0:0:0:
182,192,99626,128,0,99712:0:0:0:0:
109,192,99669,1,0,0:0:0:0:
329,192,99712,128,0,99797:0:0:0:0:
36,192,99755,128,0,99883:0:0:0:0:
475,192,99755,128,0,100012:0:0:0:0:
402,192,99755,1,0,0:0:0:0:
109,192,99797,128,0,100012:0:0:0:0:
182,192,99840,128,0,99926:0:0:0:0:
402,192,99926,128,0,100012:0:0:0:0:
329,192,99969,128,0,100012:0:0:0:0:
36,192,100012,1,0,0:0:0:0:
256,192,100012,1,0,0:0:0:0:
402,192,100097,128,0,100183:0:0:0:0:
329,192,100097,128,0,100140:0:0:0:0:
182,192,100097,128,0,100183:0:0:0:0:
475,192,100097,128,0,100355:0:0:0:0:
109,192,100140,128,0,100226:0:0:0:0:
256,192,100183,128,0,100312:0:0:0:0:
36,192,100183,128,0,100269:0:0:0:0:
329,192,100269,128,0,100397:0:0:0:0:
402,192,100269,1,0,0:0:0:0:
182,192,100312,128,0,100440:0:0:0:0:
36,192,100355,128,0,100697:0:0:0:0:
109,192,100355,1,0,0:0:0:0:
256,192,100397,128,0,100526:0:0:0:0:
475,192,100440,128,0,100526:0:0:0:0:
402,192,100483,128,0,100569:0:0:0:0:
109,192,100526,128,0,100697:0:0:0:0:
329,192,100526,128,0,100612:0:0:0:0:
182,192,100569,128,0,100697:0:0:0:0:
256,192,100612,1,0,0:0:0:0:
402,192,100655,1,0,0:0:0:0:
329,192,100697,1,0,0:0:0:0:
475,192,100740,1,0,0:0:0:0:
109,192,100783,128,0,100826:0:0:0:0:
36,192,100783,128,0,100826:0:0:0:0:
182,192,100783,128,0,100826:0:0:0:0:
256,192,100783,128,0,100826:0:0:0:0:
329,192,100840,1,0,0:0:0:0:
402,192,100897,1,0,0:0:0:0:
182,192,100955,128,0,100997:0:0:0:0:
256,192,100955,1,0,0:0:0:0:
109,192,100955,1,0,0:0:0:0:
475,192,100955,1,0,0:0:0:0:
329,192,101040,128,0,101083:0:0:0:0:
36,192,101040,128,0,101083:0:0:0:0:
182,192,101126,128,0,101555:0:0:0:0:
475,192,101126,128,0,101812:0:0:0:0:
109,192,101126,128,0,101169:0:0:0:0:
256,192,101147,1,0,0:0:0:0:
402,192,101212,128,0,101255:0:0:0:0:
329,192,101233,1,0,0:0:0:0:
256,192,101297,128,0,101340:0:0:0:0:
109,192,101319,1,0,0:0:0:0:
329,192,101383,1,0,0:0:0:0:
402,192,101383,1,0,0:0:0:0:
109,192,101469,128,0,101555:0:0:0:0:
402,192,101469,128,0,101555:0:0:0:0:
36,192,101469,128,0,102069:0:0:0:0:
256,192,101469,128,0,102069:0:0:0:0:
329,192,101469,128,0,101555:0:0:0:0:
109,192,101640,1,0,0:0:0:0:
182,192,101640,1,0,0:0:0:0:
109,192,101726,128,0,101812:0:0:0:0:
329,192,101726,128,0,101812:0:0:0:0:
402,192,101726,128,0,101812:0:0:0:0:
182,192,101726,128,0,101812:0:0:0:0:
329,192,101897,1,0,0:0:0:0:
475,192,101897,1,0,0:0:0:0:
329,192,101983,128,0,102069:0:0:0:0:
182,192,101983,128,0,102197:0:0:0:0:
402,192,101983,128,0,102197:0:0:0:0:
109,192,101983,128,0,102069:0:0:0:0:
475,192,101983,128,0,102069:0:0:0:0:
109,192,102155,128,0,102583:0:0:0:0:
329,192,102155,128,0,102669:0:0:0:0:
256,192,102155,128,0,102197:0:0:0:0:
475,192,102155,128,0,102197:0:0:0:0:
36,192,102155,128,0,102197:0:0:0:0:
256,192,102326,1,0,0:0:0:0:
182,192,102326,1,0,0:0:0:0:
256,192,102412,1,0,0:0:0:0:
182,192,102412,1,0,0:0:0:0:
36,192,102497,1,0,0:0:0:0:
402,192,102497,128,0,102540:0:0:0:0:
475,192,102497,128,0,102583:0:0:0:0:
182,192,102540,128,0,102926:0:0:0:0:
256,192,102583,128,0,102626:0:0:0:0:
402,192,102626,128,0,102926:0:0:0:0:
36,192,102669,128,0,102712:0:0:0:0:
475,192,102669,1,0,0:0:0:0:
109,192,102669,128,0,102755:0:0:0:0:
256,192,102755,1,0,0:0:0:0:
329,192,102755,128,0,102840:0:0:0:0:
109,192,102840,1,0,0:0:0:0:
475,192,102840,128,0,103097:0:0:0:0:
36,192,102840,128,0,103097:0:0:0:0:
256,192,102926,128,0,103012:0:0:0:0:
329,192,102926,1,0,0:0:0:0:
182,192,103012,128,0,103355:0:0:0:0:
109,192,103012,128,0,103097:0:0:0:0:
402,192,103012,128,0,103269:0:0:0:0:
256,192,103097,1,0,0:0:0:0:
329,192,103097,128,0,103140:0:0:0:0:
475,192,103183,1,0,0:0:0:0:
109,192,103183,128,0,103226:0:0:0:0:
36,192,103183,128,0,103269:0:0:0:0:
329,192,103226,128,0,103612:0:0:0:0:
256,192,103269,128,0,103312:0:0:0:0:
109,192,103312,128,0,103612:0:0:0:0:
475,192,103355,128,0,103397:0:0:0:0:
36,192,103355,1,0,0:0:0:0:
402,192,103355,128,0,103440:0:0:0:0:
256,192,103440,1,0,0:0:0:0:
182,192,103440,128,0,103526:0:0:0:0:
402,192,103526,1,0,0:0:0:0:
36,192,103526,128,0,103783:0:0:0:0:
475,192,103526,128,0,103783:0:0:0:0:
182,192,103612,1,0,0:0:0:0:
256,192,103612,128,0,103697:0:0:0:0:
329,192,103697,128,0,104040:0:0:0:0:
402,192,103697,128,0,103783:0:0:0:0:
109,192,103697,128,0,103955:0:0:0:0:
182,192,103783,128,0,103826:0:0:0:0:
256,192,103783,1,0,0:0:0:0:
36,192,103869,1,0,0:0:0:0:
402,192,103869,128,0,103912:0:0:0:0:
475,192,103869,128,0,103955:0:0:0:0:
182,192,103912,128,0,104297:0:0:0:0:
256,192,103955,128,0,103997:0:0:0:0:
402,192,103997,128,0,104297:0:0:0:0:
109,192,104040,128,0,104126:0:0:0:0:
475,192,104040,1,0,0:0:0:0:
36,192,104040,128,0,104083:0:0:0:0:
256,192,104126,1,0,0:0:0:0:
329,192,104126,128,0,104212:0:0:0:0:
36,192,104212,128,0,104469:0:0:0:0:
475,192,104212,128,0,104469:0:0:0:0:
109,192,104212,1,0,0:0:0:0:
256,192,104297,128,0,104383:0:0:0:0:
329,192,104297,1,0,0:0:0:0:
402,192,104383,128,0,104640:0:0:0:0:
109,192,104383,128,0,104469:0:0:0:0:
182,192,104383,128,0,104555:0:0:0:0:
256,192,104469,1,0,0:0:0:0:
329,192,104469,128,0,104555:0:0:0:0:
109,192,104555,1,0,0:0:0:0:
36,192,104555,128,0,104640:0:0:0:0:
475,192,104555,128,0,104640:0:0:0:0:
329,192,104640,1,0,0:0:0:0:
182,192,104640,128,0,104726:0:0:0:0:
256,192,104640,128,0,104897:0:0:0:0:
36,192,104726,1,0,0:0:0:0:
109,192,104726,128,0,104812:0:0:0:0:
402,192,104726,128,0,104812:0:0:0:0:
475,192,104726,1,0,0:0:0:0:
182,192,104812,1,0,0:0:0:0:
329,192,104812,128,0,104897:0:0:0:0:
402,192,104897,1,0,0:0:0:0:
475,192,104897,128,0,105283:0:0:0:0:
109,192,104897,128,0,104940:0:0:0:0:
36,192,104897,128,0,105069:0:0:0:0:
182,192,104940,128,0,105069:0:0:0:0:
256,192,104983,128,0,105026:0:0:0:0:
329,192,105026,128,0,105155:0:0:0:0:
402,192,105069,128,0,105326:0:0:0:0:
109,192,105069,1,0,0:0:0:0:
182,192,105155,128,0,105240:0:0:0:0:
256,192,105155,1,0,0:0:0:0:
109,192,105197,128,0,105240:0:0:0:0:
329,192,105240,128,0,105455:0:0:0:0:
36,192,105240,128,0,105497:0:0:0:0:
256,192,105283,128,0,105369:0:0:0:0:
182,192,105326,128,0,105412:0:0:0:0:
475,192,105369,1,0,0:0:0:0:
109,192,105412,128,0,105540:0:0:0:0:
402,192,105455,128,0,105583:0:0:0:0:
256,192,105497,1,0,0:0:0:0:
475,192,105497,128,0,105755:0:0:0:0:
182,192,105540,128,0,105755:0:0:0:0:
329,192,105583,128,0,105669:0:0:0:0:
36,192,105583,1,0,0:0:0:0:
256,192,105626,128,0,105712:0:0:0:0:
109,192,105669,128,0,105926:0:0:0:0:
36,192,105712,128,0,106097:0:0:0:0:
402,192,105755,128,0,105797:0:0:0:0:
329,192,105755,128,0,105840:0:0:0:0:
256,192,105840,1,0,0:0:0:0:
182,192,105883,128,0,105969:0:0:0:0:
475,192,105926,128,0,106140:0:0:0:0:
402,192,105926,1,0,0:0:0:0:
329,192,105926,128,0,106055:0:0:0:0:
256,192,105969,128,0,106012:0:0:0:0:
402,192,106055,128,0,106097:0:0:0:0:
182,192,106097,1,0,0:0:0:0:
109,192,106097,1,0,0:0:0:0:
256,192,106183,1,0,0:0:0:0:
329,192,106183,1,0,0:0:0:0:
475,192,106269,128,0,106526:0:0:0:0:
182,192,106269,1,0,0:0:0:0:
36,192,106269,128,0,106355:0:0:0:0:
402,192,106269,1,0,0:0:0:0:
109,192,106269,128,0,106526:0:0:0:0:
256,192,106355,1,0,0:0:0:0:
329,192,106355,128,0,106440:0:0:0:0:
182,192,106440,128,0,106526:0:0:0:0:
402,192,106483,128,0,106783:0:0:0:0:
36,192,106526,1,0,0:0:0:0:
329,192,106526,128,0,106612:0:0:0:0:
256,192,106569,128,0,106697:0:0:0:0:
475,192,106612,128,0,106783:0:0:0:0:
109,192,106612,128,0,106783:0:0:0:0:
182,192,106612,1,0,0:0:0:0:
36,192,106697,128,0,107126:0:0:0:0:
329,192,106697,1,0,0:0:0:0:
256,192,106783,128,0,106997:0:0:0:0:
182,192,106783,128,0,106869:0:0:0:0:
329,192,106869,128,0,106912:0:0:0:0:
402,192,106869,128,0,106955:0:0:0:0:
109,192,106869,1,0,0:0:0:0:
475,192,106912,128,0,107126:0:0:0:0:
182,192,106955,128,0,107169:0:0:0:0:
109,192,107040,128,0,107383:0:0:0:0:
329,192,107040,1,0,0:0:0:0:
402,192,107083,128,0,107297:0:0:0:0:
256,192,107126,128,0,107212:0:0:0:0:
329,192,107169,128,0,107212:0:0:0:0:
475,192,107212,128,0,107383:0:0:0:0:
36,192,107255,128,0,107383:0:0:0:0:
256,192,107297,1,0,0:0:0:0:
182,192,107297,128,0,107469:0:0:0:0:
329,192,107383,128,0,107555:0:0:0:0:
402,192,107383,1,0,0:0:0:0:
36,192,107469,1,0,0:0:0:0:
109,192,107469,1,0,0:0:0:0:
475,192,107469,128,0,107555:0:0:0:0:
256,192,107555,1,0,0:0:0:0:
182,192,107555,1,0,0:0:0:0:
36,192,107640,128,0,108026:0:0:0:0:
402,192,107640,128,0,107683:0:0:0:0:
475,192,107640,128,0,107812:0:0:0:0:
109,192,107640,1,0,0:0:0:0:
329,192,107683,128,0,107812:0:0:0:0:
256,192,107726,128,0,107769:0:0:0:0:
109,192,107769,128,0,107855:0:0:0:0:
182,192,107812,128,0,108069:0:0:0:0:
402,192,107812,1,0,0:0:0:0:
329,192,107897,128,0,107983:0:0:0:0:
256,192,107897,1,0,0:0:0:0:
402,192,107940,128,0,108155:0:0:0:0:
109,192,107983,128,0,108197:0:0:0:0:
475,192,107983,128,0,108112:0:0:0:0:
256,192,108026,128,0,108112:0:0:0:0:
329,192,108112,128,0,108283:0:0:0:0:
36,192,108155,1,0,0:0:0:0:
182,192,108197,128,0,108369:0:0:0:0:
256,192,108240,1,0,0:0:0:0:
402,192,108283,128,0,108497:0:0:0:0:
36,192,108283,128,0,108497:0:0:0:0:
109,192,108326,128,0,108412:0:0:0:0:
475,192,108326,1,0,0:0:0:0:
256,192,108369,128,0,108455:0:0:0:0:
329,192,108412,128,0,108669:0:0:0:0:
475,192,108455,128,0,108840:0:0:0:0:
109,192,108497,128,0,108540:0:0:0:0:
182,192,108497,128,0,108583:0:0:0:0:
256,192,108583,1,0,0:0:0:0:
402,192,108626,128,0,108712:0:0:0:0:
109,192,108669,1,0,0:0:0:0:
182,192,108669,128,0,108797:0:0:0:0:
36,192,108669,128,0,108883:0:0:0:0:
256,192,108712,128,0,108755:0:0:0:0:
109,192,108797,128,0,108840:0:0:0:0:
402,192,108840,1,0,0:0:0:0:
329,192,108840,1,0,0:0:0:0:
256,192,108926,1,0,0:0:0:0:
182,192,108926,1,0,0:0:0:0:
402,192,109012,128,0,109397:0:0:0:0:
36,192,109012,128,0,109055:0:0:0:0:
329,192,109012,1,0,0:0:0:0:
475,192,109012,128,0,109183:0:0:0:0:
109,192,109012,128,0,109183:0:0:0:0:
182,192,109097,128,0,109140:0:0:0:0:
329,192,109140,128,0,109226:0:0:0:0:
36,192,109183,1,0,0:0:0:0:
256,192,109183,128,0,109440:0:0:0:0:
182,192,109269,1,0,0:0:0:0:
109,192,109269,128,0,109355:0:0:0:0:
36,192,109312,128,0,109526:0:0:0:0:
329,192,109355,128,0,109569:0:0:0:0:
475,192,109355,128,0,109697:0:0:0:0:
182,192,109397,128,0,109483:0:0:0:0:
109,192,109483,128,0,109655:0:0:0:0:
402,192,109526,1,0,0:0:0:0:
256,192,109569,128,0,109740:0:0:0:0:
182,192,109612,1,0,0:0:0:0:
402,192,109655,128,0,109955:0:0:0:0:
36,192,109655,128,0,110040:0:0:0:0:
329,192,109697,128,0,109783:0:0:0:0:
182,192,109740,128,0,109826:0:0:0:0:
109,192,109783,128,0,109912:0:0:0:0:
475,192,109826,128,0,109955:0:0:0:0:
256,192,109869,128,0,109955:0:0:0:0:
329,192,109869,128,0,109912:0:0:0:0:
182,192,109955,128,0,110126:0:0:0:0:
109,192,109997,128,0,110083:0:0:0:0:
256,192,110040,128,0,110212:0:0:0:0:
475,192,110040,128,0,110297:0:0:0:0:
402,192,110040,1,0,0:0:0:0:
329,192,110083,128,0,110169:0:0:0:0:
36,192,110126,1,0,0:0:0:0:
182,192,110212,1,0,0:0:0:0:
402,192,110212,128,0,110297:0:0:0:0:
109,192,110212,1,0,0:0:0:0:
256,192,110297,1,0,0:0:0:0:
329,192,110297,1,0,0:0:0:0:
182,192,110383,128,0,110555:0:0:0:0:
109,192,110383,128,0,110469:0:0:0:0:
36,192,110383,128,0,110426:0:0:0:0:
475,192,110383,128,0,110469:0:0:0:0:
402,192,110426,128,0,110512:0:0:0:0:
329,192,110469,128,0,110640:0:0:0:0:
256,192,110512,128,0,110597:0:0:0:0:
36,192,110555,128,0,110683:0:0:0:0:
109,192,110597,1,0,0:0:0:0:
475,192,110597,128,0,110726:0:0:0:0:
182,192,110640,128,0,110897:0:0:0:0:
402,192,110683,1,0,0:0:0:0:
329,192,110726,128,0,110983:0:0:0:0:
256,192,110726,128,0,110812:0:0:0:0:
109,192,110769,128,0,110897:0:0:0:0:
36,192,110812,128,0,110897:0:0:0:0:
402,192,110812,128,0,110983:0:0:0:0:
475,192,110855,128,0,110983:0:0:0:0:
256,192,110897,1,0,0:0:0:0:
182,192,110983,128,0,111155:0:0:0:0:
109,192,110983,128,0,111069:0:0:0:0:
36,192,110983,128,0,111326:0:0:0:0:
475,192,111069,128,0,111326:0:0:0:0:
329,192,111069,1,0,0:0:0:0:
402,192,111069,128,0,111240:0:0:0:0:
109,192,111155,1,0,0:0:0:0:
256,192,111155,128,0,111326:0:0:0:0:
329,192,111197,128,0,111283:0:0:0:0:
182,192,111240,128,0,111412:0:0:0:0:
109,192,111283,128,0,111369:0:0:0:0:
402,192,111326,1,0,0:0:0:0:
329,192,111369,1,0,0:0:0:0:
256,192,111412,128,0,111583:0:0:0:0:
475,192,111412,128,0,111669:0:0:0:0:
36,192,111412,1,0,0:0:0:0:
109,192,111455,1,0,0:0:0:0:
329,192,111497,128,0,111583:0:0:0:0:
182,192,111497,128,0,111669:0:0:0:0:
109,192,111583,128,0,111669:0:0:0:0:
36,192,111583,128,0,111755:0:0:0:0:
329,192,111669,128,0,111755:0:0:0:0:
402,192,111669,128,0,111840:0:0:0:0:
256,192,111669,128,0,112012:0:0:0:0:
475,192,111755,128,0,112012:0:0:0:0:
109,192,111755,1,0,0:0:0:0:
182,192,111755,128,0,111926:0:0:0:0:
36,192,111840,128,0,112012:0:0:0:0:
329,192,111840,1,0,0:0:0:0:
109,192,111883,128,0,111969:0:0:0:0:
402,192,111926,128,0,112097:0:0:0:0:
329,192,111969,128,0,112055:0:0:0:0:
182,192,112012,1,0,0:0:0:0:
109,192,112055,1,0,0:0:0:0:
36,192,112097,128,0,112269:0:0:0:0:
475,192,112097,128,0,112355:0:0:0:0:
256,192,112097,1,0,0:0:0:0:
329,192,112140,1,0,0:0:0:0:
109,192,112183,128,0,112269:0:0:0:0:
402,192,112183,128,0,112355:0:0:0:0:
329,192,112269,128,0,112355:0:0:0:0:
256,192,112269,128,0,112440:0:0:0:0:
182,192,112355,128,0,112526:0:0:0:0:
109,192,112355,128,0,112440:0:0:0:0:
36,192,112355,128,0,112697:0:0:0:0:
402,192,112440,128,0,112612:0:0:0:0:
475,192,112440,128,0,112697:0:0:0:0:
329,192,112440,1,0,0:0:0:0:
109,192,112526,1,0,0:0:0:0:
256,192,112526,128,0,112697:0:0:0:0:
329,192,112569,128,0,112655:0:0:0:0:
182,192,112612,128,0,112783:0:0:0:0:
109,192,112655,128,0,112740:0:0:0:0:
402,192,112697,1,0,0:0:0:0:
329,192,112740,1,0,0:0:0:0:
475,192,112783,1,0,0:0:0:0:
36,192,112783,1,0,0:0:0:0:
256,192,112783,1,0,0:0:0:0:
402,192,112869,1,0,0:0:0:0:
182,192,112869,1,0,0:0:0:0:
109,192,112955,1,0,0:0:0:0:
402,192,112955,1,0,0:0:0:0:
329,192,112955,1,0,0:0:0:0:
182,192,113040,1,0,0:0:0:0:
256,192,113040,1,0,0:0:0:0:
329,192,113126,128,0,113297:0:0:0:0:
36,192,113126,128,0,113212:0:0:0:0:
475,192,113126,128,0,113169:0:0:0:0:
402,192,113126,128,0,113212:0:0:0:0:
109,192,113169,128,0,113255:0:0:0:0:
182,192,113212,128,0,113383:0:0:0:0:
256,192,113255,128,0,113340:0:0:0:0:
475,192,113297,128,0,113426:0:0:0:0:
402,192,113340,1,0,0:0:0:0:
36,192,113340,128,0,113469:0:0:0:0:
329,192,113383,128,0,113640:0:0:0:0:
109,192,113426,1,0,0:0:0:0:
182,192,113469,128,0,113726:0:0:0:0:
256,192,113469,128,0,113555:0:0:0:0:
402,192,113512,128,0,113640:0:0:0:0:
475,192,113555,128,0,113640:0:0:0:0:
109,192,113555,128,0,113726:0:0:0:0:
36,192,113597,128,0,113812:0:0:0:0:
256,192,113640,1,0,0:0:0:0:
329,192,113726,128,0,113897:0:0:0:0:
402,192,113726,128,0,113812:0:0:0:0:
475,192,113726,128,0,114069:0:0:0:0:
109,192,113812,1,0,0:0:0:0:
256,192,113812,128,0,114069:0:0:0:0:
182,192,113812,128,0,113983:0:0:0:0:
36,192,113897,128,0,114069:0:0:0:0:
402,192,113897,1,0,0:0:0:0:
109,192,113940,128,0,114026:0:0:0:0:
329,192,113983,128,0,114155:0:0:0:0:
402,192,114026,128,0,114112:0:0:0:0:
182,192,114069,1,0,0:0:0:0:
109,192,114112,1,0,0:0:0:0:
36,192,114155,128,0,114326:0:0:0:0:
256,192,114155,128,0,114412:0:0:0:0:
475,192,114155,1,0,0:0:0:0:
402,192,114197,1,0,0:0:0:0:
109,192,114240,128,0,114326:0:0:0:0:
329,192,114240,128,0,114412:0:0:0:0:
402,192,114326,128,0,114412:0:0:0:0:
475,192,114326,128,0,114497:0:0:0:0:
109,192,114412,128,0,114497:0:0:0:0:
182,192,114412,128,0,114583:0:0:0:0:
36,192,114412,128,0,114755:0:0:0:0:
256,192,114497,128,0,114755:0:0:0:0:
402,192,114497,1,0,0:0:0:0:
329,192,114497,128,0,114669:0:0:0:0:
475,192,114583,128,0,114755:0:0:0:0:
109,192,114583,1,0,0:0:0:0:
402,192,114626,128,0,114712:0:0:0:0:
182,192,114669,128,0,114840:0:0:0:0:
109,192,114712,128,0,114797:0:0:0:0:
329,192,114755,1,0,0:0:0:0:
402,192,114797,1,0,0:0:0:0:
475,192,114840,128,0,115012:0:0:0:0:
256,192,114840,128,0,115097:0:0:0:0:
36,192,114840,1,0,0:0:0:0:
109,192,114883,1,0,0:0:0:0:
402,192,114926,128,0,115012:0:0:0:0:
182,192,114926,128,0,115097:0:0:0:0:
109,192,115012,128,0,115097:0:0:0:0:
36,192,115012,128,0,115183:0:0:0:0:
329,192,115097,128,0,115269:0:0:0:0:
402,192,115097,128,0,115183:0:0:0:0:
475,192,115097,128,0,115269:0:0:0:0:
182,192,115183,128,0,115355:0:0:0:0:
109,192,115183,1,0,0:0:0:0:
256,192,115183,128,0,115440:0:0:0:0:
402,192,115269,1,0,0:0:0:0:
36,192,115269,128,0,115440:0:0:0:0:
109,192,115312,128,0,115397:0:0:0:0:
329,192,115355,128,0,115526:0:0:0:0:
475,192,115355,1,0,0:0:0:0:
402,192,115397,128,0,115483:0:0:0:0:
182,192,115440,128,0,115612:0:0:0:0:
109,192,115483,1,0,0:0:0:0:
256,192,115526,1,0,0:0:0:0:
36,192,115526,128,0,115569:0:0:0:0:
475,192,115526,128,0,115697:0:0:0:0:
402,192,115569,1,0,0:0:0:0:
329,192,115612,128,0,115655:0:0:0:0:
109,192,115697,1,0,0:0:0:0:
182,192,115697,1,0,0:0:0:0:
329,192,115783,1,0,0:0:0:0:
402,192,115783,1,0,0:0:0:0:
36,192,115869,5,0,0:0:0:0:
256,192,115869,1,0,0:0:0:0:
109,192,115869,1,0,0:0:0:0:
475,192,115869,128,0,116040:0:0:0:0:
402,192,115955,128,0,116040:0:0:0:0:
182,192,115955,1,0,0:0:0:0:
329,192,116040,1,0,0:0:0:0:
109,192,116040,1,0,0:0:0:0:
475,192,116126,1,0,0:0:0:0:
36,192,116126,128,0,116297:0:0:0:0:
402,192,116126,1,0,0:0:0:0:
256,192,116126,1,0,0:0:0:0:
109,192,116212,128,0,116297:0:0:0:0:
329,192,116212,1,0,0:0:0:0:
402,192,116297,1,0,0:0:0:0:
182,192,116297,1,0,0:0:0:0:
109,192,116383,1,0,0:0:0:0:
256,192,116383,1,0,0:0:0:0:
36,192,116383,1,0,0:0:0:0:
475,192,116383,128,0,116555:0:0:0:0:
182,192,116469,1,0,0:0:0:0:
402,192,116469,128,0,116555:0:0:0:0:
329,192,116555,1,0,0:0:0:0:
36,192,116555,1,0,0:0:0:0:
256,192,116555,1,0,0:0:0:0:
182,192,116640,1,0,0:0:0:0:
402,192,116640,1,0,0:0:0:0:
109,192,116640,1,0,0:0:0:0:
475,192,116726,1,0,0:0:0:0:
256,192,116726,1,0,0:0:0:0:
36,192,116726,1,0,0:0:0:0:
329,192,116812,1,0,0:0:0:0:
109,192,116812,1,0,0:0:0:0:
402,192,116812,1,0,0:0:0:0:
475,192,116897,1,0,0:0:0:0:
36,192,116897,1,0,0:0:0:0:
256,192,116897,1,0,0:0:0:0:
182,192,116940,1,0,0:0:0:0:
329,192,116983,1,0,0:0:0:0:
109,192,117026,1,0,0:0:0:0:
256,192,117069,1,0,0:0:0:0:
402,192,117112,1,0,0:0:0:0:
182,192,117155,1,0,0:0:0:0:
329,192,117197,1,0,0:0:0:0:
475,192,117240,1,0,0:0:0:0:
256,192,117240,1,0,0:0:0:0:
36,192,117240,128,0,117412:0:0:0:0:
182,192,117326,128,0,117412:0:0:0:0:
402,192,117326,1,0,0:0:0:0:
109,192,117412,1,0,0:0:0:0:
329,192,117412,1,0,0:0:0:0:
36,192,117497,5,0,0:0:0:0:
256,192,117497,1,0,0:0:0:0:
475,192,117497,128,0,117669:0:0:0:0:
182,192,117497,1,0,0:0:0:0:
329,192,117583,128,0,117669:0:0:0:0:
109,192,117583,1,0,0:0:0:0:
182,192,117669,1,0,0:0:0:0:
402,192,117669,1,0,0:0:0:0:
475,192,117755,5,0,0:0:0:0:
256,192,117755,1,0,0:0:0:0:
36,192,117755,128,0,118097:0:0:0:0:
329,192,117755,1,0,0:0:0:0:
182,192,117840,128,0,117926:0:0:0:0:
402,192,117840,1,0,0:0:0:0:
109,192,117926,1,0,0:0:0:0:
475,192,117926,128,0,118183:0:0:0:0:
329,192,117926,128,0,118012:0:0:0:0:
182,192,118012,1,0,0:0:0:0:
256,192,118012,128,0,118097:0:0:0:0:
402,192,118097,1,0,0:0:0:0:
109,192,118097,128,0,118183:0:0:0:0:
256,192,118183,1,0,0:0:0:0:
329,192,118183,128,0,118269:0:0:0:0:
475,192,118269,1,0,0:0:0:0:
402,192,118269,128,0,118355:0:0:0:0:
36,192,118269,128,0,118355:0:0:0:0:
182,192,118269,1,0,0:0:0:0:
256,192,118355,128,0,118526:0:0:0:0:
402,192,118440,1,0,0:0:0:0:
109,192,118440,1,0,0:0:0:0:
329,192,118440,128,0,118526:0:0:0:0:
182,192,118526,1,0,0:0:0:0:
36,192,118526,128,0,118697:0:0:0:0:
402,192,118612,5,0,0:0:0:0:
256,192,118612,1,0,0:0:0:0:
329,192,118612,1,0,0:0:0:0:
109,192,118612,128,0,118783:0:0:0:0:
182,192,118697,128,0,118783:0:0:0:0:
475,192,118697,1,0,0:0:0:0:
36,192,118783,1,0,0:0:0:0:
329,192,118783,1,0,0:0:0:0:
109,192,118869,5,0,0:0:0:0:
402,192,118869,128,0,119040:0:0:0:0:
256,192,118869,1,0,0:0:0:0:
182,192,118869,1,0,0:0:0:0:
329,192,118955,128,0,119040:0:0:0:0:
36,192,118955,1,0,0:0:0:0:
182,192,119040,1,0,0:0:0:0:
475,192,119040,1,0,0:0:0:0:
402,192,119126,5,0,0:0:0:0:
109,192,119126,128,0,119297:0:0:0:0:
256,192,119126,1,0,0:0:0:0:
329,192,119126,1,0,0:0:0:0:
182,192,119212,128,0,119297:0:0:0:0:
475,192,119212,1,0,0:0:0:0:
36,192,119297,1,0,0:0:0:0:
329,192,119297,1,0,0:0:0:0:
402,192,119297,1,0,0:0:0:0:
475,192,119383,1,0,0:0:0:0:
109,192,119383,1,0,0:0:0:0:
256,192,119383,1,0,0:0:0:0:
402,192,119469,1,0,0:0:0:0:
36,192,119469,1,0,0:0:0:0:
182,192,119469,1,0,0:0:0:0:
329,192,119469,1,0,0:0:0:0:
256,192,119555,1,0,0:0:0:0:
109,192,119555,1,0,0:0:0:0:
475,192,119640,1,0,0:0:0:0:
36,192,119640,1,0,0:0:0:0:
402,192,119662,1,0,0:0:0:0:
329,192,119683,1,0,0:0:0:0:
182,192,119726,1,0,0:0:0:0:
256,192,119812,1,0,0:0:0:0:
475,192,119812,1,0,0:0:0:0:
109,192,119812,1,0,0:0:0:0:
402,192,119897,1,0,0:0:0:0:
329,192,119897,1,0,0:0:0:0:
36,192,119983,5,0,0:0:0:0:
256,192,119983,1,0,0:0:0:0:
182,192,119983,1,0,0:0:0:0:
475,192,119983,128,0,120155:0:0:0:0:
329,192,120069,128,0,120155:0:0:0:0:
109,192,120069,1,0,0:0:0:0:
402,192,120155,1,0,0:0:0:0:
182,192,120155,1,0,0:0:0:0:
475,192,120240,5,0,0:0:0:0:
36,192,120240,128,0,120412:0:0:0:0:
256,192,120240,1,0,0:0:0:0:
329,192,120240,1,0,0:0:0:0:
182,192,120326,128,0,120412:0:0:0:0:
402,192,120326,1,0,0:0:0:0:
329,192,120412,1,0,0:0:0:0:
109,192,120412,1,0,0:0:0:0:
36,192,120497,5,0,0:0:0:0:
475,192,120497,128,0,120840:0:0:0:0:
256,192,120497,1,0,0:0:0:0:
182,192,120497,1,0,0:0:0:0:
329,192,120583,128,0,120669:0:0:0:0:
109,192,120583,1,0,0:0:0:0:
36,192,120669,128,0,120926:0:0:0:0:
182,192,120669,128,0,120755:0:0:0:0:
402,192,120669,1,0,0:0:0:0:
329,192,120755,1,0,0:0:0:0:
256,192,120755,128,0,120840:0:0:0:0:
109,192,120840,1,0,0:0:0:0:
402,192,120840,128,0,120926:0:0:0:0:
256,192,120926,1,0,0:0:0:0:
182,192,120926,128,0,121012:0:0:0:0:
36,192,121012,1,0,0:0:0:0:
109,192,121012,128,0,121097:0:0:0:0:
475,192,121012,128,0,121097:0:0:0:0:
329,192,121012,1,0,0:0:0:0:
256,192,121097,128,0,121269:0:0:0:0:
109,192,121183,1,0,0:0:0:0:
402,192,121183,1,0,0:0:0:0:
182,192,121183,128,0,121269:0:0:0:0:
329,192,121269,1,0,0:0:0:0:
475,192,121269,128,0,121440:0:0:0:0:
109,192,121355,128,0,121612:0:0:0:0:
36,192,121355,128,0,121440:0:0:0:0:
182,192,121355,1,0,0:0:0:0:
256,192,121355,128,0,121526:0:0:0:0:
402,192,121355,128,0,121397:0:0:0:0:
329,192,121440,128,0,121612:0:0:0:0:
36,192,121526,1,0,0:0:0:0:
402,192,121526,128,0,121612:0:0:0:0:
182,192,121526,128,0,121869:0:0:0:0:
475,192,121526,1,0,0:0:0:0:
256,192,121612,1,0,0:0:0:0:
109,192,121697,1,0,0:0:0:0:
475,192,121697,128,0,121783:0:0:0:0:
36,192,121697,128,0,121955:0:0:0:0:
329,192,121697,128,0,121740:0:0:0:0:
402,192,121783,128,0,121955:0:0:0:0:
256,192,121783,128,0,121955:0:0:0:0:
329,192,121869,128,0,121955:0:0:0:0:
475,192,121869,1,0,0:0:0:0:
109,192,121869,128,0,122212:0:0:0:0:
182,192,121955,1,0,0:0:0:0:
36,192,122040,1,0,0:0:0:0:
402,192,122040,128,0,122126:0:0:0:0:
475,192,122040,128,0,122297:0:0:0:0:
256,192,122040,128,0,122083:0:0:0:0:
182,192,122126,128,0,122297:0:0:0:0:
329,192,122126,128,0,122297:0:0:0:0:
402,192,122212,1,0,0:0:0:0:
256,192,122212,128,0,122297:0:0:0:0:
36,192,122212,128,0,122555:0:0:0:0:
109,192,122297,1,0,0:0:0:0:
475,192,122383,1,0,0:0:0:0:
329,192,122383,128,0,122469:0:0:0:0:
402,192,122383,128,0,122640:0:0:0:0:
182,192,122383,128,0,122426:0:0:0:0:
109,192,122469,128,0,122640:0:0:0:0:
256,192,122469,128,0,122640:0:0:0:0:
182,192,122555,128,0,122640:0:0:0:0:
329,192,122555,1,0,0:0:0:0:
475,192,122555,128,0,122640:0:0:0:0:
36,192,122640,1,0,0:0:0:0:
475,192,122726,128,0,122812:0:0:0:0:
329,192,122726,1,0,0:0:0:0:
402,192,122726,128,0,122983:0:0:0:0:
256,192,122726,128,0,122897:0:0:0:0:
109,192,122726,128,0,122769:0:0:0:0:
182,192,122812,128,0,122983:0:0:0:0:
36,192,122812,128,0,122983:0:0:0:0:
475,192,122897,1,0,0:0:0:0:
109,192,122897,128,0,122983:0:0:0:0:
329,192,122897,128,0,123240:0:0:0:0:
256,192,122983,1,0,0:0:0:0:
402,192,123069,1,0,0:0:0:0:
36,192,123069,128,0,123155:0:0:0:0:
475,192,123069,128,0,123326:0:0:0:0:
182,192,123069,128,0,123112:0:0:0:0:
109,192,123155,128,0,123326:0:0:0:0:
256,192,123155,128,0,123326:0:0:0:0:
182,192,123240,128,0,123326:0:0:0:0:
36,192,123240,1,0,0:0:0:0:
402,192,123240,128,0,123583:0:0:0:0:
329,192,123326,1,0,0:0:0:0:
475,192,123412,1,0,0:0:0:0:
109,192,123412,128,0,123497:0:0:0:0:
36,192,123412,128,0,123669:0:0:0:0:
256,192,123412,128,0,123455:0:0:0:0:
329,192,123497,128,0,123669:0:0:0:0:
182,192,123497,128,0,123669:0:0:0:0:
109,192,123583,1,0,0:0:0:0:
256,192,123583,128,0,123669:0:0:0:0:
475,192,123583,128,0,123926:0:0:0:0:
402,192,123669,1,0,0:0:0:0:
36,192,123755,1,0,0:0:0:0:
182,192,123755,128,0,123840:0:0:0:0:
109,192,123755,128,0,124012:0:0:0:0:
329,192,123755,128,0,123797:0:0:0:0:
402,192,123840,128,0,124012:0:0:0:0:
256,192,123840,128,0,124012:0:0:0:0:
329,192,123926,128,0,124012:0:0:0:0:
182,192,123926,1,0,0:0:0:0:
36,192,123926,128,0,124012:0:0:0:0:
475,192,124012,1,0,0:0:0:0:
256,192,124097,5,0,0:0:0:0:
402,192,124097,1,0,0:0:0:0:
109,192,124097,1,0,0:0:0:0:
182,192,124097,1,0,0:0:0:0:
182,192,124183,1,0,0:0:0:0:
36,192,124183,1,0,0:0:0:0:
329,192,124269,1,0,0:0:0:0:
402,192,124269,1,0,0:0:0:0:
256,192,124269,1,0,0:0:0:0:
109,192,124269,1,0,0:0:0:0:
329,192,124355,1,0,0:0:0:0:
475,192,124355,1,0,0:0:0:0:
256,192,124440,5,0,0:0:0:0:
182,192,124440,1,0,0:0:0:0:
402,192,124440,1,0,0:0:0:0:
36,192,124440,1,0,0:0:0:0:
182,192,124526,1,0,0:0:0:0:
109,192,124526,1,0,0:0:0:0:
256,192,124612,1,0,0:0:0:0:
36,192,124612,1,0,0:0:0:0:
329,192,124612,1,0,0:0:0:0:
475,192,124612,1,0,0:0:0:0:
329,192,124697,1,0,0:0:0:0:
182,192,124697,1,0,0:0:0:0:
475,192,124783,5,0,0:0:0:0:
36,192,124783,1,0,0:0:0:0:
109,192,124826,1,0,0:0:0:0:
402,192,124847,1,0,0:0:0:0:
182,192,124869,1,0,0:0:0:0:
329,192,124912,1,0,0:0:0:0:
256,192,124955,1,0,0:0:0:0:
182,192,124997,1,0,0:0:0:0:
329,192,125040,1,0,0:0:0:0:
109,192,125062,1,0,0:0:0:0:
402,192,125083,1,0,0:0:0:0:
36,192,125126,1,0,0:0:0:0:
475,192,125126,1,0,0:0:0:0:
256,192,125169,1,0,0:0:0:0:
182,192,125212,1,0,0:0:0:0:
329,192,125255,1,0,0:0:0:0:
109,192,125297,1,0,0:0:0:0:
402,192,125340,1,0,0:0:0:0:
182,192,125383,1,0,0:0:0:0:
329,192,125426,1,0,0:0:0:0:
256,192,125469,128,0,126069:0:0:0:0:
256,192,126155,5,0,0:0:0:0:
36,192,126840,5,0,0:0:0:0:
256,192,126840,1,0,0:0:0:0:
475,192,126840,1,0,0:0:0:0:
329,192,126926,1,0,0:0:0:0:
182,192,127012,1,0,0:0:0:0:
402,192,127097,1,0,0:0:0:0:
109,192,127097,1,0,0:0:0:0:
329,192,127183,1,0,0:0:0:0:
36,192,127183,1,0,0:0:0:0:
182,192,127269,1,0,0:0:0:0:
256,192,127355,1,0,0:0:0:0:
475,192,127355,1,0,0:0:0:0:
109,192,127440,1,0,0:0:0:0:
36,192,127526,1,0,0:0:0:0:
329,192,127526,128,0,127569:0:0:0:0:
402,192,127526,128,0,127569:0:0:0:0:
475,192,127526,128,0,127569:0:0:0:0:
256,192,127526,128,0,127569:0:0:0:0:
182,192,127612,1,0,0:0:0:0:
36,192,127697,1,0,0:0:0:0:
402,192,127697,1,0,0:0:0:0:
256,192,127783,1,0,0:0:0:0:
109,192,127869,1,0,0:0:0:0:
329,192,127869,128,0,127912:0:0:0:0:
402,192,127869,128,0,127912:0:0:0:0:
475,192,127869,128,0,127912:0:0:0:0:
256,192,127955,1,0,0:0:0:0:
36,192,128040,1,0,0:0:0:0:
402,192,128040,1,0,0:0:0:0:
182,192,128126,1,0,0:0:0:0:
36,192,128212,1,0,0:0:0:0:
402,192,128212,128,0,128255:0:0:0:0:
475,192,128212,128,0,128255:0:0:0:0:
256,192,128297,1,0,0:0:0:0:
109,192,128383,1,0,0:0:0:0:
402,192,128383,1,0,0:0:0:0:
256,192,128469,1,0,0:0:0:0:
475,192,128555,128,0,128597:0:0:0:0:
36,192,128555,1,0,0:0:0:0:
182,192,128640,1,0,0:0:0:0:
329,192,128683,1,0,0:0:0:0:
109,192,128726,1,0,0:0:0:0:
402,192,128726,1,0,0:0:0:0:
256,192,128812,1,0,0:0:0:0:
36,192,128897,1,0,0:0:0:0:
109,192,128897,1,0,0:0:0:0:
475,192,128897,1,0,0:0:0:0:
182,192,128897,1,0,0:0:0:0:
329,192,128983,1,0,0:0:0:0:
402,192,129069,1,0,0:0:0:0:
182,192,129069,1,0,0:0:0:0:
36,192,129112,1,0,0:0:0:0:
256,192,129155,1,0,0:0:0:0:
109,192,129240,1,0,0:0:0:0:
402,192,129240,1,0,0:0:0:0:
475,192,129283,1,0,0:0:0:0:
182,192,129326,1,0,0:0:0:0:
256,192,129369,1,0,0:0:0:0:
329,192,129412,1,0,0:0:0:0:
475,192,129455,1,0,0:0:0:0:
109,192,129497,1,0,0:0:0:0:
402,192,129519,1,0,0:0:0:0:
329,192,129562,1,0,0:0:0:0:
256,192,129583,1,0,0:0:0:0:
36,192,129583,1,0,0:0:0:0:
182,192,129669,1,0,0:0:0:0:
329,192,129755,1,0,0:0:0:0:
109,192,129840,1,0,0:0:0:0:
402,192,129840,1,0,0:0:0:0:
182,192,129926,1,0,0:0:0:0:
475,192,129926,1,0,0:0:0:0:
329,192,130012,1,0,0:0:0:0:
256,192,130097,1,0,0:0:0:0:
36,192,130097,1,0,0:0:0:0:
402,192,130183,1,0,0:0:0:0:
475,192,130269,1,0,0:0:0:0:
182,192,130269,128,0,130312:0:0:0:0:
109,192,130269,128,0,130312:0:0:0:0:
36,192,130269,128,0,130312:0:0:0:0:
256,192,130269,128,0,130312:0:0:0:0:
329,192,130355,1,0,0:0:0:0:
475,192,130440,1,0,0:0:0:0:
109,192,130440,1,0,0:0:0:0:
256,192,130526,1,0,0:0:0:0:
402,192,130612,1,0,0:0:0:0:
182,192,130612,128,0,130655:0:0:0:0:
109,192,130612,128,0,130655:0:0:0:0:
36,192,130612,128,0,130655:0:0:0:0:
256,192,130697,1,0,0:0:0:0:
475,192,130783,1,0,0:0:0:0:
109,192,130783,1,0,0:0:0:0:
329,192,130869,1,0,0:0:0:0:
475,192,130955,1,0,0:0:0:0:
109,192,130955,128,0,130997:0:0:0:0:
36,192,130955,128,0,130997:0:0:0:0:
256,192,131040,1,0,0:0:0:0:
402,192,131126,1,0,0:0:0:0:
109,192,131126,1,0,0:0:0:0:
256,192,131212,1,0,0:0:0:0:
36,192,131297,128,0,131340:0:0:0:0:
475,192,131297,1,0,0:0:0:0:
329,192,131383,1,0,0:0:0:0:
182,192,131426,1,0,0:0:0:0:
402,192,131469,1,0,0:0:0:0:
109,192,131512,1,0,0:0:0:0:
256,192,131555,1,0,0:0:0:0:
475,192,131640,1,0,0:0:0:0:
402,192,131640,1,0,0:0:0:0:
329,192,131640,1,0,0:0:0:0:
36,192,131640,1,0,0:0:0:0:
109,192,131705,1,0,0:0:0:0:
182,192,131747,1,0,0:0:0:0:
256,192,131769,1,0,0:0:0:0:
475,192,131812,1,0,0:0:0:0:
402,192,131855,1,0,0:0:0:0:
329,192,131897,1,0,0:0:0:0:
109,192,131940,1,0,0:0:0:0:
256,192,131983,1,0,0:0:0:0:
402,192,132026,1,0,0:0:0:0:
182,192,132069,1,0,0:0:0:0:
109,192,132112,1,0,0:0:0:0:
36,192,132155,1,0,0:0:0:0:
256,192,132197,1,0,0:0:0:0:
329,192,132219,1,0,0:0:0:0:
402,192,132262,1,0,0:0:0:0:
475,192,132326,1,0,0:0:0:0:
182,192,132326,1,0,0:0:0:0:
109,192,132412,1,0,0:0:0:0:
256,192,132497,1,0,0:0:0:0:
36,192,132583,1,0,0:0:0:0:
329,192,132583,1,0,0:0:0:0:
109,192,132669,1,0,0:0:0:0:
402,192,132669,1,0,0:0:0:0:
256,192,132755,1,0,0:0:0:0:
182,192,132840,1,0,0:0:0:0:
475,192,132840,1,0,0:0:0:0:
329,192,132926,1,0,0:0:0:0:
402,192,133012,1,0,0:0:0:0:
36,192,133012,128,0,133055:0:0:0:0:
109,192,133012,128,0,133055:0:0:0:0:
182,192,133012,128,0,133055:0:0:0:0:
256,192,133012,128,0,133055:0:0:0:0:
475,192,133097,1,0,0:0:0:0:
36,192,133183,1,0,0:0:0:0:
182,192,133183,1,0,0:0:0:0:
329,192,133269,1,0,0:0:0:0:
475,192,133355,1,0,0:0:0:0:
109,192,133355,128,0,133397:0:0:0:0:
182,192,133355,128,0,133397:0:0:0:0:
256,192,133355,128,0,133397:0:0:0:0:
329,192,133440,1,0,0:0:0:0:
36,192,133526,1,0,0:0:0:0:
182,192,133526,1,0,0:0:0:0:
402,192,133612,1,0,0:0:0:0:
182,192,133697,1,0,0:0:0:0:
109,192,133697,128,0,133740:0:0:0:0:
36,192,133697,128,0,133740:0:0:0:0:
329,192,133783,1,0,0:0:0:0:
475,192,133869,1,0,0:0:0:0:
182,192,133869,1,0,0:0:0:0:
329,192,133955,1,0,0:0:0:0:
109,192,134040,1,0,0:0:0:0:
36,192,134040,128,0,134083:0:0:0:0:
402,192,134126,1,0,0:0:0:0:
256,192,134169,1,0,0:0:0:0:
475,192,134212,1,0,0:0:0:0:
182,192,134212,1,0,0:0:0:0:
329,192,134297,1,0,0:0:0:0:
36,192,134383,1,0,0:0:0:0:
475,192,134383,1,0,0:0:0:0:
109,192,134383,1,0,0:0:0:0:
402,192,134383,1,0,0:0:0:0:
256,192,134469,1,0,0:0:0:0:
182,192,134555,1,0,0:0:0:0:
402,192,134555,1,0,0:0:0:0:
36,192,134597,1,0,0:0:0:0:
329,192,134640,1,0,0:0:0:0:
109,192,134726,1,0,0:0:0:0:
475,192,134726,1,0,0:0:0:0:
182,192,134769,1,0,0:0:0:0:
402,192,134812,1,0,0:0:0:0:
329,192,134855,1,0,0:0:0:0:
256,192,134897,1,0,0:0:0:0:
109,192,134940,1,0,0:0:0:0:
475,192,134983,1,0,0:0:0:0:
182,192,135005,1,0,0:0:0:0:
256,192,135047,1,0,0:0:0:0:
329,192,135069,1,0,0:0:0:0:
36,192,135069,1,0,0:0:0:0:
402,192,135155,1,0,0:0:0:0:
256,192,135240,1,0,0:0:0:0:
475,192,135326,1,0,0:0:0:0:
182,192,135326,1,0,0:0:0:0:
402,192,135412,1,0,0:0:0:0:
109,192,135412,1,0,0:0:0:0:
256,192,135497,1,0,0:0:0:0:
329,192,135583,1,0,0:0:0:0:
36,192,135583,1,0,0:0:0:0:
182,192,135669,1,0,0:0:0:0:
109,192,135755,1,0,0:0:0:0:
256,192,135755,128,0,135797:0:0:0:0:
329,192,135755,128,0,135797:0:0:0:0:
402,192,135755,128,0,135797:0:0:0:0:
475,192,135755,128,0,135797:0:0:0:0:
36,192,135840,1,0,0:0:0:0:
475,192,135926,1,0,0:0:0:0:
329,192,135926,1,0,0:0:0:0:
182,192,136012,1,0,0:0:0:0:
36,192,136097,1,0,0:0:0:0:
329,192,136097,128,0,136140:0:0:0:0:
256,192,136097,128,0,136140:0:0:0:0:
402,192,136097,128,0,136140:0:0:0:0:
182,192,136183,1,0,0:0:0:0:
475,192,136269,1,0,0:0:0:0:
329,192,136269,1,0,0:0:0:0:
109,192,136355,1,0,0:0:0:0:
402,192,136440,128,0,136483:0:0:0:0:
329,192,136440,1,0,0:0:0:0:
475,192,136440,128,0,136483:0:0:0:0:
182,192,136526,1,0,0:0:0:0:
36,192,136612,1,0,0:0:0:0:
256,192,136612,1,0,0:0:0:0:
109,192,136697,1,0,0:0:0:0:
402,192,136697,1,0,0:0:0:0:
182,192,136740,1,0,0:0:0:0:
256,192,136783,1,0,0:0:0:0:
475,192,136783,1,0,0:0:0:0:
36,192,136826,1,0,0:0:0:0:
329,192,136869,1,0,0:0:0:0:
182,192,136912,1,0,0:0:0:0:
402,192,136955,1,0,0:0:0:0:
109,192,136997,1,0,0:0:0:0:
256,192,137040,1,0,0:0:0:0:
36,192,137126,1,0,0:0:0:0:
402,192,137126,1,0,0:0:0:0:
475,192,137126,1,0,0:0:0:0:
329,192,137126,1,0,0:0:0:0:
109,192,137147,1,0,0:0:0:0:
182,192,137190,1,0,0:0:0:0:
256,192,137255,1,0,0:0:0:0:
36,192,137297,1,0,0:0:0:0:
475,192,137319,1,0,0:0:0:0:
402,192,137340,1,0,0:0:0:0:
329,192,137383,1,0,0:0:0:0:
109,192,137383,1,0,0:0:0:0:
256,192,137469,1,0,0:0:0:0:
402,192,137512,1,0,0:0:0:0:
182,192,137555,1,0,0:0:0:0:
109,192,137597,1,0,0:0:0:0:
36,192,137619,1,0,0:0:0:0:
475,192,137640,1,0,0:0:0:0:
256,192,137683,1,0,0:0:0:0:
329,192,137747,1,0,0:0:0:0:
402,192,137790,1,0,0:0:0:0:
109,192,137812,1,0,0:0:0:0:
475,192,137812,128,0,137855:0:0:0:0:
182,192,137812,1,0,0:0:0:0:
36,192,137812,128,0,137855:0:0:0:0:
256,192,137897,1,0,0:0:0:0:
329,192,137897,1,0,0:0:0:0:
475,192,137983,1,0,0:0:0:0:
182,192,137983,1,0,0:0:0:0:
402,192,138069,1,0,0:0:0:0:
256,192,138069,1,0,0:0:0:0:
329,192,138155,128,0,138197:0:0:0:0:
182,192,138155,128,0,138197:0:0:0:0:
36,192,138155,1,0,0:0:0:0:
109,192,138240,1,0,0:0:0:0:
402,192,138240,1,0,0:0:0:0:
256,192,138326,1,0,0:0:0:0:
329,192,138326,1,0,0:0:0:0:
109,192,138412,1,0,0:0:0:0:
182,192,138412,1,0,0:0:0:0:
329,192,138497,128,0,138540:0:0:0:0:
402,192,138497,128,0,138540:0:0:0:0:
475,192,138497,128,0,138540:0:0:0:0:
36,192,138497,1,0,0:0:0:0:
256,192,138497,128,0,138540:0:0:0:0:
109,192,138583,1,0,0:0:0:0:
182,192,138583,1,0,0:0:0:0:
36,192,138669,1,0,0:0:0:0:
402,192,138669,1,0,0:0:0:0:
256,192,138755,1,0,0:0:0:0:
182,192,138755,1,0,0:0:0:0:
109,192,138840,1,0,0:0:0:0:
329,192,138840,128,0,138883:0:0:0:0:
402,192,138840,128,0,138883:0:0:0:0:
475,192,138840,128,0,138883:0:0:0:0:
256,192,138926,1,0,0:0:0:0:
182,192,138926,1,0,0:0:0:0:
36,192,139012,1,0,0:0:0:0:
402,192,139012,1,0,0:0:0:0:
182,192,139097,1,0,0:0:0:0:
329,192,139097,1,0,0:0:0:0:
36,192,139183,1,0,0:0:0:0:
402,192,139183,128,0,139226:0:0:0:0:
475,192,139183,128,0,139226:0:0:0:0:
256,192,139269,1,0,0:0:0:0:
329,192,139269,1,0,0:0:0:0:
402,192,139355,1,0,0:0:0:0:
109,192,139355,1,0,0:0:0:0:
329,192,139440,1,0,0:0:0:0:
182,192,139440,1,0,0:0:0:0:
475,192,139526,128,0,139569:0:0:0:0:
36,192,139526,1,0,0:0:0:0:
256,192,139569,1,0,0:0:0:0:
182,192,139612,1,0,0:0:0:0:
329,192,139655,1,0,0:0:0:0:
109,192,139697,1,0,0:0:0:0:
402,192,139697,1,0,0:0:0:0:
256,192,139783,1,0,0:0:0:0:
475,192,139783,1,0,0:0:0:0:
36,192,139869,1,0,0:0:0:0:
109,192,139869,1,0,0:0:0:0:
182,192,139869,1,0,0:0:0:0:
402,192,139869,1,0,0:0:0:0:
329,192,139955,1,0,0:0:0:0:
402,192,140040,1,0,0:0:0:0:
182,192,140040,1,0,0:0:0:0:
36,192,140040,1,0,0:0:0:0:
256,192,140126,1,0,0:0:0:0:
329,192,140126,1,0,0:0:0:0:
182,192,140212,1,0,0:0:0:0:
475,192,140212,1,0,0:0:0:0:
109,192,140233,1,0,0:0:0:0:
329,192,140297,1,0,0:0:0:0:
36,192,140297,1,0,0:0:0:0:
402,192,140340,1,0,0:0:0:0:
475,192,140362,1,0,0:0:0:0:
109,192,140383,1,0,0:0:0:0:
256,192,140426,1,0,0:0:0:0:
182,192,140490,1,0,0:0:0:0:
109,192,140533,1,0,0:0:0:0:
402,192,140555,1,0,0:0:0:0:
36,192,140555,128,0,140597:0:0:0:0:
329,192,140555,1,0,0:0:0:0:
475,192,140555,128,0,140597:0:0:0:0:
256,192,140640,1,0,0:0:0:0:
182,192,140640,1,0,0:0:0:0:
36,192,140726,1,0,0:0:0:0:
329,192,140726,1,0,0:0:0:0:
109,192,140812,1,0,0:0:0:0:
256,192,140812,1,0,0:0:0:0:
182,192,140897,128,0,140940:0:0:0:0:
329,192,140897,128,0,140940:0:0:0:0:
475,192,140897,1,0,0:0:0:0:
402,192,140983,1,0,0:0:0:0:
109,192,140983,1,0,0:0:0:0:
256,192,141069,1,0,0:0:0:0:
182,192,141069,1,0,0:0:0:0:
402,192,141155,1,0,0:0:0:0:
329,192,141155,1,0,0:0:0:0:
475,192,141240,1,0,0:0:0:0:
182,192,141240,128,0,141283:0:0:0:0:
109,192,141240,128,0,141283:0:0:0:0:
36,192,141240,128,0,141283:0:0:0:0:
256,192,141240,128,0,141283:0:0:0:0:
402,192,141326,1,0,0:0:0:0:
329,192,141326,1,0,0:0:0:0:
475,192,141412,1,0,0:0:0:0:
109,192,141412,1,0,0:0:0:0:
256,192,141497,1,0,0:0:0:0:
329,192,141497,1,0,0:0:0:0:
402,192,141583,1,0,0:0:0:0:
182,192,141583,128,0,141626:0:0:0:0:
109,192,141583,128,0,141626:0:0:0:0:
36,192,141583,128,0,141626:0:0:0:0:
256,192,141669,1,0,0:0:0:0:
329,192,141669,1,0,0:0:0:0:
475,192,141755,1,0,0:0:0:0:
109,192,141755,1,0,0:0:0:0:
329,192,141840,1,0,0:0:0:0:
182,192,141840,1,0,0:0:0:0:
475,192,141926,1,0,0:0:0:0:
109,192,141926,128,0,141969:0:0:0:0:
36,192,141926,128,0,141969:0:0:0:0:
402,192,141926,1,0,0:0:0:0:
256,192,142012,1,0,0:0:0:0:
329,192,142012,1,0,0:0:0:0:
402,192,142097,1,0,0:0:0:0:
109,192,142097,1,0,0:0:0:0:
109,192,142183,128,0,142226:0:0:0:0:
256,192,142183,1,0,0:0:0:0:
36,192,142269,1,0,0:0:0:0:
475,192,142269,1,0,0:0:0:0:
329,192,142269,1,0,0:0:0:0:
182,192,142355,1,0,0:0:0:0:
36,192,142355,128,0,142397:0:0:0:0:
256,192,142376,1,0,0:0:0:0:
329,192,142397,1,0,0:0:0:0:
109,192,142440,1,0,0:0:0:0:
402,192,142440,1,0,0:0:0:0:
475,192,142483,1,0,0:0:0:0:
256,192,142526,1,0,0:0:0:0:
36,192,142612,1,0,0:0:0:0:
109,192,142612,1,0,0:0:0:0:
475,192,142612,1,0,0:0:0:0:
182,192,142612,1,0,0:0:0:0:
402,192,142676,1,0,0:0:0:0:
329,192,142719,1,0,0:0:0:0:
256,192,142740,1,0,0:0:0:0:
36,192,142783,1,0,0:0:0:0:
475,192,142783,1,0,0:0:0:0:
109,192,142805,1,0,0:0:0:0:
182,192,142826,1,0,0:0:0:0:
329,192,142869,1,0,0:0:0:0:
402,192,142933,1,0,0:0:0:0:
256,192,142955,1,0,0:0:0:0:
109,192,142976,1,0,0:0:0:0:
182,192,143040,1,0,0:0:0:0:
329,192,143083,1,0,0:0:0:0:
402,192,143105,1,0,0:0:0:0:
475,192,143126,1,0,0:0:0:0:
36,192,143126,1,0,0:0:0:0:
256,192,143169,1,0,0:0:0:0:
182,192,143190,1,0,0:0:0:0:
109,192,143233,1,0,0:0:0:0:
402,192,143297,1,0,0:0:0:0:
475,192,143297,1,0,0:0:0:0:
36,192,143297,128,0,143340:0:0:0:0:
329,192,143297,128,0,143340:0:0:0:0:
256,192,143383,1,0,0:0:0:0:
182,192,143383,1,0,0:0:0:0:
109,192,143469,1,0,0:0:0:0:
402,192,143469,1,0,0:0:0:0:
182,192,143555,1,0,0:0:0:0:
329,192,143555,1,0,0:0:0:0:
36,192,143640,1,0,0:0:0:0:
256,192,143640,128,0,143683:0:0:0:0:
475,192,143640,128,0,143683:0:0:0:0:
329,192,143726,1,0,0:0:0:0:
109,192,143726,1,0,0:0:0:0:
256,192,143812,1,0,0:0:0:0:
182,192,143812,1,0,0:0:0:0:
36,192,143897,1,0,0:0:0:0:
109,192,143897,1,0,0:0:0:0:
475,192,143983,128,0,144026:0:0:0:0:
402,192,143983,128,0,144026:0:0:0:0:
329,192,143983,128,0,144026:0:0:0:0:
256,192,143983,128,0,144026:0:0:0:0:
182,192,143983,1,0,0:0:0:0:
36,192,144069,1,0,0:0:0:0:
109,192,144069,1,0,0:0:0:0:
475,192,144155,1,0,0:0:0:0:
329,192,144155,1,0,0:0:0:0:
182,192,144240,1,0,0:0:0:0:
109,192,144240,1,0,0:0:0:0:
36,192,144326,1,0,0:0:0:0:
402,192,144326,128,0,144369:0:0:0:0:
329,192,144326,128,0,144369:0:0:0:0:
256,192,144326,128,0,144369:0:0:0:0:
182,192,144412,1,0,0:0:0:0:
109,192,144412,1,0,0:0:0:0:
475,192,144497,1,0,0:0:0:0:
329,192,144497,1,0,0:0:0:0:
109,192,144583,1,0,0:0:0:0:
256,192,144583,1,0,0:0:0:0:
329,192,144669,1,0,0:0:0:0:
402,192,144669,128,0,144712:0:0:0:0:
475,192,144669,128,0,144712:0:0:0:0:
182,192,144755,1,0,0:0:0:0:
256,192,144755,1,0,0:0:0:0:
36,192,144840,1,0,0:0:0:0:
329,192,144840,1,0,0:0:0:0:
256,192,144926,1,0,0:0:0:0:
109,192,144926,1,0,0:0:0:0:
402,192,145012,1,0,0:0:0:0:
475,192,145012,128,0,145055:0:0:0:0:
182,192,145012,1,0,0:0:0:0:
109,192,145097,1,0,0:0:0:0:
256,192,145140,1,0,0:0:0:0:
36,192,145183,1,0,0:0:0:0:
329,192,145183,1,0,0:0:0:0:
182,192,145269,1,0,0:0:0:0:
402,192,145269,1,0,0:0:0:0:
475,192,145355,1,0,0:0:0:0:
36,192,145355,1,0,0:0:0:0:
109,192,145355,1,0,0:0:0:0:
329,192,145355,1,0,0:0:0:0:
256,192,145440,1,0,0:0:0:0:
329,192,145526,1,0,0:0:0:0:
109,192,145526,1,0,0:0:0:0:
475,192,145569,1,0,0:0:0:0:
182,192,145612,1,0,0:0:0:0:
256,192,145612,1,0,0:0:0:0:
36,192,145697,1,0,0:0:0:0:
329,192,145697,1,0,0:0:0:0:
402,192,145719,1,0,0:0:0:0:
475,192,145783,1,0,0:0:0:0:
182,192,145783,1,0,0:0:0:0:
109,192,145826,1,0,0:0:0:0:
36,192,145847,1,0,0:0:0:0:
402,192,145869,1,0,0:0:0:0:
256,192,145912,1,0,0:0:0:0:
329,192,145976,1,0,0:0:0:0:
402,192,146019,1,0,0:0:0:0:
109,192,146040,1,0,0:0:0:0:
36,192,146040,1,0,0:0:0:0:
475,192,146040,128,0,146083:0:0:0:0:
182,192,146040,128,0,146083:0:0:0:0:
256,192,146126,1,0,0:0:0:0:
329,192,146126,1,0,0:0:0:0:
109,192,146212,1,0,0:0:0:0:
402,192,146212,1,0,0:0:0:0:
182,192,146297,1,0,0:0:0:0:
329,192,146297,1,0,0:0:0:0:
475,192,146383,1,0,0:0:0:0:
256,192,146383,128,0,146426:0:0:0:0:
36,192,146383,128,0,146426:0:0:0:0:
402,192,146469,1,0,0:0:0:0:
182,192,146469,1,0,0:0:0:0:
329,192,146555,1,0,0:0:0:0:
256,192,146555,1,0,0:0:0:0:
402,192,146640,1,0,0:0:0:0:
475,192,146640,1,0,0:0:0:0:
329,192,146726,1,0,0:0:0:0:
256,192,146726,128,0,146769:0:0:0:0:
182,192,146726,128,0,146769:0:0:0:0:
109,192,146726,128,0,146769:0:0:0:0:
36,192,146726,128,0,146769:0:0:0:0:
402,192,146812,1,0,0:0:0:0:
475,192,146812,1,0,0:0:0:0:
36,192,146897,1,0,0:0:0:0:
182,192,146897,1,0,0:0:0:0:
329,192,146983,1,0,0:0:0:0:
402,192,147005,1,0,0:0:0:0:
475,192,147069,1,0,0:0:0:0:
182,192,147069,128,0,147112:0:0:0:0:
256,192,147069,128,0,147112:0:0:0:0:
109,192,147069,128,0,147112:0:0:0:0:
402,192,147155,1,0,0:0:0:0:
329,192,147197,1,0,0:0:0:0:
36,192,147240,1,0,0:0:0:0:
182,192,147240,1,0,0:0:0:0:
256,192,147305,1,0,0:0:0:0:
329,192,147326,1,0,0:0:0:0:
402,192,147412,1,0,0:0:0:0:
475,192,147412,1,0,0:0:0:0:
36,192,147412,128,0,147455:0:0:0:0:
182,192,147412,128,0,147455:0:0:0:0:
329,192,147497,1,0,0:0:0:0:
256,192,147497,1,0,0:0:0:0:
36,192,147583,1,0,0:0:0:0:
109,192,147583,1,0,0:0:0:0:
402,192,147583,1,0,0:0:0:0:
329,192,147583,1,0,0:0:0:0:
36,192,147669,1,0,0:0:0:0:
182,192,147669,1,0,0:0:0:0:
475,192,147669,1,0,0:0:0:0:
329,192,147755,1,0,0:0:0:0:
109,192,147755,1,0,0:0:0:0:
402,192,147755,1,0,0:0:0:0:
256,192,147797,1,0,0:0:0:0:
402,192,147840,1,0,0:0:0:0:
36,192,147840,1,0,0:0:0:0:
182,192,147883,1,0,0:0:0:0:
109,192,147926,1,0,0:0:0:0:
329,192,147926,1,0,0:0:0:0:
475,192,147969,1,0,0:0:0:0:
256,192,148012,1,0,0:0:0:0:
36,192,148012,1,0,0:0:0:0:
402,192,148055,1,0,0:0:0:0:
182,192,148097,1,0,0:0:0:0:
109,192,148097,1,0,0:0:0:0:
475,192,148140,1,0,0:0:0:0:
329,192,148183,1,0,0:0:0:0:
182,192,148183,1,0,0:0:0:0:
36,192,148226,1,0,0:0:0:0:
256,192,148269,1,0,0:0:0:0:
402,192,148269,1,0,0:0:0:0:
109,192,148269,1,0,0:0:0:0:
256,192,148355,1,0,0:0:0:0:
475,192,148355,1,0,0:0:0:0:
182,192,148355,1,0,0:0:0:0:
109,192,148440,1,0,0:0:0:0:
36,192,148440,1,0,0:0:0:0:
329,192,148440,1,0,0:0:0:0:
182,192,148526,1,0,0:0:0:0:
402,192,148526,1,0,0:0:0:0:
475,192,148569,1,0,0:0:0:0:
256,192,148612,1,0,0:0:0:0:
109,192,148612,1,0,0:0:0:0:
329,192,148612,1,0,0:0:0:0:
182,192,148697,1,0,0:0:0:0:
475,192,148697,1,0,0:0:0:0:
402,192,148740,1,0,0:0:0:0:
329,192,148762,1,0,0:0:0:0:
109,192,148783,1,0,0:0:0:0:
36,192,148783,1,0,0:0:0:0:
256,192,148783,1,0,0:0:0:0:
402,192,148869,1,0,0:0:0:0:
475,192,148869,1,0,0:0:0:0:
36,192,148955,1,0,0:0:0:0:
329,192,148955,1,0,0:0:0:0:
182,192,148955,1,0,0:0:0:0:
109,192,149040,1,0,0:0:0:0:
256,192,149040,1,0,0:0:0:0:
475,192,149040,1,0,0:0:0:0:
329,192,149126,1,0,0:0:0:0:
182,192,149126,1,0,0:0:0:0:
36,192,149126,1,0,0:0:0:0:
402,192,149212,1,0,0:0:0:0:
109,192,149212,1,0,0:0:0:0:
256,192,149297,1,0,0:0:0:0:
475,192,149297,1,0,0:0:0:0:
182,192,149297,1,0,0:0:0:0:
402,192,149383,1,0,0:0:0:0:
329,192,149383,1,0,0:0:0:0:
36,192,149469,1,0,0:0:0:0:
256,192,149469,1,0,0:0:0:0:
182,192,149469,1,0,0:0:0:0:
109,192,149469,1,0,0:0:0:0:
475,192,149469,1,0,0:0:0:0:
402,192,149555,1,0,0:0:0:0:
329,192,149555,1,0,0:0:0:0:
36,192,149640,1,0,0:0:0:0:
182,192,149640,1,0,0:0:0:0:
475,192,149640,1,0,0:0:0:0:
256,192,149726,1,0,0:0:0:0:
329,192,149726,1,0,0:0:0:0:
109,192,149726,1,0,0:0:0:0:
402,192,149812,1,0,0:0:0:0:
182,192,149812,1,0,0:0:0:0:
475,192,149812,1,0,0:0:0:0:
256,192,149897,1,0,0:0:0:0:
329,192,149897,1,0,0:0:0:0:
36,192,149983,1,0,0:0:0:0:
109,192,149983,1,0,0:0:0:0:
402,192,149983,1,0,0:0:0:0:
256,192,150026,1,0,0:0:0:0:
182,192,150069,1,0,0:0:0:0:
329,192,150112,1,0,0:0:0:0:
36,192,150155,1,0,0:0:0:0:
402,192,150155,1,0,0:0:0:0:
109,192,150155,1,0,0:0:0:0:
475,192,150155,1,0,0:0:0:0:
256,192,150240,1,0,0:0:0:0:
182,192,150240,1,0,0:0:0:0:
109,192,150326,1,0,0:0:0:0:
402,192,150326,1,0,0:0:0:0:
329,192,150326,1,0,0:0:0:0:
182,192,150412,1,0,0:0:0:0:
256,192,150412,1,0,0:0:0:0:
475,192,150412,1,0,0:0:0:0:
36,192,150497,1,0,0:0:0:0:
402,192,150497,1,0,0:0:0:0:
109,192,150497,1,0,0:0:0:0:
329,192,150583,1,0,0:0:0:0:
256,192,150583,1,0,0:0:0:0:
402,192,150669,1,0,0:0:0:0:
109,192,150669,1,0,0:0:0:0:
182,192,150669,1,0,0:0:0:0:
256,192,150755,1,0,0:0:0:0:
475,192,150755,1,0,0:0:0:0:
36,192,150840,1,0,0:0:0:0:
402,192,150840,1,0,0:0:0:0:
329,192,150840,1,0,0:0:0:0:
109,192,150840,1,0,0:0:0:0:
182,192,150840,1,0,0:0:0:0:
256,192,150926,1,0,0:0:0:0:
475,192,151012,1,0,0:0:0:0:
36,192,151012,1,0,0:0:0:0:
182,192,151012,1,0,0:0:0:0:
256,192,151097,1,0,0:0:0:0:
329,192,151097,1,0,0:0:0:0:
402,192,151097,1,0,0:0:0:0:
182,192,151183,1,0,0:0:0:0:
475,192,151183,1,0,0:0:0:0:
109,192,151205,1,0,0:0:0:0:
329,192,151269,1,0,0:0:0:0:
36,192,151269,1,0,0:0:0:0:
402,192,151312,1,0,0:0:0:0:
475,192,151333,1,0,0:0:0:0:
109,192,151355,1,0,0:0:0:0:
256,192,151397,1,0,0:0:0:0:
182,192,151462,1,0,0:0:0:0:
109,192,151505,1,0,0:0:0:0:
475,192,151526,1,0,0:0:0:0:
36,192,151526,1,0,0:0:0:0:
402,192,151526,1,0,0:0:0:0:
329,192,151526,1,0,0:0:0:0:
109,192,151612,1,0,0:0:0:0:
256,192,151612,1,0,0:0:0:0:
475,192,151697,1,0,0:0:0:0:
182,192,151697,1,0,0:0:0:0:
329,192,151697,1,0,0:0:0:0:
402,192,151783,1,0,0:0:0:0:
256,192,151783,1,0,0:0:0:0:
36,192,151783,1,0,0:0:0:0:
182,192,151869,1,0,0:0:0:0:
329,192,151869,1,0,0:0:0:0:
475,192,151869,1,0,0:0:0:0:
109,192,151955,1,0,0:0:0:0:
402,192,151955,1,0,0:0:0:0:
256,192,152040,1,0,0:0:0:0:
36,192,152040,1,0,0:0:0:0:
329,192,152040,1,0,0:0:0:0:
109,192,152126,1,0,0:0:0:0:
182,192,152126,1,0,0:0:0:0:
475,192,152212,1,0,0:0:0:0:
256,192,152212,1,0,0:0:0:0:
329,192,152212,1,0,0:0:0:0:
402,192,152212,1,0,0:0:0:0:
36,192,152212,1,0,0:0:0:0:
109,192,152297,1,0,0:0:0:0:
182,192,152297,1,0,0:0:0:0:
475,192,152383,1,0,0:0:0:0:
329,192,152383,1,0,0:0:0:0:
36,192,152383,1,0,0:0:0:0:
256,192,152469,1,0,0:0:0:0:
182,192,152469,1,0,0:0:0:0:
402,192,152469,1,0,0:0:0:0:
109,192,152555,1,0,0:0:0:0:
329,192,152555,1,0,0:0:0:0:
36,192,152555,1,0,0:0:0:0:
256,192,152640,1,0,0:0:0:0:
182,192,152640,1,0,0:0:0:0:
475,192,152726,1,0,0:0:0:0:
402,192,152726,1,0,0:0:0:0:
109,192,152726,1,0,0:0:0:0:
256,192,152769,1,0,0:0:0:0:
329,192,152812,1,0,0:0:0:0:
182,192,152855,1,0,0:0:0:0:
475,192,152897,1,0,0:0:0:0:
109,192,152897,1,0,0:0:0:0:
402,192,152897,1,0,0:0:0:0:
36,192,152897,1,0,0:0:0:0:
256,192,152983,1,0,0:0:0:0:
329,192,152983,1,0,0:0:0:0:
402,192,153069,1,0,0:0:0:0:
109,192,153069,1,0,0:0:0:0:
182,192,153069,1,0,0:0:0:0:
329,192,153155,1,0,0:0:0:0:
256,192,153155,1,0,0:0:0:0:
36,192,153155,1,0,0:0:0:0:
475,192,153240,1,0,0:0:0:0:
109,192,153240,1,0,0:0:0:0:
402,192,153240,1,0,0:0:0:0:
329,192,153326,1,0,0:0:0:0:
256,192,153347,1,0,0:0:0:0:
182,192,153369,1,0,0:0:0:0:
402,192,153412,1,0,0:0:0:0:
109,192,153412,1,0,0:0:0:0:
475,192,153455,1,0,0:0:0:0:
256,192,153497,1,0,0:0:0:0:
182,192,153540,1,0,0:0:0:0:
36,192,153583,1,0,0:0:0:0:
402,192,153583,1,0,0:0:0:0:
475,192,153583,1,0,0:0:0:0:
329,192,153583,1,0,0:0:0:0:
109,192,153647,1,0,0:0:0:0:
182,192,153690,1,0,0:0:0:0:
256,192,153712,1,0,0:0:0:0:
36,192,153755,1,0,0:0:0:0:
475,192,153755,1,0,0:0:0:0:
402,192,153776,1,0,0:0:0:0:
329,192,153797,1,0,0:0:0:0:
182,192,153840,1,0,0:0:0:0:
109,192,153905,1,0,0:0:0:0:
256,192,153926,1,0,0:0:0:0:
402,192,153947,1,0,0:0:0:0:
329,192,154012,1,0,0:0:0:0:
182,192,154055,1,0,0:0:0:0:
109,192,154076,1,0,0:0:0:0:
475,192,154097,1,0,0:0:0:0:
36,192,154097,1,0,0:0:0:0:
256,192,154140,1,0,0:0:0:0:
329,192,154162,1,0,0:0:0:0:
402,192,154205,1,0,0:0:0:0:
109,192,154269,1,0,0:0:0:0:
475,192,154269,1,0,0:0:0:0:
182,192,154269,1,0,0:0:0:0:
36,192,154269,1,0,0:0:0:0:
329,192,154355,1,0,0:0:0:0:
256,192,154355,1,0,0:0:0:0:
475,192,154440,1,0,0:0:0:0:
182,192,154440,1,0,0:0:0:0:
402,192,154440,1,0,0:0:0:0:
256,192,154526,1,0,0:0:0:0:
109,192,154526,1,0,0:0:0:0:
36,192,154526,1,0,0:0:0:0:
182,192,154612,1,0,0:0:0:0:
475,192,154612,1,0,0:0:0:0:
329,192,154612,1,0,0:0:0:0:
402,192,154697,1,0,0:0:0:0:
256,192,154697,1,0,0:0:0:0:
109,192,154783,1,0,0:0:0:0:
329,192,154783,1,0,0:0:0:0:
182,192,154783,1,0,0:0:0:0:
402,192,154869,1,0,0:0:0:0:
36,192,154869,1,0,0:0:0:0:
329,192,154955,1,0,0:0:0:0:
256,192,154955,1,0,0:0:0:0:
182,192,154955,1,0,0:0:0:0:
109,192,154955,1,0,0:0:0:0:
475,192,154955,1,0,0:0:0:0:
36,192,155040,1,0,0:0:0:0:
402,192,155040,1,0,0:0:0:0:
109,192,155126,1,0,0:0:0:0:
256,192,155126,1,0,0:0:0:0:
475,192,155212,1,0,0:0:0:0:
329,192,155212,1,0,0:0:0:0:
402,192,155212,1,0,0:0:0:0:
36,192,155297,1,0,0:0:0:0:
256,192,155297,1,0,0:0:0:0:
182,192,155297,1,0,0:0:0:0:
109,192,155297,1,0,0:0:0:0:
402,192,155383,1,0,0:0:0:0:
329,192,155383,1,0,0:0:0:0:
475,192,155469,1,0,0:0:0:0:
182,192,155469,1,0,0:0:0:0:
109,192,155469,1,0,0:0:0:0:
329,192,155512,1,0,0:0:0:0:
256,192,155555,1,0,0:0:0:0:
402,192,155597,1,0,0:0:0:0:
182,192,155640,1,0,0:0:0:0:
109,192,155640,1,0,0:0:0:0:
475,192,155640,1,0,0:0:0:0:
36,192,155640,1,0,0:0:0:0:
329,192,155726,1,0,0:0:0:0:
256,192,155726,1,0,0:0:0:0:
109,192,155812,1,0,0:0:0:0:
182,192,155812,1,0,0:0:0:0:
402,192,155812,1,0,0:0:0:0:
256,192,155897,1,0,0:0:0:0:
475,192,155897,1,0,0:0:0:0:
36,192,155897,1,0,0:0:0:0:
329,192,155983,1,0,0:0:0:0:
182,192,155983,1,0,0:0:0:0:
402,192,155983,1,0,0:0:0:0:
109,192,156069,1,0,0:0:0:0:
256,192,156112,1,0,0:0:0:0:
475,192,156155,1,0,0:0:0:0:
329,192,156155,1,0,0:0:0:0:
36,192,156155,1,0,0:0:0:0:
182,192,156240,1,0,0:0:0:0:
402,192,156240,1,0,0:0:0:0:
36,192,156326,1,0,0:0:0:0:
475,192,156326,1,0,0:0:0:0:
109,192,156326,1,0,0:0:0:0:
329,192,156326,1,0,0:0:0:0:
256,192,156412,1,0,0:0:0:0:
182,192,156412,1,0,0:0:0:0:
109,192,156497,1,0,0:0:0:0:
36,192,156497,1,0,0:0:0:0:
475,192,156497,1,0,0:0:0:0:
329,192,156583,1,0,0:0:0:0:
256,192,156583,1,0,0:0:0:0:
402,192,156583,1,0,0:0:0:0:
475,192,156669,1,0,0:0:0:0:
182,192,156669,1,0,0:0:0:0:
109,192,156690,1,0,0:0:0:0:
36,192,156755,1,0,0:0:0:0:
329,192,156755,1,0,0:0:0:0:
402,192,156797,1,0,0:0:0:0:
475,192,156819,1,0,0:0:0:0:
109,192,156840,1,0,0:0:0:0:
256,192,156883,1,0,0:0:0:0:
182,192,156947,1,0,0:0:0:0:
109,192,156990,1,0,0:0:0:0:
36,192,157012,1,0,0:0:0:0:
402,192,157012,1,0,0:0:0:0:
475,192,157012,1,0,0:0:0:0:
329,192,157012,1,0,0:0:0:0:
182,192,157097,1,0,0:0:0:0:
256,192,157097,1,0,0:0:0:0:
36,192,157183,1,0,0:0:0:0:
329,192,157183,1,0,0:0:0:0:
109,192,157183,1,0,0:0:0:0:
256,192,157269,1,0,0:0:0:0:
402,192,157269,1,0,0:0:0:0:
475,192,157269,1,0,0:0:0:0:
329,192,157355,1,0,0:0:0:0:
36,192,157355,1,0,0:0:0:0:
182,192,157355,1,0,0:0:0:0:
109,192,157440,1,0,0:0:0:0:
256,192,157440,1,0,0:0:0:0:
402,192,157526,1,0,0:0:0:0:
182,192,157526,1,0,0:0:0:0:
329,192,157526,1,0,0:0:0:0:
109,192,157612,1,0,0:0:0:0:
475,192,157612,1,0,0:0:0:0:
182,192,157697,1,0,0:0:0:0:
256,192,157697,1,0,0:0:0:0:
329,192,157697,1,0,0:0:0:0:
402,192,157697,1,0,0:0:0:0:
36,192,157697,1,0,0:0:0:0:
475,192,157783,1,0,0:0:0:0:
109,192,157783,1,0,0:0:0:0:
402,192,157869,1,0,0:0:0:0:
256,192,157869,1,0,0:0:0:0:
36,192,157955,1,0,0:0:0:0:
182,192,157955,1,0,0:0:0:0:
109,192,157955,1,0,0:0:0:0:
475,192,158040,1,0,0:0:0:0:
256,192,158040,1,0,0:0:0:0:
329,192,158040,1,0,0:0:0:0:
402,192,158040,1,0,0:0:0:0:
182,192,158126,1,0,0:0:0:0:
36,192,158169,1,0,0:0:0:0:
109,192,158212,1,0,0:0:0:0:
329,192,158212,1,0,0:0:0:0:
402,192,158212,1,0,0:0:0:0:
182,192,158255,1,0,0:0:0:0:
256,192,158297,1,0,0:0:0:0:
109,192,158340,1,0,0:0:0:0:
329,192,158383,1,0,0:0:0:0:
402,192,158383,1,0,0:0:0:0:
36,192,158383,1,0,0:0:0:0:
475,192,158383,1,0,0:0:0:0:
182,192,158469,1,0,0:0:0:0:
256,192,158469,1,0,0:0:0:0:
475,192,158555,1,0,0:0:0:0:
329,192,158555,1,0,0:0:0:0:
36,192,158555,1,0,0:0:0:0:
256,192,158640,1,0,0:0:0:0:
109,192,158640,1,0,0:0:0:0:
36,192,158726,1,0,0:0:0:0:
475,192,158726,1,0,0:0:0:0:
402,192,158726,1,0,0:0:0:0:
182,192,158769,1,0,0:0:0:0:
109,192,158812,1,0,0:0:0:0:
402,192,158812,1,0,0:0:0:0:
329,192,158855,1,0,0:0:0:0:
475,192,158897,1,0,0:0:0:0:
36,192,158897,1,0,0:0:0:0:
256,192,158897,1,0,0:0:0:0:
182,192,158983,1,0,0:0:0:0:
402,192,158983,1,0,0:0:0:0:
36,192,159069,1,0,0:0:0:0:
475,192,159069,1,0,0:0:0:0:
329,192,159069,1,0,0:0:0:0:
109,192,159069,1,0,0:0:0:0:
256,192,159112,1,0,0:0:0:0:
182,192,159155,1,0,0:0:0:0:
329,192,159240,1,0,0:0:0:0:
109,192,159240,1,0,0:0:0:0:
475,192,159240,1,0,0:0:0:0:
36,192,159240,1,0,0:0:0:0:
256,192,159326,1,0,0:0:0:0:
402,192,159326,1,0,0:0:0:0:
329,192,159412,1,0,0:0:0:0:
182,192,159412,1,0,0:0:0:0:
36,192,159412,1,0,0:0:0:0:
402,192,159433,1,0,0:0:0:0:
475,192,159497,1,0,0:0:0:0:
256,192,159497,1,0,0:0:0:0:
182,192,159497,1,0,0:0:0:0:
402,192,159583,1,0,0:0:0:0:
109,192,159583,1,0,0:0:0:0:
36,192,159583,1,0,0:0:0:0:
256,192,159626,1,0,0:0:0:0:
109,192,159669,1,0,0:0:0:0:
329,192,159690,1,0,0:0:0:0:
402,192,159733,1,0,0:0:0:0:
36,192,159755,1,0,0:0:0:0:
256,192,159755,1,0,0:0:0:0:
475,192,159755,1,0,0:0:0:0:
182,192,159755,1,0,0:0:0:0:
329,192,159840,1,0,0:0:0:0:
109,192,159840,1,0,0:0:0:0:
402,192,159926,1,0,0:0:0:0:
182,192,159926,1,0,0:0:0:0:
36,192,159926,1,0,0:0:0:0:
329,192,160012,1,0,0:0:0:0:
256,192,160012,1,0,0:0:0:0:
475,192,160012,1,0,0:0:0:0:
109,192,160097,1,0,0:0:0:0:
402,192,160097,1,0,0:0:0:0:
36,192,160097,1,0,0:0:0:0:
182,192,160183,1,0,0:0:0:0:
329,192,160183,1,0,0:0:0:0:
256,192,160269,1,0,0:0:0:0:
475,192,160269,1,0,0:0:0:0:
402,192,160269,1,0,0:0:0:0:
182,192,160355,1,0,0:0:0:0:
109,192,160355,1,0,0:0:0:0:
36,192,160440,1,0,0:0:0:0:
256,192,160440,1,0,0:0:0:0:
402,192,160440,1,0,0:0:0:0:
329,192,160440,1,0,0:0:0:0:
475,192,160440,1,0,0:0:0:0:
182,192,160526,1,0,0:0:0:0:
109,192,160526,1,0,0:0:0:0:
36,192,160612,1,0,0:0:0:0:
402,192,160612,1,0,0:0:0:0:
475,192,160612,1,0,0:0:0:0:
256,192,160697,1,0,0:0:0:0:
109,192,160697,1,0,0:0:0:0:
329,192,160697,1,0,0:0:0:0:
182,192,160783,1,0,0:0:0:0:
402,192,160783,1,0,0:0:0:0:
475,192,160783,1,0,0:0:0:0:
256,192,160869,1,0,0:0:0:0:
109,192,160869,1,0,0:0:0:0:
475,192,160912,1,0,0:0:0:0:
36,192,160955,1,0,0:0:0:0:
329,192,160955,1,0,0:0:0:0:
182,192,160955,1,0,0:0:0:0:
256,192,160997,1,0,0:0:0:0:
402,192,161040,1,0,0:0:0:0:
109,192,161083,1,0,0:0:0:0:
36,192,161126,1,0,0:0:0:0:
182,192,161126,1,0,0:0:0:0:
329,192,161126,1,0,0:0:0:0:
475,192,161126,1,0,0:0:0:0:
256,192,161212,1,0,0:0:0:0:
402,192,161212,1,0,0:0:0:0:
329,192,161297,1,0,0:0:0:0:
182,192,161297,1,0,0:0:0:0:
475,192,161297,1,0,0:0:0:0:
256,192,161383,1,0,0:0:0:0:
109,192,161383,1,0,0:0:0:0:
36,192,161383,1,0,0:0:0:0:
182,192,161469,1,0,0:0:0:0:
329,192,161469,1,0,0:0:0:0:
402,192,161469,1,0,0:0:0:0:
109,192,161555,1,0,0:0:0:0:
256,192,161555,1,0,0:0:0:0:
182,192,161640,1,0,0:0:0:0:
402,192,161640,1,0,0:0:0:0:
475,192,161640,1,0,0:0:0:0:
256,192,161726,1,0,0:0:0:0:
329,192,161726,1,0,0:0:0:0:
36,192,161812,1,0,0:0:0:0:
182,192,161812,1,0,0:0:0:0:
109,192,161812,1,0,0:0:0:0:
475,192,161812,1,0,0:0:0:0:
402,192,161812,1,0,0:0:0:0:
256,192,161897,1,0,0:0:0:0:
475,192,161983,1,0,0:0:0:0:
182,192,161983,1,0,0:0:0:0:
329,192,161983,1,0,0:0:0:0:
36,192,162069,1,0,0:0:0:0:
256,192,162069,1,0,0:0:0:0:
109,192,162069,1,0,0:0:0:0:
182,192,162155,1,0,0:0:0:0:
475,192,162155,1,0,0:0:0:0:
402,192,162176,1,0,0:0:0:0:
36,192,162240,1,0,0:0:0:0:
329,192,162240,1,0,0:0:0:0:
109,192,162283,1,0,0:0:0:0:
182,192,162305,1,0,0:0:0:0:
402,192,162326,1,0,0:0:0:0:
256,192,162369,1,0,0:0:0:0:
475,192,162433,1,0,0:0:0:0:
402,192,162476,1,0,0:0:0:0:
329,192,162497,1,0,0:0:0:0:
36,192,162497,1,0,0:0:0:0:
182,192,162497,1,0,0:0:0:0:
109,192,162497,1,0,0:0:0:0:
475,192,162583,1,0,0:0:0:0:
256,192,162583,1,0,0:0:0:0:
329,192,162669,1,0,0:0:0:0:
402,192,162669,1,0,0:0:0:0:
109,192,162669,1,0,0:0:0:0:
182,192,162755,1,0,0:0:0:0:
256,192,162755,1,0,0:0:0:0:
36,192,162755,1,0,0:0:0:0:
402,192,162840,1,0,0:0:0:0:
109,192,162840,1,0,0:0:0:0:
475,192,162840,1,0,0:0:0:0:
329,192,162926,1,0,0:0:0:0:
182,192,162926,1,0,0:0:0:0:
256,192,163012,1,0,0:0:0:0:
36,192,163012,1,0,0:0:0:0:
109,192,163012,1,0,0:0:0:0:
329,192,163097,1,0,0:0:0:0:
402,192,163097,1,0,0:0:0:0:
475,192,163183,1,0,0:0:0:0:
256,192,163183,1,0,0:0:0:0:
109,192,163183,1,0,0:0:0:0:
182,192,163183,1,0,0:0:0:0:
36,192,163183,1,0,0:0:0:0:
329,192,163269,1,0,0:0:0:0:
402,192,163269,1,0,0:0:0:0:
182,192,163355,1,0,0:0:0:0:
36,192,163355,1,0,0:0:0:0:
475,192,163440,1,0,0:0:0:0:
256,192,163440,1,0,0:0:0:0:
402,192,163440,1,0,0:0:0:0:
329,192,163526,1,0,0:0:0:0:
109,192,163526,1,0,0:0:0:0:
182,192,163526,1,0,0:0:0:0:
36,192,163526,1,0,0:0:0:0:
256,192,163612,1,0,0:0:0:0:
402,192,163612,1,0,0:0:0:0:
36,192,163655,1,0,0:0:0:0:
475,192,163697,1,0,0:0:0:0:
182,192,163697,1,0,0:0:0:0:
329,192,163697,1,0,0:0:0:0:
256,192,163740,1,0,0:0:0:0:
109,192,163783,1,0,0:0:0:0:
402,192,163826,1,0,0:0:0:0:
475,192,163869,1,0,0:0:0:0:
329,192,163869,1,0,0:0:0:0:
182,192,163869,1,0,0:0:0:0:
36,192,163869,1,0,0:0:0:0:
256,192,163955,1,0,0:0:0:0:
109,192,163955,1,0,0:0:0:0:
182,192,164040,1,0,0:0:0:0:
329,192,164040,1,0,0:0:0:0:
36,192,164040,1,0,0:0:0:0:
256,192,164126,1,0,0:0:0:0:
402,192,164126,1,0,0:0:0:0:
475,192,164126,1,0,0:0:0:0:
329,192,164212,1,0,0:0:0:0:
182,192,164212,1,0,0:0:0:0:
109,192,164212,1,0,0:0:0:0:
402,192,164297,1,0,0:0:0:0:
256,192,164297,1,0,0:0:0:0:
329,192,164383,1,0,0:0:0:0:
109,192,164383,1,0,0:0:0:0:
36,192,164383,1,0,0:0:0:0:
256,192,164469,1,0,0:0:0:0:
182,192,164469,1,0,0:0:0:0:
402,192,164555,1,0,0:0:0:0:
329,192,164555,1,0,0:0:0:0:
36,192,164555,1,0,0:0:0:0:
475,192,164555,1,0,0:0:0:0:
182,192,164619,1,0,0:0:0:0:
109,192,164662,1,0,0:0:0:0:
256,192,164683,1,0,0:0:0:0:
36,192,164726,1,0,0:0:0:0:
329,192,164747,1,0,0:0:0:0:
402,192,164769,1,0,0:0:0:0:
475,192,164812,1,0,0:0:0:0:
109,192,164812,1,0,0:0:0:0:
329,192,164876,1,0,0:0:0:0:
256,192,164897,1,0,0:0:0:0:
182,192,164919,1,0,0:0:0:0:
402,192,164983,1,0,0:0:0:0:
36,192,164983,1,0,0:0:0:0:
109,192,165026,1,0,0:0:0:0:
182,192,165047,1,0,0:0:0:0:
475,192,165069,1,0,0:0:0:0:
256,192,165112,1,0,0:0:0:0:
402,192,165133,1,0,0:0:0:0:
329,192,165176,1,0,0:0:0:0:
182,192,165240,1,0,0:0:0:0:
36,192,165240,1,0,0:0:0:0:
109,192,165240,1,0,0:0:0:0:
475,192,165240,1,0,0:0:0:0:
402,192,165326,1,0,0:0:0:0:
256,192,165326,1,0,0:0:0:0:
36,192,165412,1,0,0:0:0:0:
109,192,165412,1,0,0:0:0:0:
329,192,165412,1,0,0:0:0:0:
256,192,165497,1,0,0:0:0:0:
182,192,165497,1,0,0:0:0:0:
402,192,165497,1,0,0:0:0:0:
475,192,165583,1,0,0:0:0:0:
109,192,165583,1,0,0:0:0:0:
36,192,165583,1,0,0:0:0:0:
329,192,165669,1,0,0:0:0:0:
256,192,165669,1,0,0:0:0:0:
182,192,165755,1,0,0:0:0:0:
402,192,165755,1,0,0:0:0:0:
109,192,165755,1,0,0:0:0:0:
329,192,165840,1,0,0:0:0:0:
475,192,165840,1,0,0:0:0:0:
402,192,165926,1,0,0:0:0:0:
256,192,165926,1,0,0:0:0:0:
109,192,165926,1,0,0:0:0:0:
182,192,165926,1,0,0:0:0:0:
36,192,165926,1,0,0:0:0:0:
475,192,166012,1,0,0:0:0:0:
329,192,166012,1,0,0:0:0:0:
109,192,166097,1,0,0:0:0:0:
256,192,166097,1,0,0:0:0:0:
402,192,166183,1,0,0:0:0:0:
329,192,166183,1,0,0:0:0:0:
182,192,166183,1,0,0:0:0:0:
475,192,166269,1,0,0:0:0:0:
256,192,166269,1,0,0:0:0:0:
109,192,166269,1,0,0:0:0:0:
36,192,166269,1,0,0:0:0:0:
329,192,166355,1,0,0:0:0:0:
402,192,166355,1,0,0:0:0:0:
36,192,166440,1,0,0:0:0:0:
109,192,166440,1,0,0:0:0:0:
182,192,166440,1,0,0:0:0:0:
402,192,166526,1,0,0:0:0:0:
256,192,166526,1,0,0:0:0:0:
329,192,166612,1,0,0:0:0:0:
109,192,166612,1,0,0:0:0:0:
182,192,166612,1,0,0:0:0:0:
36,192,166612,1,0,0:0:0:0:
475,192,166612,1,0,0:0:0:0:
402,192,166697,1,0,0:0:0:0:
256,192,166697,1,0,0:0:0:0:
475,192,166783,1,0,0:0:0:0:
109,192,166783,1,0,0:0:0:0:
36,192,166783,1,0,0:0:0:0:
256,192,166869,1,0,0:0:0:0:
329,192,166869,1,0,0:0:0:0:
182,192,166869,1,0,0:0:0:0:
402,192,166955,1,0,0:0:0:0:
36,192,166955,1,0,0:0:0:0:
475,192,166955,1,0,0:0:0:0:
329,192,167040,1,0,0:0:0:0:
256,192,167083,1,0,0:0:0:0:
475,192,167126,1,0,0:0:0:0:
109,192,167126,1,0,0:0:0:0:
36,192,167126,1,0,0:0:0:0:
402,192,167212,1,0,0:0:0:0:
182,192,167212,1,0,0:0:0:0:
36,192,167297,1,0,0:0:0:0:
475,192,167297,1,0,0:0:0:0:
329,192,167297,1,0,0:0:0:0:
109,192,167297,1,0,0:0:0:0:
256,192,167383,1,0,0:0:0:0:
475,192,167469,1,0,0:0:0:0:
182,192,167469,1,0,0:0:0:0:
402,192,167469,1,0,0:0:0:0:
36,192,167555,1,0,0:0:0:0:
256,192,167555,1,0,0:0:0:0:
109,192,167555,1,0,0:0:0:0:
475,192,167640,1,0,0:0:0:0:
182,192,167640,1,0,0:0:0:0:
402,192,167662,1,0,0:0:0:0:
329,192,167683,1,0,0:0:0:0:
36,192,167726,1,0,0:0:0:0:
109,192,167747,1,0,0:0:0:0:
182,192,167769,1,0,0:0:0:0:
475,192,167790,1,0,0:0:0:0:
329,192,167812,1,0,0:0:0:0:
256,192,167855,1,0,0:0:0:0:
402,192,167919,1,0,0:0:0:0:
329,192,167962,1,0,0:0:0:0:
36,192,167983,1,0,0:0:0:0:
182,192,167983,1,0,0:0:0:0:
475,192,167983,1,0,0:0:0:0:
109,192,167983,1,0,0:0:0:0:
402,192,168069,1,0,0:0:0:0:
256,192,168069,1,0,0:0:0:0:
36,192,168155,1,0,0:0:0:0:
109,192,168155,1,0,0:0:0:0:
329,192,168155,1,0,0:0:0:0:
256,192,168240,1,0,0:0:0:0:
182,192,168240,1,0,0:0:0:0:
402,192,168240,1,0,0:0:0:0:
475,192,168326,1,0,0:0:0:0:
109,192,168326,1,0,0:0:0:0:
36,192,168326,1,0,0:0:0:0:
329,192,168412,1,0,0:0:0:0:
256,192,168412,1,0,0:0:0:0:
182,192,168497,1,0,0:0:0:0:
402,192,168497,1,0,0:0:0:0:
109,192,168497,1,0,0:0:0:0:
329,192,168583,1,0,0:0:0:0:
475,192,168583,1,0,0:0:0:0:
402,192,168669,1,0,0:0:0:0:
256,192,168669,1,0,0:0:0:0:
109,192,168669,1,0,0:0:0:0:
182,192,168669,1,0,0:0:0:0:
36,192,168669,1,0,0:0:0:0:
475,192,168755,1,0,0:0:0:0:
329,192,168755,1,0,0:0:0:0:
109,192,168840,1,0,0:0:0:0:
256,192,168840,1,0,0:0:0:0:
402,192,168926,1,0,0:0:0:0:
329,192,168926,1,0,0:0:0:0:
182,192,168926,1,0,0:0:0:0:
475,192,169012,1,0,0:0:0:0:
256,192,169012,1,0,0:0:0:0:
109,192,169012,1,0,0:0:0:0:
36,192,169012,1,0,0:0:0:0:
402,192,169097,1,0,0:0:0:0:
329,192,169097,1,0,0:0:0:0:
109,192,169183,1,0,0:0:0:0:
36,192,169183,1,0,0:0:0:0:
182,192,169183,1,0,0:0:0:0:
402,192,169269,1,0,0:0:0:0:
256,192,169269,1,0,0:0:0:0:
109,192,169355,1,0,0:0:0:0:
182,192,169355,1,0,0:0:0:0:
329,192,169355,1,0,0:0:0:0:
475,192,169355,1,0,0:0:0:0:
402,192,169440,1,0,0:0:0:0:
256,192,169440,1,0,0:0:0:0:
36,192,169440,1,0,0:0:0:0:
109,192,169526,1,0,0:0:0:0:
329,192,169526,1,0,0:0:0:0:
256,192,169612,1,0,0:0:0:0:
182,192,169612,1,0,0:0:0:0:
475,192,169612,1,0,0:0:0:0:
36,192,169697,1,0,0:0:0:0:
329,192,169697,1,0,0:0:0:0:
109,192,169719,1,0,0:0:0:0:
182,192,169783,1,0,0:0:0:0:
402,192,169783,1,0,0:0:0:0:
475,192,169869,1,0,0:0:0:0:
36,192,169869,1,0,0:0:0:0:
256,192,169869,1,0,0:0:0:0:
109,192,169955,1,0,0:0:0:0:
329,192,169955,1,0,0:0:0:0:
402,192,170019,1,0,0:0:0:0:
36,192,170040,1,0,0:0:0:0:
475,192,170040,1,0,0:0:0:0:
256,192,170040,1,0,0:0:0:0:
182,192,170040,1,0,0:0:0:0:
109,192,170126,1,0,0:0:0:0:
329,192,170126,1,0,0:0:0:0:
402,192,170212,1,0,0:0:0:0:
475,192,170212,1,0,0:0:0:0:
182,192,170212,1,0,0:0:0:0:
256,192,170297,1,0,0:0:0:0:
329,192,170297,1,0,0:0:0:0:
36,192,170297,1,0,0:0:0:0:
402,192,170383,1,0,0:0:0:0:
109,192,170383,1,0,0:0:0:0:
329,192,170405,1,0,0:0:0:0:
475,192,170469,1,0,0:0:0:0:
256,192,170469,1,0,0:0:0:0:
109,192,170469,1,0,0:0:0:0:
329,192,170555,1,0,0:0:0:0:
182,192,170555,1,0,0:0:0:0:
36,192,170555,1,0,0:0:0:0:
475,192,170555,1,0,0:0:0:0:
256,192,170640,1,0,0:0:0:0:
182,192,170662,1,0,0:0:0:0:
402,192,170683,1,0,0:0:0:0:
329,192,170705,1,0,0:0:0:0:
475,192,170726,1,0,0:0:0:0:
329,192,176040,5,0,0:0:0:0:
402,192,176126,1,0,0:0:0:0:
475,192,176212,1,0,0:0:0:0:
109,192,176212,1,0,0:0:0:0:
256,192,176383,1,0,0:0:0:0:
402,192,176555,1,0,0:0:0:0:
109,192,176726,1,0,0:0:0:0:
256,192,176897,1,0,0:0:0:0:
402,192,177069,1,0,0:0:0:0:
109,192,177240,1,0,0:0:0:0:
256,192,177412,1,0,0:0:0:0:
402,192,177583,1,0,0:0:0:0:
109,192,177755,1,0,0:0:0:0:
256,192,177926,1,0,0:0:0:0:
402,192,178097,1,0,0:0:0:0:
109,192,178269,1,0,0:0:0:0:
256,192,178440,1,0,0:0:0:0:
475,192,178612,1,0,0:0:0:0:
402,192,178612,1,0,0:0:0:0:
109,192,178783,1,0,0:0:0:0:
36,192,178783,1,0,0:0:0:0:
182,192,178955,1,0,0:0:0:0:
329,192,179126,1,0,0:0:0:0:
475,192,179297,1,0,0:0:0:0:
182,192,179469,1,0,0:0:0:0:
329,192,179640,1,0,0:0:0:0:
475,192,179812,1,0,0:0:0:0:
182,192,179983,1,0,0:0:0:0:
329,192,180155,1,0,0:0:0:0:
475,192,180326,1,0,0:0:0:0:
182,192,180497,1,0,0:0:0:0:
329,192,180669,1,0,0:0:0:0:
475,192,180840,1,0,0:0:0:0:
182,192,181012,1,0,0:0:0:0:
329,192,181183,1,0,0:0:0:0:
475,192,181355,1,0,0:0:0:0:
182,192,181355,1,0,0:0:0:0:
109,192,181526,1,0,0:0:0:0:
402,192,181526,1,0,0:0:0:0:
36,192,181697,1,0,0:0:0:0:
182,192,181869,1,0,0:0:0:0:
329,192,182040,1,0,0:0:0:0:
36,192,182212,1,0,0:0:0:0:
182,192,182383,1,0,0:0:0:0:
475,192,182383,1,0,0:0:0:0:
402,192,182383,1,0,0:0:0:0:
329,192,182555,1,0,0:0:0:0:
36,192,182726,1,0,0:0:0:0:
182,192,182897,1,0,0:0:0:0:
329,192,183069,1,0,0:0:0:0:
256,192,183069,1,0,0:0:0:0:
475,192,183069,1,0,0:0:0:0:
36,192,183240,1,0,0:0:0:0:
182,192,183412,1,0,0:0:0:0:
329,192,183583,1,0,0:0:0:0:
402,192,183583,1,0,0:0:0:0:
109,192,183583,1,0,0:0:0:0:
36,192,183755,1,0,0:0:0:0:
182,192,183926,1,0,0:0:0:0:
329,192,184097,1,0,0:0:0:0:
36,192,184269,1,0,0:0:0:0:
256,192,184269,1,0,0:0:0:0:
109,192,184440,1,0,0:0:0:0:
256,192,184612,1,0,0:0:0:0:
402,192,184783,1,0,0:0:0:0:
109,192,184955,1,0,0:0:0:0:
256,192,185126,1,0,0:0:0:0:
475,192,185126,1,0,0:0:0:0:
402,192,185297,1,0,0:0:0:0:
182,192,185469,1,0,0:0:0:0:
329,192,185640,1,0,0:0:0:0:
475,192,185812,1,0,0:0:0:0:
109,192,185812,1,0,0:0:0:0:
36,192,185983,1,0,0:0:0:0:
402,192,186155,1,0,0:0:0:0:
329,192,186155,1,0,0:0:0:0:
256,192,186326,1,0,0:0:0:0:
182,192,186326,1,0,0:0:0:0:
36,192,186497,1,0,0:0:0:0:
182,192,186669,1,0,0:0:0:0:
329,192,186840,1,0,0:0:0:0:
475,192,186840,1,0,0:0:0:0:
182,192,187012,1,0,0:0:0:0:
109,192,187097,1,0,0:0:0:0:
36,192,187183,1,0,0:0:0:0:
402,192,187183,1,0,0:0:0:0:
256,192,187355,1,0,0:0:0:0:
109,192,187526,1,0,0:0:0:0:
402,192,187697,1,0,0:0:0:0:
256,192,187869,1,0,0:0:0:0:
109,192,188040,1,0,0:0:0:0:
402,192,188212,1,0,0:0:0:0:
182,192,188212,1,0,0:0:0:0:
36,192,188212,1,0,0:0:0:0:
256,192,188383,1,0,0:0:0:0:
109,192,188555,1,0,0:0:0:0:
329,192,188555,1,0,0:0:0:0:
475,192,188555,1,0,0:0:0:0:
402,192,188726,1,0,0:0:0:0:
256,192,188897,1,0,0:0:0:0:
109,192,189069,1,0,0:0:0:0:
329,192,189069,1,0,0:0:0:0:
182,192,189069,1,0,0:0:0:0:
402,192,189240,1,0,0:0:0:0:
256,192,189412,1,0,0:0:0:0:
36,192,189583,1,0,0:0:0:0:
109,192,189583,1,0,0:0:0:0:
402,192,189755,1,0,0:0:0:0:
475,192,189755,1,0,0:0:0:0:
329,192,189926,1,0,0:0:0:0:
182,192,190097,1,0,0:0:0:0:
36,192,190269,1,0,0:0:0:0:
329,192,190440,1,0,0:0:0:0:
182,192,190612,1,0,0:0:0:0:
36,192,190783,1,0,0:0:0:0:
329,192,190955,1,0,0:0:0:0:
109,192,190955,1,0,0:0:0:0:
402,192,190955,1,0,0:0:0:0:
182,192,191126,1,0,0:0:0:0:
36,192,191297,1,0,0:0:0:0:
256,192,191297,1,0,0:0:0:0:
475,192,191297,1,0,0:0:0:0:
329,192,191469,1,0,0:0:0:0:
182,192,191640,1,0,0:0:0:0:
36,192,191812,1,0,0:0:0:0:
402,192,191812,1,0,0:0:0:0:
475,192,191812,1,0,0:0:0:0:
329,192,191983,1,0,0:0:0:0:
182,192,192155,1,0,0:0:0:0:
36,192,192326,1,0,0:0:0:0:
329,192,192326,1,0,0:0:0:0:
402,192,192497,1,0,0:0:0:0:
109,192,192497,1,0,0:0:0:0:
475,192,192669,1,0,0:0:0:0:
329,192,192840,1,0,0:0:0:0:
182,192,193012,1,0,0:0:0:0:
475,192,193183,1,0,0:0:0:0:
329,192,193355,1,0,0:0:0:0:
182,192,193526,1,0,0:0:0:0:
475,192,193697,1,0,0:0:0:0:
329,192,193869,1,0,0:0:0:0:
182,192,194040,1,0,0:0:0:0:
475,192,194212,1,0,0:0:0:0:
329,192,194383,1,0,0:0:0:0:
109,192,194383,1,0,0:0:0:0:
182,192,194555,1,0,0:0:0:0:
402,192,194555,1,0,0:0:0:0:
36,192,194726,1,0,0:0:0:0:
182,192,194897,1,0,0:0:0:0:
329,192,195069,1,0,0:0:0:0:
36,192,195240,1,0,0:0:0:0:
182,192,195412,1,0,0:0:0:0:
329,192,195583,1,0,0:0:0:0:
475,192,195755,1,0,0:0:0:0:
182,192,195926,1,0,0:0:0:0:
329,192,196097,1,0,0:0:0:0:
475,192,196269,1,0,0:0:0:0:
182,192,196440,1,0,0:0:0:0:
256,192,196612,1,0,0:0:0:0:
402,192,196783,1,0,0:0:0:0:
109,192,196955,1,0,0:0:0:0:
256,192,197126,1,0,0:0:0:0:
402,192,197297,1,0,0:0:0:0:
109,192,197469,1,0,0:0:0:0:
256,192,197640,1,0,0:0:0:0:
402,192,197812,1,0,0:0:0:0:
329,192,198155,128,0,198197:0:0:0:0:
475,192,198155,128,0,198197:0:0:0:0:
182,192,198155,1,0,0:0:0:0:
36,192,198155,1,0,0:0:0:0:
109,192,198155,1,0,0:0:0:0:
402,192,200897,5,0,0:0:0:0:
256,192,200983,1,0,0:0:0:0:
182,192,201069,1,0,0:0:0:0:
329,192,201155,1,0,0:0:0:0:
475,192,201240,1,0,0:0:0:0:
109,192,201240,1,0,0:0:0:0:
36,192,201412,1,0,0:0:0:0:
256,192,201497,1,0,0:0:0:0:
402,192,201583,1,0,0:0:0:0:
329,192,201669,1,0,0:0:0:0:
109,192,201755,1,0,0:0:0:0:
182,192,201755,1,0,0:0:0:0:
329,192,201926,1,0,0:0:0:0:
182,192,202012,1,0,0:0:0:0:
36,192,202097,1,0,0:0:0:0:
475,192,202183,1,0,0:0:0:0:
402,192,202183,1,0,0:0:0:0:
109,192,202269,1,0,0:0:0:0:
256,192,202355,1,0,0:0:0:0:
329,192,202440,1,0,0:0:0:0:
182,192,202526,5,0,0:0:0:0:
36,192,202612,1,0,0:0:0:0:
402,192,202612,1,0,0:0:0:0:
475,192,202783,1,0,0:0:0:0:
256,192,202869,1,0,0:0:0:0:
109,192,202955,1,0,0:0:0:0:
182,192,203040,1,0,0:0:0:0:
402,192,203126,1,0,0:0:0:0:
329,192,203126,1,0,0:0:0:0:
182,192,203297,1,0,0:0:0:0:
329,192,203383,1,0,0:0:0:0:
475,192,203469,1,0,0:0:0:0:
109,192,203555,1,0,0:0:0:0:
36,192,203555,1,0,0:0:0:0:
402,192,203640,5,0,0:0:0:0:
256,192,203726,1,0,0:0:0:0:
182,192,203812,1,0,0:0:0:0:
329,192,203897,1,0,0:0:0:0:
36,192,203983,1,0,0:0:0:0:
109,192,203983,1,0,0:0:0:0:
475,192,204155,5,0,0:0:0:0:
256,192,204240,1,0,0:0:0:0:
402,192,204326,1,0,0:0:0:0:
329,192,204412,1,0,0:0:0:0:
109,192,204497,1,0,0:0:0:0:
182,192,204497,1,0,0:0:0:0:
329,192,204669,5,0,0:0:0:0:
182,192,204755,1,0,0:0:0:0:
109,192,204840,1,0,0:0:0:0:
256,192,204926,1,0,0:0:0:0:
475,192,204926,1,0,0:0:0:0:
109,192,205097,1,0,0:0:0:0:
329,192,205183,1,0,0:0:0:0:
182,192,205269,1,0,0:0:0:0:
475,192,205355,1,0,0:0:0:0:
402,192,205355,1,0,0:0:0:0:
36,192,205526,5,0,0:0:0:0:
182,192,205612,1,0,0:0:0:0:
256,192,205697,1,0,0:0:0:0:
109,192,205783,1,0,0:0:0:0:
402,192,205869,1,0,0:0:0:0:
329,192,205869,1,0,0:0:0:0:
256,192,206040,1,0,0:0:0:0:
475,192,206040,1,0,0:0:0:0:
182,192,206212,1,0,0:0:0:0:
402,192,206212,1,0,0:0:0:0:
36,192,206383,1,0,0:0:0:0:
329,192,206469,1,0,0:0:0:0:
182,192,206555,1,0,0:0:0:0:
402,192,206640,1,0,0:0:0:0:
36,192,206726,1,0,0:0:0:0:
256,192,206726,1,0,0:0:0:0:
329,192,206812,1,0,0:0:0:0:
182,192,206897,1,0,0:0:0:0:
402,192,206983,1,0,0:0:0:0:
256,192,207069,1,0,0:0:0:0:
36,192,207155,1,0,0:0:0:0:
475,192,207240,1,0,0:0:0:0:
182,192,207240,1,0,0:0:0:0:
109,192,207326,1,0,0:0:0:0:
329,192,207412,1,0,0:0:0:0:
182,192,207497,1,0,0:0:0:0:
256,192,207583,1,0,0:0:0:0:
402,192,207669,1,0,0:0:0:0:
475,192,207669,1,0,0:0:0:0:
182,192,207755,1,0,0:0:0:0:
329,192,207840,1,0,0:0:0:0:
475,192,207840,1,0,0:0:0:0:
109,192,207926,1,0,0:0:0:0:
36,192,207926,1,0,0:0:0:0:
256,192,208012,1,0,0:0:0:0:
329,192,208097,1,0,0:0:0:0:
402,192,208097,1,0,0:0:0:0:
109,192,208097,1,0,0:0:0:0:
36,192,208269,1,0,0:0:0:0:
182,192,208269,1,0,0:0:0:0:
475,192,208269,1,0,0:0:0:0:
256,192,208440,1,0,0:0:0:0:
402,192,208440,1,0,0:0:0:0:
109,192,208440,1,0,0:0:0:0:
36,192,208612,1,0,0:0:0:0:
475,192,208612,1,0,0:0:0:0:
329,192,208697,1,0,0:0:0:0:
182,192,208697,1,0,0:0:0:0:
256,192,208783,1,0,0:0:0:0:
109,192,208783,1,0,0:0:0:0:
402,192,208783,1,0,0:0:0:0:
182,192,208955,1,0,0:0:0:0:
329,192,208955,1,0,0:0:0:0:
402,192,209126,5,0,0:0:0:0:
36,192,209126,128,0,209355:0:0:0:0:
256,192,209126,128,0,209240:0:0:0:0:
329,192,209126,128,0,209355:0:0:0:0:
475,192,209126,128,0,209526:0:0:0:0:
182,192,209183,128,0,209469:0:0:0:0:
109,192,209240,128,0,209297:0:0:0:0:
402,192,209297,128,0,209697:0:0:0:0:
256,192,209355,128,0,209412:0:0:0:0:
109,192,209412,128,0,209869:0:0:0:0:
329,192,209469,128,0,209583:0:0:0:0:
36,192,209469,128,0,209697:0:0:0:0:
256,192,209526,128,0,209812:0:0:0:0:
182,192,209583,128,0,209640:0:0:0:0:
475,192,209640,128,0,210040:0:0:0:0:
329,192,209697,128,0,209755:0:0:0:0:
182,192,209755,128,0,210040:0:0:0:0:
402,192,209812,128,0,209926:0:0:0:0:
36,192,209812,128,0,210283:0:0:0:0:
329,192,209869,128,0,210155:0:0:0:0:
256,192,209926,128,0,209983:0:0:0:0:
109,192,209983,128,0,210240:0:0:0:0:
402,192,210040,128,0,210097:0:0:0:0:
256,192,210097,128,0,210326:0:0:0:0:
182,192,210155,128,0,210197:0:0:0:0:
475,192,210155,128,0,210283:0:0:0:0:
402,192,210197,128,0,210240:0:0:0:0:
329,192,210240,128,0,210369:0:0:0:0:
182,192,210283,128,0,210412:0:0:0:0:
109,192,210326,128,0,210369:0:0:0:0:
402,192,210326,128,0,210412:0:0:0:0:
36,192,210369,128,0,210497:0:0:0:0:
475,192,210369,128,0,210497:0:0:0:0:
256,192,210412,128,0,210497:0:0:0:0:
109,192,210455,128,0,210497:0:0:0:0:
329,192,210455,128,0,210497:0:0:0:0:
182,192,210497,1,0,0:0:0:0:
402,192,210497,1,0,0:0:0:0:
329,192,210583,1,0,0:0:0:0:
256,192,210583,1,0,0:0:0:0:
182,192,210669,1,0,0:0:0:0:
402,192,210669,1,0,0:0:0:0:
329,192,210755,1,0,0:0:0:0:
256,192,210755,1,0,0:0:0:0:
109,192,210840,1,0,0:0:0:0:
475,192,210840,1,0,0:0:0:0:
182,192,210883,1,0,0:0:0:0:
36,192,210926,1,0,0:0:0:0:
402,192,210926,1,0,0:0:0:0:
109,192,210969,1,0,0:0:0:0:
256,192,211012,1,0,0:0:0:0:
329,192,211097,1,0,0:0:0:0:
36,192,211097,1,0,0:0:0:0:
402,192,211183,1,0,0:0:0:0:
109,192,211183,1,0,0:0:0:0:
475,192,211183,1,0,0:0:0:0:
182,192,211212,1,0,0:0:0:0:
256,192,211240,1,0,0:0:0:0:
36,192,211269,1,0,0:0:0:0:
329,192,211312,1,0,0:0:0:0:
475,192,211355,1,0,0:0:0:0:
182,192,211440,1,0,0:0:0:0:
256,192,211440,1,0,0:0:0:0:
36,192,211526,1,0,0:0:0:0:
402,192,211526,1,0,0:0:0:0:
329,192,211526,1,0,0:0:0:0:
109,192,211569,1,0,0:0:0:0:
256,192,211612,1,0,0:0:0:0:
475,192,211697,1,0,0:0:0:0:
402,192,211697,1,0,0:0:0:0:
182,192,211697,1,0,0:0:0:0:
329,192,211783,1,0,0:0:0:0:
182,192,211869,1,0,0:0:0:0:
475,192,211869,128,0,212097:0:0:0:0:
256,192,211869,128,0,212040:0:0:0:0:
109,192,211869,128,0,212269:0:0:0:0:
36,192,211869,128,0,212783:0:0:0:0:
402,192,211926,128,0,211983:0:0:0:0:
329,192,211983,128,0,212155:0:0:0:0:
182,192,212040,128,0,212097:0:0:0:0:
402,192,212097,128,0,212440:0:0:0:0:
256,192,212155,128,0,212212:0:0:0:0:
475,192,212212,128,0,213126:0:0:0:0:
182,192,212212,128,0,212383:0:0:0:0:
329,192,212269,128,0,212326:0:0:0:0:
256,192,212326,128,0,212497:0:0:0:0:
109,192,212383,128,0,212440:0:0:0:0:
329,192,212440,128,0,212783:0:0:0:0:
182,192,212497,128,0,212555:0:0:0:0:
402,192,212555,128,0,212897:0:0:0:0:
109,192,212555,128,0,212726:0:0:0:0:
256,192,212612,128,0,212669:0:0:0:0:
182,192,212669,128,0,212840:0:0:0:0:
256,192,212783,128,0,212955:0:0:0:0:
109,192,212840,128,0,212897:0:0:0:0:
36,192,212897,128,0,213126:0:0:0:0:
329,192,212897,128,0,213126:0:0:0:0:
182,192,212955,128,0,213012:0:0:0:0:
402,192,213012,128,0,213126:0:0:0:0:
109,192,213012,128,0,213183:0:0:0:0:
256,192,213069,128,0,213126:0:0:0:0:
182,192,213126,128,0,213240:0:0:0:0:
329,192,213240,1,0,0:0:0:0:
36,192,213240,128,0,213469:0:0:0:0:
256,192,213240,128,0,213412:0:0:0:0:
402,192,213240,128,0,213640:0:0:0:0:
475,192,213240,128,0,214155:0:0:0:0:
109,192,213297,128,0,213355:0:0:0:0:
182,192,213355,128,0,213526:0:0:0:0:
329,192,213412,128,0,213469:0:0:0:0:
109,192,213469,128,0,213812:0:0:0:0:
256,192,213526,128,0,213583:0:0:0:0:
36,192,213583,128,0,214497:0:0:0:0:
329,192,213583,128,0,213755:0:0:0:0:
182,192,213640,128,0,213697:0:0:0:0:
256,192,213697,128,0,213869:0:0:0:0:
402,192,213755,128,0,213812:0:0:0:0:
182,192,213812,128,0,214155:0:0:0:0:
329,192,213869,128,0,213926:0:0:0:0:
109,192,213926,128,0,214269:0:0:0:0:
402,192,213926,128,0,214097:0:0:0:0:
256,192,213983,128,0,214040:0:0:0:0:
329,192,214040,128,0,214212:0:0:0:0:
256,192,214155,128,0,214326:0:0:0:0:
402,192,214212,128,0,214269:0:0:0:0:
475,192,214269,128,0,214497:0:0:0:0:
182,192,214269,128,0,214497:0:0:0:0:
329,192,214326,128,0,214383:0:0:0:0:
109,192,214383,128,0,214497:0:0:0:0:
402,192,214383,128,0,214612:0:0:0:0:
256,192,214440,128,0,214497:0:0:0:0:
329,192,214497,128,0,214555:0:0:0:0:
109,192,214612,5,0,0:0:0:0:
256,192,214612,128,0,214726:0:0:0:0:
182,192,214612,128,0,214840:0:0:0:0:
475,192,214612,128,0,214840:0:0:0:0:
36,192,214612,128,0,215012:0:0:0:0:
329,192,214669,128,0,214955:0:0:0:0:
402,192,214726,128,0,214783:0:0:0:0:
109,192,214783,128,0,215183:0:0:0:0:
256,192,214840,128,0,214897:0:0:0:0:
402,192,214897,128,0,215355:0:0:0:0:
182,192,214955,128,0,215069:0:0:0:0:
475,192,214955,128,0,215183:0:0:0:0:
256,192,215012,128,0,215297:0:0:0:0:
329,192,215069,128,0,215126:0:0:0:0:
36,192,215126,128,0,215526:0:0:0:0:
182,192,215183,128,0,215240:0:0:0:0:
329,192,215240,128,0,215526:0:0:0:0:
109,192,215297,128,0,215412:0:0:0:0:
475,192,215297,128,0,215769:0:0:0:0:
182,192,215355,128,0,215640:0:0:0:0:
256,192,215412,128,0,215469:0:0:0:0:
402,192,215469,128,0,215726:0:0:0:0:
109,192,215526,128,0,215583:0:0:0:0:
256,192,215583,128,0,215812:0:0:0:0:
329,192,215640,128,0,215683:0:0:0:0:
36,192,215640,128,0,215769:0:0:0:0:
109,192,215683,128,0,215726:0:0:0:0:
182,192,215726,128,0,215855:0:0:0:0:
329,192,215769,128,0,215897:0:0:0:0:
402,192,215812,128,0,215855:0:0:0:0:
109,192,215812,128,0,215897:0:0:0:0:
475,192,215855,128,0,215983:0:0:0:0:
36,192,215855,128,0,215983:0:0:0:0:
256,192,215897,128,0,215983:0:0:0:0:
402,192,215940,128,0,215983:0:0:0:0:
182,192,215940,128,0,215983:0:0:0:0:
329,192,215983,1,0,0:0:0:0:
109,192,215983,1,0,0:0:0:0:
182,192,216069,1,0,0:0:0:0:
256,192,216069,1,0,0:0:0:0:
329,192,216155,1,0,0:0:0:0:
109,192,216155,1,0,0:0:0:0:
182,192,216240,1,0,0:0:0:0:
256,192,216240,1,0,0:0:0:0:
402,192,216326,1,0,0:0:0:0:
36,192,216326,1,0,0:0:0:0:
329,192,216347,1,0,0:0:0:0:
475,192,216390,1,0,0:0:0:0:
402,192,216412,1,0,0:0:0:0:
109,192,216412,1,0,0:0:0:0:
182,192,216455,1,0,0:0:0:0:
256,192,216497,1,0,0:0:0:0:
36,192,216497,1,0,0:0:0:0:
329,192,216540,1,0,0:0:0:0:
475,192,216583,1,0,0:0:0:0:
182,192,216669,1,0,0:0:0:0:
109,192,216669,1,0,0:0:0:0:
402,192,216669,1,0,0:0:0:0:
329,192,216755,1,0,0:0:0:0:
256,192,216755,1,0,0:0:0:0:
36,192,216755,1,0,0:0:0:0:
182,192,216840,1,0,0:0:0:0:
36,192,216926,1,0,0:0:0:0:
329,192,216926,1,0,0:0:0:0:
182,192,217012,1,0,0:0:0:0:
402,192,217012,1,0,0:0:0:0:
256,192,217097,1,0,0:0:0:0:
109,192,217097,1,0,0:0:0:0:
475,192,217183,1,0,0:0:0:0:
329,192,217183,1,0,0:0:0:0:
402,192,217183,1,0,0:0:0:0:
182,192,217269,1,0,0:0:0:0:
402,192,217355,1,0,0:0:0:0:
475,192,217355,128,0,217583:0:0:0:0:
256,192,217355,128,0,217526:0:0:0:0:
329,192,217355,128,0,217755:0:0:0:0:
36,192,217355,128,0,218269:0:0:0:0:
109,192,217412,128,0,217469:0:0:0:0:
182,192,217469,128,0,217640:0:0:0:0:
402,192,217526,128,0,217583:0:0:0:0:
109,192,217583,128,0,217926:0:0:0:0:
256,192,217640,128,0,217697:0:0:0:0:
475,192,217697,128,0,218612:0:0:0:0:
402,192,217697,128,0,217869:0:0:0:0:
182,192,217755,128,0,217812:0:0:0:0:
256,192,217812,128,0,217983:0:0:0:0:
329,192,217869,128,0,217926:0:0:0:0:
182,192,217926,128,0,218269:0:0:0:0:
402,192,217983,128,0,218040:0:0:0:0:
109,192,218040,128,0,218383:0:0:0:0:
329,192,218040,128,0,218212:0:0:0:0:
256,192,218097,128,0,218155:0:0:0:0:
402,192,218155,128,0,218326:0:0:0:0:
256,192,218269,128,0,218440:0:0:0:0:
329,192,218326,128,0,218383:0:0:0:0:
36,192,218383,128,0,218612:0:0:0:0:
182,192,218383,128,0,218612:0:0:0:0:
402,192,218440,128,0,218497:0:0:0:0:
329,192,218497,128,0,218726:0:0:0:0:
109,192,218497,128,0,218612:0:0:0:0:
256,192,218555,128,0,218612:0:0:0:0:
402,192,218612,128,0,218669:0:0:0:0:
109,192,218726,1,0,0:0:0:0:
36,192,218726,128,0,218955:0:0:0:0:
256,192,218726,128,0,218897:0:0:0:0:
182,192,218726,128,0,219126:0:0:0:0:
475,192,218726,128,0,219640:0:0:0:0:
402,192,218783,128,0,218840:0:0:0:0:
329,192,218840,128,0,219012:0:0:0:0:
109,192,218897,128,0,218955:0:0:0:0:
402,192,218955,128,0,219297:0:0:0:0:
256,192,219012,128,0,219069:0:0:0:0:
36,192,219069,128,0,219983:0:0:0:0:
109,192,219069,128,0,219240:0:0:0:0:
329,192,219126,128,0,219183:0:0:0:0:
256,192,219183,128,0,219355:0:0:0:0:
182,192,219240,128,0,219297:0:0:0:0:
329,192,219297,128,0,219640:0:0:0:0:
109,192,219355,128,0,219412:0:0:0:0:
402,192,219412,128,0,219755:0:0:0:0:
182,192,219412,128,0,219583:0:0:0:0:
256,192,219469,128,0,219526:0:0:0:0:
109,192,219526,128,0,219697:0:0:0:0:
256,192,219640,128,0,219812:0:0:0:0:
182,192,219697,128,0,219755:0:0:0:0:
475,192,219755,128,0,219983:0:0:0:0:
329,192,219755,128,0,219983:0:0:0:0:
109,192,219812,128,0,219869:0:0:0:0:
402,192,219869,128,0,219983:0:0:0:0:
182,192,219869,128,0,219983:0:0:0:0:
256,192,219926,128,0,219983:0:0:0:0:
109,192,219983,1,0,0:0:0:0:
36,192,220097,128,0,220183:0:0:0:0:
475,192,220097,1,0,0:0:0:0:
402,192,220119,1,0,0:0:0:0:
109,192,220140,128,0,220226:0:0:0:0:
329,192,220162,1,0,0:0:0:0:
182,192,220183,128,0,220269:0:0:0:0:
256,192,220226,128,0,220397:0:0:0:0:
329,192,220269,128,0,220355:0:0:0:0:
402,192,220312,128,0,220397:0:0:0:0:
182,192,220355,128,0,220440:0:0:0:0:
475,192,220355,128,0,220526:0:0:0:0:
109,192,220397,128,0,220483:0:0:0:0:
36,192,220440,128,0,220612:0:0:0:0:
402,192,220483,128,0,220569:0:0:0:0:
329,192,220526,128,0,220612:0:0:0:0:
109,192,220569,128,0,220655:0:0:0:0:
256,192,220569,128,0,220740:0:0:0:0:
182,192,220612,128,0,220697:0:0:0:0:
329,192,220697,128,0,220783:0:0:0:0:
402,192,220740,128,0,220912:0:0:0:0:
475,192,220783,128,0,220869:0:0:0:0:
36,192,220783,1,0,0:0:0:0:
109,192,220805,1,0,0:0:0:0:
182,192,220847,1,0,0:0:0:0:
329,192,220869,128,0,220955:0:0:0:0:
256,192,220912,128,0,221083:0:0:0:0:
182,192,220955,128,0,221040:0:0:0:0:
109,192,220997,128,0,221083:0:0:0:0:
329,192,221040,128,0,221126:0:0:0:0:
36,192,221040,128,0,221212:0:0:0:0:
402,192,221083,128,0,221169:0:0:0:0:
475,192,221126,128,0,221297:0:0:0:0:
109,192,221169,128,0,221255:0:0:0:0:
182,192,221212,128,0,221297:0:0:0:0:
256,192,221255,128,0,221426:0:0:0:0:
402,192,221255,128,0,221340:0:0:0:0:
329,192,221297,128,0,221383:0:0:0:0:
182,192,221383,128,0,221469:0:0:0:0:
109,192,221426,128,0,221469:0:0:0:0:
36,192,221469,1,0,0:0:0:0:
475,192,221469,1,0,0:0:0:0:
402,192,221469,1,0,0:0:0:0:
109,192,221555,1,0,0:0:0:0:
256,192,221555,1,0,0:0:0:0:
475,192,221640,1,0,0:0:0:0:
402,192,221640,1,0,0:0:0:0:
109,192,221726,1,0,0:0:0:0:
256,192,221726,1,0,0:0:0:0:
329,192,221812,1,0,0:0:0:0:
36,192,221812,1,0,0:0:0:0:
475,192,221855,1,0,0:0:0:0:
182,192,221897,1,0,0:0:0:0:
402,192,221897,1,0,0:0:0:0:
329,192,221940,1,0,0:0:0:0:
256,192,221983,1,0,0:0:0:0:
109,192,221983,1,0,0:0:0:0:
36,192,221983,1,0,0:0:0:0:
329,192,222069,1,0,0:0:0:0:
402,192,222155,1,0,0:0:0:0:
109,192,222155,1,0,0:0:0:0:
475,192,222155,1,0,0:0:0:0:
182,192,222183,1,0,0:0:0:0:
256,192,222212,1,0,0:0:0:0:
36,192,222240,1,0,0:0:0:0:
329,192,222283,1,0,0:0:0:0:
475,192,222326,1,0,0:0:0:0:
182,192,222412,1,0,0:0:0:0:
256,192,222412,1,0,0:0:0:0:
36,192,222497,1,0,0:0:0:0:
402,192,222497,1,0,0:0:0:0:
329,192,222497,1,0,0:0:0:0:
109,192,222583,1,0,0:0:0:0:
256,192,222583,1,0,0:0:0:0:
475,192,222669,1,0,0:0:0:0:
402,192,222669,1,0,0:0:0:0:
182,192,222669,1,0,0:0:0:0:
329,192,222755,1,0,0:0:0:0:
109,192,222840,1,0,0:0:0:0:
475,192,222840,128,0,223069:0:0:0:0:
256,192,222840,128,0,223012:0:0:0:0:
182,192,222840,128,0,223240:0:0:0:0:
36,192,222840,128,0,223755:0:0:0:0:
329,192,222897,128,0,222955:0:0:0:0:
402,192,222955,128,0,223126:0:0:0:0:
109,192,223012,128,0,223069:0:0:0:0:
329,192,223069,128,0,223412:0:0:0:0:
256,192,223126,128,0,223183:0:0:0:0:
475,192,223183,128,0,224097:0:0:0:0:
109,192,223183,128,0,223355:0:0:0:0:
402,192,223240,128,0,223297:0:0:0:0:
256,192,223297,128,0,223469:0:0:0:0:
182,192,223355,128,0,223412:0:0:0:0:
402,192,223412,128,0,223755:0:0:0:0:
109,192,223469,128,0,223526:0:0:0:0:
329,192,223526,128,0,223869:0:0:0:0:
182,192,223526,128,0,223697:0:0:0:0:
256,192,223583,128,0,223640:0:0:0:0:
109,192,223640,128,0,223812:0:0:0:0:
256,192,223755,128,0,223926:0:0:0:0:
182,192,223812,128,0,223869:0:0:0:0:
402,192,223869,128,0,224097:0:0:0:0:
36,192,223869,128,0,224097:0:0:0:0:
109,192,223926,128,0,223983:0:0:0:0:
329,192,223983,128,0,224097:0:0:0:0:
182,192,223983,128,0,224155:0:0:0:0:
256,192,224040,128,0,224097:0:0:0:0:
109,192,224097,128,0,224212:0:0:0:0:
402,192,224212,1,0,0:0:0:0:
256,192,224212,128,0,224383:0:0:0:0:
329,192,224212,128,0,224612:0:0:0:0:
475,192,224212,128,0,225126:0:0:0:0:
36,192,224212,128,0,224440:0:0:0:0:
182,192,224269,128,0,224326:0:0:0:0:
109,192,224326,128,0,224497:0:0:0:0:
402,192,224383,128,0,224440:0:0:0:0:
182,192,224440,128,0,224783:0:0:0:0:
256,192,224497,128,0,224555:0:0:0:0:
36,192,224555,128,0,225469:0:0:0:0:
402,192,224555,128,0,224726:0:0:0:0:
109,192,224612,128,0,224669:0:0:0:0:
256,192,224669,128,0,224840:0:0:0:0:
329,192,224726,128,0,224783:0:0:0:0:
109,192,224783,128,0,225126:0:0:0:0:
402,192,224840,128,0,224897:0:0:0:0:
182,192,224897,128,0,225240:0:0:0:0:
329,192,224897,128,0,225069:0:0:0:0:
256,192,224955,128,0,225012:0:0:0:0:
402,192,225012,128,0,225183:0:0:0:0:
256,192,225126,128,0,225297:0:0:0:0:
329,192,225183,128,0,225240:0:0:0:0:
475,192,225240,128,0,225469:0:0:0:0:
109,192,225240,128,0,225469:0:0:0:0:
402,192,225297,128,0,225355:0:0:0:0:
182,192,225355,128,0,225469:0:0:0:0:
329,192,225355,128,0,225469:0:0:0:0:
256,192,225412,128,0,225469:0:0:0:0:
402,192,225469,1,0,0:0:0:0:
475,192,225583,128,0,225669:0:0:0:0:
36,192,225583,1,0,0:0:0:0:
109,192,225605,1,0,0:0:0:0:
402,192,225626,128,0,225712:0:0:0:0:
182,192,225647,1,0,0:0:0:0:
329,192,225669,128,0,225755:0:0:0:0:
256,192,225712,128,0,225883:0:0:0:0:
182,192,225755,128,0,225840:0:0:0:0:
109,192,225797,128,0,225883:0:0:0:0:
329,192,225840,128,0,225926:0:0:0:0:
36,192,225840,128,0,226012:0:0:0:0:
402,192,225883,128,0,225969:0:0:0:0:
475,192,225926,128,0,226097:0:0:0:0:
109,192,225969,128,0,226055:0:0:0:0:
182,192,226012,128,0,226097:0:0:0:0:
402,192,226055,128,0,226140:0:0:0:0:
256,192,226055,128,0,226226:0:0:0:0:
329,192,226097,128,0,226183:0:0:0:0:
182,192,226183,128,0,226269:0:0:0:0:
109,192,226226,128,0,226397:0:0:0:0:
36,192,226269,128,0,226355:0:0:0:0:
475,192,226269,1,0,0:0:0:0:
402,192,226290,1,0,0:0:0:0:
329,192,226333,1,0,0:0:0:0:
182,192,226355,128,0,226440:0:0:0:0:
256,192,226397,128,0,226569:0:0:0:0:
329,192,226440,128,0,226526:0:0:0:0:
402,192,226483,128,0,226569:0:0:0:0:
182,192,226526,128,0,226612:0:0:0:0:
475,192,226526,128,0,226697:0:0:0:0:
109,192,226569,128,0,226655:0:0:0:0:
36,192,226612,128,0,226783:0:0:0:0:
402,192,226655,128,0,226740:0:0:0:0:
329,192,226697,128,0,226783:0:0:0:0:
256,192,226740,128,0,226912:0:0:0:0:
109,192,226740,128,0,226826:0:0:0:0:
182,192,226783,128,0,226869:0:0:0:0:
329,192,226869,128,0,226955:0:0:0:0:
402,192,226912,128,0,226955:0:0:0:0:
475,192,226955,1,0,0:0:0:0:
36,192,226955,1,0,0:0:0:0:
109,192,226955,1,0,0:0:0:0:
402,192,227040,1,0,0:0:0:0:
256,192,227040,1,0,0:0:0:0:
36,192,227126,1,0,0:0:0:0:
109,192,227126,1,0,0:0:0:0:
402,192,227212,1,0,0:0:0:0:
256,192,227212,1,0,0:0:0:0:
182,192,227297,1,0,0:0:0:0:
475,192,227297,1,0,0:0:0:0:
36,192,227340,1,0,0:0:0:0:
109,192,227383,1,0,0:0:0:0:
329,192,227383,1,0,0:0:0:0:
182,192,227426,1,0,0:0:0:0:
256,192,227469,1,0,0:0:0:0:
475,192,227469,1,0,0:0:0:0:
402,192,227469,1,0,0:0:0:0:
182,192,227555,1,0,0:0:0:0:
402,192,227640,1,0,0:0:0:0:
36,192,227640,1,0,0:0:0:0:
109,192,227640,1,0,0:0:0:0:
329,192,227726,1,0,0:0:0:0:
256,192,227726,1,0,0:0:0:0:
475,192,227812,1,0,0:0:0:0:
182,192,227812,1,0,0:0:0:0:
329,192,227897,1,0,0:0:0:0:
109,192,227897,1,0,0:0:0:0:
36,192,227983,1,0,0:0:0:0:
182,192,227983,1,0,0:0:0:0:
402,192,227983,1,0,0:0:0:0:
256,192,228069,1,0,0:0:0:0:
402,192,228069,1,0,0:0:0:0:
329,192,228155,1,0,0:0:0:0:
109,192,228155,1,0,0:0:0:0:
475,192,228155,1,0,0:0:0:0:
182,192,228240,1,0,0:0:0:0:
36,192,228326,128,0,228555:0:0:0:0:
256,192,228326,128,0,228440:0:0:0:0:
475,192,228326,128,0,228726:0:0:0:0:
402,192,228326,128,0,228555:0:0:0:0:
329,192,228326,1,0,0:0:0:0:
182,192,228383,128,0,228669:0:0:0:0:
109,192,228440,128,0,228497:0:0:0:0:
329,192,228497,128,0,228897:0:0:0:0:
256,192,228555,128,0,228612:0:0:0:0:
109,192,228612,128,0,229069:0:0:0:0:
402,192,228669,128,0,228783:0:0:0:0:
36,192,228669,128,0,228897:0:0:0:0:
256,192,228726,128,0,229012:0:0:0:0:
182,192,228783,128,0,228840:0:0:0:0:
475,192,228840,128,0,229240:0:0:0:0:
402,192,228897,128,0,228955:0:0:0:0:
182,192,228955,128,0,229240:0:0:0:0:
329,192,229012,128,0,229126:0:0:0:0:
36,192,229012,128,0,229583:0:0:0:0:
402,192,229069,128,0,229297:0:0:0:0:
256,192,229126,128,0,229183:0:0:0:0:
109,192,229183,128,0,229412:0:0:0:0:
329,192,229240,128,0,229355:0:0:0:0:
256,192,229297,128,0,229583:0:0:0:0:
182,192,229355,128,0,229583:0:0:0:0:
475,192,229355,128,0,229583:0:0:0:0:
402,192,229412,128,0,229469:0:0:0:0:
329,192,229469,128,0,229583:0:0:0:0:
109,192,229526,128,0,229583:0:0:0:0:
402,192,229583,1,0,0:0:0:0:
256,192,229697,128,0,229812:0:0:0:0:
36,192,229697,128,0,230097:0:0:0:0:
109,192,229697,128,0,229926:0:0:0:0:
182,192,229697,1,0,0:0:0:0:
475,192,229697,128,0,229926:0:0:0:0:
329,192,229755,128,0,230040:0:0:0:0:
402,192,229812,128,0,229869:0:0:0:0:
182,192,229869,128,0,230269:0:0:0:0:
256,192,229926,128,0,229983:0:0:0:0:
402,192,229983,128,0,230440:0:0:0:0:
109,192,230040,128,0,230155:0:0:0:0:
475,192,230040,128,0,230269:0:0:0:0:
256,192,230097,128,0,230383:0:0:0:0:
329,192,230155,128,0,230212:0:0:0:0:
36,192,230212,128,0,230612:0:0:0:0:
109,192,230269,128,0,230326:0:0:0:0:
329,192,230326,128,0,230612:0:0:0:0:
182,192,230383,128,0,230497:0:0:0:0:
475,192,230383,128,0,230955:0:0:0:0:
109,192,230440,128,0,230669:0:0:0:0:
256,192,230497,128,0,230555:0:0:0:0:
402,192,230555,128,0,230783:0:0:0:0:
182,192,230612,128,0,230726:0:0:0:0:
256,192,230669,128,0,230955:0:0:0:0:
329,192,230726,128,0,230955:0:0:0:0:
36,192,230726,128,0,230955:0:0:0:0:
109,192,230783,128,0,230840:0:0:0:0:
182,192,230840,128,0,230955:0:0:0:0:
402,192,230897,128,0,230955:0:0:0:0:
109,192,230955,1,0,0:0:0:0:
329,192,231069,128,0,231240:0:0:0:0:
256,192,231069,1,0,0:0:0:0:
402,192,231069,128,0,231155:0:0:0:0:
36,192,231069,128,0,231326:0:0:0:0:
475,192,231069,1,0,0:0:0:0:
182,192,231155,1,0,0:0:0:0:
109,192,231155,128,0,231240:0:0:0:0:
256,192,231240,128,0,231326:0:0:0:0:
402,192,231240,1,0,0:0:0:0:
182,192,231326,1,0,0:0:0:0:
329,192,231326,128,0,231412:0:0:0:0:
36,192,231412,1,0,0:0:0:0:
475,192,231412,128,0,231669:0:0:0:0:
256,192,231412,1,0,0:0:0:0:
109,192,231412,128,0,231497:0:0:0:0:
402,192,231412,128,0,231497:0:0:0:0:
329,192,231497,1,0,0:0:0:0:
182,192,231497,128,0,231583:0:0:0:0:
109,192,231583,1,0,0:0:0:0:
256,192,231583,128,0,231669:0:0:0:0:
329,192,231669,128,0,231755:0:0:0:0:
402,192,231669,1,0,0:0:0:0:
256,192,231755,1,0,0:0:0:0:
475,192,231755,128,0,232012:0:0:0:0:
182,192,231755,128,0,231926:0:0:0:0:
36,192,231755,1,0,0:0:0:0:
109,192,231755,128,0,231840:0:0:0:0:
329,192,231840,1,0,0:0:0:0:
402,192,231840,128,0,231926:0:0:0:0:
256,192,231926,128,0,232012:0:0:0:0:
109,192,231926,1,0,0:0:0:0:
329,192,232012,1,0,0:0:0:0:
182,192,232012,128,0,232097:0:0:0:0:
475,192,232097,1,0,0:0:0:0:
256,192,232097,1,0,0:0:0:0:
36,192,232097,128,0,232355:0:0:0:0:
402,192,232097,128,0,232183:0:0:0:0:
109,192,232097,128,0,232183:0:0:0:0:
182,192,232183,1,0,0:0:0:0:
329,192,232183,128,0,232269:0:0:0:0:
402,192,232269,1,0,0:0:0:0:
256,192,232269,128,0,232355:0:0:0:0:
109,192,232355,1,0,0:0:0:0:
182,192,232355,128,0,232440:0:0:0:0:
256,192,232440,1,0,0:0:0:0:
475,192,232440,1,0,0:0:0:0:
402,192,232440,128,0,232697:0:0:0:0:
36,192,232440,128,0,232697:0:0:0:0:
329,192,232440,128,0,232526:0:0:0:0:
182,192,232526,1,0,0:0:0:0:
109,192,232526,128,0,232612:0:0:0:0:
329,192,232612,1,0,0:0:0:0:
256,192,232612,128,0,232697:0:0:0:0:
182,192,232697,1,0,0:0:0:0:
475,192,232697,128,0,232783:0:0:0:0:
256,192,232783,1,0,0:0:0:0:
36,192,232783,128,0,233040:0:0:0:0:
402,192,232783,128,0,232955:0:0:0:0:
109,192,232783,128,0,232869:0:0:0:0:
329,192,232783,128,0,232869:0:0:0:0:
182,192,232869,128,0,232955:0:0:0:0:
475,192,232869,1,0,0:0:0:0:
109,192,232955,1,0,0:0:0:0:
256,192,232955,128,0,233040:0:0:0:0:
402,192,233040,1,0,0:0:0:0:
329,192,233040,128,0,233126:0:0:0:0:
256,192,233126,1,0,0:0:0:0:
36,192,233126,1,0,0:0:0:0:
109,192,233126,128,0,233383:0:0:0:0:
475,192,233126,128,0,233383:0:0:0:0:
182,192,233126,128,0,233212:0:0:0:0:
329,192,233212,1,0,0:0:0:0:
402,192,233212,128,0,233297:0:0:0:0:
182,192,233297,1,0,0:0:0:0:
256,192,233297,128,0,233383:0:0:0:0:
329,192,233383,1,0,0:0:0:0:
36,192,233383,128,0,233469:0:0:0:0:
256,192,233469,1,0,0:0:0:0:
109,192,233469,128,0,233640:0:0:0:0:
182,192,233469,128,0,233555:0:0:0:0:
402,192,233469,128,0,233555:0:0:0:0:
475,192,233469,128,0,233726:0:0:0:0:
329,192,233555,128,0,233640:0:0:0:0:
36,192,233555,1,0,0:0:0:0:
402,192,233640,1,0,0:0:0:0:
256,192,233640,128,0,233726:0:0:0:0:
109,192,233726,1,0,0:0:0:0:
182,192,233726,128,0,233812:0:0:0:0:
402,192,233812,128,0,233983:0:0:0:0:
256,192,233812,1,0,0:0:0:0:
329,192,233812,128,0,233897:0:0:0:0:
36,192,233812,128,0,234069:0:0:0:0:
475,192,233812,128,0,234069:0:0:0:0:
109,192,233897,1,0,0:0:0:0:
182,192,233897,128,0,233983:0:0:0:0:
256,192,233983,128,0,234069:0:0:0:0:
329,192,233983,1,0,0:0:0:0:
109,192,234069,1,0,0:0:0:0:
402,192,234069,128,0,234155:0:0:0:0:
475,192,234155,128,0,234412:0:0:0:0:
256,192,234155,1,0,0:0:0:0:
182,192,234155,128,0,234240:0:0:0:0:
329,192,234155,128,0,234326:0:0:0:0:
36,192,234155,128,0,234412:0:0:0:0:
402,192,234240,1,0,0:0:0:0:
109,192,234240,128,0,234326:0:0:0:0:
182,192,234326,1,0,0:0:0:0:
256,192,234326,128,0,234412:0:0:0:0:
402,192,234412,128,0,234497:0:0:0:0:
329,192,234412,1,0,0:0:0:0:
256,192,234497,1,0,0:0:0:0:
475,192,234497,128,0,234755:0:0:0:0:
109,192,234497,128,0,234669:0:0:0:0:
182,192,234497,128,0,234583:0:0:0:0:
36,192,234497,128,0,234755:0:0:0:0:
402,192,234583,1,0,0:0:0:0:
329,192,234583,128,0,234669:0:0:0:0:
256,192,234669,128,0,234755:0:0:0:0:
182,192,234669,1,0,0:0:0:0:
402,192,234755,1,0,0:0:0:0:
109,192,234755,128,0,234840:0:0:0:0:
256,192,234840,1,0,0:0:0:0:
36,192,234840,128,0,235097:0:0:0:0:
329,192,234840,128,0,234926:0:0:0:0:
182,192,234840,128,0,235012:0:0:0:0:
475,192,234840,128,0,235097:0:0:0:0:
109,192,234926,1,0,0:0:0:0:
402,192,234926,128,0,235012:0:0:0:0:
329,192,235012,1,0,0:0:0:0:
256,192,235012,128,0,235097:0:0:0:0:
182,192,235097,1,0,0:0:0:0:
109,192,235097,128,0,235183:0:0:0:0:
256,192,235183,1,0,0:0:0:0:
329,192,235183,128,0,235440:0:0:0:0:
36,192,235183,128,0,235440:0:0:0:0:
475,192,235183,128,0,235355:0:0:0:0:
402,192,235183,128,0,235269:0:0:0:0:
182,192,235269,128,0,235440:0:0:0:0:
109,192,235269,1,0,0:0:0:0:
256,192,235355,128,0,235440:0:0:0:0:
402,192,235355,1,0,0:0:0:0:
475,192,235440,1,0,0:0:0:0:
109,192,235440,1,0,0:0:0:0:
256,192,235526,1,0,0:0:0:0:
36,192,235526,128,0,235783:0:0:0:0:
329,192,235526,128,0,235697:0:0:0:0:
182,192,235526,128,0,235612:0:0:0:0:
402,192,235526,128,0,235612:0:0:0:0:
475,192,235612,128,0,235783:0:0:0:0:
109,192,235612,128,0,235697:0:0:0:0:
182,192,235697,1,0,0:0:0:0:
256,192,235697,128,0,235783:0:0:0:0:
329,192,235783,1,0,0:0:0:0:
402,192,235783,128,0,235869:0:0:0:0:
256,192,235869,1,0,0:0:0:0:
182,192,235869,128,0,236126:0:0:0:0:
475,192,235869,128,0,236126:0:0:0:0:
109,192,235869,128,0,235955:0:0:0:0:
36,192,235869,128,0,236040:0:0:0:0:
402,192,235955,1,0,0:0:0:0:
329,192,235955,128,0,236126:0:0:0:0:
109,192,236040,1,0,0:0:0:0:
256,192,236040,128,0,236126:0:0:0:0:
402,192,236126,1,0,0:0:0:0:
36,192,236126,1,0,0:0:0:0:
475,192,236212,1,0,0:0:0:0:
182,192,236212,1,0,0:0:0:0:
329,192,236255,128,0,236297:0:0:0:0:
109,192,236297,128,0,236340:0:0:0:0:
256,192,236340,128,0,236383:0:0:0:0:
402,192,236383,128,0,236426:0:0:0:0:
182,192,236426,128,0,236469:0:0:0:0:
329,192,236469,1,0,0:0:0:0:
475,192,236555,128,0,236812:0:0:0:0:
402,192,236555,1,0,0:0:0:0:
182,192,236555,1,0,0:0:0:0:
256,192,236555,128,0,236640:0:0:0:0:
36,192,236555,128,0,236640:0:0:0:0:
109,192,236555,128,0,236897:0:0:0:0:
329,192,236640,128,0,236726:0:0:0:0:
402,192,236726,128,0,236983:0:0:0:0:
256,192,236726,128,0,236812:0:0:0:0:
36,192,236726,1,0,0:0:0:0:
182,192,236812,128,0,237069:0:0:0:0:
329,192,236897,128,0,237155:0:0:0:0:
256,192,236897,1,0,0:0:0:0:
475,192,236897,1,0,0:0:0:0:
109,192,236983,1,0,0:0:0:0:
36,192,236983,128,0,237069:0:0:0:0:
256,192,237069,128,0,237155:0:0:0:0:
475,192,237069,128,0,237326:0:0:0:0:
402,192,237069,1,0,0:0:0:0:
109,192,237155,128,0,237240:0:0:0:0:
182,192,237155,1,0,0:0:0:0:
402,192,237240,128,0,237497:0:0:0:0:
36,192,237240,128,0,237497:0:0:0:0:
256,192,237240,128,0,237326:0:0:0:0:
329,192,237240,1,0,0:0:0:0:
182,192,237326,128,0,237412:0:0:0:0:
109,192,237412,128,0,237669:0:0:0:0:
475,192,237412,128,0,237669:0:0:0:0:
256,192,237412,128,0,237497:0:0:0:0:
329,192,237497,128,0,237583:0:0:0:0:
182,192,237583,128,0,237840:0:0:0:0:
256,192,237583,1,0,0:0:0:0:
36,192,237583,1,0,0:0:0:0:
329,192,237669,128,0,237755:0:0:0:0:
402,192,237669,1,0,0:0:0:0:
475,192,237755,1,0,0:0:0:0:
256,192,237755,128,0,237840:0:0:0:0:
36,192,237755,128,0,238012:0:0:0:0:
109,192,237755,1,0,0:0:0:0:
329,192,237840,1,0,0:0:0:0:
402,192,237840,128,0,237926:0:0:0:0:
475,192,237926,128,0,238183:0:0:0:0:
256,192,237926,128,0,238012:0:0:0:0:
182,192,237926,1,0,0:0:0:0:
109,192,237926,128,0,238269:0:0:0:0:
329,192,238012,128,0,238097:0:0:0:0:
402,192,238097,128,0,238355:0:0:0:0:
256,192,238097,128,0,238183:0:0:0:0:
36,192,238097,1,0,0:0:0:0:
182,192,238183,128,0,238440:0:0:0:0:
329,192,238269,128,0,238526:0:0:0:0:
475,192,238269,1,0,0:0:0:0:
256,192,238269,1,0,0:0:0:0:
109,192,238355,1,0,0:0:0:0:
36,192,238355,128,0,238440:0:0:0:0:
475,192,238440,128,0,238697:0:0:0:0:
256,192,238440,128,0,238526:0:0:0:0:
402,192,238440,1,0,0:0:0:0:
109,192,238526,128,0,238612:0:0:0:0:
182,192,238526,1,0,0:0:0:0:
402,192,238612,128,0,238869:0:0:0:0:
36,192,238612,128,0,238869:0:0:0:0:
256,192,238612,128,0,238697:0:0:0:0:
329,192,238612,1,0,0:0:0:0:
182,192,238697,128,0,238783:0:0:0:0:
475,192,238783,128,0,239040:0:0:0:0:
109,192,238783,128,0,239040:0:0:0:0:
256,192,238783,128,0,238869:0:0:0:0:
329,192,238869,128,0,238955:0:0:0:0:
182,192,238955,128,0,239212:0:0:0:0:
36,192,238955,1,0,0:0:0:0:
256,192,238955,1,0,0:0:0:0:
402,192,239040,128,0,239126:0:0:0:0:
329,192,239040,1,0,0:0:0:0:
475,192,239126,1,0,0:0:0:0:
36,192,239126,128,0,239212:0:0:0:0:
256,192,239126,128,0,239212:0:0:0:0:
109,192,239126,1,0,0:0:0:0:
402,192,239212,1,0,0:0:0:0:
329,192,239212,128,0,239297:0:0:0:0:
475,192,239297,128,0,239555:0:0:0:0:
182,192,239297,1,0,0:0:0:0:
109,192,239297,128,0,239383:0:0:0:0:
256,192,239297,128,0,239383:0:0:0:0:
36,192,239383,128,0,239640:0:0:0:0:
402,192,239383,128,0,239469:0:0:0:0:
329,192,239383,1,0,0:0:0:0:
109,192,239469,1,0,0:0:0:0:
182,192,239469,128,0,239726:0:0:0:0:
256,192,239469,128,0,239555:0:0:0:0:
329,192,239555,128,0,239812:0:0:0:0:
402,192,239555,1,0,0:0:0:0:
109,192,239640,128,0,239897:0:0:0:0:
256,192,239640,1,0,0:0:0:0:
475,192,239640,128,0,239726:0:0:0:0:
402,192,239726,128,0,239983:0:0:0:0:
36,192,239726,1,0,0:0:0:0:
256,192,239812,128,0,240069:0:0:0:0:
475,192,239812,1,0,0:0:0:0:
182,192,239812,1,0,0:0:0:0:
329,192,239897,1,0,0:0:0:0:
36,192,239897,128,0,239983:0:0:0:0:
182,192,239983,128,0,240240:0:0:0:0:
475,192,239983,128,0,240069:0:0:0:0:
109,192,239983,1,0,0:0:0:0:
329,192,240069,128,0,240326:0:0:0:0:
36,192,240069,1,0,0:0:0:0:
402,192,240069,128,0,240155:0:0:0:0:
256,192,240155,1,0,0:0:0:0:
109,192,240155,128,0,240240:0:0:0:0:
475,192,240155,128,0,240412:0:0:0:0:
402,192,240240,1,0,0:0:0:0:
36,192,240240,128,0,240412:0:0:0:0:
182,192,240326,1,0,0:0:0:0:
256,192,240326,128,0,240412:0:0:0:0:
109,192,240326,128,0,240583:0:0:0:0:
329,192,240412,1,0,0:0:0:0:
402,192,240412,128,0,240669:0:0:0:0:
182,192,240497,128,0,240669:0:0:0:0:
475,192,240497,1,0,0:0:0:0:
36,192,240497,1,0,0:0:0:0:
256,192,240497,1,0,0:0:0:0:
329,192,240583,128,0,240669:0:0:0:0:
475,192,240669,1,0,0:0:0:0:
36,192,240669,1,0,0:0:0:0:
109,192,240669,1,0,0:0:0:0:
256,192,240669,1,0,0:0:0:0:
182,192,240755,1,0,0:0:0:0:
329,192,240840,1,0,0:0:0:0:
109,192,240926,1,0,0:0:0:0:
402,192,241012,1,0,0:0:0:0:
256,192,241012,1,0,0:0:0:0:
475,192,241012,1,0,0:0:0:0:
182,192,241097,1,0,0:0:0:0:
329,192,241183,1,0,0:0:0:0:
36,192,241183,1,0,0:0:0:0:
475,192,241269,1,0,0:0:0:0:
256,192,241269,1,0,0:0:0:0:
109,192,241355,1,0,0:0:0:0:
182,192,241355,1,0,0:0:0:0:
402,192,241440,1,0,0:0:0:0:
329,192,241440,1,0,0:0:0:0:
182,192,241526,1,0,0:0:0:0:
36,192,241526,1,0,0:0:0:0:
329,192,241612,1,0,0:0:0:0:
475,192,241612,1,0,0:0:0:0:
109,192,241697,1,0,0:0:0:0:
256,192,241697,1,0,0:0:0:0:
402,192,241697,1,0,0:0:0:0:
329,192,242040,5,0,0:0:0:0:
475,192,242040,128,0,242212:0:0:0:0:
182,192,242040,128,0,242126:0:0:0:0:
36,192,242040,128,0,242212:0:0:0:0:
109,192,242126,128,0,242383:0:0:0:0:
402,192,242126,128,0,242297:0:0:0:0:
256,192,242126,128,0,242212:0:0:0:0:
182,192,242212,1,0,0:0:0:0:
329,192,242212,128,0,242383:0:0:0:0:
256,192,242297,128,0,242640:0:0:0:0:
475,192,242297,128,0,242469:0:0:0:0:
402,192,242383,1,0,0:0:0:0:
182,192,242383,128,0,242469:0:0:0:0:
36,192,242383,128,0,242555:0:0:0:0:
109,192,242469,1,0,0:0:0:0:
329,192,242469,128,0,242555:0:0:0:0:
475,192,242555,1,0,0:0:0:0:
402,192,242555,128,0,242726:0:0:0:0:
182,192,242555,128,0,242640:0:0:0:0:
109,192,242640,128,0,242812:0:0:0:0:
329,192,242640,1,0,0:0:0:0:
36,192,242640,128,0,242983:0:0:0:0:
182,192,242726,1,0,0:0:0:0:
475,192,242726,128,0,243069:0:0:0:0:
256,192,242726,128,0,242983:0:0:0:0:
402,192,242812,1,0,0:0:0:0:
329,192,242812,128,0,242897:0:0:0:0:
109,192,242897,1,0,0:0:0:0:
182,192,242897,128,0,243155:0:0:0:0:
402,192,242983,128,0,243240:0:0:0:0:
329,192,242983,1,0,0:0:0:0:
36,192,243069,1,0,0:0:0:0:
109,192,243069,128,0,243326:0:0:0:0:
256,192,243069,1,0,0:0:0:0:
475,192,243155,1,0,0:0:0:0:
329,192,243155,128,0,243240:0:0:0:0:
182,192,243240,1,0,0:0:0:0:
36,192,243240,128,0,243326:0:0:0:0:
402,192,243326,1,0,0:0:0:0:
256,192,243326,1,0,0:0:0:0:
475,192,243412,128,0,243583:0:0:0:0:
36,192,243412,128,0,243583:0:0:0:0:
329,192,243412,128,0,243497:0:0:0:0:
182,192,243412,1,0,0:0:0:0:
402,192,243497,128,0,243755:0:0:0:0:
109,192,243497,128,0,243669:0:0:0:0:
256,192,243497,128,0,243583:0:0:0:0:
329,192,243583,1,0,0:0:0:0:
182,192,243583,128,0,243755:0:0:0:0:
256,192,243669,128,0,244012:0:0:0:0:
36,192,243669,128,0,243840:0:0:0:0:
109,192,243755,1,0,0:0:0:0:
329,192,243755,128,0,243840:0:0:0:0:
475,192,243755,128,0,243926:0:0:0:0:
402,192,243840,1,0,0:0:0:0:
182,192,243840,128,0,243926:0:0:0:0:
36,192,243926,1,0,0:0:0:0:
109,192,243926,128,0,244097:0:0:0:0:
329,192,243926,128,0,244012:0:0:0:0:
402,192,244012,128,0,244183:0:0:0:0:
182,192,244012,1,0,0:0:0:0:
475,192,244012,128,0,244355:0:0:0:0:
329,192,244097,1,0,0:0:0:0:
36,192,244097,128,0,244440:0:0:0:0:
256,192,244097,128,0,244355:0:0:0:0:
109,192,244183,1,0,0:0:0:0:
182,192,244183,128,0,244269:0:0:0:0:
402,192,244269,1,0,0:0:0:0:
329,192,244269,128,0,244526:0:0:0:0:
109,192,244355,128,0,244612:0:0:0:0:
182,192,244355,1,0,0:0:0:0:
475,192,244440,1,0,0:0:0:0:
402,192,244440,128,0,244697:0:0:0:0:
256,192,244440,1,0,0:0:0:0:
36,192,244526,1,0,0:0:0:0:
182,192,244526,128,0,244612:0:0:0:0:
329,192,244612,1,0,0:0:0:0:
475,192,244612,128,0,244697:0:0:0:0:
109,192,244697,1,0,0:0:0:0:
182,192,244697,1,0,0:0:0:0:
329,192,244783,1,0,0:0:0:0:
475,192,244783,128,0,245983:0:0:0:0:
36,192,244783,128,0,244955:0:0:0:0:
402,192,244783,128,0,244869:0:0:0:0:
256,192,244783,128,0,245040:0:0:0:0:
109,192,244869,1,0,0:0:0:0:
182,192,244869,128,0,244955:0:0:0:0:
329,192,244955,128,0,245126:0:0:0:0:
402,192,245040,128,0,245126:0:0:0:0:
36,192,245040,1,0,0:0:0:0:
109,192,245040,128,0,245212:0:0:0:0:
182,192,245126,1,0,0:0:0:0:
256,192,245126,128,0,245297:0:0:0:0:
329,192,245212,1,0,0:0:0:0:
36,192,245212,128,0,245383:0:0:0:0:
109,192,245297,1,0,0:0:0:0:
402,192,245297,128,0,245383:0:0:0:0:
182,192,245297,128,0,245469:0:0:0:0:
329,192,245383,128,0,245469:0:0:0:0:
256,192,245469,128,0,245726:0:0:0:0:
109,192,245469,1,0,0:0:0:0:
36,192,245469,128,0,245640:0:0:0:0:
402,192,245469,1,0,0:0:0:0:
182,192,245555,1,0,0:0:0:0:
329,192,245555,128,0,245640:0:0:0:0:
109,192,245640,128,0,245726:0:0:0:0:
402,192,245640,128,0,245897:0:0:0:0:
329,192,245726,1,0,0:0:0:0:
182,192,245726,128,0,245983:0:0:0:0:
36,192,245726,1,0,0:0:0:0:
256,192,245812,1,0,0:0:0:0:
109,192,245812,128,0,245897:0:0:0:0:
329,192,245897,128,0,246155:0:0:0:0:
36,192,245897,1,0,0:0:0:0:
256,192,245983,128,0,246069:0:0:0:0:
109,192,245983,1,0,0:0:0:0:
402,192,245983,1,0,0:0:0:0:
182,192,246069,1,0,0:0:0:0:
256,192,246155,128,0,246412:0:0:0:0:
36,192,246155,128,0,247355:0:0:0:0:
109,192,246155,128,0,246240:0:0:0:0:
475,192,246155,128,0,246326:0:0:0:0:
329,192,246240,128,0,246326:0:0:0:0:
402,192,246240,1,0,0:0:0:0:
182,192,246326,128,0,246497:0:0:0:0:
109,192,246412,128,0,246497:0:0:0:0:
475,192,246412,1,0,0:0:0:0:
402,192,246412,128,0,246583:0:0:0:0:
329,192,246497,1,0,0:0:0:0:
256,192,246497,128,0,246669:0:0:0:0:
182,192,246583,1,0,0:0:0:0:
475,192,246583,128,0,246755:0:0:0:0:
402,192,246669,1,0,0:0:0:0:
109,192,246669,128,0,246755:0:0:0:0:
329,192,246669,128,0,246840:0:0:0:0:
182,192,246755,128,0,246840:0:0:0:0:
256,192,246840,128,0,247097:0:0:0:0:
402,192,246840,1,0,0:0:0:0:
475,192,246840,128,0,247012:0:0:0:0:
109,192,246840,1,0,0:0:0:0:
329,192,246926,1,0,0:0:0:0:
182,192,246926,128,0,247012:0:0:0:0:
402,192,247012,128,0,247097:0:0:0:0:
109,192,247012,128,0,247269:0:0:0:0:
182,192,247097,1,0,0:0:0:0:
329,192,247097,128,0,247355:0:0:0:0:
475,192,247097,1,0,0:0:0:0:
256,192,247183,1,0,0:0:0:0:
402,192,247183,128,0,247269:0:0:0:0:
182,192,247269,128,0,247440:0:0:0:0:
475,192,247269,1,0,0:0:0:0:
256,192,247355,128,0,247440:0:0:0:0:
402,192,247355,1,0,0:0:0:0:
109,192,247355,1,0,0:0:0:0:
329,192,247440,1,0,0:0:0:0:
256,192,247526,128,0,247697:0:0:0:0:
475,192,247526,128,0,247697:0:0:0:0:
36,192,247526,128,0,247697:0:0:0:0:
182,192,247526,128,0,247612:0:0:0:0:
402,192,247526,1,0,0:0:0:0:
109,192,247612,128,0,247783:0:0:0:0:
329,192,247612,128,0,247697:0:0:0:0:
402,192,247697,128,0,247869:0:0:0:0:
182,192,247697,128,0,247740:0:0:0:0:
36,192,247783,128,0,247955:0:0:0:0:
329,192,247783,128,0,248040:0:0:0:0:
475,192,247783,128,0,247826:0:0:0:0:
256,192,247783,1,0,0:0:0:0:
182,192,247869,128,0,248040:0:0:0:0:
109,192,247869,128,0,247912:0:0:0:0:
475,192,247955,128,0,248126:0:0:0:0:
256,192,247955,128,0,248126:0:0:0:0:
402,192,247955,128,0,247997:0:0:0:0:
109,192,248040,128,0,248297:0:0:0:0:
36,192,248040,128,0,248083:0:0:0:0:
402,192,248126,128,0,248212:0:0:0:0:
329,192,248126,128,0,248297:0:0:0:0:
182,192,248126,1,0,0:0:0:0:
256,192,248212,128,0,248383:0:0:0:0:
36,192,248212,128,0,248297:0:0:0:0:
475,192,248212,128,0,248383:0:0:0:0:
402,192,248297,128,0,248469:0:0:0:0:
182,192,248297,128,0,248383:0:0:0:0:
109,192,248383,128,0,248469:0:0:0:0:
36,192,248383,128,0,248640:0:0:0:0:
329,192,248383,1,0,0:0:0:0:
182,192,248469,128,0,248512:0:0:0:0:
475,192,248469,128,0,248555:0:0:0:0:
256,192,248469,128,0,248812:0:0:0:0:
109,192,248555,128,0,248812:0:0:0:0:
329,192,248555,128,0,248597:0:0:0:0:
402,192,248555,128,0,248640:0:0:0:0:
475,192,248640,128,0,248812:0:0:0:0:
182,192,248640,128,0,248726:0:0:0:0:
36,192,248726,128,0,248812:0:0:0:0:
329,192,248726,128,0,248812:0:0:0:0:
402,192,248726,128,0,248769:0:0:0:0:
182,192,248812,1,0,0:0:0:0:
256,192,248897,128,0,249069:0:0:0:0:
36,192,248897,128,0,249069:0:0:0:0:
475,192,248897,128,0,249069:0:0:0:0:
329,192,248897,128,0,248983:0:0:0:0:
109,192,248897,1,0,0:0:0:0:
402,192,248983,128,0,249155:0:0:0:0:
182,192,248983,128,0,249069:0:0:0:0:
109,192,249069,128,0,249240:0:0:0:0:
329,192,249069,128,0,249112:0:0:0:0:
475,192,249155,128,0,249326:0:0:0:0:
182,192,249155,128,0,249412:0:0:0:0:
36,192,249155,128,0,249197:0:0:0:0:
256,192,249155,1,0,0:0:0:0:
329,192,249240,128,0,249412:0:0:0:0:
402,192,249240,128,0,249283:0:0:0:0:
36,192,249326,128,0,249497:0:0:0:0:
256,192,249326,128,0,249497:0:0:0:0:
109,192,249326,128,0,249369:0:0:0:0:
402,192,249412,128,0,249669:0:0:0:0:
475,192,249412,128,0,249455:0:0:0:0:
109,192,249497,128,0,249583:0:0:0:0:
182,192,249497,128,0,249669:0:0:0:0:
329,192,249497,1,0,0:0:0:0:
256,192,249583,128,0,249755:0:0:0:0:
475,192,249583,128,0,249669:0:0:0:0:
36,192,249583,128,0,249755:0:0:0:0:
109,192,249669,128,0,249840:0:0:0:0:
329,192,249669,128,0,249755:0:0:0:0:
402,192,249755,128,0,249840:0:0:0:0:
475,192,249755,128,0,250012:0:0:0:0:
182,192,249755,1,0,0:0:0:0:
329,192,249840,128,0,249883:0:0:0:0:
36,192,249840,128,0,249926:0:0:0:0:
256,192,249840,128,0,250183:0:0:0:0:
402,192,249926,128,0,250183:0:0:0:0:
182,192,249926,128,0,249969:0:0:0:0:
109,192,249926,128,0,250012:0:0:0:0:
36,192,250012,128,0,250183:0:0:0:0:
329,192,250012,128,0,250097:0:0:0:0:
475,192,250097,128,0,250183:0:0:0:0:
109,192,250097,128,0,250140:0:0:0:0:
182,192,250097,128,0,250183:0:0:0:0:
329,192,250183,1,0,0:0:0:0:
36,192,250269,128,0,250440:0:0:0:0:
256,192,250269,128,0,250440:0:0:0:0:
402,192,250269,128,0,250526:0:0:0:0:
182,192,250269,128,0,250312:0:0:0:0:
109,192,250355,1,0,0:0:0:0:
475,192,250355,1,0,0:0:0:0:
329,192,250355,128,0,250397:0:0:0:0:
182,192,250440,128,0,250526:0:0:0:0:
329,192,250526,128,0,250697:0:0:0:0:
109,192,250526,128,0,250697:0:0:0:0:
475,192,250526,128,0,250783:0:0:0:0:
256,192,250526,128,0,250569:0:0:0:0:
36,192,250526,128,0,250569:0:0:0:0:
182,192,250612,1,0,0:0:0:0:
402,192,250612,1,0,0:0:0:0:
36,192,250697,128,0,250783:0:0:0:0:
256,192,250697,128,0,250783:0:0:0:0:
182,192,250783,128,0,250955:0:0:0:0:
402,192,250783,128,0,250955:0:0:0:0:
109,192,250783,128,0,250826:0:0:0:0:
329,192,250783,128,0,250826:0:0:0:0:
256,192,250869,1,0,0:0:0:0:
109,192,250955,128,0,251126:0:0:0:0:
329,192,250955,128,0,251212:0:0:0:0:
475,192,250955,128,0,251126:0:0:0:0:
36,192,250955,128,0,250997:0:0:0:0:
402,192,251040,1,0,0:0:0:0:
256,192,251040,128,0,251083:0:0:0:0:
182,192,251126,128,0,251212:0:0:0:0:
36,192,251212,128,0,251383:0:0:0:0:
256,192,251212,128,0,251469:0:0:0:0:
402,192,251212,128,0,251383:0:0:0:0:
109,192,251212,128,0,251255:0:0:0:0:
475,192,251212,128,0,251255:0:0:0:0:
329,192,251297,1,0,0:0:0:0:
182,192,251297,1,0,0:0:0:0:
109,192,251383,128,0,251469:0:0:0:0:
475,192,251383,128,0,251640:0:0:0:0:
329,192,251469,128,0,251512:0:0:0:0:
36,192,251469,1,0,0:0:0:0:
182,192,251469,128,0,251512:0:0:0:0:
402,192,251469,1,0,0:0:0:0:
109,192,251555,1,0,0:0:0:0:
256,192,251555,1,0,0:0:0:0:
36,192,251640,128,0,251812:0:0:0:0:
329,192,251640,128,0,251812:0:0:0:0:
182,192,251640,128,0,251897:0:0:0:0:
402,192,251640,128,0,251683:0:0:0:0:
475,192,251726,1,0,0:0:0:0:
256,192,251726,1,0,0:0:0:0:
109,192,251726,128,0,251769:0:0:0:0:
402,192,251812,128,0,251897:0:0:0:0:
256,192,251897,128,0,252069:0:0:0:0:
475,192,251897,128,0,252069:0:0:0:0:
109,192,251897,128,0,252155:0:0:0:0:
329,192,251897,128,0,251940:0:0:0:0:
36,192,251897,128,0,251940:0:0:0:0:
402,192,251983,1,0,0:0:0:0:
182,192,251983,1,0,0:0:0:0:
36,192,252069,128,0,252155:0:0:0:0:
329,192,252069,128,0,252155:0:0:0:0:
256,192,252155,128,0,252197:0:0:0:0:
182,192,252155,128,0,252197:0:0:0:0:
402,192,252155,128,0,252197:0:0:0:0:
475,192,252155,128,0,252197:0:0:0:0:
109,192,252240,1,0,0:0:0:0:
36,192,252240,1,0,0:0:0:0:
256,192,252326,5,0,0:0:0:0:
329,192,252369,1,0,0:0:0:0:
36,192,252412,1,0,0:0:0:0:
109,192,252440,1,0,0:0:0:0:
402,192,252455,1,0,0:0:0:0:
182,192,252497,1,0,0:0:0:0:
475,192,252540,1,0,0:0:0:0:
109,192,252583,1,0,0:0:0:0:
256,192,252626,1,0,0:0:0:0:
402,192,252669,1,0,0:0:0:0:
36,192,252712,1,0,0:0:0:0:
329,192,252755,1,0,0:0:0:0:
109,192,252797,1,0,0:0:0:0:
402,192,252812,1,0,0:0:0:0:
475,192,252840,1,0,0:0:0:0:
182,192,252883,1,0,0:0:0:0:
256,192,252926,1,0,0:0:0:0:
475,192,253012,128,0,253440:0:0:0:0:
182,192,253012,128,0,253097:0:0:0:0:
402,192,253012,128,0,253097:0:0:0:0:
109,192,253012,128,0,253097:0:0:0:0:
36,192,253012,128,0,253269:0:0:0:0:
329,192,253097,128,0,253183:0:0:0:0:
256,192,253097,128,0,253355:0:0:0:0:
182,192,253183,1,0,0:0:0:0:
402,192,253183,1,0,0:0:0:0:
329,192,253269,1,0,0:0:0:0:
109,192,253269,128,0,253440:0:0:0:0:
402,192,253355,128,0,253440:0:0:0:0:
36,192,253355,1,0,0:0:0:0:
182,192,253355,128,0,253612:0:0:0:0:
256,192,253440,1,0,0:0:0:0:
329,192,253440,128,0,253697:0:0:0:0:
475,192,253526,128,0,253612:0:0:0:0:
402,192,253526,1,0,0:0:0:0:
36,192,253526,128,0,253955:0:0:0:0:
109,192,253526,1,0,0:0:0:0:
256,192,253612,128,0,253697:0:0:0:0:
182,192,253697,1,0,0:0:0:0:
402,192,253697,128,0,253869:0:0:0:0:
109,192,253697,128,0,253783:0:0:0:0:
475,192,253697,1,0,0:0:0:0:
256,192,253783,128,0,254040:0:0:0:0:
329,192,253783,1,0,0:0:0:0:
182,192,253869,128,0,253955:0:0:0:0:
109,192,253869,1,0,0:0:0:0:
475,192,253869,128,0,253955:0:0:0:0:
329,192,253955,128,0,254212:0:0:0:0:
402,192,253955,1,0,0:0:0:0:
182,192,254040,128,0,254126:0:0:0:0:
36,192,254040,1,0,0:0:0:0:
109,192,254040,128,0,254083:0:0:0:0:
475,192,254040,1,0,0:0:0:0:
402,192,254126,128,0,254297:0:0:0:0:
256,192,254126,128,0,254212:0:0:0:0:
182,192,254212,128,0,254297:0:0:0:0:
36,192,254212,128,0,254255:0:0:0:0:
475,192,254212,128,0,254297:0:0:0:0:
256,192,254297,1,0,0:0:0:0:
109,192,254297,128,0,254383:0:0:0:0:
329,192,254297,128,0,254555:0:0:0:0:
36,192,254383,128,0,254812:0:0:0:0:
182,192,254383,128,0,254426:0:0:0:0:
402,192,254383,128,0,254469:0:0:0:0:
475,192,254383,128,0,254426:0:0:0:0:
256,192,254469,128,0,254555:0:0:0:0:
109,192,254469,128,0,254512:0:0:0:0:
182,192,254555,128,0,254640:0:0:0:0:
402,192,254555,1,0,0:0:0:0:
475,192,254555,128,0,254640:0:0:0:0:
329,192,254640,128,0,254812:0:0:0:0:
109,192,254640,1,0,0:0:0:0:
256,192,254640,128,0,254683:0:0:0:0:
402,192,254726,128,0,254983:0:0:0:0:
475,192,254726,1,0,0:0:0:0:
182,192,254726,128,0,254769:0:0:0:0:
109,192,254812,128,0,255069:0:0:0:0:
256,192,254812,128,0,254897:0:0:0:0:
475,192,254897,128,0,255326:0:0:0:0:
36,192,254897,128,0,254983:0:0:0:0:
182,192,254897,1,0,0:0:0:0:
329,192,254897,128,0,254940:0:0:0:0:
256,192,254983,128,0,255026:0:0:0:0:
36,192,255069,1,0,0:0:0:0:
182,192,255069,128,0,255240:0:0:0:0:
329,192,255069,128,0,255155:0:0:0:0:
402,192,255069,1,0,0:0:0:0:
256,192,255155,1,0,0:0:0:0:
109,192,255155,128,0,255412:0:0:0:0:
36,192,255240,128,0,255326:0:0:0:0:
329,192,255240,1,0,0:0:0:0:
402,192,255240,128,0,255326:0:0:0:0:
256,192,255326,128,0,255583:0:0:0:0:
182,192,255326,1,0,0:0:0:0:
329,192,255412,128,0,255497:0:0:0:0:
475,192,255412,1,0,0:0:0:0:
402,192,255412,128,0,255455:0:0:0:0:
36,192,255412,1,0,0:0:0:0:
109,192,255497,128,0,255669:0:0:0:0:
182,192,255497,128,0,255583:0:0:0:0:
329,192,255583,128,0,255669:0:0:0:0:
475,192,255583,128,0,255626:0:0:0:0:
36,192,255583,128,0,255669:0:0:0:0:
256,192,255669,1,0,0:0:0:0:
182,192,255669,128,0,255926:0:0:0:0:
402,192,255669,128,0,255755:0:0:0:0:
475,192,255755,128,0,256183:0:0:0:0:
329,192,255755,128,0,255797:0:0:0:0:
109,192,255755,128,0,255840:0:0:0:0:
36,192,255755,128,0,255797:0:0:0:0:
256,192,255840,128,0,255926:0:0:0:0:
402,192,255840,128,0,255883:0:0:0:0:
329,192,255926,128,0,256012:0:0:0:0:
36,192,255926,128,0,256012:0:0:0:0:
109,192,255926,1,0,0:0:0:0:
182,192,256012,128,0,256183:0:0:0:0:
402,192,256012,1,0,0:0:0:0:
256,192,256012,128,0,256055:0:0:0:0:
109,192,256097,128,0,256355:0:0:0:0:
36,192,256097,1,0,0:0:0:0:
329,192,256097,128,0,256140:0:0:0:0:
402,192,256183,128,0,256440:0:0:0:0:
256,192,256183,128,0,256269:0:0:0:0:
36,192,256269,128,0,256697:0:0:0:0:
475,192,256269,128,0,256355:0:0:0:0:
329,192,256269,1,0,0:0:0:0:
182,192,256269,128,0,256312:0:0:0:0:
256,192,256355,128,0,256397:0:0:0:0:
475,192,256440,1,0,0:0:0:0:
329,192,256440,128,0,256612:0:0:0:0:
109,192,256440,1,0,0:0:0:0:
182,192,256440,128,0,256526:0:0:0:0:
256,192,256526,1,0,0:0:0:0:
402,192,256526,128,0,256783:0:0:0:0:
109,192,256612,128,0,256697:0:0:0:0:
182,192,256612,1,0,0:0:0:0:
475,192,256612,128,0,256697:0:0:0:0:
256,192,256697,128,0,256955:0:0:0:0:
329,192,256697,1,0,0:0:0:0:
182,192,256783,128,0,256869:0:0:0:0:
36,192,256783,1,0,0:0:0:0:
109,192,256783,128,0,256826:0:0:0:0:
475,192,256783,1,0,0:0:0:0:
402,192,256869,128,0,257040:0:0:0:0:
329,192,256869,128,0,256955:0:0:0:0:
109,192,256955,128,0,257040:0:0:0:0:
36,192,256955,128,0,256997:0:0:0:0:
475,192,256955,128,0,257040:0:0:0:0:
256,192,257040,1,0,0:0:0:0:
329,192,257040,128,0,257297:0:0:0:0:
182,192,257040,128,0,257126:0:0:0:0:
36,192,257126,128,0,257555:0:0:0:0:
109,192,257126,128,0,257169:0:0:0:0:
402,192,257126,128,0,257212:0:0:0:0:
475,192,257126,128,0,257169:0:0:0:0:
256,192,257212,128,0,257297:0:0:0:0:
182,192,257212,128,0,257255:0:0:0:0:
109,192,257297,128,0,257383:0:0:0:0:
475,192,257297,128,0,257383:0:0:0:0:
402,192,257297,1,0,0:0:0:0:
329,192,257383,128,0,257555:0:0:0:0:
182,192,257383,1,0,0:0:0:0:
256,192,257383,128,0,257426:0:0:0:0:
402,192,257469,128,0,257726:0:0:0:0:
475,192,257469,1,0,0:0:0:0:
109,192,257469,128,0,257512:0:0:0:0:
182,192,257555,128,0,257812:0:0:0:0:
256,192,257555,128,0,257640:0:0:0:0:
475,192,257640,128,0,258069:0:0:0:0:
109,192,257640,128,0,257726:0:0:0:0:
36,192,257640,1,0,0:0:0:0:
329,192,257640,128,0,257683:0:0:0:0:
256,192,257726,128,0,257769:0:0:0:0:
109,192,257812,1,0,0:0:0:0:
36,192,257812,128,0,257983:0:0:0:0:
402,192,257812,1,0,0:0:0:0:
329,192,257812,128,0,257897:0:0:0:0:
256,192,257897,1,0,0:0:0:0:
182,192,257897,128,0,258155:0:0:0:0:
402,192,257983,128,0,258069:0:0:0:0:
109,192,257983,128,0,258026:0:0:0:0:
329,192,257983,1,0,0:0:0:0:
256,192,258069,128,0,258326:0:0:0:0:
36,192,258069,128,0,258112:0:0:0:0:
402,192,258155,128,0,258197:0:0:0:0:
329,192,258155,128,0,258240:0:0:0:0:
475,192,258155,1,0,0:0:0:0:
109,192,258155,128,0,258240:0:0:0:0:
182,192,258240,128,0,258283:0:0:0:0:
36,192,258240,128,0,258369:0:0:0:0:
109,192,258326,128,0,258412:0:0:0:0:
329,192,258326,128,0,258412:0:0:0:0:
402,192,258369,128,0,258412:0:0:0:0:
182,192,258412,128,0,258583:0:0:0:0:
475,192,258412,128,0,258669:0:0:0:0:
256,192,258412,128,0,258497:0:0:0:0:
329,192,258497,1,0,0:0:0:0:
109,192,258497,128,0,258540:0:0:0:0:
402,192,258497,128,0,258540:0:0:0:0:
36,192,258540,128,0,258926:0:0:0:0:
256,192,258583,128,0,258626:0:0:0:0:
329,192,258626,128,0,258926:0:0:0:0:
402,192,258669,128,0,258755:0:0:0:0:
109,192,258669,1,0,0:0:0:0:
182,192,258669,128,0,258755:0:0:0:0:
475,192,258755,1,0,0:0:0:0:
256,192,258755,128,0,258840:0:0:0:0:
182,192,258840,1,0,0:0:0:0:
402,192,258840,128,0,259097:0:0:0:0:
109,192,258840,128,0,259097:0:0:0:0:
475,192,258926,128,0,259012:0:0:0:0:
329,192,259012,128,0,259269:0:0:0:0:
182,192,259012,128,0,259097:0:0:0:0:
36,192,259012,1,0,0:0:0:0:
475,192,259097,1,0,0:0:0:0:
256,192,259097,128,0,259183:0:0:0:0:
182,192,259183,1,0,0:0:0:0:
402,192,259183,128,0,259226:0:0:0:0:
109,192,259183,128,0,259226:0:0:0:0:
36,192,259183,128,0,259269:0:0:0:0:
475,192,259226,128,0,259612:0:0:0:0:
256,192,259269,128,0,259312:0:0:0:0:
182,192,259312,128,0,259612:0:0:0:0:
109,192,259355,128,0,259440:0:0:0:0:
402,192,259355,1,0,0:0:0:0:
329,192,259355,128,0,259440:0:0:0:0:
256,192,259440,128,0,259526:0:0:0:0:
36,192,259440,1,0,0:0:0:0:
329,192,259526,1,0,0:0:0:0:
402,192,259526,128,0,259783:0:0:0:0:
109,192,259526,128,0,259783:0:0:0:0:
36,192,259612,128,0,259697:0:0:0:0:
329,192,259697,128,0,259783:0:0:0:0:
182,192,259697,128,0,259955:0:0:0:0:
475,192,259697,1,0,0:0:0:0:
36,192,259783,1,0,0:0:0:0:
256,192,259783,128,0,259869:0:0:0:0:
109,192,259869,128,0,259912:0:0:0:0:
329,192,259869,1,0,0:0:0:0:
402,192,259869,128,0,259912:0:0:0:0:
475,192,259869,128,0,259955:0:0:0:0:
36,192,259912,128,0,260297:0:0:0:0:
256,192,259955,128,0,259997:0:0:0:0:
329,192,259997,128,0,260297:0:0:0:0:
182,192,260040,128,0,260126:0:0:0:0:
109,192,260040,1,0,0:0:0:0:
402,192,260040,128,0,260126:0:0:0:0:
256,192,260126,128,0,260212:0:0:0:0:
475,192,260126,1,0,0:0:0:0:
402,192,260212,128,0,260469:0:0:0:0:
109,192,260212,128,0,260469:0:0:0:0:
182,192,260212,1,0,0:0:0:0:
475,192,260297,128,0,260383:0:0:0:0:
329,192,260383,128,0,260640:0:0:0:0:
182,192,260383,128,0,260469:0:0:0:0:
36,192,260383,1,0,0:0:0:0:
256,192,260469,128,0,260555:0:0:0:0:
475,192,260469,1,0,0:0:0:0:
402,192,260555,128,0,260597:0:0:0:0:
182,192,260555,1,0,0:0:0:0:
109,192,260555,128,0,260597:0:0:0:0:
36,192,260555,128,0,260640:0:0:0:0:
475,192,260597,128,0,260983:0:0:0:0:
256,192,260640,128,0,260683:0:0:0:0:
182,192,260683,128,0,260983:0:0:0:0:
329,192,260726,128,0,260812:0:0:0:0:
402,192,260726,1,0,0:0:0:0:
109,192,260726,128,0,260812:0:0:0:0:
256,192,260812,128,0,260897:0:0:0:0:
36,192,260812,1,0,0:0:0:0:
109,192,260897,128,0,261155:0:0:0:0:
329,192,260897,1,0,0:0:0:0:
402,192,260897,128,0,261155:0:0:0:0:
36,192,260983,128,0,261069:0:0:0:0:
329,192,261069,128,0,261155:0:0:0:0:
182,192,261069,128,0,261240:0:0:0:0:
475,192,261069,1,0,0:0:0:0:
256,192,261155,128,0,261326:0:0:0:0:
329,192,261240,128,0,261497:0:0:0:0:
109,192,261240,1,0,0:0:0:0:
36,192,261240,1,0,0:0:0:0:
182,192,261326,128,0,261369:0:0:0:0:
402,192,261326,128,0,261412:0:0:0:0:
475,192,261326,128,0,261412:0:0:0:0:
256,192,261412,128,0,261669:0:0:0:0:
109,192,261412,128,0,261455:0:0:0:0:
182,192,261497,128,0,261583:0:0:0:0:
402,192,261497,128,0,261540:0:0:0:0:
109,192,261583,1,0,0:0:0:0:
329,192,261583,128,0,261840:0:0:0:0:
36,192,261583,1,0,0:0:0:0:
475,192,261583,128,0,261626:0:0:0:0:
402,192,261669,128,0,261755:0:0:0:0:
182,192,261669,128,0,261712:0:0:0:0:
256,192,261755,128,0,261926:0:0:0:0:
109,192,261755,128,0,261797:0:0:0:0:
182,192,261840,128,0,262097:0:0:0:0:
402,192,261840,128,0,261883:0:0:0:0:
109,192,261926,128,0,262012:0:0:0:0:
36,192,261926,128,0,262012:0:0:0:0:
329,192,261926,128,0,261969:0:0:0:0:
475,192,261926,1,0,0:0:0:0:
256,192,262012,128,0,262269:0:0:0:0:
329,192,262097,128,0,262183:0:0:0:0:
109,192,262097,128,0,262140:0:0:0:0:
402,192,262097,128,0,262183:0:0:0:0:
182,192,262183,128,0,262355:0:0:0:0:
36,192,262183,128,0,262226:0:0:0:0:
109,192,262269,128,0,262440:0:0:0:0:
475,192,262269,1,0,0:0:0:0:
329,192,262269,1,0,0:0:0:0:
402,192,262269,1,0,0:0:0:0:
36,192,262355,128,0,262697:0:0:0:0:
256,192,262355,128,0,262397:0:0:0:0:
182,192,262440,128,0,262483:0:0:0:0:
329,192,262440,1,0,0:0:0:0:
475,192,262440,128,0,262483:0:0:0:0:
402,192,262526,128,0,262569:0:0:0:0:
475,192,262612,128,0,263040:0:0:0:0:
329,192,262612,1,0,0:0:0:0:
109,192,262612,128,0,262697:0:0:0:0:
256,192,262612,128,0,262869:0:0:0:0:
182,192,262612,1,0,0:0:0:0:
402,192,262697,1,0,0:0:0:0:
329,192,262783,128,0,262869:0:0:0:0:
182,192,262783,128,0,263212:0:0:0:0:
36,192,262783,1,0,0:0:0:0:
109,192,262869,128,0,262912:0:0:0:0:
402,192,262955,128,0,263383:0:0:0:0:
256,192,262955,1,0,0:0:0:0:
36,192,262955,128,0,263040:0:0:0:0:
329,192,263040,1,0,0:0:0:0:
256,192,263126,128,0,263212:0:0:0:0:
109,192,263126,128,0,263555:0:0:0:0:
475,192,263126,1,0,0:0:0:0:
36,192,263212,128,0,263255:0:0:0:0:
182,192,263297,1,0,0:0:0:0:
329,192,263297,128,0,263726:0:0:0:0:
475,192,263297,128,0,263383:0:0:0:0:
256,192,263383,1,0,0:0:0:0:
182,192,263469,128,0,263555:0:0:0:0:
402,192,263469,1,0,0:0:0:0:
36,192,263469,128,0,263897:0:0:0:0:
475,192,263555,128,0,263597:0:0:0:0:
256,192,263640,128,0,263897:0:0:0:0:
109,192,263640,1,0,0:0:0:0:
402,192,263640,128,0,263726:0:0:0:0:
182,192,263726,1,0,0:0:0:0:
329,192,263812,1,0,0:0:0:0:
109,192,263983,128,0,264326:0:0:0:0:
329,192,263983,128,0,264155:0:0:0:0:
475,192,263983,1,0,0:0:0:0:
402,192,263983,128,0,264069:0:0:0:0:
36,192,263983,128,0,264069:0:0:0:0:
256,192,263983,1,0,0:0:0:0:
182,192,264069,1,0,0:0:0:0:
36,192,264155,1,0,0:0:0:0:
256,192,264155,128,0,264240:0:0:0:0:
402,192,264155,128,0,264497:0:0:0:0:
475,192,264155,128,0,264240:0:0:0:0:
182,192,264240,128,0,264412:0:0:0:0:
329,192,264240,1,0,0:0:0:0:
256,192,264326,1,0,0:0:0:0:
475,192,264326,1,0,0:0:0:0:
36,192,264326,128,0,264755:0:0:0:0:
109,192,264412,1,0,0:0:0:0:
329,192,264412,128,0,264583:0:0:0:0:
256,192,264497,128,0,264583:0:0:0:0:
182,192,264497,1,0,0:0:0:0:
475,192,264497,128,0,264926:0:0:0:0:
109,192,264583,128,0,264669:0:0:0:0:
402,192,264583,1,0,0:0:0:0:
329,192,264669,1,0,0:0:0:0:
182,192,264669,128,0,265012:0:0:0:0:
256,192,264669,128,0,264755:0:0:0:0:
402,192,264755,128,0,264840:0:0:0:0:
109,192,264755,1,0,0:0:0:0:
36,192,264840,1,0,0:0:0:0:
256,192,264840,1,0,0:0:0:0:
329,192,264840,128,0,265183:0:0:0:0:
109,192,264926,128,0,265012:0:0:0:0:
402,192,264926,1,0,0:0:0:0:
475,192,265012,1,0,0:0:0:0:
36,192,265012,1,0,0:0:0:0:
256,192,265012,128,0,265355:0:0:0:0:
402,192,265097,128,0,265183:0:0:0:0:
182,192,265097,1,0,0:0:0:0:
109,192,265183,1,0,0:0:0:0:
36,192,265183,128,0,265269:0:0:0:0:
475,192,265183,1,0,0:0:0:0:
329,192,265269,1,0,0:0:0:0:
182,192,265269,128,0,265355:0:0:0:0:
36,192,265355,1,0,0:0:0:0:
402,192,265355,128,0,265612:0:0:0:0:
109,192,265355,128,0,265526:0:0:0:0:
475,192,265355,128,0,265440:0:0:0:0:
182,192,265440,1,0,0:0:0:0:
256,192,265440,128,0,265526:0:0:0:0:
329,192,265526,128,0,265783:0:0:0:0:
36,192,265526,128,0,265697:0:0:0:0:
475,192,265526,1,0,0:0:0:0:
109,192,265612,1,0,0:0:0:0:
182,192,265612,128,0,265697:0:0:0:0:
256,192,265697,128,0,265955:0:0:0:0:
475,192,265697,128,0,266126:0:0:0:0:
402,192,265697,1,0,0:0:0:0:
36,192,265783,1,0,0:0:0:0:
109,192,265783,128,0,266040:0:0:0:0:
402,192,265869,128,0,265955:0:0:0:0:
329,192,265869,1,0,0:0:0:0:
182,192,265869,128,0,265955:0:0:0:0:
36,192,265955,128,0,266040:0:0:0:0:
402,192,266040,128,0,266383:0:0:0:0:
329,192,266040,128,0,266126:0:0:0:0:
256,192,266040,1,0,0:0:0:0:
182,192,266040,128,0,266297:0:0:0:0:
109,192,266126,128,0,266212:0:0:0:0:
36,192,266212,128,0,266640:0:0:0:0:
256,192,266212,128,0,266297:0:0:0:0:
475,192,266212,128,0,266297:0:0:0:0:
109,192,266297,1,0,0:0:0:0:
329,192,266297,128,0,266383:0:0:0:0:
256,192,266383,128,0,266812:0:0:0:0:
475,192,266383,1,0,0:0:0:0:
182,192,266383,128,0,266469:0:0:0:0:
329,192,266469,1,0,0:0:0:0:
402,192,266469,128,0,266555:0:0:0:0:
475,192,266555,128,0,266812:0:0:0:0:
182,192,266555,1,0,0:0:0:0:
109,192,266555,128,0,266640:0:0:0:0:
329,192,266640,128,0,266726:0:0:0:0:
402,192,266726,128,0,267069:0:0:0:0:
182,192,266726,128,0,266897:0:0:0:0:
36,192,266726,1,0,0:0:0:0:
109,192,266726,128,0,266812:0:0:0:0:
329,192,266812,1,0,0:0:0:0:
475,192,266897,1,0,0:0:0:0:
256,192,266897,128,0,266983:0:0:0:0:
36,192,266897,128,0,266983:0:0:0:0:
109,192,266897,128,0,267240:0:0:0:0:
329,192,266983,128,0,267155:0:0:0:0:
182,192,266983,1,0,0:0:0:0:
256,192,267069,1,0,0:0:0:0:
36,192,267069,1,0,0:0:0:0:
475,192,267069,128,0,267497:0:0:0:0:
402,192,267155,1,0,0:0:0:0:
182,192,267155,128,0,267326:0:0:0:0:
256,192,267240,128,0,267326:0:0:0:0:
329,192,267240,1,0,0:0:0:0:
36,192,267240,128,0,267669:0:0:0:0:
402,192,267326,128,0,267412:0:0:0:0:
109,192,267326,1,0,0:0:0:0:
182,192,267412,1,0,0:0:0:0:
329,192,267412,128,0,267755:0:0:0:0:
256,192,267412,128,0,267497:0:0:0:0:
109,192,267497,128,0,267583:0:0:0:0:
402,192,267497,1,0,0:0:0:0:
475,192,267583,1,0,0:0:0:0:
256,192,267583,1,0,0:0:0:0:
182,192,267583,128,0,267926:0:0:0:0:
402,192,267669,128,0,267755:0:0:0:0:
109,192,267669,1,0,0:0:0:0:
36,192,267755,1,0,0:0:0:0:
475,192,267755,1,0,0:0:0:0:
256,192,267755,128,0,268097:0:0:0:0:
109,192,267840,128,0,267926:0:0:0:0:
329,192,267840,1,0,0:0:0:0:
402,192,267926,1,0,0:0:0:0:
475,192,267926,128,0,268012:0:0:0:0:
36,192,267926,1,0,0:0:0:0:
182,192,268012,1,0,0:0:0:0:
329,192,268012,128,0,268097:0:0:0:0:
475,192,268097,1,0,0:0:0:0:
109,192,268097,128,0,268355:0:0:0:0:
402,192,268097,128,0,268269:0:0:0:0:
36,192,268097,128,0,268183:0:0:0:0:
329,192,268183,1,0,0:0:0:0:
256,192,268183,128,0,268269:0:0:0:0:
182,192,268269,128,0,268526:0:0:0:0:
475,192,268269,128,0,268440:0:0:0:0:
36,192,268269,1,0,0:0:0:0:
402,192,268355,1,0,0:0:0:0:
329,192,268355,128,0,268440:0:0:0:0:
256,192,268440,128,0,268697:0:0:0:0:
36,192,268440,128,0,268869:0:0:0:0:
109,192,268440,1,0,0:0:0:0:
475,192,268526,1,0,0:0:0:0:
402,192,268526,128,0,268783:0:0:0:0:
109,192,268612,128,0,268697:0:0:0:0:
182,192,268612,1,0,0:0:0:0:
329,192,268612,128,0,268697:0:0:0:0:
475,192,268697,128,0,268783:0:0:0:0:
109,192,268783,128,0,269126:0:0:0:0:
256,192,268783,1,0,0:0:0:0:
182,192,268783,128,0,268869:0:0:0:0:
329,192,268783,128,0,269040:0:0:0:0:
402,192,268869,128,0,268955:0:0:0:0:
475,192,268955,128,0,269383:0:0:0:0:
256,192,268955,128,0,269040:0:0:0:0:
36,192,268955,128,0,269040:0:0:0:0:
402,192,269040,1,0,0:0:0:0:
182,192,269040,128,0,269126:0:0:0:0:
256,192,269126,128,0,269469:0:0:0:0:
36,192,269126,1,0,0:0:0:0:
329,192,269126,128,0,269212:0:0:0:0:
182,192,269212,1,0,0:0:0:0:
109,192,269212,128,0,269297:0:0:0:0:
329,192,269297,1,0,0:0:0:0:
402,192,269297,128,0,269383:0:0:0:0:
36,192,269297,128,0,269469:0:0:0:0:
182,192,269383,128,0,269812:0:0:0:0:
402,192,269469,1,0,0:0:0:0:
109,192,269469,1,0,0:0:0:0:
475,192,269469,128,0,269640:0:0:0:0:
329,192,269469,128,0,269555:0:0:0:0:
256,192,269555,1,0,0:0:0:0:
36,192,269555,1,0,0:0:0:0:
402,192,269640,128,0,269983:0:0:0:0:
109,192,269640,128,0,269683:0:0:0:0:
329,192,269640,1,0,0:0:0:0:
36,192,269726,128,0,270069:0:0:0:0:
256,192,269726,128,0,269812:0:0:0:0:
475,192,269726,1,0,0:0:0:0:
109,192,269812,1,0,0:0:0:0:
329,192,269812,128,0,269855:0:0:0:0:
256,192,269897,128,0,270240:0:0:0:0:
475,192,269897,128,0,269983:0:0:0:0:
182,192,269897,1,0,0:0:0:0:
329,192,269983,1,0,0:0:0:0:
109,192,269983,128,0,270069:0:0:0:0:
475,192,270069,128,0,270412:0:0:0:0:
402,192,270069,1,0,0:0:0:0:
182,192,270069,128,0,270112:0:0:0:0:
109,192,270155,128,0,270497:0:0:0:0:
36,192,270155,1,0,0:0:0:0:
329,192,270155,128,0,270240:0:0:0:0:
182,192,270240,1,0,0:0:0:0:
402,192,270240,128,0,270283:0:0:0:0:
329,192,270326,128,0,270669:0:0:0:0:
256,192,270326,1,0,0:0:0:0:
36,192,270326,128,0,270369:0:0:0:0:
402,192,270412,1,0,0:0:0:0:
182,192,270412,128,0,270497:0:0:0:0:
475,192,270497,1,0,0:0:0:0:
256,192,270497,128,0,270540:0:0:0:0:
36,192,270497,128,0,270755:0:0:0:0:
182,192,270583,128,0,270840:0:0:0:0:
109,192,270583,1,0,0:0:0:0:
402,192,270583,128,0,270669:0:0:0:0:
475,192,270669,128,0,270712:0:0:0:0:
256,192,270669,1,0,0:0:0:0:
109,192,270755,128,0,270840:0:0:0:0:
329,192,270755,1,0,0:0:0:0:
402,192,270755,128,0,271012:0:0:0:0:
256,192,270840,128,0,271183:0:0:0:0:
475,192,270840,1,0,0:0:0:0:
36,192,270840,1,0,0:0:0:0:
109,192,270926,1,0,0:0:0:0:
182,192,270926,128,0,270969:0:0:0:0:
475,192,271012,128,0,271355:0:0:0:0:
36,192,271012,128,0,271055:0:0:0:0:
329,192,271012,128,0,271097:0:0:0:0:
109,192,271097,128,0,271440:0:0:0:0:
182,192,271097,128,0,271183:0:0:0:0:
402,192,271097,1,0,0:0:0:0:
36,192,271183,1,0,0:0:0:0:
329,192,271183,128,0,271226:0:0:0:0:
402,192,271269,128,0,271355:0:0:0:0:
182,192,271269,128,0,271312:0:0:0:0:
256,192,271269,1,0,0:0:0:0:
36,192,271355,128,0,271440:0:0:0:0:
329,192,271355,1,0,0:0:0:0:
402,192,271440,128,0,271783:0:0:0:0:
256,192,271440,128,0,271483:0:0:0:0:
475,192,271440,1,0,0:0:0:0:
36,192,271526,128,0,271869:0:0:0:0:
109,192,271526,128,0,271612:0:0:0:0:
182,192,271526,1,0,0:0:0:0:
329,192,271526,128,0,271569:0:0:0:0:
256,192,271612,1,0,0:0:0:0:
475,192,271612,128,0,271697:0:0:0:0:
329,192,271697,128,0,272040:0:0:0:0:
109,192,271697,1,0,0:0:0:0:
182,192,271697,128,0,271740:0:0:0:0:
475,192,271783,1,0,0:0:0:0:
256,192,271783,128,0,271826:0:0:0:0:
109,192,271869,128,0,272212:0:0:0:0:
182,192,271869,1,0,0:0:0:0:
402,192,271869,128,0,271955:0:0:0:0:
475,192,271955,1,0,0:0:0:0:
36,192,271955,1,0,0:0:0:0:
256,192,271955,128,0,272126:0:0:0:0:
402,192,272040,1,0,0:0:0:0:
182,192,272040,128,0,272083:0:0:0:0:
329,192,272126,128,0,272212:0:0:0:0:
36,192,272126,128,0,272212:0:0:0:0:
475,192,272212,128,0,272383:0:0:0:0:
182,192,272212,128,0,272469:0:0:0:0:
402,192,272212,128,0,272255:0:0:0:0:
256,192,272212,1,0,0:0:0:0:
36,192,272297,1,0,0:0:0:0:
329,192,272297,1,0,0:0:0:0:
109,192,272297,128,0,272340:0:0:0:0:
402,192,272383,128,0,272469:0:0:0:0:
109,192,272469,128,0,272640:0:0:0:0:
329,192,272469,128,0,272640:0:0:0:0:
36,192,272469,128,0,272512:0:0:0:0:
256,192,272469,128,0,272512:0:0:0:0:
475,192,272469,128,0,272512:0:0:0:0:
402,192,272555,1,0,0:0:0:0:
182,192,272555,1,0,0:0:0:0:
475,192,272640,128,0,272726:0:0:0:0:
256,192,272640,128,0,272726:0:0:0:0:
36,192,272640,128,0,272726:0:0:0:0:
402,192,272726,128,0,272897:0:0:0:0:
182,192,272726,128,0,272897:0:0:0:0:
329,192,272726,128,0,272769:0:0:0:0:
109,192,272726,128,0,272769:0:0:0:0:
256,192,272812,1,0,0:0:0:0:
329,192,272897,128,0,273069:0:0:0:0:
36,192,272897,128,0,273069:0:0:0:0:
109,192,272897,1,0,0:0:0:0:
475,192,272897,128,0,272940:0:0:0:0:
182,192,272983,1,0,0:0:0:0:
256,192,272983,128,0,273069:0:0:0:0:
402,192,273069,128,0,273155:0:0:0:0:
109,192,273069,128,0,273155:0:0:0:0:
329,192,273155,1,0,0:0:0:0:
475,192,273155,128,0,273326:0:0:0:0:
182,192,273155,128,0,273326:0:0:0:0:
36,192,273155,1,0,0:0:0:0:
256,192,273155,128,0,273240:0:0:0:0:
109,192,273240,1,0,0:0:0:0:
402,192,273240,1,0,0:0:0:0:
329,192,273326,128,0,273412:0:0:0:0:
36,192,273326,128,0,273583:0:0:0:0:
256,192,273326,1,0,0:0:0:0:
402,192,273412,1,0,0:0:0:0:
182,192,273412,1,0,0:0:0:0:
109,192,273412,128,0,273497:0:0:0:0:
475,192,273412,128,0,273497:0:0:0:0:
329,192,273497,1,0,0:0:0:0:
256,192,273497,128,0,273583:0:0:0:0:
475,192,273583,128,0,273755:0:0:0:0:
109,192,273583,128,0,273755:0:0:0:0:
402,192,273583,128,0,273626:0:0:0:0:
182,192,273583,128,0,273626:0:0:0:0:
36,192,273669,1,0,0:0:0:0:
256,192,273669,1,0,0:0:0:0:
329,192,273669,128,0,273712:0:0:0:0:
182,192,273755,128,0,273840:0:0:0:0:
402,192,273755,128,0,273840:0:0:0:0:
256,192,273840,128,0,274012:0:0:0:0:
36,192,273840,128,0,274012:0:0:0:0:
109,192,273840,128,0,273883:0:0:0:0:
329,192,273840,128,0,273883:0:0:0:0:
475,192,273840,128,0,273883:0:0:0:0:
182,192,273926,1,0,0:0:0:0:
402,192,273926,1,0,0:0:0:0:
475,192,274012,128,0,274097:0:0:0:0:
109,192,274012,128,0,274097:0:0:0:0:
329,192,274012,128,0,274097:0:0:0:0:
256,192,274097,128,0,274140:0:0:0:0:
402,192,274097,128,0,274140:0:0:0:0:
182,192,274097,128,0,274140:0:0:0:0:
36,192,274097,128,0,274140:0:0:0:0:
329,192,274183,1,0,0:0:0:0:
475,192,274183,1,0,0:0:0:0:
256,192,274269,5,0,0:0:0:0:
182,192,274312,1,0,0:0:0:0:
475,192,274355,1,0,0:0:0:0:
402,192,274383,1,0,0:0:0:0:
109,192,274397,1,0,0:0:0:0:
329,192,274440,1,0,0:0:0:0:
36,192,274483,1,0,0:0:0:0:
402,192,274526,1,0,0:0:0:0:
256,192,274569,1,0,0:0:0:0:
109,192,274612,1,0,0:0:0:0:
475,192,274655,1,0,0:0:0:0:
182,192,274697,1,0,0:0:0:0:
402,192,274740,1,0,0:0:0:0:
109,192,274755,1,0,0:0:0:0:
36,192,274783,1,0,0:0:0:0:
329,192,274826,1,0,0:0:0:0:
256,192,274869,1,0,0:0:0:0:
109,192,274955,128,0,275383:0:0:0:0:
36,192,274955,128,0,275040:0:0:0:0:
475,192,274955,128,0,275040:0:0:0:0:
329,192,274955,128,0,275040:0:0:0:0:
402,192,274955,128,0,275212:0:0:0:0:
182,192,275040,128,0,275126:0:0:0:0:
256,192,275040,128,0,275297:0:0:0:0:
329,192,275126,1,0,0:0:0:0:
36,192,275126,1,0,0:0:0:0:
182,192,275212,1,0,0:0:0:0:
475,192,275212,128,0,275383:0:0:0:0:
36,192,275297,128,0,275383:0:0:0:0:
402,192,275297,1,0,0:0:0:0:
329,192,275297,128,0,275555:0:0:0:0:
256,192,275383,1,0,0:0:0:0:
182,192,275383,128,0,275640:0:0:0:0:
109,192,275469,128,0,275555:0:0:0:0:
36,192,275469,1,0,0:0:0:0:
402,192,275469,128,0,275897:0:0:0:0:
475,192,275469,1,0,0:0:0:0:
256,192,275555,128,0,275640:0:0:0:0:
329,192,275640,1,0,0:0:0:0:
36,192,275640,128,0,275812:0:0:0:0:
475,192,275640,128,0,275726:0:0:0:0:
109,192,275640,1,0,0:0:0:0:
182,192,275726,128,0,275983:0:0:0:0:
256,192,275726,1,0,0:0:0:0:
329,192,275812,128,0,275897:0:0:0:0:
475,192,275812,1,0,0:0:0:0:
109,192,275812,128,0,275897:0:0:0:0:
256,192,275897,128,0,276155:0:0:0:0:
36,192,275897,1,0,0:0:0:0:
329,192,275983,128,0,276069:0:0:0:0:
109,192,275983,1,0,0:0:0:0:
402,192,275983,1,0,0:0:0:0:
475,192,275983,128,0,276069:0:0:0:0:
182,192,276069,128,0,276240:0:0:0:0:
36,192,276069,1,0,0:0:0:0:
329,192,276155,1,0,0:0:0:0:
402,192,276155,128,0,276240:0:0:0:0:
109,192,276155,128,0,276240:0:0:0:0:
256,192,276240,1,0,0:0:0:0:
475,192,276240,128,0,276326:0:0:0:0:
36,192,276240,128,0,276497:0:0:0:0:
402,192,276326,128,0,276755:0:0:0:0:
182,192,276326,128,0,276412:0:0:0:0:
329,192,276326,128,0,276369:0:0:0:0:
109,192,276326,128,0,276369:0:0:0:0:
256,192,276412,128,0,276497:0:0:0:0:
475,192,276412,128,0,276455:0:0:0:0:
329,192,276497,128,0,276583:0:0:0:0:
182,192,276497,128,0,276540:0:0:0:0:
109,192,276497,128,0,276583:0:0:0:0:
36,192,276583,128,0,276755:0:0:0:0:
256,192,276583,128,0,276626:0:0:0:0:
475,192,276583,128,0,276669:0:0:0:0:
182,192,276669,128,0,276926:0:0:0:0:
109,192,276669,1,0,0:0:0:0:
329,192,276669,128,0,276712:0:0:0:0:
475,192,276755,128,0,277012:0:0:0:0:
256,192,276755,128,0,276840:0:0:0:0:
109,192,276840,128,0,277269:0:0:0:0:
402,192,276840,128,0,276926:0:0:0:0:
329,192,276840,1,0,0:0:0:0:
36,192,276840,1,0,0:0:0:0:
256,192,276926,128,0,277012:0:0:0:0:
402,192,277012,1,0,0:0:0:0:
329,192,277012,128,0,277183:0:0:0:0:
182,192,277012,1,0,0:0:0:0:
36,192,277012,128,0,277097:0:0:0:0:
256,192,277097,1,0,0:0:0:0:
475,192,277097,128,0,277355:0:0:0:0:
182,192,277183,128,0,277269:0:0:0:0:
36,192,277183,1,0,0:0:0:0:
402,192,277183,128,0,277269:0:0:0:0:
256,192,277269,128,0,277526:0:0:0:0:
329,192,277269,1,0,0:0:0:0:
36,192,277355,128,0,277440:0:0:0:0:
109,192,277355,1,0,0:0:0:0:
182,192,277355,128,0,277440:0:0:0:0:
402,192,277355,1,0,0:0:0:0:
329,192,277440,128,0,277612:0:0:0:0:
475,192,277440,1,0,0:0:0:0:
109,192,277526,128,0,277612:0:0:0:0:
182,192,277526,1,0,0:0:0:0:
402,192,277526,128,0,277612:0:0:0:0:
256,192,277612,1,0,0:0:0:0:
475,192,277612,128,0,277869:0:0:0:0:
36,192,277612,128,0,277697:0:0:0:0:
109,192,277697,128,0,278126:0:0:0:0:
182,192,277697,128,0,277740:0:0:0:0:
329,192,277697,128,0,277783:0:0:0:0:
402,192,277697,128,0,277740:0:0:0:0:
256,192,277783,128,0,277869:0:0:0:0:
36,192,277783,128,0,277826:0:0:0:0:
182,192,277869,128,0,277955:0:0:0:0:
329,192,277869,128,0,277912:0:0:0:0:
402,192,277869,128,0,277955:0:0:0:0:
475,192,277955,128,0,278126:0:0:0:0:
256,192,277955,128,0,277997:0:0:0:0:
36,192,277955,128,0,278040:0:0:0:0:
329,192,278040,128,0,278297:0:0:0:0:
402,192,278040,1,0,0:0:0:0:
182,192,278040,128,0,278083:0:0:0:0:
36,192,278126,128,0,278383:0:0:0:0:
256,192,278126,128,0,278212:0:0:0:0:
402,192,278212,128,0,278640:0:0:0:0:
109,192,278212,128,0,278297:0:0:0:0:
182,192,278212,1,0,0:0:0:0:
475,192,278212,1,0,0:0:0:0:
256,192,278297,128,0,278340:0:0:0:0:
109,192,278383,1,0,0:0:0:0:
182,192,278383,128,0,278555:0:0:0:0:
475,192,278383,128,0,278469:0:0:0:0:
329,192,278383,1,0,0:0:0:0:
256,192,278469,1,0,0:0:0:0:
36,192,278469,128,0,278726:0:0:0:0:
329,192,278555,128,0,278640:0:0:0:0:
475,192,278555,1,0,0:0:0:0:
109,192,278555,128,0,278640:0:0:0:0:
256,192,278640,128,0,278897:0:0:0:0:
182,192,278640,1,0,0:0:0:0:
329,192,278726,128,0,278812:0:0:0:0:
402,192,278726,1,0,0:0:0:0:
475,192,278726,128,0,278812:0:0:0:0:
109,192,278726,1,0,0:0:0:0:
182,192,278812,128,0,278983:0:0:0:0:
36,192,278812,1,0,0:0:0:0:
402,192,278897,128,0,278983:0:0:0:0:
475,192,278897,1,0,0:0:0:0:
109,192,278897,128,0,278983:0:0:0:0:
256,192,278983,1,0,0:0:0:0:
36,192,278983,128,0,279240:0:0:0:0:
329,192,278983,128,0,279069:0:0:0:0:
402,192,279069,128,0,279497:0:0:0:0:
475,192,279069,128,0,279112:0:0:0:0:
182,192,279069,128,0,279155:0:0:0:0:
109,192,279069,128,0,279112:0:0:0:0:
256,192,279155,128,0,279240:0:0:0:0:
329,192,279155,128,0,279197:0:0:0:0:
475,192,279240,128,0,279326:0:0:0:0:
182,192,279240,128,0,279283:0:0:0:0:
109,192,279240,128,0,279326:0:0:0:0:
36,192,279326,128,0,279497:0:0:0:0:
256,192,279326,128,0,279369:0:0:0:0:
329,192,279326,128,0,279412:0:0:0:0:
182,192,279412,128,0,279669:0:0:0:0:
109,192,279412,1,0,0:0:0:0:
475,192,279412,128,0,279455:0:0:0:0:
329,192,279497,128,0,279755:0:0:0:0:
256,192,279497,1,0,0:0:0:0:
109,192,279583,128,0,280012:0:0:0:0:
475,192,279583,128,0,279669:0:0:0:0:
402,192,279583,1,0,0:0:0:0:
36,192,279583,1,0,0:0:0:0:
256,192,279669,128,0,279755:0:0:0:0:
475,192,279755,1,0,0:0:0:0:
402,192,279755,128,0,279926:0:0:0:0:
182,192,279755,1,0,0:0:0:0:
36,192,279755,128,0,279840:0:0:0:0:
256,192,279840,1,0,0:0:0:0:
329,192,279840,128,0,280097:0:0:0:0:
182,192,279926,128,0,280012:0:0:0:0:
475,192,279926,128,0,279969:0:0:0:0:
36,192,279926,1,0,0:0:0:0:
256,192,280012,128,0,280269:0:0:0:0:
402,192,280012,128,0,280055:0:0:0:0:
36,192,280097,128,0,280183:0:0:0:0:
109,192,280097,1,0,0:0:0:0:
182,192,280097,128,0,280183:0:0:0:0:
475,192,280097,1,0,0:0:0:0:
402,192,280183,128,0,280397:0:0:0:0:
329,192,280183,128,0,280226:0:0:0:0:
475,192,280269,128,0,280355:0:0:0:0:
182,192,280269,128,0,280355:0:0:0:0:
36,192,280269,1,0,0:0:0:0:
329,192,280355,128,0,280526:0:0:0:0:
109,192,280355,128,0,280612:0:0:0:0:
256,192,280355,128,0,280440:0:0:0:0:
182,192,280440,1,0,0:0:0:0:
475,192,280440,128,0,280483:0:0:0:0:
36,192,280440,128,0,280526:0:0:0:0:
402,192,280483,128,0,280869:0:0:0:0:
256,192,280526,128,0,280569:0:0:0:0:
182,192,280569,128,0,280869:0:0:0:0:
36,192,280612,128,0,280697:0:0:0:0:
475,192,280612,1,0,0:0:0:0:
329,192,280612,128,0,280697:0:0:0:0:
109,192,280697,1,0,0:0:0:0:
256,192,280697,128,0,280783:0:0:0:0:
329,192,280783,1,0,0:0:0:0:
36,192,280783,128,0,281040:0:0:0:0:
475,192,280783,128,0,281040:0:0:0:0:
109,192,280869,128,0,280955:0:0:0:0:
329,192,280955,128,0,281040:0:0:0:0:
182,192,280955,128,0,281212:0:0:0:0:
402,192,280955,1,0,0:0:0:0:
109,192,281040,1,0,0:0:0:0:
256,192,281040,128,0,281126:0:0:0:0:
36,192,281126,128,0,281169:0:0:0:0:
402,192,281126,128,0,281297:0:0:0:0:
329,192,281126,1,0,0:0:0:0:
475,192,281126,128,0,281169:0:0:0:0:
109,192,281169,128,0,281555:0:0:0:0:
256,192,281212,128,0,281255:0:0:0:0:
329,192,281255,128,0,281555:0:0:0:0:
475,192,281297,128,0,281383:0:0:0:0:
36,192,281297,1,0,0:0:0:0:
182,192,281297,128,0,281383:0:0:0:0:
402,192,281383,1,0,0:0:0:0:
256,192,281383,128,0,281469:0:0:0:0:
182,192,281469,1,0,0:0:0:0:
475,192,281469,128,0,281726:0:0:0:0:
36,192,281469,128,0,281726:0:0:0:0:
402,192,281555,128,0,281640:0:0:0:0:
182,192,281640,128,0,281726:0:0:0:0:
329,192,281640,128,0,281897:0:0:0:0:
109,192,281640,1,0,0:0:0:0:
402,192,281726,1,0,0:0:0:0:
256,192,281726,128,0,281812:0:0:0:0:
475,192,281812,128,0,281855:0:0:0:0:
182,192,281812,1,0,0:0:0:0:
109,192,281812,128,0,281983:0:0:0:0:
36,192,281812,128,0,281855:0:0:0:0:
402,192,281855,128,0,282240:0:0:0:0:
256,192,281897,128,0,281940:0:0:0:0:
182,192,281940,128,0,282240:0:0:0:0:
329,192,281983,128,0,282069:0:0:0:0:
475,192,281983,1,0,0:0:0:0:
36,192,281983,128,0,282069:0:0:0:0:
256,192,282069,128,0,282155:0:0:0:0:
109,192,282069,1,0,0:0:0:0:
36,192,282155,128,0,282412:0:0:0:0:
329,192,282155,1,0,0:0:0:0:
475,192,282155,128,0,282412:0:0:0:0:
109,192,282240,128,0,282326:0:0:0:0:
182,192,282326,128,0,282583:0:0:0:0:
329,192,282326,128,0,282412:0:0:0:0:
402,192,282326,1,0,0:0:0:0:
256,192,282412,128,0,282497:0:0:0:0:
109,192,282412,1,0,0:0:0:0:
36,192,282497,128,0,282540:0:0:0:0:
329,192,282497,1,0,0:0:0:0:
402,192,282497,128,0,282669:0:0:0:0:
475,192,282497,128,0,282540:0:0:0:0:
109,192,282540,128,0,282926:0:0:0:0:
256,192,282583,128,0,282626:0:0:0:0:
329,192,282626,128,0,282926:0:0:0:0:
182,192,282669,128,0,282755:0:0:0:0:
36,192,282669,1,0,0:0:0:0:
475,192,282669,128,0,282755:0:0:0:0:
256,192,282755,128,0,282840:0:0:0:0:
402,192,282755,1,0,0:0:0:0:
475,192,282840,128,0,283012:0:0:0:0:
182,192,282840,1,0,0:0:0:0:
36,192,282840,128,0,282926:0:0:0:0:
402,192,282926,128,0,283097:0:0:0:0:
329,192,283012,128,0,283183:0:0:0:0:
109,192,283012,1,0,0:0:0:0:
36,192,283012,1,0,0:0:0:0:
182,192,283012,1,0,0:0:0:0:
256,192,283097,128,0,283269:0:0:0:0:
182,192,283183,128,0,283440:0:0:0:0:
402,192,283183,1,0,0:0:0:0:
475,192,283183,1,0,0:0:0:0:
329,192,283269,128,0,283312:0:0:0:0:
109,192,283269,128,0,283355:0:0:0:0:
36,192,283269,128,0,283355:0:0:0:0:
256,192,283355,128,0,283612:0:0:0:0:
402,192,283355,128,0,283397:0:0:0:0:
475,192,283355,1,0,0:0:0:0:
329,192,283440,128,0,283526:0:0:0:0:
109,192,283440,128,0,283483:0:0:0:0:
402,192,283526,1,0,0:0:0:0:
182,192,283526,128,0,283783:0:0:0:0:
475,192,283526,1,0,0:0:0:0:
36,192,283526,128,0,283569:0:0:0:0:
109,192,283612,128,0,283697:0:0:0:0:
329,192,283612,128,0,283655:0:0:0:0:
256,192,283697,128,0,283869:0:0:0:0:
402,192,283697,128,0,283740:0:0:0:0:
36,192,283697,1,0,0:0:0:0:
475,192,283697,1,0,0:0:0:0:
329,192,283783,128,0,284040:0:0:0:0:
109,192,283783,128,0,283826:0:0:0:0:
402,192,283869,128,0,283955:0:0:0:0:
475,192,283869,128,0,283955:0:0:0:0:
182,192,283869,128,0,283912:0:0:0:0:
36,192,283869,1,0,0:0:0:0:
256,192,283955,128,0,284212:0:0:0:0:
182,192,284040,128,0,284126:0:0:0:0:
402,192,284040,128,0,284083:0:0:0:0:
109,192,284040,128,0,284126:0:0:0:0:
36,192,284040,1,0,0:0:0:0:
329,192,284126,128,0,284297:0:0:0:0:
475,192,284126,128,0,284169:0:0:0:0:
402,192,284212,128,0,284383:0:0:0:0:
36,192,284212,1,0,0:0:0:0:
109,192,284212,1,0,0:0:0:0:
182,192,284212,128,0,284255:0:0:0:0:
256,192,284297,128,0,284340:0:0:0:0:
475,192,284297,128,0,284469:0:0:0:0:
109,192,284383,1,0,0:0:0:0:
36,192,284383,1,0,0:0:0:0:
329,192,284383,128,0,284426:0:0:0:0:
182,192,284383,1,0,0:0:0:0:
402,192,284469,128,0,284512:0:0:0:0:
36,192,284555,128,0,284812:0:0:0:0:
182,192,284555,1,0,0:0:0:0:
109,192,284555,128,0,284640:0:0:0:0:
256,192,284555,128,0,284640:0:0:0:0:
475,192,284555,128,0,284597:0:0:0:0:
329,192,284640,1,0,0:0:0:0:
402,192,284640,128,0,284726:0:0:0:0:
109,192,284726,1,0,0:0:0:0:
182,192,284726,128,0,284983:0:0:0:0:
256,192,284726,128,0,284812:0:0:0:0:
475,192,284726,128,0,284897:0:0:0:0:
329,192,284812,128,0,285069:0:0:0:0:
402,192,284812,1,0,0:0:0:0:
109,192,284897,128,0,285155:0:0:0:0:
256,192,284897,1,0,0:0:0:0:
36,192,284897,128,0,284983:0:0:0:0:
402,192,284983,128,0,285240:0:0:0:0:
475,192,284983,1,0,0:0:0:0:
256,192,285069,128,0,285326:0:0:0:0:
36,192,285069,1,0,0:0:0:0:
182,192,285069,128,0,285155:0:0:0:0:
329,192,285155,1,0,0:0:0:0:
475,192,285155,128,0,285412:0:0:0:0:
182,192,285240,128,0,285497:0:0:0:0:
36,192,285240,128,0,285326:0:0:0:0:
109,192,285240,1,0,0:0:0:0:
329,192,285326,128,0,285583:0:0:0:0:
402,192,285326,128,0,285412:0:0:0:0:
36,192,285412,128,0,285669:0:0:0:0:
256,192,285412,1,0,0:0:0:0:
109,192,285412,128,0,285497:0:0:0:0:
402,192,285497,1,0,0:0:0:0:
475,192,285497,128,0,285755:0:0:0:0:
109,192,285583,128,0,285840:0:0:0:0:
256,192,285583,1,0,0:0:0:0:
182,192,285583,128,0,285669:0:0:0:0:
329,192,285669,1,0,0:0:0:0:
402,192,285669,128,0,285840:0:0:0:0:
256,192,285755,128,0,285840:0:0:0:0:
475,192,285926,5,0,0:0:0:0:
182,192,285926,1,0,0:0:0:0:
256,192,285926,1,0,0:0:0:0:
36,192,285926,128,0,286097:0:0:0:0:
402,192,286012,128,0,286097:0:0:0:0:
109,192,286012,1,0,0:0:0:0:
329,192,286097,1,0,0:0:0:0:
182,192,286097,1,0,0:0:0:0:
36,192,286183,1,0,0:0:0:0:
475,192,286183,128,0,286355:0:0:0:0:
402,192,286183,1,0,0:0:0:0:
256,192,286183,1,0,0:0:0:0:
109,192,286269,128,0,286355:0:0:0:0:
329,192,286269,1,0,0:0:0:0:
402,192,286355,1,0,0:0:0:0:
182,192,286355,1,0,0:0:0:0:
109,192,286440,1,0,0:0:0:0:
256,192,286440,1,0,0:0:0:0:
475,192,286440,1,0,0:0:0:0:
36,192,286440,128,0,286612:0:0:0:0:
182,192,286526,1,0,0:0:0:0:
402,192,286526,128,0,286612:0:0:0:0:
329,192,286612,1,0,0:0:0:0:
256,192,286612,1,0,0:0:0:0:
475,192,286612,1,0,0:0:0:0:
182,192,286697,1,0,0:0:0:0:
36,192,286697,1,0,0:0:0:0:
402,192,286759,1,0,0:0:0:0:
475,192,286759,1,0,0:0:0:0:
256,192,286808,1,0,0:0:0:0:
329,192,286857,1,0,0:0:0:0:
109,192,286857,1,0,0:0:0:0:
182,192,286906,1,0,0:0:0:0:
36,192,286955,1,0,0:0:0:0:
475,192,286955,1,0,0:0:0:0:
256,192,286955,1,0,0:0:0:0:
329,192,287040,1,0,0:0:0:0:
109,192,287040,1,0,0:0:0:0:
402,192,287040,1,0,0:0:0:0:
475,192,287126,1,0,0:0:0:0:
36,192,287126,1,0,0:0:0:0:
256,192,287126,1,0,0:0:0:0:
182,192,287212,1,0,0:0:0:0:
402,192,287212,1,0,0:0:0:0:
109,192,287212,1,0,0:0:0:0:
36,192,287297,1,0,0:0:0:0:
256,192,287297,1,0,0:0:0:0:
475,192,287297,128,0,287469:0:0:0:0:
182,192,287383,128,0,287469:0:0:0:0:
329,192,287383,1,0,0:0:0:0:
109,192,287469,1,0,0:0:0:0:
402,192,287469,1,0,0:0:0:0:
475,192,287555,5,0,0:0:0:0:
36,192,287555,128,0,287726:0:0:0:0:
256,192,287555,1,0,0:0:0:0:
182,192,287555,1,0,0:0:0:0:
329,192,287640,128,0,287726:0:0:0:0:
109,192,287640,1,0,0:0:0:0:
182,192,287726,1,0,0:0:0:0:
402,192,287726,1,0,0:0:0:0:
36,192,287812,5,0,0:0:0:0:
475,192,287812,128,0,288155:0:0:0:0:
256,192,287812,1,0,0:0:0:0:
329,192,287812,1,0,0:0:0:0:
182,192,287897,128,0,287983:0:0:0:0:
402,192,287897,1,0,0:0:0:0:
109,192,287983,1,0,0:0:0:0:
329,192,287983,128,0,288069:0:0:0:0:
36,192,287983,128,0,288240:0:0:0:0:
182,192,288069,1,0,0:0:0:0:
256,192,288069,128,0,288155:0:0:0:0:
109,192,288155,1,0,0:0:0:0:
402,192,288155,128,0,288240:0:0:0:0:
256,192,288240,1,0,0:0:0:0:
329,192,288240,128,0,288326:0:0:0:0:
475,192,288326,128,0,288412:0:0:0:0:
402,192,288326,1,0,0:0:0:0:
36,192,288326,128,0,288412:0:0:0:0:
182,192,288326,128,0,288497:0:0:0:0:
256,192,288412,128,0,288497:0:0:0:0:
109,192,288497,1,0,0:0:0:0:
329,192,288497,1,0,0:0:0:0:
402,192,288497,128,0,288583:0:0:0:0:
256,192,288583,1,0,0:0:0:0:
182,192,288583,128,0,288669:0:0:0:0:
36,192,288669,1,0,0:0:0:0:
475,192,288669,1,0,0:0:0:0:
109,192,288669,128,0,288840:0:0:0:0:
402,192,288669,1,0,0:0:0:0:
329,192,288755,128,0,288840:0:0:0:0:
182,192,288755,1,0,0:0:0:0:
475,192,288840,1,0,0:0:0:0:
36,192,288840,1,0,0:0:0:0:
109,192,288926,5,0,0:0:0:0:
256,192,288926,1,0,0:0:0:0:
402,192,288926,128,0,289097:0:0:0:0:
329,192,288926,1,0,0:0:0:0:
182,192,289012,128,0,289097:0:0:0:0:
475,192,289012,1,0,0:0:0:0:
329,192,289097,1,0,0:0:0:0:
36,192,289097,1,0,0:0:0:0:
402,192,289183,5,0,0:0:0:0:
256,192,289183,1,0,0:0:0:0:
109,192,289183,128,0,289355:0:0:0:0:
182,192,289183,1,0,0:0:0:0:
329,192,289269,128,0,289355:0:0:0:0:
36,192,289269,1,0,0:0:0:0:
475,192,289355,1,0,0:0:0:0:
182,192,289355,1,0,0:0:0:0:
402,192,289355,1,0,0:0:0:0:
256,192,289440,1,0,0:0:0:0:
109,192,289440,1,0,0:0:0:0:
329,192,289440,1,0,0:0:0:0:
475,192,289526,1,0,0:0:0:0:
182,192,289526,1,0,0:0:0:0:
402,192,289526,1,0,0:0:0:0:
109,192,289612,1,0,0:0:0:0:
36,192,289612,1,0,0:0:0:0:
256,192,289612,1,0,0:0:0:0:
475,192,289697,1,0,0:0:0:0:
329,192,289697,1,0,0:0:0:0:
182,192,289697,1,0,0:0:0:0:
256,192,289783,1,0,0:0:0:0:
402,192,289783,1,0,0:0:0:0:
475,192,289783,1,0,0:0:0:0:
109,192,289869,1,0,0:0:0:0:
36,192,289869,1,0,0:0:0:0:
329,192,289903,1,0,0:0:0:0:
182,192,289955,1,0,0:0:0:0:
402,192,289972,1,0,0:0:0:0:
475,192,290040,5,0,0:0:0:0:
109,192,290040,1,0,0:0:0:0:
256,192,290040,1,0,0:0:0:0:
36,192,290040,128,0,290212:0:0:0:0:
329,192,290126,128,0,290212:0:0:0:0:
182,192,290126,1,0,0:0:0:0:
402,192,290212,1,0,0:0:0:0:
109,192,290212,1,0,0:0:0:0:
36,192,290297,5,0,0:0:0:0:
256,192,290297,1,0,0:0:0:0:
475,192,290297,128,0,290469:0:0:0:0:
329,192,290297,1,0,0:0:0:0:
182,192,290383,128,0,290469:0:0:0:0:
402,192,290383,1,0,0:0:0:0:
329,192,290469,1,0,0:0:0:0:
109,192,290469,1,0,0:0:0:0:
475,192,290555,5,0,0:0:0:0:
256,192,290555,1,0,0:0:0:0:
36,192,290555,128,0,290726:0:0:0:0:
182,192,290555,1,0,0:0:0:0:
329,192,290640,128,0,290726:0:0:0:0:
109,192,290640,1,0,0:0:0:0:
402,192,290726,1,0,0:0:0:0:
182,192,290726,1,0,0:0:0:0:
475,192,290726,1,0,0:0:0:0:
256,192,290812,1,0,0:0:0:0:
109,192,290840,1,0,0:0:0:0:
329,192,290878,1,0,0:0:0:0:
182,192,290932,1,0,0:0:0:0:
402,192,290940,1,0,0:0:0:0:
256,192,291000,1,0,0:0:0:0:
329,192,291040,1,0,0:0:0:0:
402,192,291069,1,0,0:0:0:0:
109,192,291069,1,0,0:0:0:0:
36,192,291069,1,0,0:0:0:0:
475,192,291090,1,0,0:0:0:0:
329,192,291155,1,0,0:0:0:0:
182,192,291155,1,0,0:0:0:0:
256,192,291176,1,0,0:0:0:0:
402,192,291240,1,0,0:0:0:0:
475,192,291240,1,0,0:0:0:0:
109,192,291240,1,0,0:0:0:0:
36,192,291262,1,0,0:0:0:0:
256,192,291326,1,0,0:0:0:0:
329,192,291347,1,0,0:0:0:0:
182,192,291347,1,0,0:0:0:0:
109,192,291412,128,0,291583:0:0:0:0:
475,192,291412,128,0,291583:0:0:0:0:
36,192,291412,128,0,291455:0:0:0:0:
402,192,291412,128,0,291455:0:0:0:0:
329,192,291497,128,0,291669:0:0:0:0:
256,192,291497,1,0,0:0:0:0:
182,192,291583,128,0,291669:0:0:0:0:
402,192,291669,128,0,291840:0:0:0:0:
36,192,291669,128,0,291840:0:0:0:0:
475,192,291669,128,0,291712:0:0:0:0:
256,192,291669,128,0,291926:0:0:0:0:
109,192,291669,1,0,0:0:0:0:
182,192,291755,128,0,291797:0:0:0:0:
329,192,291755,1,0,0:0:0:0:
109,192,291840,128,0,291926:0:0:0:0:
475,192,291840,128,0,291926:0:0:0:0:
402,192,291926,128,0,291969:0:0:0:0:
182,192,291926,1,0,0:0:0:0:
329,192,291926,128,0,292183:0:0:0:0:
36,192,291926,128,0,291969:0:0:0:0:
256,192,292012,128,0,292097:0:0:0:0:
109,192,292012,1,0,0:0:0:0:
402,192,292097,128,0,292269:0:0:0:0:
36,192,292097,128,0,292269:0:0:0:0:
475,192,292097,128,0,292140:0:0:0:0:
182,192,292097,128,0,292355:0:0:0:0:
256,192,292183,1,0,0:0:0:0:
109,192,292183,128,0,292226:0:0:0:0:
329,192,292269,128,0,292355:0:0:0:0:
36,192,292355,128,0,292397:0:0:0:0:
256,192,292355,128,0,292612:0:0:0:0:
109,192,292355,128,0,292526:0:0:0:0:
402,192,292355,1,0,0:0:0:0:
475,192,292355,128,0,292526:0:0:0:0:
182,192,292440,1,0,0:0:0:0:
329,192,292440,128,0,292483:0:0:0:0:
36,192,292526,128,0,292612:0:0:0:0:
402,192,292526,128,0,292612:0:0:0:0:
109,192,292612,128,0,292655:0:0:0:0:
329,192,292612,1,0,0:0:0:0:
475,192,292612,128,0,292655:0:0:0:0:
182,192,292612,128,0,292869:0:0:0:0:
256,192,292697,128,0,292783:0:0:0:0:
402,192,292697,1,0,0:0:0:0:
109,192,292783,128,0,292955:0:0:0:0:
475,192,292783,128,0,292955:0:0:0:0:
36,192,292783,128,0,292826:0:0:0:0:
329,192,292783,128,0,293040:0:0:0:0:
256,192,292869,1,0,0:0:0:0:
402,192,292869,128,0,292912:0:0:0:0:
182,192,292955,128,0,293040:0:0:0:0:
402,192,293040,128,0,293212:0:0:0:0:
36,192,293040,128,0,293212:0:0:0:0:
475,192,293040,128,0,293083:0:0:0:0:
256,192,293040,128,0,293297:0:0:0:0:
109,192,293040,1,0,0:0:0:0:
182,192,293126,128,0,293169:0:0:0:0:
329,192,293126,1,0,0:0:0:0:
109,192,293212,128,0,293297:0:0:0:0:
475,192,293212,128,0,293297:0:0:0:0:
402,192,293297,128,0,293340:0:0:0:0:
36,192,293297,128,0,293340:0:0:0:0:
329,192,293297,128,0,293340:0:0:0:0:
182,192,293297,128,0,293340:0:0:0:0:
256,192,293383,1,0,0:0:0:0:
475,192,293383,1,0,0:0:0:0:
36,192,293469,1,0,0:0:0:0:
329,192,293469,1,0,0:0:0:0:
109,192,293533,1,0,0:0:0:0:
402,192,293555,1,0,0:0:0:0:
182,192,293576,1,0,0:0:0:0:
256,192,293597,1,0,0:0:0:0:
475,192,293640,1,0,0:0:0:0:
109,192,293683,1,0,0:0:0:0:
402,192,293726,1,0,0:0:0:0:
36,192,293726,1,0,0:0:0:0:
329,192,293790,1,0,0:0:0:0:
256,192,293833,1,0,0:0:0:0:
182,192,293855,1,0,0:0:0:0:
475,192,293897,1,0,0:0:0:0:
36,192,293897,1,0,0:0:0:0:
329,192,293940,1,0,0:0:0:0:
109,192,293983,1,0,0:0:0:0:
402,192,293983,1,0,0:0:0:0:
182,192,294047,1,0,0:0:0:0:
256,192,294090,1,0,0:0:0:0:
329,192,294112,1,0,0:0:0:0:
475,192,294155,128,0,294412:0:0:0:0:
182,192,294155,128,0,294240:0:0:0:0:
36,192,294155,128,0,294240:0:0:0:0:
109,192,294155,1,0,0:0:0:0:
402,192,294155,128,0,294326:0:0:0:0:
256,192,294240,128,0,294497:0:0:0:0:
329,192,294240,1,0,0:0:0:0:
182,192,294326,1,0,0:0:0:0:
109,192,294326,128,0,294583:0:0:0:0:
36,192,294326,128,0,294412:0:0:0:0:
329,192,294412,128,0,294669:0:0:0:0:
402,192,294412,1,0,0:0:0:0:
182,192,294497,128,0,294755:0:0:0:0:
36,192,294497,1,0,0:0:0:0:
475,192,294497,128,0,294583:0:0:0:0:
402,192,294583,128,0,294840:0:0:0:0:
256,192,294583,1,0,0:0:0:0:
36,192,294669,128,0,294926:0:0:0:0:
475,192,294669,1,0,0:0:0:0:
109,192,294669,1,0,0:0:0:0:
329,192,294755,1,0,0:0:0:0:
256,192,294755,128,0,294840:0:0:0:0:
109,192,294840,128,0,295097:0:0:0:0:
475,192,294840,128,0,294926:0:0:0:0:
182,192,294840,1,0,0:0:0:0:
329,192,294926,128,0,295097:0:0:0:0:
256,192,294926,1,0,0:0:0:0:
402,192,294926,128,0,295012:0:0:0:0:
36,192,295012,1,0,0:0:0:0:
182,192,295012,128,0,295097:0:0:0:0:
475,192,295012,128,0,295269:0:0:0:0:
402,192,295097,1,0,0:0:0:0:
256,192,295097,128,0,295269:0:0:0:0:
182,192,295183,128,0,295440:0:0:0:0:
36,192,295183,128,0,295312:0:0:0:0:
329,192,295183,128,0,295226:0:0:0:0:
109,192,295226,1,0,0:0:0:0:
402,192,295269,128,0,295526:0:0:0:0:
329,192,295312,1,0,0:0:0:0:
109,192,295355,128,0,295526:0:0:0:0:
256,192,295355,128,0,295397:0:0:0:0:
475,192,295355,128,0,295397:0:0:0:0:
36,192,295397,1,0,0:0:0:0:
329,192,295440,128,0,295526:0:0:0:0:
256,192,295483,1,0,0:0:0:0:
475,192,295526,1,0,0:0:0:0:
182,192,295526,1,0,0:0:0:0:
36,192,295526,1,0,0:0:0:0:
256,192,295640,1,0,0:0:0:0:
109,192,295640,1,0,0:0:0:0:
402,192,295640,1,0,0:0:0:0:
329,192,295869,1,0,0:0:0:0:
475,192,295869,1,0,0:0:0:0:
182,192,295955,1,0,0:0:0:0:
36,192,295955,1,0,0:0:0:0:
402,192,296040,1,0,0:0:0:0:
256,192,296083,1,0,0:0:0:0:
109,192,296126,1,0,0:0:0:0:
475,192,296212,1,0,0:0:0:0:
36,192,296212,1,0,0:0:0:0:
182,192,296255,1,0,0:0:0:0:
329,192,296297,1,0,0:0:0:0:
402,192,296340,1,0,0:0:0:0:
256,192,296383,1,0,0:0:0:0:
109,192,296426,1,0,0:0:0:0:
182,192,296469,1,0,0:0:0:0:
329,192,296512,1,0,0:0:0:0:
475,192,296555,1,0,0:0:0:0:
36,192,296555,1,0,0:0:0:0:
109,192,296612,1,0,0:0:0:0:
402,192,296623,1,0,0:0:0:0:
182,192,296669,1,0,0:0:0:0:
256,192,296726,1,0,0:0:0:0:
329,192,296755,1,0,0:0:0:0:
109,192,296760,1,0,0:0:0:0:
402,192,296783,1,0,0:0:0:0:
256,192,296897,1,0,0:0:0:0:
402,192,296897,128,0,297026:0:0:0:0:
475,192,296897,128,0,296940:0:0:0:0:
36,192,296897,128,0,297069:0:0:0:0:
182,192,296940,128,0,297155:0:0:0:0:
109,192,296983,128,0,297026:0:0:0:0:
329,192,296983,128,0,297069:0:0:0:0:
475,192,297069,1,0,0:0:0:0:
256,192,297069,128,0,297283:0:0:0:0:
402,192,297112,128,0,297326:0:0:0:0:
109,192,297155,1,0,0:0:0:0:
329,192,297155,128,0,297197:0:0:0:0:
36,192,297197,128,0,297412:0:0:0:0:
182,192,297240,128,0,297326:0:0:0:0:
475,192,297240,128,0,297412:0:0:0:0:
109,192,297326,128,0,297369:0:0:0:0:
329,192,297326,1,0,0:0:0:0:
256,192,297369,1,0,0:0:0:0:
402,192,297412,1,0,0:0:0:0:
182,192,297433,1,0,0:0:0:0:
256,192,297497,1,0,0:0:0:0:
329,192,297515,1,0,0:0:0:0:
475,192,297583,1,0,0:0:0:0:
402,192,297583,1,0,0:0:0:0:
182,192,297583,1,0,0:0:0:0:
36,192,297605,1,0,0:0:0:0:
256,192,297669,1,0,0:0:0:0:
109,192,297690,1,0,0:0:0:0:
329,192,297755,1,0,0:0:0:0:
475,192,297776,1,0,0:0:0:0:
36,192,297797,1,0,0:0:0:0:
256,192,297840,1,0,0:0:0:0:
402,192,297862,1,0,0:0:0:0:
475,192,297926,1,0,0:0:0:0:
109,192,297926,1,0,0:0:0:0:
329,192,297969,1,0,0:0:0:0:
182,192,298012,1,0,0:0:0:0:
36,192,298033,1,0,0:0:0:0:
402,192,298055,1,0,0:0:0:0:
475,192,298076,1,0,0:0:0:0:
109,192,298097,1,0,0:0:0:0:
256,192,298140,1,0,0:0:0:0:
182,192,298205,1,0,0:0:0:0:
109,192,298247,1,0,0:0:0:0:
36,192,298269,1,0,0:0:0:0:
475,192,298269,1,0,0:0:0:0:
329,192,298290,1,0,0:0:0:0:
402,192,298355,1,0,0:0:0:0:
256,192,298376,1,0,0:0:0:0:
36,192,298440,1,0,0:0:0:0:
182,192,298462,1,0,0:0:0:0:
475,192,298483,1,0,0:0:0:0:
109,192,298526,1,0,0:0:0:0:
256,192,298547,1,0,0:0:0:0:
36,192,298612,1,0,0:0:0:0:
329,192,298612,1,0,0:0:0:0:
402,192,298633,1,0,0:0:0:0:
182,192,298697,1,0,0:0:0:0:
475,192,298697,1,0,0:0:0:0:
109,192,298740,1,0,0:0:0:0:
36,192,298762,1,0,0:0:0:0:
402,192,298783,1,0,0:0:0:0:
256,192,298826,1,0,0:0:0:0:
329,192,298890,1,0,0:0:0:0:
36,192,298912,1,0,0:0:0:0:
109,192,298933,1,0,0:0:0:0:
402,192,298933,1,0,0:0:0:0:
475,192,298955,1,0,0:0:0:0:
256,192,298976,1,0,0:0:0:0:
182,192,299040,1,0,0:0:0:0:
109,192,299062,1,0,0:0:0:0:
36,192,299083,1,0,0:0:0:0:
475,192,299105,1,0,0:0:0:0:
402,192,299126,1,0,0:0:0:0:
329,192,299145,1,0,0:0:0:0:
109,192,299212,1,0,0:0:0:0:
182,192,299276,1,0,0:0:0:0:
256,192,299297,1,0,0:0:0:0:
475,192,299297,128,0,299383:0:0:0:0:
402,192,299297,128,0,299340:0:0:0:0:
36,192,299383,1,0,0:0:0:0:
329,192,299383,1,0,0:0:0:0:
256,192,299426,1,0,0:0:0:0:
475,192,299469,1,0,0:0:0:0:
182,192,299469,1,0,0:0:0:0:
402,192,299490,1,0,0:0:0:0:
109,192,299555,1,0,0:0:0:0:
329,192,299555,1,0,0:0:0:0:
182,192,299640,1,0,0:0:0:0:
402,192,299640,128,0,299855:0:0:0:0:
36,192,299640,128,0,299769:0:0:0:0:
475,192,299640,1,0,0:0:0:0:
256,192,299683,128,0,299897:0:0:0:0:
329,192,299726,128,0,299769:0:0:0:0:
109,192,299726,128,0,299812:0:0:0:0:
182,192,299812,128,0,300026:0:0:0:0:
475,192,299812,128,0,299897:0:0:0:0:
36,192,299855,128,0,300069:0:0:0:0:
329,192,299897,1,0,0:0:0:0:
109,192,299897,128,0,299940:0:0:0:0:
402,192,299940,128,0,300155:0:0:0:0:
256,192,299983,128,0,300069:0:0:0:0:
475,192,299983,128,0,300026:0:0:0:0:
109,192,300069,1,0,0:0:0:0:
329,192,300069,128,0,300326:0:0:0:0:
182,192,300112,128,0,300283:0:0:0:0:
475,192,300155,1,0,0:0:0:0:
256,192,300155,128,0,300197:0:0:0:0:
36,192,300155,128,0,300197:0:0:0:0:
109,192,300240,128,0,300326:0:0:0:0:
402,192,300240,1,0,0:0:0:0:
475,192,300326,1,0,0:0:0:0:
256,192,300326,1,0,0:0:0:0:
36,192,300326,1,0,0:0:0:0:
182,192,300369,1,0,0:0:0:0:
329,192,300412,1,0,0:0:0:0:
109,192,300455,1,0,0:0:0:0:
402,192,300497,1,0,0:0:0:0:
182,192,300540,1,0,0:0:0:0:
256,192,300583,1,0,0:0:0:0:
475,192,300626,1,0,0:0:0:0:
329,192,300669,5,0,0:0:0:0:
36,192,300669,128,0,300755:0:0:0:0:
109,192,300669,128,0,300712:0:0:0:0:
402,192,300733,1,0,0:0:0:0:
182,192,300776,1,0,0:0:0:0:
256,192,300797,1,0,0:0:0:0:
36,192,300840,1,0,0:0:0:0:
475,192,300840,1,0,0:0:0:0:
109,192,300862,1,0,0:0:0:0:
329,192,300883,1,0,0:0:0:0:
182,192,300926,1,0,0:0:0:0:
402,192,300990,1,0,0:0:0:0:
256,192,301012,1,0,0:0:0:0:
109,192,301033,1,0,0:0:0:0:
329,192,301097,1,0,0:0:0:0:
182,192,301140,1,0,0:0:0:0:
402,192,301162,1,0,0:0:0:0:
36,192,301183,1,0,0:0:0:0:
475,192,301183,1,0,0:0:0:0:
256,192,301226,1,0,0:0:0:0:
329,192,301247,1,0,0:0:0:0:
109,192,301290,1,0,0:0:0:0:
182,192,301355,1,0,0:0:0:0:
402,192,301355,128,0,301397:0:0:0:0:
475,192,301355,128,0,301440:0:0:0:0:
109,192,301419,1,0,0:0:0:0:
329,192,301462,1,0,0:0:0:0:
256,192,301483,1,0,0:0:0:0:
475,192,301526,1,0,0:0:0:0:
36,192,301526,1,0,0:0:0:0:
402,192,301547,1,0,0:0:0:0:
182,192,301569,1,0,0:0:0:0:
329,192,301612,1,0,0:0:0:0:
109,192,301676,1,0,0:0:0:0:
256,192,301697,1,0,0:0:0:0:
402,192,301719,1,0,0:0:0:0:
182,192,301783,1,0,0:0:0:0:
329,192,301826,1,0,0:0:0:0:
109,192,301847,1,0,0:0:0:0:
475,192,301869,1,0,0:0:0:0:
36,192,301869,1,0,0:0:0:0:
256,192,301912,1,0,0:0:0:0:
182,192,301933,1,0,0:0:0:0:
402,192,301976,1,0,0:0:0:0:
109,192,302040,128,0,302083:0:0:0:0:
36,192,302040,128,0,302126:0:0:0:0:
329,192,302040,1,0,0:0:0:0:
402,192,302105,1,0,0:0:0:0:
475,192,302126,1,0,0:0:0:0:
182,192,302126,1,0,0:0:0:0:
256,192,302147,1,0,0:0:0:0:
109,192,302212,1,0,0:0:0:0:
329,192,302212,1,0,0:0:0:0:
402,192,302297,1,0,0:0:0:0:
182,192,302297,1,0,0:0:0:0:
256,192,302383,1,0,0:0:0:0:
109,192,302383,128,0,302512:0:0:0:0:
36,192,302383,128,0,302426:0:0:0:0:
475,192,302383,128,0,302555:0:0:0:0:
329,192,302426,128,0,302640:0:0:0:0:
402,192,302469,128,0,302512:0:0:0:0:
182,192,302469,128,0,302555:0:0:0:0:
36,192,302555,1,0,0:0:0:0:
256,192,302555,128,0,302769:0:0:0:0:
109,192,302597,128,0,302812:0:0:0:0:
402,192,302640,1,0,0:0:0:0:
182,192,302640,128,0,302683:0:0:0:0:
475,192,302683,128,0,302897:0:0:0:0:
329,192,302726,128,0,302812:0:0:0:0:
36,192,302726,128,0,302897:0:0:0:0:
402,192,302812,128,0,302855:0:0:0:0:
182,192,302812,1,0,0:0:0:0:
256,192,302855,1,0,0:0:0:0:
109,192,302897,1,0,0:0:0:0:
329,192,302919,1,0,0:0:0:0:
256,192,302983,1,0,0:0:0:0:
182,192,303000,1,0,0:0:0:0:
36,192,303069,1,0,0:0:0:0:
109,192,303069,1,0,0:0:0:0:
329,192,303069,1,0,0:0:0:0:
475,192,303090,1,0,0:0:0:0:
256,192,303155,1,0,0:0:0:0:
402,192,303176,1,0,0:0:0:0:
182,192,303240,1,0,0:0:0:0:
36,192,303262,1,0,0:0:0:0:
475,192,303283,1,0,0:0:0:0:
256,192,303326,1,0,0:0:0:0:
109,192,303347,1,0,0:0:0:0:
36,192,303412,1,0,0:0:0:0:
402,192,303412,1,0,0:0:0:0:
182,192,303455,1,0,0:0:0:0:
329,192,303497,1,0,0:0:0:0:
475,192,303519,1,0,0:0:0:0:
109,192,303540,1,0,0:0:0:0:
36,192,303562,1,0,0:0:0:0:
402,192,303583,1,0,0:0:0:0:
256,192,303626,1,0,0:0:0:0:
329,192,303690,1,0,0:0:0:0:
402,192,303733,1,0,0:0:0:0:
475,192,303755,1,0,0:0:0:0:
36,192,303755,1,0,0:0:0:0:
182,192,303776,1,0,0:0:0:0:
109,192,303840,1,0,0:0:0:0:
256,192,303862,1,0,0:0:0:0:
475,192,303926,1,0,0:0:0:0:
329,192,303947,1,0,0:0:0:0:
36,192,303969,1,0,0:0:0:0:
402,192,304012,1,0,0:0:0:0:
256,192,304033,1,0,0:0:0:0:
475,192,304097,1,0,0:0:0:0:
182,192,304097,1,0,0:0:0:0:
109,192,304119,1,0,0:0:0:0:
329,192,304183,1,0,0:0:0:0:
36,192,304183,1,0,0:0:0:0:
402,192,304226,1,0,0:0:0:0:
475,192,304247,1,0,0:0:0:0:
109,192,304269,1,0,0:0:0:0:
256,192,304312,1,0,0:0:0:0:
182,192,304376,1,0,0:0:0:0:
475,192,304397,1,0,0:0:0:0:
402,192,304419,1,0,0:0:0:0:
109,192,304419,1,0,0:0:0:0:
36,192,304440,1,0,0:0:0:0:
256,192,304462,1,0,0:0:0:0:
329,192,304526,1,0,0:0:0:0:
402,192,304569,1,0,0:0:0:0:
36,192,304590,1,0,0:0:0:0:
109,192,304612,1,0,0:0:0:0:
475,192,304612,1,0,0:0:0:0:
182,192,304633,1,0,0:0:0:0:
256,192,304676,1,0,0:0:0:0:
402,192,304697,1,0,0:0:0:0:
109,192,304783,128,0,304997:0:0:0:0:
475,192,304783,128,0,304912:0:0:0:0:
329,192,304783,1,0,0:0:0:0:
36,192,304783,1,0,0:0:0:0:
256,192,304826,128,0,305083:0:0:0:0:
402,192,304869,128,0,304955:0:0:0:0:
182,192,304869,128,0,304912:0:0:0:0:
36,192,304955,128,0,305040:0:0:0:0:
329,192,304955,128,0,305040:0:0:0:0:
475,192,304997,128,0,305126:0:0:0:0:
182,192,305040,128,0,305383:0:0:0:0:
402,192,305040,128,0,305083:0:0:0:0:
109,192,305126,128,0,305212:0:0:0:0:
36,192,305126,128,0,305297:0:0:0:0:
329,192,305169,1,0,0:0:0:0:
475,192,305212,128,0,305297:0:0:0:0:
256,192,305255,1,0,0:0:0:0:
329,192,305297,128,0,305426:0:0:0:0:
402,192,305297,1,0,0:0:0:0:
109,192,305297,1,0,0:0:0:0:
256,192,305383,128,0,305726:0:0:0:0:
475,192,305383,128,0,305469:0:0:0:0:
36,192,305426,1,0,0:0:0:0:
182,192,305469,128,0,305555:0:0:0:0:
109,192,305469,128,0,305640:0:0:0:0:
402,192,305512,1,0,0:0:0:0:
36,192,305555,128,0,305640:0:0:0:0:
329,192,305597,1,0,0:0:0:0:
402,192,305640,128,0,305769:0:0:0:0:
475,192,305640,1,0,0:0:0:0:
182,192,305640,1,0,0:0:0:0:
329,192,305726,128,0,306026:0:0:0:0:
36,192,305726,128,0,305812:0:0:0:0:
109,192,305769,1,0,0:0:0:0:
256,192,305812,1,0,0:0:0:0:
182,192,305812,128,0,306069:0:0:0:0:
475,192,305855,1,0,0:0:0:0:
109,192,305897,128,0,305983:0:0:0:0:
402,192,305940,128,0,305983:0:0:0:0:
475,192,305983,128,0,306112:0:0:0:0:
36,192,305983,128,0,306155:0:0:0:0:
256,192,305983,128,0,306069:0:0:0:0:
109,192,306069,128,0,306155:0:0:0:0:
402,192,306069,128,0,306240:0:0:0:0:
329,192,306112,128,0,306155:0:0:0:0:
182,192,306155,1,0,0:0:0:0:
256,192,306155,128,0,306326:0:0:0:0:
475,192,306197,128,0,306240:0:0:0:0:
329,192,306240,128,0,306583:0:0:0:0:
109,192,306240,128,0,306326:0:0:0:0:
36,192,306283,1,0,0:0:0:0:
402,192,306326,1,0,0:0:0:0:
475,192,306326,128,0,306412:0:0:0:0:
182,192,306369,1,0,0:0:0:0:
36,192,306412,128,0,306497:0:0:0:0:
256,192,306455,1,0,0:0:0:0:
182,192,306497,128,0,306626:0:0:0:0:
109,192,306497,1,0,0:0:0:0:
402,192,306497,128,0,306583:0:0:0:0:
36,192,306583,128,0,306669:0:0:0:0:
256,192,306583,128,0,306926:0:0:0:0:
475,192,306626,1,0,0:0:0:0:
329,192,306669,1,0,0:0:0:0:
402,192,306669,128,0,306755:0:0:0:0:
109,192,306712,1,0,0:0:0:0:
475,192,306755,128,0,306840:0:0:0:0:
182,192,306797,1,0,0:0:0:0:
109,192,306840,128,0,306969:0:0:0:0:
36,192,306840,1,0,0:0:0:0:
329,192,306840,128,0,306926:0:0:0:0:
182,192,306926,128,0,307226:0:0:0:0:
475,192,306926,128,0,307012:0:0:0:0:
402,192,306969,1,0,0:0:0:0:
256,192,307012,1,0,0:0:0:0:
329,192,307012,128,0,307269:0:0:0:0:
36,192,307055,1,0,0:0:0:0:
402,192,307097,128,0,307183:0:0:0:0:
109,192,307140,128,0,307183:0:0:0:0:
36,192,307183,128,0,307312:0:0:0:0:
475,192,307183,128,0,307355:0:0:0:0:
256,192,307183,128,0,307269:0:0:0:0:
402,192,307269,128,0,307355:0:0:0:0:
109,192,307269,128,0,307440:0:0:0:0:
182,192,307312,128,0,307355:0:0:0:0:
329,192,307355,1,0,0:0:0:0:
256,192,307355,128,0,307526:0:0:0:0:
36,192,307397,128,0,307440:0:0:0:0:
182,192,307440,128,0,307812:0:0:0:0:
402,192,307440,128,0,307526:0:0:0:0:
475,192,307483,1,0,0:0:0:0:
109,192,307526,128,0,307612:0:0:0:0:
36,192,307526,128,0,307697:0:0:0:0:
329,192,307569,1,0,0:0:0:0:
475,192,307612,128,0,307697:0:0:0:0:
256,192,307655,1,0,0:0:0:0:
329,192,307697,128,0,307926:0:0:0:0:
402,192,307697,1,0,0:0:0:0:
109,192,307697,1,0,0:0:0:0:
256,192,307783,128,0,307869:0:0:0:0:
475,192,307783,1,0,0:0:0:0:
402,192,307869,128,0,308097:0:0:0:0:
109,192,307869,128,0,308097:0:0:0:0:
36,192,307869,128,0,307926:0:0:0:0:
182,192,307926,128,0,307983:0:0:0:0:
256,192,307983,128,0,308040:0:0:0:0:
329,192,308040,128,0,308212:0:0:0:0:
36,192,308040,1,0,0:0:0:0:
475,192,308040,128,0,308155:0:0:0:0:
182,192,308097,128,0,308155:0:0:0:0:
256,192,308155,128,0,308326:0:0:0:0:
109,192,308212,1,0,0:0:0:0:
402,192,308212,128,0,308269:0:0:0:0:
36,192,308240,128,0,308440:0:0:0:0:
475,192,308269,128,0,308326:0:0:0:0:
182,192,308326,1,0,0:0:0:0:
329,192,308326,128,0,308383:0:0:0:0:
109,192,308355,128,0,308783:0:0:0:0:
402,192,308383,128,0,308440:0:0:0:0:
475,192,308440,128,0,308555:0:0:0:0:
256,192,308440,1,0,0:0:0:0:
182,192,308469,128,0,308612:0:0:0:0:
256,192,308555,128,0,308726:0:0:0:0:
329,192,308555,128,0,308640:0:0:0:0:
36,192,308555,128,0,308955:0:0:0:0:
402,192,308640,1,0,0:0:0:0:
475,192,308669,128,0,308726:0:0:0:0:
182,192,308726,128,0,308897:0:0:0:0:
329,192,308755,1,0,0:0:0:0:
402,192,308783,128,0,308840:0:0:0:0:
256,192,308869,1,0,0:0:0:0:
109,192,308897,128,0,309355:0:0:0:0:
329,192,308897,128,0,308955:0:0:0:0:
475,192,308897,128,0,309126:0:0:0:0:
182,192,308983,1,0,0:0:0:0:
256,192,309012,128,0,309069:0:0:0:0:
402,192,309012,128,0,309240:0:0:0:0:
36,192,309097,1,0,0:0:0:0:
182,192,309126,128,0,309183:0:0:0:0:
329,192,309126,128,0,309240:0:0:0:0:
256,192,309240,128,0,309355:0:0:0:0:
36,192,309240,128,0,309497:0:0:0:0:
475,192,309240,128,0,309583:0:0:0:0:
182,192,309326,128,0,309583:0:0:0:0:
402,192,309355,1,0,0:0:0:0:
329,192,309355,128,0,309469:0:0:0:0:
256,192,309469,1,0,0:0:0:0:
402,192,309469,128,0,309755:0:0:0:0:
109,192,309497,128,0,309812:0:0:0:0:
329,192,309583,1,0,0:0:0:0:
256,192,309583,128,0,309697:0:0:0:0:
36,192,309583,1,0,0:0:0:0:
475,192,309669,1,0,0:0:0:0:
182,192,309697,1,0,0:0:0:0:
329,192,309697,128,0,309926:0:0:0:0:
36,192,309755,128,0,310040:0:0:0:0:
256,192,309812,1,0,0:0:0:0:
182,192,309812,128,0,309926:0:0:0:0:
402,192,309840,1,0,0:0:0:0:
109,192,309926,1,0,0:0:0:0:
256,192,309926,128,0,310155:0:0:0:0:
475,192,309926,128,0,310012:0:0:0:0:
329,192,310012,1,0,0:0:0:0:
182,192,310040,1,0,0:0:0:0:
109,192,310040,128,0,310155:0:0:0:0:
402,192,310073,128,0,310171:0:0:0:0:
475,192,310119,1,0,0:0:0:0:
36,192,310155,1,0,0:0:0:0:
182,192,310155,128,0,310269:0:0:0:0:
109,192,310269,1,0,0:0:0:0:
329,192,310269,1,0,0:0:0:0:
402,192,310269,1,0,0:0:0:0:
36,192,310269,128,0,310440:0:0:0:0:
256,192,310337,1,0,0:0:0:0:
475,192,310355,128,0,310397:0:0:0:0:
329,192,310406,1,0,0:0:0:0:
402,192,310440,1,0,0:0:0:0:
109,192,310440,1,0,0:0:0:0:
182,192,310475,1,0,0:0:0:0:
256,192,310526,1,0,0:0:0:0:
402,192,310612,128,0,310840:0:0:0:0:
475,192,310612,128,0,310669:0:0:0:0:
36,192,310612,1,0,0:0:0:0:
109,192,310640,1,0,0:0:0:0:
182,192,310669,128,0,310783:0:0:0:0:
256,192,310697,128,0,310755:0:0:0:0:
329,192,310726,128,0,310869:0:0:0:0:
109,192,310755,128,0,310812:0:0:0:0:
36,192,310783,128,0,310926:0:0:0:0:
475,192,310783,1,0,0:0:0:0:
256,192,310840,128,0,311069:0:0:0:0:
182,192,310869,128,0,310955:0:0:0:0:
109,192,310926,1,0,0:0:0:0:
329,192,310955,128,0,311040:0:0:0:0:
402,192,310983,1,0,0:0:0:0:
475,192,311012,128,0,311126:0:0:0:0:
182,192,311040,128,0,311183:0:0:0:0:
109,192,311069,128,0,311297:0:0:0:0:
402,192,311097,128,0,311155:0:0:0:0:
329,192,311126,128,0,311269:0:0:0:0:
36,192,311126,1,0,0:0:0:0:
256,192,311155,128,0,311212:0:0:0:0:
36,192,311240,128,0,311297:0:0:0:0:
402,192,311269,1,0,0:0:0:0:
475,192,311297,1,0,0:0:0:0:
182,192,311297,1,0,0:0:0:0:
256,192,311362,1,0,0:0:0:0:
109,192,311383,1,0,0:0:0:0:
329,192,311447,1,0,0:0:0:0:
182,192,311469,1,0,0:0:0:0:
36,192,311490,1,0,0:0:0:0:
256,192,311533,1,0,0:0:0:0:
475,192,311555,1,0,0:0:0:0:
109,192,311555,1,0,0:0:0:0:
402,192,311597,1,0,0:0:0:0:
329,192,311640,1,0,0:0:0:0:
256,192,311662,1,0,0:0:0:0:
182,192,311683,1,0,0:0:0:0:
109,192,311705,1,0,0:0:0:0:
36,192,311726,1,0,0:0:0:0:
475,192,311726,1,0,0:0:0:0:
402,192,311755,1,0,0:0:0:0:
329,192,311812,1,0,0:0:0:0:
109,192,311846,1,0,0:0:0:0:
256,192,311869,1,0,0:0:0:0:
402,192,311897,1,0,0:0:0:0:
182,192,311940,1,0,0:0:0:0:
475,192,311983,1,0,0:0:0:0:
109,192,312026,1,0,0:0:0:0:
329,192,312047,1,0,0:0:0:0:
182,192,312090,1,0,0:0:0:0:
402,192,312112,1,0,0:0:0:0:
36,192,312155,1,0,0:0:0:0:
329,192,312197,1,0,0:0:0:0:
109,192,312240,1,0,0:0:0:0:
256,192,312262,1,0,0:0:0:0:
402,192,312277,1,0,0:0:0:0:
182,192,312326,1,0,0:0:0:0:
109,192,312390,1,0,0:0:0:0:
36,192,312412,1,0,0:0:0:0:
475,192,312412,1,0,0:0:0:0:
402,192,312433,1,0,0:0:0:0:
329,192,312455,1,0,0:0:0:0:
256,192,312476,1,0,0:0:0:0:
182,192,312497,1,0,0:0:0:0:
109,192,312540,1,0,0:0:0:0:
36,192,312583,1,0,0:0:0:0:
402,192,312583,1,0,0:0:0:0:
256,192,312605,1,0,0:0:0:0:
475,192,312647,1,0,0:0:0:0:
329,192,312669,1,0,0:0:0:0:
109,192,312669,1,0,0:0:0:0:
182,192,312690,1,0,0:0:0:0:
402,192,312755,1,0,0:0:0:0:
256,192,312797,1,0,0:0:0:0:
329,192,312862,1,0,0:0:0:0:
36,192,312883,1,0,0:0:0:0:
109,192,312905,1,0,0:0:0:0:
402,192,312905,1,0,0:0:0:0:
475,192,312926,1,0,0:0:0:0:
182,192,312947,1,0,0:0:0:0:
329,192,313012,1,0,0:0:0:0:
36,192,313055,1,0,0:0:0:0:
256,192,313076,1,0,0:0:0:0:
182,192,313088,1,0,0:0:0:0:
475,192,313097,1,0,0:0:0:0:
402,192,313140,1,0,0:0:0:0:
109,192,313164,1,0,0:0:0:0:
329,192,313217,1,0,0:0:0:0:
36,192,313240,1,0,0:0:0:0:
256,192,313286,1,0,0:0:0:0:
109,192,313355,128,0,313583:0:0:0:0:
402,192,313355,128,0,313583:0:0:0:0:
182,192,313355,1,0,0:0:0:0:
475,192,313355,128,0,313412:0:0:0:0:
329,192,313412,128,0,313469:0:0:0:0:
256,192,313469,128,0,313526:0:0:0:0:
182,192,313526,128,0,313697:0:0:0:0:
475,192,313526,1,0,0:0:0:0:
36,192,313526,128,0,313640:0:0:0:0:
329,192,313583,128,0,313640:0:0:0:0:
256,192,313640,128,0,313812:0:0:0:0:
402,192,313697,1,0,0:0:0:0:
109,192,313697,128,0,313755:0:0:0:0:
475,192,313726,128,0,313926:0:0:0:0:
36,192,313755,128,0,313812:0:0:0:0:
329,192,313812,1,0,0:0:0:0:
182,192,313812,128,0,313869:0:0:0:0:
402,192,313840,128,0,314269:0:0:0:0:
109,192,313869,128,0,313926:0:0:0:0:
36,192,313926,128,0,314040:0:0:0:0:
256,192,313926,1,0,0:0:0:0:
329,192,313955,128,0,314097:0:0:0:0:
256,192,314040,128,0,314212:0:0:0:0:
182,192,314040,128,0,314126:0:0:0:0:
475,192,314040,128,0,314440:0:0:0:0:
109,192,314126,1,0,0:0:0:0:
36,192,314155,128,0,314212:0:0:0:0:
329,192,314212,128,0,314383:0:0:0:0:
182,192,314240,1,0,0:0:0:0:
109,192,314269,128,0,314326:0:0:0:0:
256,192,314355,1,0,0:0:0:0:
402,192,314383,128,0,314840:0:0:0:0:
182,192,314383,128,0,314440:0:0:0:0:
36,192,314383,128,0,314612:0:0:0:0:
329,192,314469,1,0,0:0:0:0:
256,192,314497,128,0,314555:0:0:0:0:
109,192,314497,128,0,314840:0:0:0:0:
475,192,314583,1,0,0:0:0:0:
329,192,314612,128,0,314669:0:0:0:0:
182,192,314612,128,0,314955:0:0:0:0:
256,192,314726,128,0,314840:0:0:0:0:
475,192,314726,128,0,314983:0:0:0:0:
36,192,314726,128,0,315069:0:0:0:0:
329,192,314812,128,0,315069:0:0:0:0:
256,192,314955,1,0,0:0:0:0:
109,192,314955,128,0,315240:0:0:0:0:
402,192,314983,128,0,315297:0:0:0:0:
182,192,315069,1,0,0:0:0:0:
256,192,315069,128,0,315183:0:0:0:0:
475,192,315069,1,0,0:0:0:0:
36,192,315155,1,0,0:0:0:0:
329,192,315183,1,0,0:0:0:0:
182,192,315183,128,0,315412:0:0:0:0:
475,192,315240,128,0,315526:0:0:0:0:
256,192,315297,1,0,0:0:0:0:
329,192,315297,128,0,315412:0:0:0:0:
109,192,315326,1,0,0:0:0:0:
402,192,315412,1,0,0:0:0:0:
256,192,315412,128,0,315640:0:0:0:0:
36,192,315412,128,0,315497:0:0:0:0:
182,192,315497,1,0,0:0:0:0:
329,192,315526,1,0,0:0:0:0:
402,192,315526,128,0,315640:0:0:0:0:
109,192,315559,128,0,315657:0:0:0:0:
36,192,315605,1,0,0:0:0:0:
475,192,315640,1,0,0:0:0:0:
329,192,315640,128,0,315755:0:0:0:0:
402,192,315755,1,0,0:0:0:0:
182,192,315755,1,0,0:0:0:0:
109,192,315755,1,0,0:0:0:0:
475,192,315755,128,0,315926:0:0:0:0:
256,192,315823,1,0,0:0:0:0:
36,192,315840,128,0,315883:0:0:0:0:
182,192,315892,1,0,0:0:0:0:
109,192,315926,1,0,0:0:0:0:
402,192,315926,1,0,0:0:0:0:
329,192,315960,1,0,0:0:0:0:
256,192,316012,1,0,0:0:0:0:
109,192,316097,128,0,316326:0:0:0:0:
36,192,316097,128,0,316155:0:0:0:0:
475,192,316097,1,0,0:0:0:0:
402,192,316126,1,0,0:0:0:0:
329,192,316155,128,0,316269:0:0:0:0:
256,192,316183,128,0,316240:0:0:0:0:
182,192,316212,128,0,316355:0:0:0:0:
402,192,316240,128,0,316297:0:0:0:0:
475,192,316269,128,0,316412:0:0:0:0:
36,192,316269,1,0,0:0:0:0:
256,192,316326,128,0,316555:0:0:0:0:
329,192,316355,128,0,316440:0:0:0:0:
402,192,316412,1,0,0:0:0:0:
182,192,316440,128,0,316526:0:0:0:0:
109,192,316469,1,0,0:0:0:0:
36,192,316497,128,0,316612:0:0:0:0:
329,192,316526,128,0,316669:0:0:0:0:
402,192,316555,128,0,316783:0:0:0:0:
109,192,316583,128,0,316640:0:0:0:0:
182,192,316612,128,0,316755:0:0:0:0:
475,192,316612,1,0,0:0:0:0:
256,192,316640,128,0,316697:0:0:0:0:
475,192,316726,128,0,316783:0:0:0:0:
109,192,316755,1,0,0:0:0:0:
36,192,316783,1,0,0:0:0:0:
329,192,316783,1,0,0:0:0:0:
256,192,316847,1,0,0:0:0:0:
402,192,316869,1,0,0:0:0:0:
182,192,316933,1,0,0:0:0:0:
329,192,316955,1,0,0:0:0:0:
475,192,316976,1,0,0:0:0:0:
256,192,317019,1,0,0:0:0:0:
36,192,317040,1,0,0:0:0:0:
402,192,317040,1,0,0:0:0:0:
109,192,317083,1,0,0:0:0:0:
182,192,317126,1,0,0:0:0:0:
256,192,317147,1,0,0:0:0:0:
329,192,317169,1,0,0:0:0:0:
402,192,317183,1,0,0:0:0:0:
475,192,317190,1,0,0:0:0:0:
36,192,317212,1,0,0:0:0:0:
109,192,317240,1,0,0:0:0:0:
182,192,317297,1,0,0:0:0:0:
402,192,317332,1,0,0:0:0:0:
256,192,317355,1,0,0:0:0:0:
329,192,317426,1,0,0:0:0:0:
475,192,317469,1,0,0:0:0:0:
182,192,317469,1,0,0:0:0:0:
109,192,317469,128,0,317555:0:0:0:0:
36,192,317469,128,0,317555:0:0:0:0:
402,192,317533,1,0,0:0:0:0:
329,192,317576,1,0,0:0:0:0:
256,192,317597,1,0,0:0:0:0:
36,192,317640,1,0,0:0:0:0:
182,192,317683,1,0,0:0:0:0:
329,192,317726,1,0,0:0:0:0:
36,192,317812,1,0,0:0:0:0:
256,192,317812,1,0,0:0:0:0:
402,192,317812,128,0,317897:0:0:0:0:
475,192,317812,128,0,317897:0:0:0:0:
109,192,317876,1,0,0:0:0:0:
182,192,317919,1,0,0:0:0:0:
256,192,317940,1,0,0:0:0:0:
475,192,317983,1,0,0:0:0:0:
329,192,318026,1,0,0:0:0:0:
182,192,318069,1,0,0:0:0:0:
402,192,318155,1,0,0:0:0:0:
109,192,318155,1,0,0:0:0:0:
36,192,318155,128,0,318240:0:0:0:0:
475,192,318155,128,0,318240:0:0:0:0:
256,192,318223,1,0,0:0:0:0:
182,192,318292,1,0,0:0:0:0:
109,192,318326,1,0,0:0:0:0:
329,192,318360,1,0,0:0:0:0:
402,192,318412,1,0,0:0:0:0:
36,192,318497,1,0,0:0:0:0:
475,192,318497,1,0,0:0:0:0:
109,192,318497,1,0,0:0:0:0:
256,192,318497,1,0,0:0:0:0:
182,192,318497,1,0,0:0:0:0:
329,192,318583,1,0,0:0:0:0:
402,192,318583,1,0,0:0:0:0:
36,192,318669,1,0,0:0:0:0:
256,192,318669,1,0,0:0:0:0:
475,192,318669,1,0,0:0:0:0:
402,192,318669,1,0,0:0:0:0:
109,192,318669,1,0,0:0:0:0:
109,192,318755,1,0,0:0:0:0:
182,192,318755,1,0,0:0:0:0:
329,192,318840,128,0,319097:0:0:0:0:
36,192,318840,128,0,319012:0:0:0:0:
256,192,318840,128,0,318926:0:0:0:0:
402,192,318840,1,0,0:0:0:0:
475,192,318840,128,0,318926:0:0:0:0:
109,192,318926,128,0,319012:0:0:0:0:
182,192,318926,1,0,0:0:0:0:
256,192,319012,128,0,319269:0:0:0:0:
402,192,319012,128,0,319097:0:0:0:0:
109,192,319097,128,0,319355:0:0:0:0:
475,192,319097,128,0,319269:0:0:0:0:
36,192,319097,1,0,0:0:0:0:
182,192,319097,128,0,319183:0:0:0:0:
402,192,319183,1,0,0:0:0:0:
329,192,319183,128,0,319269:0:0:0:0:
36,192,319269,128,0,319526:0:0:0:0:
182,192,319269,128,0,319440:0:0:0:0:
402,192,319355,128,0,319612:0:0:0:0:
475,192,319355,1,0,0:0:0:0:
256,192,319355,1,0,0:0:0:0:
329,192,319355,128,0,319440:0:0:0:0:
109,192,319440,128,0,319526:0:0:0:0:
256,192,319526,128,0,319783:0:0:0:0:
475,192,319526,128,0,319697:0:0:0:0:
182,192,319526,128,0,319612:0:0:0:0:
329,192,319526,1,0,0:0:0:0:
36,192,319612,128,0,319697:0:0:0:0:
109,192,319612,1,0,0:0:0:0:
182,192,319697,128,0,319955:0:0:0:0:
329,192,319697,128,0,319783:0:0:0:0:
36,192,319783,128,0,320040:0:0:0:0:
402,192,319783,128,0,319955:0:0:0:0:
475,192,319783,1,0,0:0:0:0:
109,192,319783,128,0,319869:0:0:0:0:
329,192,319869,1,0,0:0:0:0:
256,192,319869,128,0,319955:0:0:0:0:
475,192,319955,128,0,320212:0:0:0:0:
109,192,319955,128,0,320126:0:0:0:0:
329,192,320040,128,0,320297:0:0:0:0:
402,192,320040,1,0,0:0:0:0:
182,192,320040,1,0,0:0:0:0:
256,192,320040,128,0,320126:0:0:0:0:
36,192,320126,128,0,320212:0:0:0:0:
256,192,320212,1,0,0:0:0:0:
182,192,320212,128,0,320469:0:0:0:0:
402,192,320212,128,0,320383:0:0:0:0:
109,192,320212,128,0,320297:0:0:0:0:
36,192,320297,1,0,0:0:0:0:
475,192,320297,128,0,320383:0:0:0:0:
256,192,320383,128,0,320469:0:0:0:0:
109,192,320383,128,0,320640:0:0:0:0:
402,192,320469,1,0,0:0:0:0:
475,192,320469,128,0,320726:0:0:0:0:
329,192,320469,128,0,320640:0:0:0:0:
36,192,320469,128,0,320555:0:0:0:0:
182,192,320555,128,0,320640:0:0:0:0:
256,192,320555,1,0,0:0:0:0:
36,192,320640,128,0,320812:0:0:0:0:
402,192,320640,128,0,320897:0:0:0:0:
109,192,320726,1,0,0:0:0:0:
256,192,320726,128,0,320983:0:0:0:0:
329,192,320726,1,0,0:0:0:0:
182,192,320726,128,0,320812:0:0:0:0:
475,192,320812,128,0,320897:0:0:0:0:
109,192,320897,128,0,321155:0:0:0:0:
329,192,320897,128,0,320983:0:0:0:0:
182,192,320897,1,0,0:0:0:0:
36,192,320897,128,0,320983:0:0:0:0:
475,192,320983,1,0,0:0:0:0:
402,192,320983,128,0,321069:0:0:0:0:
36,192,321069,128,0,321326:0:0:0:0:
182,192,321069,128,0,321155:0:0:0:0:
256,192,321069,1,0,0:0:0:0:
329,192,321069,128,0,321155:0:0:0:0:
402,192,321155,128,0,321412:0:0:0:0:
475,192,321155,128,0,321240:0:0:0:0:
329,192,321240,128,0,321326:0:0:0:0:
109,192,321240,1,0,0:0:0:0:
182,192,321240,128,0,321326:0:0:0:0:
256,192,321283,128,0,321497:0:0:0:0:
475,192,321326,128,0,321497:0:0:0:0:
36,192,321412,1,0,0:0:0:0:
109,192,321412,128,0,321669:0:0:0:0:
182,192,321412,128,0,321497:0:0:0:0:
402,192,321497,1,0,0:0:0:0:
329,192,321497,128,0,321583:0:0:0:0:
182,192,321583,128,0,321840:0:0:0:0:
475,192,321583,128,0,321755:0:0:0:0:
36,192,321583,128,0,321669:0:0:0:0:
256,192,321583,128,0,321669:0:0:0:0:
402,192,321669,128,0,321755:0:0:0:0:
329,192,321669,1,0,0:0:0:0:
256,192,321755,128,0,322012:0:0:0:0:
109,192,321755,128,0,321840:0:0:0:0:
402,192,321840,128,0,322097:0:0:0:0:
36,192,321840,128,0,322012:0:0:0:0:
475,192,321840,1,0,0:0:0:0:
329,192,321840,128,0,321926:0:0:0:0:
109,192,321926,1,0,0:0:0:0:
182,192,321926,128,0,322012:0:0:0:0:
475,192,322012,128,0,322269:0:0:0:0:
329,192,322012,128,0,322183:0:0:0:0:
109,192,322097,128,0,322355:0:0:0:0:
36,192,322097,1,0,0:0:0:0:
256,192,322097,1,0,0:0:0:0:
182,192,322097,128,0,322183:0:0:0:0:
402,192,322183,128,0,322269:0:0:0:0:
256,192,322269,128,0,322526:0:0:0:0:
36,192,322269,128,0,322440:0:0:0:0:
182,192,322269,1,0,0:0:0:0:
329,192,322269,128,0,322355:0:0:0:0:
475,192,322355,128,0,322440:0:0:0:0:
402,192,322355,1,0,0:0:0:0:
329,192,322440,128,0,322697:0:0:0:0:
182,192,322440,128,0,322526:0:0:0:0:
475,192,322526,128,0,322783:0:0:0:0:
109,192,322526,128,0,322697:0:0:0:0:
36,192,322526,1,0,0:0:0:0:
402,192,322526,128,0,322612:0:0:0:0:
182,192,322612,1,0,0:0:0:0:
256,192,322612,128,0,322697:0:0:0:0:
36,192,322697,128,0,322955:0:0:0:0:
402,192,322697,128,0,322869:0:0:0:0:
182,192,322783,128,0,323040:0:0:0:0:
109,192,322783,1,0,0:0:0:0:
329,192,322783,1,0,0:0:0:0:
256,192,322783,128,0,322869:0:0:0:0:
475,192,322869,128,0,322955:0:0:0:0:
256,192,322955,1,0,0:0:0:0:
329,192,322955,128,0,323212:0:0:0:0:
109,192,322955,128,0,323126:0:0:0:0:
402,192,322955,128,0,323040:0:0:0:0:
475,192,323040,1,0,0:0:0:0:
36,192,323040,128,0,323126:0:0:0:0:
256,192,323126,128,0,323212:0:0:0:0:
402,192,323126,128,0,323383:0:0:0:0:
109,192,323212,1,0,0:0:0:0:
36,192,323212,128,0,323469:0:0:0:0:
182,192,323212,128,0,323383:0:0:0:0:
475,192,323212,128,0,323297:0:0:0:0:
329,192,323297,128,0,323383:0:0:0:0:
256,192,323297,1,0,0:0:0:0:
475,192,323383,128,0,323555:0:0:0:0:
109,192,323383,128,0,323812:0:0:0:0:
402,192,323469,1,0,0:0:0:0:
182,192,323469,1,0,0:0:0:0:
256,192,323469,128,0,323726:0:0:0:0:
329,192,323469,128,0,323555:0:0:0:0:
36,192,323555,128,0,323640:0:0:0:0:
182,192,323640,128,0,323726:0:0:0:0:
475,192,323640,128,0,323726:0:0:0:0:
402,192,323683,128,0,323897:0:0:0:0:
36,192,323726,128,0,323897:0:0:0:0:
329,192,323726,1,0,0:0:0:0:
182,192,323812,128,0,323983:0:0:0:0:
256,192,323812,1,0,0:0:0:0:
475,192,323812,1,0,0:0:0:0:
329,192,323897,128,0,323983:0:0:0:0:
109,192,323897,128,0,323983:0:0:0:0:
402,192,323983,1,0,0:0:0:0:
36,192,323983,1,0,0:0:0:0:
256,192,323983,128,0,324026:0:0:0:0:
475,192,323983,128,0,324026:0:0:0:0:
329,192,324069,1,0,0:0:0:0:
182,192,324069,128,0,324112:0:0:0:0:
256,192,324155,1,0,0:0:0:0:
402,192,324155,128,0,324197:0:0:0:0:
109,192,324155,1,0,0:0:0:0:
36,192,324155,128,0,324197:0:0:0:0:
475,192,324240,1,0,0:0:0:0:
329,192,324240,128,0,324283:0:0:0:0:
109,192,324326,128,0,324583:0:0:0:0:
36,192,324326,128,0,324412:0:0:0:0:
402,192,324326,128,0,324497:0:0:0:0:
182,192,324326,1,0,0:0:0:0:
256,192,324326,128,0,324412:0:0:0:0:
329,192,324412,1,0,0:0:0:0:
475,192,324412,128,0,324497:0:0:0:0:
182,192,324497,128,0,324583:0:0:0:0:
256,192,324497,1,0,0:0:0:0:
402,192,324583,128,0,324840:0:0:0:0:
329,192,324583,128,0,324733:0:0:0:0:
475,192,324583,128,0,324669:0:0:0:0:
36,192,324583,1,0,0:0:0:0:
182,192,324669,128,0,324776:0:0:0:0:
256,192,324669,128,0,324755:0:0:0:0:
109,192,324669,128,0,324797:0:0:0:0:
36,192,324755,128,0,324926:0:0:0:0:
475,192,324755,128,0,324840:0:0:0:0:
329,192,324819,128,0,324926:0:0:0:0:
256,192,324840,128,0,325012:0:0:0:0:
182,192,324862,128,0,324926:0:0:0:0:
109,192,324883,128,0,324926:0:0:0:0:
475,192,324926,128,0,325183:0:0:0:0:
402,192,324926,1,0,0:0:0:0:
329,192,325012,128,0,325183:0:0:0:0:
36,192,325012,128,0,325269:0:0:0:0:
109,192,325012,1,0,0:0:0:0:
182,192,325012,128,0,325097:0:0:0:0:
256,192,325097,1,0,0:0:0:0:
402,192,325097,128,0,325183:0:0:0:0:
109,192,325183,128,0,325269:0:0:0:0:
182,192,325183,1,0,0:0:0:0:
329,192,325269,128,0,325526:0:0:0:0:
256,192,325269,128,0,325419:0:0:0:0:
402,192,325269,128,0,325355:0:0:0:0:
475,192,325269,1,0,0:0:0:0:
182,192,325355,128,0,325440:0:0:0:0:
109,192,325355,128,0,325462:0:0:0:0:
36,192,325355,128,0,325483:0:0:0:0:
475,192,325440,128,0,325612:0:0:0:0:
402,192,325440,128,0,325526:0:0:0:0:
256,192,325505,128,0,325612:0:0:0:0:
182,192,325526,128,0,325697:0:0:0:0:
109,192,325547,128,0,325612:0:0:0:0:
36,192,325569,128,0,325612:0:0:0:0:
402,192,325612,128,0,325869:0:0:0:0:
329,192,325612,1,0,0:0:0:0:
256,192,325697,128,0,325869:0:0:0:0:
475,192,325697,128,0,325955:0:0:0:0:
36,192,325697,1,0,0:0:0:0:
109,192,325697,128,0,325783:0:0:0:0:
182,192,325783,1,0,0:0:0:0:
329,192,325783,128,0,325869:0:0:0:0:
36,192,325869,128,0,325955:0:0:0:0:
109,192,325869,1,0,0:0:0:0:
256,192,325955,128,0,326212:0:0:0:0:
182,192,325955,128,0,326105:0:0:0:0:
329,192,325955,128,0,326040:0:0:0:0:
402,192,325955,1,0,0:0:0:0:
109,192,326040,128,0,326126:0:0:0:0:
36,192,326040,128,0,326147:0:0:0:0:
475,192,326040,128,0,326126:0:0:0:0:
402,192,326126,128,0,326297:0:0:0:0:
329,192,326126,128,0,326212:0:0:0:0:
182,192,326190,128,0,326297:0:0:0:0:
109,192,326212,128,0,326383:0:0:0:0:
475,192,326212,128,0,326297:0:0:0:0:
36,192,326233,128,0,326297:0:0:0:0:
329,192,326297,128,0,326726:0:0:0:0:
256,192,326297,1,0,0:0:0:0:
182,192,326383,128,0,326897:0:0:0:0:
36,192,326383,128,0,326469:0:0:0:0:
402,192,326383,1,0,0:0:0:0:
475,192,326383,128,0,326640:0:0:0:0:
256,192,326469,128,0,326555:0:0:0:0:
109,192,326469,1,0,0:0:0:0:
36,192,326555,1,0,0:0:0:0:
402,192,326555,128,0,326640:0:0:0:0:
109,192,326640,128,0,326790:0:0:0:0:
256,192,326640,1,0,0:0:0:0:
36,192,326726,128,0,326812:0:0:0:0:
475,192,326726,128,0,326833:0:0:0:0:
402,192,326726,128,0,326855:0:0:0:0:
329,192,326812,128,0,326983:0:0:0:0:
256,192,326812,128,0,326897:0:0:0:0:
109,192,326876,128,0,326983:0:0:0:0:
36,192,326897,128,0,326983:0:0:0:0:
475,192,326919,128,0,326983:0:0:0:0:
402,192,326940,128,0,326983:0:0:0:0:
256,192,326983,1,0,0:0:0:0:
182,192,326983,128,0,327069:0:0:0:0:
402,192,327069,128,0,327326:0:0:0:0:
36,192,327069,128,0,327240:0:0:0:0:
109,192,327069,128,0,327240:0:0:0:0:
475,192,327069,128,0,327155:0:0:0:0:
329,192,327069,1,0,0:0:0:0:
256,192,327155,128,0,327326:0:0:0:0:
182,192,327155,128,0,327240:0:0:0:0:
475,192,327240,128,0,327412:0:0:0:0:
329,192,327240,128,0,327326:0:0:0:0:
109,192,327326,128,0,327583:0:0:0:0:
182,192,327326,128,0,327476:0:0:0:0:
36,192,327326,128,0,327412:0:0:0:0:
329,192,327412,128,0,327519:0:0:0:0:
256,192,327412,128,0,327497:0:0:0:0:
402,192,327412,128,0,327540:0:0:0:0:
475,192,327497,128,0,327669:0:0:0:0:
36,192,327497,128,0,327583:0:0:0:0:
182,192,327562,128,0,327669:0:0:0:0:
256,192,327583,128,0,327755:0:0:0:0:
329,192,327605,128,0,327669:0:0:0:0:
402,192,327626,128,0,327669:0:0:0:0:
36,192,327669,128,0,327926:0:0:0:0:
109,192,327669,128,0,327755:0:0:0:0:
182,192,327755,128,0,327926:0:0:0:0:
475,192,327755,128,0,328012:0:0:0:0:
329,192,327755,128,0,327840:0:0:0:0:
402,192,327755,128,0,327840:0:0:0:0:
109,192,327840,128,0,327926:0:0:0:0:
256,192,327840,128,0,327926:0:0:0:0:
402,192,327926,128,0,328012:0:0:0:0:
329,192,327926,128,0,328012:0:0:0:0:
182,192,328012,128,0,328269:0:0:0:0:
256,192,328012,128,0,328162:0:0:0:0:
109,192,328012,128,0,328097:0:0:0:0:
36,192,328012,128,0,328097:0:0:0:0:
329,192,328097,128,0,328183:0:0:0:0:
402,192,328097,128,0,328205:0:0:0:0:
475,192,328097,128,0,328226:0:0:0:0:
36,192,328183,128,0,328355:0:0:0:0:
109,192,328183,128,0,328269:0:0:0:0:
256,192,328247,128,0,328355:0:0:0:0:
329,192,328269,128,0,328355:0:0:0:0:
402,192,328290,128,0,328355:0:0:0:0:
475,192,328312,128,0,328355:0:0:0:0:
109,192,328355,128,0,328440:0:0:0:0:
182,192,328355,128,0,328440:0:0:0:0:
256,192,328440,1,0,0:0:0:0:
329,192,328440,128,0,328526:0:0:0:0:
36,192,328440,128,0,328612:0:0:0:0:
475,192,328440,128,0,328697:0:0:0:0:
402,192,328440,128,0,328526:0:0:0:0:
109,192,328526,1,0,0:0:0:0:
182,192,328526,128,0,328612:0:0:0:0:
256,192,328526,128,0,328612:0:0:0:0:
329,192,328612,1,0,0:0:0:0:
402,192,328612,128,0,328697:0:0:0:0:
109,192,328612,128,0,328783:0:0:0:0:
182,192,328697,1,0,0:0:0:0:
36,192,328697,128,0,328783:0:0:0:0:
329,192,328697,128,0,328869:0:0:0:0:
256,192,328697,128,0,328783:0:0:0:0:
402,192,328783,1,0,0:0:0:0:
182,192,328783,128,0,328955:0:0:0:0:
475,192,328783,128,0,328869:0:0:0:0:
402,192,328869,128,0,329040:0:0:0:0:
36,192,328869,128,0,328955:0:0:0:0:
109,192,328869,128,0,329040:0:0:0:0:
256,192,328869,1,0,0:0:0:0:
329,192,328955,128,0,329040:0:0:0:0:
475,192,328955,128,0,329040:0:0:0:0:
256,192,328955,128,0,329126:0:0:0:0:
36,192,329040,128,0,329126:0:0:0:0:
182,192,329040,128,0,329126:0:0:0:0:
475,192,329126,1,0,0:0:0:0:
402,192,329126,128,0,329212:0:0:0:0:
329,192,329126,128,0,329212:0:0:0:0:
109,192,329126,128,0,329297:0:0:0:0:
256,192,329212,1,0,0:0:0:0:
182,192,329212,128,0,329297:0:0:0:0:
475,192,329212,128,0,329383:0:0:0:0:
36,192,329212,128,0,329469:0:0:0:0:
402,192,329297,1,0,0:0:0:0:
329,192,329297,128,0,329383:0:0:0:0:
256,192,329297,128,0,329383:0:0:0:0:
182,192,329383,1,0,0:0:0:0:
109,192,329383,128,0,329469:0:0:0:0:
402,192,329383,128,0,329555:0:0:0:0:
329,192,329469,1,0,0:0:0:0:
475,192,329469,128,0,329555:0:0:0:0:
182,192,329469,128,0,329555:0:0:0:0:
256,192,329469,128,0,329555:0:0:0:0:
109,192,329555,1,0,0:0:0:0:
329,192,329555,128,0,329726:0:0:0:0:
36,192,329555,128,0,329640:0:0:0:0:
475,192,329640,128,0,329726:0:0:0:0:
402,192,329640,128,0,329726:0:0:0:0:
109,192,329640,128,0,329726:0:0:0:0:
182,192,329640,128,0,329726:0:0:0:0:
256,192,329640,1,0,0:0:0:0:
36,192,329726,128,0,329812:0:0:0:0:
256,192,329726,128,0,329812:0:0:0:0:
109,192,329812,1,0,0:0:0:0:
402,192,329812,1,0,0:0:0:0:
329,192,329812,128,0,332355:0:0:0:0:
182,192,329812,128,0,332869:0:0:0:0:
475,192,329812,128,0,333469:0:0:0:0:
329,192,332440,1,0,0:0:0:0:
182,192,332955,1,0,0:0:0:0:
475,192,333555,1,0,0:0:0:0:
