osu file format v14

[General]
AudioFilename: audio.mp3
AudioLeadIn: 0
PreviewTime: 240666
Countdown: 0
SampleSet: Soft
StackLeniency: 0.7
Mode: 3
LetterboxInBreaks: 0
SpecialStyle: 0
WidescreenStoryboard: 0

[Editor]
Bookmarks: 6151,28094,50037,58951,61009,69237,71980,82952,93923,104894,115866,125466,126837,148780,159752,170723,176209,198151,209123,231066,242037,285923,295523,296894,307866,318837,329809,338037
DistanceSpacing: 1
BeatDivisor: 12
GridSize: 4
TimelineZoom: 2.1

[Metadata]
Title:Clinozoisite
TitleUnicode:Clinozoisite
Artist:Ludicin
ArtistUnicode:Ludicin
Creator:Muze_0407
Version:You bring me back to life.
Source:
Tags:
BeatmapID:4491047
BeatmapSetID:2134504

[Difficulty]
HPDrainRate:8
CircleSize:4
OverallDifficulty:7.5
ApproachRate:5
SliderMultiplier:1.4
SliderTickRate:1

[Events]
//Background and Video events
0,0,"bg.jpg",0,0
//Break Periods
//Storyboard Layer 0 (Background)
//Storyboard Layer 1 (Fail)
//Storyboard Layer 2 (Pass)
//Storyboard Layer 3 (Foreground)
//Storyboard Layer 4 (Overlay)
//Storyboard Sound Samples

[TimingPoints]
6152,342.857142857143,4,2,1,60,1,0
50037,-100,4,2,1,60,0,1
58951,-100,4,2,1,60,0,0
61009,-100,4,2,1,60,0,1
69237,-100,4,2,1,60,0,0
71980,-100,4,2,1,60,0,1
125466,-100,4,2,1,60,0,0
242037,-100,4,2,1,60,0,1
263637,-100,4,2,1,60,0,0
263980,-100,4,2,1,60,0,1
285580,-100,4,2,1,60,0,0
285923,-100,4,2,1,60,0,1
295523,-100,4,2,1,60,0,0
296894,-100,4,2,1,60,0,1
318494,-100,4,2,1,60,0,0
318837,-100,4,2,1,60,0,1
329809,-100,4,2,1,60,0,0

[HitObjects]
64,192,6151,128,0,6666:0:0:0:0:
320,192,6151,128,0,6323:0:0:0:0:
192,192,6323,128,0,6666:0:0:0:0:
448,192,6323,128,0,6494:0:0:0:0:
320,192,6494,128,0,7009:0:0:0:0:
448,192,6666,128,0,7009:0:0:0:0:
192,192,6837,128,0,7351:0:0:0:0:
64,192,7009,128,0,7351:0:0:0:0:
448,192,7180,128,0,7694:0:0:0:0:
320,192,7351,128,0,7694:0:0:0:0:
64,192,7523,128,0,8037:0:0:0:0:
192,192,7694,128,0,8037:0:0:0:0:
320,192,7866,128,0,8380:0:0:0:0:
448,192,8037,128,0,8380:0:0:0:0:
192,192,8209,128,0,8723:0:0:0:0:
64,192,8380,128,0,8723:0:0:0:0:
448,192,8551,128,0,8894:0:0:0:0:
320,192,8723,128,0,9066:0:0:0:0:
64,192,8894,128,0,9237:0:0:0:0:
192,192,8894,128,0,9237:0:0:0:0:
448,192,9066,128,0,9580:0:0:0:0:
320,192,9237,128,0,9580:0:0:0:0:
64,192,9409,128,0,9923:0:0:0:0:
192,192,9580,128,0,9923:0:0:0:0:
320,192,9752,128,0,10094:0:0:0:0:
448,192,9923,128,0,10094:0:0:0:0:
192,192,10094,128,0,10437:0:0:0:0:
448,192,10266,128,0,10780:0:0:0:0:
64,192,10266,128,0,10609:0:0:0:0:
320,192,10437,128,0,10780:0:0:0:0:
192,192,10609,128,0,11123:0:0:0:0:
64,192,10780,128,0,11123:0:0:0:0:
320,192,10952,128,0,11466:0:0:0:0:
448,192,11123,128,0,11466:0:0:0:0:
64,192,11294,128,0,11466:0:0:0:0:
192,192,11466,128,0,11637:0:0:0:0:
320,192,11637,128,0,11809:0:0:0:0:
64,192,11637,128,0,12152:0:0:0:0:
448,192,11809,128,0,11980:0:0:0:0:
192,192,11809,128,0,12152:0:0:0:0:
320,192,11980,128,0,12494:0:0:0:0:
448,192,12152,128,0,12494:0:0:0:0:
192,192,12323,128,0,12837:0:0:0:0:
64,192,12494,128,0,12837:0:0:0:0:
448,192,12666,128,0,13180:0:0:0:0:
320,192,12837,128,0,13180:0:0:0:0:
192,192,13009,128,0,13523:0:0:0:0:
64,192,13180,128,0,13523:0:0:0:0:
320,192,13352,128,0,13866:0:0:0:0:
448,192,13523,128,0,13866:0:0:0:0:
64,192,13694,128,0,14209:0:0:0:0:
192,192,13866,128,0,14209:0:0:0:0:
320,192,14037,128,0,14380:0:0:0:0:
448,192,14209,128,0,14552:0:0:0:0:
192,192,14380,128,0,14723:0:0:0:0:
64,192,14380,128,0,14723:0:0:0:0:
320,192,14552,128,0,15066:0:0:0:0:
448,192,14723,128,0,15066:0:0:0:0:
192,192,14894,128,0,15409:0:0:0:0:
64,192,15066,128,0,15409:0:0:0:0:
448,192,15237,128,0,15580:0:0:0:0:
320,192,15409,128,0,15752:0:0:0:0:
192,192,15580,128,0,15923:0:0:0:0:
64,192,15752,128,0,16094:0:0:0:0:
448,192,15752,128,0,16266:0:0:0:0:
320,192,15923,128,0,16266:0:0:0:0:
192,192,16094,128,0,16609:0:0:0:0:
64,192,16266,128,0,16609:0:0:0:0:
320,192,16437,128,0,16609:0:0:0:0:
448,192,16609,128,0,16780:0:0:0:0:
64,192,16780,128,0,16952:0:0:0:0:
320,192,16780,128,0,16952:0:0:0:0:
448,192,16952,128,0,17123:0:0:0:0:
192,192,16952,128,0,17294:0:0:0:0:
320,192,17123,128,0,17637:0:0:0:0:
64,192,17123,128,0,17294:0:0:0:0:
448,192,17294,128,0,17637:0:0:0:0:
192,192,17466,128,0,17980:0:0:0:0:
64,192,17637,128,0,17980:0:0:0:0:
448,192,17809,128,0,18323:0:0:0:0:
320,192,17980,128,0,18323:0:0:0:0:
192,192,18152,128,0,18666:0:0:0:0:
64,192,18323,128,0,18666:0:0:0:0:
320,192,18494,128,0,19009:0:0:0:0:
448,192,18666,128,0,19009:0:0:0:0:
64,192,18837,128,0,19352:0:0:0:0:
192,192,19009,128,0,19352:0:0:0:0:
320,192,19180,128,0,19694:0:0:0:0:
448,192,19352,128,0,19694:0:0:0:0:
192,192,19523,128,0,19866:0:0:0:0:
64,192,19694,128,0,20037:0:0:0:0:
448,192,19866,128,0,20209:0:0:0:0:
320,192,19866,128,0,20209:0:0:0:0:
192,192,20037,128,0,20552:0:0:0:0:
64,192,20209,128,0,20552:0:0:0:0:
320,192,20380,128,0,20894:0:0:0:0:
448,192,20552,128,0,20894:0:0:0:0:
64,192,20723,128,0,21237:0:0:0:0:
192,192,20894,128,0,21066:0:0:0:0:
320,192,21066,128,0,21580:0:0:0:0:
192,192,21237,128,0,21752:0:0:0:0:
448,192,21237,128,0,21409:0:0:0:0:
64,192,21409,128,0,21752:0:0:0:0:
448,192,21580,128,0,21923:0:0:0:0:
320,192,21752,128,0,21923:0:0:0:0:
192,192,21923,128,0,22266:0:0:0:0:
64,192,21923,128,0,22266:0:0:0:0:
320,192,22094,128,0,22609:0:0:0:0:
448,192,22266,128,0,22437:0:0:0:0:
64,192,22437,128,0,22609:0:0:0:0:
192,192,22609,128,0,22780:0:0:0:0:
448,192,22609,128,0,23123:0:0:0:0:
320,192,22780,128,0,23123:0:0:0:0:
64,192,22780,128,0,22952:0:0:0:0:
192,192,22952,128,0,23466:0:0:0:0:
64,192,23123,128,0,23466:0:0:0:0:
320,192,23294,128,0,23637:0:0:0:0:
448,192,23466,128,0,23809:0:0:0:0:
192,192,23637,128,0,23980:0:0:0:0:
64,192,23637,128,0,23980:0:0:0:0:
320,192,23809,128,0,24323:0:0:0:0:
448,192,23980,128,0,24323:0:0:0:0:
192,192,24152,128,0,24666:0:0:0:0:
64,192,24323,128,0,24666:0:0:0:0:
448,192,24494,128,0,25009:0:0:0:0:
320,192,24666,128,0,25180:0:0:0:0:
192,192,24837,128,0,25180:0:0:0:0:
64,192,25009,128,0,25180:0:0:0:0:
448,192,25180,128,0,25523:0:0:0:0:
64,192,25352,128,0,26723:0:0:0:0:
320,192,25352,128,0,25694:0:0:0:0:
192,192,25523,128,0,25866:0:0:0:0:
448,192,25694,128,0,26037:0:0:0:0:
320,192,25866,128,0,26209:0:0:0:0:
192,192,26037,128,0,26380:0:0:0:0:
448,192,26209,128,0,26552:0:0:0:0:
320,192,26380,128,0,26552:0:0:0:0:
192,192,26552,128,0,26723:0:0:0:0:
448,192,26723,128,0,27752:0:0:0:0:
320,192,26723,128,0,27066:0:0:0:0:
192,192,26894,128,0,27237:0:0:0:0:
64,192,27066,128,0,27237:0:0:0:0:
320,192,27237,128,0,27409:0:0:0:0:
192,192,27409,128,0,27580:0:0:0:0:
64,192,27409,128,0,27580:0:0:0:0:
320,192,27580,128,0,27752:0:0:0:0:
192,192,27752,1,0,0:0:0:0:
64,192,27752,1,0,0:0:0:0:
320,192,27837,1,0,0:0:0:0:
448,192,27923,1,0,0:0:0:0:
64,192,28009,1,0,0:0:0:0:
448,192,28094,1,0,0:0:0:0:
192,192,28094,1,0,0:0:0:0:
320,192,28180,1,0,0:0:0:0:
192,192,28266,1,0,0:0:0:0:
64,192,28352,1,0,0:0:0:0:
448,192,28437,1,0,0:0:0:0:
320,192,28437,1,0,0:0:0:0:
192,192,28523,1,0,0:0:0:0:
64,192,28609,1,0,0:0:0:0:
320,192,28694,1,0,0:0:0:0:
448,192,28780,1,0,0:0:0:0:
64,192,28780,1,0,0:0:0:0:
192,192,28866,1,0,0:0:0:0:
320,192,28952,1,0,0:0:0:0:
448,192,29037,1,0,0:0:0:0:
64,192,29123,1,0,0:0:0:0:
192,192,29123,1,0,0:0:0:0:
320,192,29209,1,0,0:0:0:0:
448,192,29294,1,0,0:0:0:0:
64,192,29380,1,0,0:0:0:0:
192,192,29466,1,0,0:0:0:0:
448,192,29466,1,0,0:0:0:0:
320,192,29552,1,0,0:0:0:0:
192,192,29637,1,0,0:0:0:0:
64,192,29723,1,0,0:0:0:0:
448,192,29809,1,0,0:0:0:0:
320,192,29809,1,0,0:0:0:0:
192,192,29894,1,0,0:0:0:0:
64,192,29980,1,0,0:0:0:0:
448,192,30066,1,0,0:0:0:0:
320,192,30152,1,0,0:0:0:0:
64,192,30152,1,0,0:0:0:0:
192,192,30237,1,0,0:0:0:0:
320,192,30323,1,0,0:0:0:0:
448,192,30409,1,0,0:0:0:0:
64,192,30494,1,0,0:0:0:0:
192,192,30494,1,0,0:0:0:0:
320,192,30580,1,0,0:0:0:0:
448,192,30666,1,0,0:0:0:0:
64,192,30666,1,0,0:0:0:0:
192,192,30752,1,0,0:0:0:0:
320,192,30837,1,0,0:0:0:0:
448,192,30837,1,0,0:0:0:0:
192,192,30923,1,0,0:0:0:0:
64,192,31009,1,0,0:0:0:0:
448,192,31094,1,0,0:0:0:0:
320,192,31180,1,0,0:0:0:0:
192,192,31180,1,0,0:0:0:0:
64,192,31266,1,0,0:0:0:0:
448,192,31352,1,0,0:0:0:0:
320,192,31437,1,0,0:0:0:0:
192,192,31523,1,0,0:0:0:0:
64,192,31523,1,0,0:0:0:0:
320,192,31609,1,0,0:0:0:0:
448,192,31694,1,0,0:0:0:0:
64,192,31780,1,0,0:0:0:0:
192,192,31866,1,0,0:0:0:0:
320,192,31866,1,0,0:0:0:0:
448,192,31952,1,0,0:0:0:0:
64,192,32037,1,0,0:0:0:0:
192,192,32123,1,0,0:0:0:0:
320,192,32209,1,0,0:0:0:0:
448,192,32209,1,0,0:0:0:0:
192,192,32294,1,0,0:0:0:0:
64,192,32380,1,0,0:0:0:0:
448,192,32466,1,0,0:0:0:0:
320,192,32552,1,0,0:0:0:0:
64,192,32552,1,0,0:0:0:0:
192,192,32637,1,0,0:0:0:0:
320,192,32723,1,0,0:0:0:0:
448,192,32809,1,0,0:0:0:0:
64,192,32894,1,0,0:0:0:0:
192,192,32894,1,0,0:0:0:0:
320,192,32980,1,0,0:0:0:0:
448,192,33066,1,0,0:0:0:0:
64,192,33066,1,0,0:0:0:0:
192,192,33152,1,0,0:0:0:0:
320,192,33237,1,0,0:0:0:0:
448,192,33237,1,0,0:0:0:0:
192,192,33323,1,0,0:0:0:0:
64,192,33409,1,0,0:0:0:0:
448,192,33409,1,0,0:0:0:0:
320,192,33494,1,0,0:0:0:0:
192,192,33580,1,0,0:0:0:0:
64,192,33580,1,0,0:0:0:0:
320,192,33666,1,0,0:0:0:0:
448,192,33752,1,0,0:0:0:0:
64,192,33837,1,0,0:0:0:0:
192,192,33923,1,0,0:0:0:0:
448,192,33923,1,0,0:0:0:0:
320,192,34009,1,0,0:0:0:0:
192,192,34094,1,0,0:0:0:0:
64,192,34180,1,0,0:0:0:0:
448,192,34266,1,0,0:0:0:0:
320,192,34266,1,0,0:0:0:0:
192,192,34352,1,0,0:0:0:0:
64,192,34437,1,0,0:0:0:0:
448,192,34523,1,0,0:0:0:0:
320,192,34609,1,0,0:0:0:0:
64,192,34609,1,0,0:0:0:0:
192,192,34694,1,0,0:0:0:0:
320,192,34780,1,0,0:0:0:0:
448,192,34866,1,0,0:0:0:0:
64,192,34952,1,0,0:0:0:0:
192,192,34952,1,0,0:0:0:0:
320,192,35037,1,0,0:0:0:0:
448,192,35123,1,0,0:0:0:0:
64,192,35209,1,0,0:0:0:0:
192,192,35294,1,0,0:0:0:0:
320,192,35294,1,0,0:0:0:0:
448,192,35380,1,0,0:0:0:0:
64,192,35466,1,0,0:0:0:0:
192,192,35552,1,0,0:0:0:0:
320,192,35637,1,0,0:0:0:0:
448,192,35637,1,0,0:0:0:0:
192,192,35723,1,0,0:0:0:0:
64,192,35809,1,0,0:0:0:0:
448,192,35894,1,0,0:0:0:0:
320,192,35980,1,0,0:0:0:0:
192,192,35980,1,0,0:0:0:0:
64,192,36066,1,0,0:0:0:0:
448,192,36152,1,0,0:0:0:0:
320,192,36152,1,0,0:0:0:0:
192,192,36237,1,0,0:0:0:0:
64,192,36323,1,0,0:0:0:0:
448,192,36323,1,0,0:0:0:0:
320,192,36409,1,0,0:0:0:0:
64,192,36494,1,0,0:0:0:0:
192,192,36580,1,0,0:0:0:0:
320,192,36666,1,0,0:0:0:0:
448,192,36666,1,0,0:0:0:0:
64,192,36752,1,0,0:0:0:0:
192,192,36837,1,0,0:0:0:0:
320,192,36923,1,0,0:0:0:0:
448,192,37009,1,0,0:0:0:0:
192,192,37009,1,0,0:0:0:0:
64,192,37094,1,0,0:0:0:0:
448,192,37180,1,0,0:0:0:0:
320,192,37266,1,0,0:0:0:0:
192,192,37352,1,0,0:0:0:0:
64,192,37352,1,0,0:0:0:0:
448,192,37437,1,0,0:0:0:0:
320,192,37523,1,0,0:0:0:0:
192,192,37523,1,0,0:0:0:0:
64,192,37609,1,0,0:0:0:0:
448,192,37694,1,0,0:0:0:0:
320,192,37694,1,0,0:0:0:0:
192,192,37780,1,0,0:0:0:0:
64,192,37866,1,0,0:0:0:0:
448,192,37952,1,0,0:0:0:0:
320,192,38037,1,0,0:0:0:0:
192,192,38037,1,0,0:0:0:0:
64,192,38123,1,0,0:0:0:0:
448,192,38209,1,0,0:0:0:0:
320,192,38209,1,0,0:0:0:0:
192,192,38294,1,0,0:0:0:0:
64,192,38380,1,0,0:0:0:0:
320,192,38380,1,0,0:0:0:0:
448,192,38466,1,0,0:0:0:0:
64,192,38552,1,0,0:0:0:0:
192,192,38637,1,0,0:0:0:0:
448,192,38723,1,0,0:0:0:0:
320,192,38723,1,0,0:0:0:0:
192,192,38809,1,0,0:0:0:0:
64,192,38894,1,0,0:0:0:0:
448,192,38894,1,0,0:0:0:0:
320,192,38980,1,0,0:0:0:0:
192,192,39066,1,0,0:0:0:0:
64,192,39066,1,0,0:0:0:0:
320,192,39152,1,0,0:0:0:0:
448,192,39237,1,0,0:0:0:0:
64,192,39323,1,0,0:0:0:0:
192,192,39409,1,0,0:0:0:0:
448,192,39409,1,0,0:0:0:0:
320,192,39494,1,0,0:0:0:0:
192,192,39580,1,0,0:0:0:0:
64,192,39666,1,0,0:0:0:0:
448,192,39752,1,0,0:0:0:0:
320,192,39752,1,0,0:0:0:0:
192,192,39837,1,0,0:0:0:0:
64,192,39923,1,0,0:0:0:0:
448,192,40009,1,0,0:0:0:0:
320,192,40094,1,0,0:0:0:0:
64,192,40094,1,0,0:0:0:0:
192,192,40180,1,0,0:0:0:0:
320,192,40266,1,0,0:0:0:0:
448,192,40352,1,0,0:0:0:0:
64,192,40437,1,0,0:0:0:0:
192,192,40437,1,0,0:0:0:0:
320,192,40523,1,0,0:0:0:0:
448,192,40609,1,0,0:0:0:0:
64,192,40694,1,0,0:0:0:0:
192,192,40780,1,0,0:0:0:0:
320,192,40780,1,0,0:0:0:0:
448,192,40866,1,0,0:0:0:0:
64,192,40952,1,0,0:0:0:0:
192,192,41037,1,0,0:0:0:0:
320,192,41123,1,0,0:0:0:0:
448,192,41123,1,0,0:0:0:0:
192,192,41209,1,0,0:0:0:0:
64,192,41294,1,0,0:0:0:0:
448,192,41380,1,0,0:0:0:0:
320,192,41466,1,0,0:0:0:0:
192,192,41466,1,0,0:0:0:0:
64,192,41552,1,0,0:0:0:0:
448,192,41637,1,0,0:0:0:0:
320,192,41723,1,0,0:0:0:0:
192,192,41809,1,0,0:0:0:0:
64,192,41809,1,0,0:0:0:0:
320,192,41894,1,0,0:0:0:0:
448,192,41980,1,0,0:0:0:0:
64,192,42066,1,0,0:0:0:0:
192,192,42152,1,0,0:0:0:0:
448,192,42152,1,0,0:0:0:0:
320,192,42237,1,0,0:0:0:0:
192,192,42323,1,0,0:0:0:0:
64,192,42409,1,0,0:0:0:0:
448,192,42494,1,0,0:0:0:0:
320,192,42494,1,0,0:0:0:0:
192,192,42580,1,0,0:0:0:0:
64,192,42666,1,0,0:0:0:0:
448,192,42752,1,0,0:0:0:0:
320,192,42837,1,0,0:0:0:0:
64,192,42837,1,0,0:0:0:0:
192,192,42923,1,0,0:0:0:0:
320,192,43009,1,0,0:0:0:0:
448,192,43094,1,0,0:0:0:0:
64,192,43180,1,0,0:0:0:0:
192,192,43180,1,0,0:0:0:0:
320,192,43266,1,0,0:0:0:0:
448,192,43352,1,0,0:0:0:0:
64,192,43437,1,0,0:0:0:0:
192,192,43523,1,0,0:0:0:0:
320,192,43523,1,0,0:0:0:0:
448,192,43609,1,0,0:0:0:0:
64,192,43694,1,0,0:0:0:0:
192,192,43780,1,0,0:0:0:0:
320,192,43866,1,0,0:0:0:0:
448,192,43866,1,0,0:0:0:0:
192,192,43952,1,0,0:0:0:0:
64,192,44037,1,0,0:0:0:0:
448,192,44123,1,0,0:0:0:0:
320,192,44209,1,0,0:0:0:0:
192,192,44209,1,0,0:0:0:0:
64,192,44294,1,0,0:0:0:0:
448,192,44380,1,0,0:0:0:0:
320,192,44466,1,0,0:0:0:0:
64,192,44552,128,0,44723:0:0:0:0:
192,192,44552,1,0,0:0:0:0:
320,192,44637,1,0,0:0:0:0:
448,192,44723,1,0,0:0:0:0:
192,192,44723,1,0,0:0:0:0:
64,192,44809,1,0,0:0:0:0:
320,192,44894,128,0,44980:0:0:0:0:
448,192,44894,1,0,0:0:0:0:
192,192,44980,128,0,45066:0:0:0:0:
64,192,45066,128,0,45152:0:0:0:0:
448,192,45066,128,0,45152:0:0:0:0:
320,192,45152,128,0,45237:0:0:0:0:
192,192,45237,128,0,45323:0:0:0:0:
64,192,45237,1,0,0:0:0:0:
320,192,45323,128,0,45409:0:0:0:0:
448,192,45409,128,0,45494:0:0:0:0:
64,192,45409,128,0,45494:0:0:0:0:
192,192,45494,128,0,45580:0:0:0:0:
448,192,45580,1,0,0:0:0:0:
320,192,45580,128,0,45666:0:0:0:0:
192,192,45666,128,0,45752:0:0:0:0:
64,192,45752,128,0,45837:0:0:0:0:
448,192,45752,128,0,45837:0:0:0:0:
320,192,45837,1,0,0:0:0:0:
64,192,45923,1,0,0:0:0:0:
192,192,45923,1,0,0:0:0:0:
320,192,46009,1,0,0:0:0:0:
448,192,46094,1,0,0:0:0:0:
64,192,46094,128,0,46180:0:0:0:0:
192,192,46180,128,0,46266:0:0:0:0:
448,192,46266,1,0,0:0:0:0:
320,192,46266,128,0,46352:0:0:0:0:
192,192,46352,128,0,46437:0:0:0:0:
64,192,46437,128,0,46523:0:0:0:0:
448,192,46437,128,0,46523:0:0:0:0:
320,192,46523,128,0,46609:0:0:0:0:
64,192,46609,1,0,0:0:0:0:
192,192,46609,128,0,46694:0:0:0:0:
320,192,46694,128,0,46780:0:0:0:0:
448,192,46780,128,0,46866:0:0:0:0:
64,192,46780,128,0,46866:0:0:0:0:
192,192,46866,128,0,46952:0:0:0:0:
448,192,46952,1,0,0:0:0:0:
320,192,46952,128,0,47037:0:0:0:0:
192,192,47037,128,0,47123:0:0:0:0:
64,192,47123,128,0,47209:0:0:0:0:
448,192,47123,128,0,47209:0:0:0:0:
320,192,47209,1,0,0:0:0:0:
192,192,47294,1,0,0:0:0:0:
64,192,47294,1,0,0:0:0:0:
448,192,47294,128,0,47637:0:0:0:0:
320,192,47380,1,0,0:0:0:0:
64,192,47466,1,0,0:0:0:0:
192,192,47552,1,0,0:0:0:0:
64,192,47637,1,0,0:0:0:0:
320,192,47637,128,0,47723:0:0:0:0:
448,192,47723,128,0,47809:0:0:0:0:
64,192,47809,1,0,0:0:0:0:
192,192,47809,128,0,47894:0:0:0:0:
320,192,47894,128,0,47980:0:0:0:0:
448,192,47980,128,0,48066:0:0:0:0:
192,192,47980,128,0,48066:0:0:0:0:
64,192,48066,128,0,48152:0:0:0:0:
448,192,48152,1,0,0:0:0:0:
320,192,48152,128,0,48237:0:0:0:0:
192,192,48237,128,0,48323:0:0:0:0:
64,192,48323,128,0,48409:0:0:0:0:
320,192,48323,128,0,48409:0:0:0:0:
448,192,48409,128,0,48494:0:0:0:0:
192,192,48494,128,0,48580:0:0:0:0:
64,192,48494,128,0,48580:0:0:0:0:
320,192,48580,1,0,0:0:0:0:
448,192,48666,1,0,0:0:0:0:
64,192,48666,1,0,0:0:0:0:
192,192,48752,1,0,0:0:0:0:
448,192,48837,1,0,0:0:0:0:
320,192,48837,128,0,48923:0:0:0:0:
192,192,48923,128,0,49009:0:0:0:0:
64,192,49009,128,0,49094:0:0:0:0:
320,192,49009,128,0,49094:0:0:0:0:
448,192,49094,128,0,49180:0:0:0:0:
64,192,49180,1,0,0:0:0:0:
192,192,49180,128,0,49266:0:0:0:0:
320,192,49266,128,0,49352:0:0:0:0:
448,192,49352,128,0,49437:0:0:0:0:
192,192,49352,128,0,49437:0:0:0:0:
64,192,49437,128,0,49523:0:0:0:0:
448,192,49523,1,0,0:0:0:0:
320,192,49523,128,0,49609:0:0:0:0:
192,192,49609,128,0,49694:0:0:0:0:
64,192,49694,1,0,0:0:0:0:
320,192,49694,1,0,0:0:0:0:
448,192,49694,1,0,0:0:0:0:
448,192,50037,128,0,50209:0:0:0:0:
320,192,50037,128,0,50466:0:0:0:0:
64,192,50037,128,0,50209:0:0:0:0:
192,192,50294,128,0,50723:0:0:0:0:
64,192,50294,128,0,50466:0:0:0:0:
448,192,50294,128,0,50466:0:0:0:0:
448,192,50552,128,0,50637:0:0:0:0:
320,192,50552,128,0,50637:0:0:0:0:
64,192,50552,128,0,50723:0:0:0:0:
448,192,50723,1,0,0:0:0:0:
320,192,50723,1,0,0:0:0:0:
192,192,50809,1,0,0:0:0:0:
64,192,50894,1,0,0:0:0:0:
320,192,50894,1,0,0:0:0:0:
448,192,50980,1,0,0:0:0:0:
64,192,51066,1,0,0:0:0:0:
192,192,51066,1,0,0:0:0:0:
320,192,51109,1,0,0:0:0:0:
448,192,51152,1,0,0:0:0:0:
64,192,51194,1,0,0:0:0:0:
192,192,51237,1,0,0:0:0:0:
320,192,51280,1,0,0:0:0:0:
448,192,51323,1,0,0:0:0:0:
64,192,51409,128,0,51666:0:0:0:0:
192,192,51409,128,0,51666:0:0:0:0:
320,192,51409,128,0,51494:0:0:0:0:
320,192,51580,128,0,51666:0:0:0:0:
448,192,51580,128,0,51666:0:0:0:0:
192,192,51752,128,0,51837:0:0:0:0:
64,192,51752,128,0,51837:0:0:0:0:
320,192,51837,128,0,51923:0:0:0:0:
448,192,51837,128,0,51923:0:0:0:0:
192,192,52009,128,0,52094:0:0:0:0:
64,192,52009,128,0,52094:0:0:0:0:
320,192,52094,128,0,52180:0:0:0:0:
448,192,52094,128,0,52180:0:0:0:0:
192,192,52180,1,0,0:0:0:0:
320,192,52266,128,0,52352:0:0:0:0:
448,192,52266,128,0,52352:0:0:0:0:
64,192,52266,1,0,0:0:0:0:
192,192,52352,128,0,52523:0:0:0:0:
320,192,52437,128,0,52523:0:0:0:0:
448,192,52437,128,0,52694:0:0:0:0:
64,192,52437,128,0,52523:0:0:0:0:
192,192,52609,128,0,52694:0:0:0:0:
64,192,52609,128,0,52694:0:0:0:0:
320,192,52694,128,0,52952:0:0:0:0:
64,192,52780,128,0,53209:0:0:0:0:
192,192,52780,128,0,52952:0:0:0:0:
448,192,52780,128,0,52952:0:0:0:0:
192,192,53037,128,0,53209:0:0:0:0:
320,192,53037,128,0,53209:0:0:0:0:
448,192,53037,128,0,53380:0:0:0:0:
192,192,53294,128,0,53380:0:0:0:0:
64,192,53294,128,0,53380:0:0:0:0:
320,192,53294,128,0,53380:0:0:0:0:
448,192,53466,1,0,0:0:0:0:
320,192,53466,1,0,0:0:0:0:
192,192,53509,1,0,0:0:0:0:
64,192,53552,1,0,0:0:0:0:
320,192,53594,1,0,0:0:0:0:
192,192,53637,1,0,0:0:0:0:
448,192,53680,1,0,0:0:0:0:
320,192,53723,1,0,0:0:0:0:
192,192,53809,1,0,0:0:0:0:
64,192,53809,1,0,0:0:0:0:
192,192,53894,1,0,0:0:0:0:
320,192,53980,1,0,0:0:0:0:
448,192,53980,1,0,0:0:0:0:
320,192,54066,1,0,0:0:0:0:
192,192,54152,1,0,0:0:0:0:
64,192,54152,1,0,0:0:0:0:
448,192,54152,1,0,0:0:0:0:
320,192,54237,1,0,0:0:0:0:
64,192,54409,1,0,0:0:0:0:
320,192,54409,1,0,0:0:0:0:
448,192,54409,1,0,0:0:0:0:
192,192,54494,1,0,0:0:0:0:
64,192,54666,1,0,0:0:0:0:
192,192,54666,1,0,0:0:0:0:
448,192,54666,1,0,0:0:0:0:
320,192,54752,1,0,0:0:0:0:
192,192,54837,128,0,55094:0:0:0:0:
64,192,54837,128,0,54923:0:0:0:0:
320,192,54923,128,0,55009:0:0:0:0:
64,192,55009,128,0,55094:0:0:0:0:
448,192,55009,1,0,0:0:0:0:
448,192,55094,128,0,55180:0:0:0:0:
320,192,55094,1,0,0:0:0:0:
192,192,55180,1,0,0:0:0:0:
64,192,55180,1,0,0:0:0:0:
320,192,55223,1,0,0:0:0:0:
448,192,55266,1,0,0:0:0:0:
192,192,55309,1,0,0:0:0:0:
320,192,55352,1,0,0:0:0:0:
64,192,55394,1,0,0:0:0:0:
192,192,55437,1,0,0:0:0:0:
320,192,55523,128,0,55952:0:0:0:0:
448,192,55523,128,0,55694:0:0:0:0:
64,192,55523,128,0,55694:0:0:0:0:
192,192,55780,128,0,56123:0:0:0:0:
64,192,55780,128,0,55952:0:0:0:0:
448,192,55780,128,0,55952:0:0:0:0:
64,192,56037,128,0,56123:0:0:0:0:
320,192,56037,128,0,56209:0:0:0:0:
448,192,56037,128,0,56209:0:0:0:0:
64,192,56209,1,0,0:0:0:0:
192,192,56209,1,0,0:0:0:0:
320,192,56294,1,0,0:0:0:0:
448,192,56380,1,0,0:0:0:0:
192,192,56380,1,0,0:0:0:0:
64,192,56466,1,0,0:0:0:0:
448,192,56552,1,0,0:0:0:0:
320,192,56552,1,0,0:0:0:0:
192,192,56594,1,0,0:0:0:0:
64,192,56637,1,0,0:0:0:0:
448,192,56680,1,0,0:0:0:0:
320,192,56723,1,0,0:0:0:0:
192,192,56766,1,0,0:0:0:0:
64,192,56809,1,0,0:0:0:0:
192,192,56894,128,0,56980:0:0:0:0:
320,192,56894,128,0,57237:0:0:0:0:
448,192,56894,128,0,57237:0:0:0:0:
192,192,57152,128,0,57237:0:0:0:0:
64,192,57152,128,0,57237:0:0:0:0:
320,192,57323,128,0,57409:0:0:0:0:
448,192,57323,128,0,57409:0:0:0:0:
192,192,57409,128,0,57494:0:0:0:0:
64,192,57409,128,0,57494:0:0:0:0:
320,192,57580,128,0,57666:0:0:0:0:
448,192,57580,128,0,57666:0:0:0:0:
192,192,57666,128,0,57752:0:0:0:0:
64,192,57666,128,0,57752:0:0:0:0:
320,192,57752,1,0,0:0:0:0:
64,192,57837,128,0,57923:0:0:0:0:
448,192,57837,128,0,57923:0:0:0:0:
320,192,57923,1,0,0:0:0:0:
192,192,57923,128,0,58094:0:0:0:0:
64,192,58009,128,0,58180:0:0:0:0:
448,192,58009,128,0,58180:0:0:0:0:
320,192,58094,128,0,58180:0:0:0:0:
192,192,58180,128,0,58437:0:0:0:0:
320,192,58266,128,0,58694:0:0:0:0:
448,192,58266,128,0,58437:0:0:0:0:
64,192,58266,128,0,58437:0:0:0:0:
192,192,58523,128,0,59209:0:0:0:0:
448,192,58523,128,0,58694:0:0:0:0:
64,192,58523,128,0,58694:0:0:0:0:
64,192,58780,128,0,58866:0:0:0:0:
320,192,58780,128,0,58952:0:0:0:0:
448,192,58780,128,0,58866:0:0:0:0:
448,192,58952,128,0,59466:0:0:0:0:
64,192,58952,128,0,59209:0:0:0:0:
320,192,59209,128,0,59809:0:0:0:0:
64,192,59380,128,0,60152:0:0:0:0:
192,192,59466,128,0,60152:0:0:0:0:
448,192,59637,128,0,60323:0:0:0:0:
320,192,59980,128,0,60323:0:0:0:0:
64,192,60323,128,0,60666:0:0:0:0:
192,192,60409,128,0,60666:0:0:0:0:
448,192,60494,128,0,60666:0:0:0:0:
320,192,60666,1,0,0:0:0:0:
320,192,60752,1,0,0:0:0:0:
192,192,60837,1,0,0:0:0:0:
192,192,60923,1,0,0:0:0:0:
64,192,61009,1,0,0:0:0:0:
320,192,61009,1,0,0:0:0:0:
448,192,61009,1,0,0:0:0:0:
64,192,61180,1,0,0:0:0:0:
192,192,61180,1,0,0:0:0:0:
320,192,61266,1,0,0:0:0:0:
448,192,61352,1,0,0:0:0:0:
64,192,61352,1,0,0:0:0:0:
192,192,61437,1,0,0:0:0:0:
320,192,61523,1,0,0:0:0:0:
448,192,61523,1,0,0:0:0:0:
64,192,61523,1,0,0:0:0:0:
64,192,61694,1,0,0:0:0:0:
192,192,61694,1,0,0:0:0:0:
448,192,61694,1,0,0:0:0:0:
448,192,61866,1,0,0:0:0:0:
320,192,61866,1,0,0:0:0:0:
192,192,61952,1,0,0:0:0:0:
64,192,62037,1,0,0:0:0:0:
448,192,62037,1,0,0:0:0:0:
320,192,62123,1,0,0:0:0:0:
192,192,62209,1,0,0:0:0:0:
64,192,62209,1,0,0:0:0:0:
448,192,62209,1,0,0:0:0:0:
192,192,62380,1,0,0:0:0:0:
320,192,62380,1,0,0:0:0:0:
448,192,62380,1,0,0:0:0:0:
64,192,62552,1,0,0:0:0:0:
192,192,62552,1,0,0:0:0:0:
320,192,62637,1,0,0:0:0:0:
448,192,62723,1,0,0:0:0:0:
192,192,62723,1,0,0:0:0:0:
64,192,62809,1,0,0:0:0:0:
448,192,62894,1,0,0:0:0:0:
320,192,62894,1,0,0:0:0:0:
192,192,62894,1,0,0:0:0:0:
64,192,63066,1,0,0:0:0:0:
192,192,63066,1,0,0:0:0:0:
320,192,63066,1,0,0:0:0:0:
448,192,63237,1,0,0:0:0:0:
320,192,63237,1,0,0:0:0:0:
192,192,63323,1,0,0:0:0:0:
64,192,63409,1,0,0:0:0:0:
320,192,63409,1,0,0:0:0:0:
448,192,63494,1,0,0:0:0:0:
64,192,63580,1,0,0:0:0:0:
192,192,63580,1,0,0:0:0:0:
320,192,63623,1,0,0:0:0:0:
448,192,63666,1,0,0:0:0:0:
192,192,63752,1,0,0:0:0:0:
64,192,63752,1,0,0:0:0:0:
320,192,63752,1,0,0:0:0:0:
448,192,63923,1,0,0:0:0:0:
320,192,63923,1,0,0:0:0:0:
192,192,64009,1,0,0:0:0:0:
64,192,64094,1,0,0:0:0:0:
448,192,64094,1,0,0:0:0:0:
320,192,64180,1,0,0:0:0:0:
192,192,64266,1,0,0:0:0:0:
64,192,64266,1,0,0:0:0:0:
448,192,64266,1,0,0:0:0:0:
192,192,64437,1,0,0:0:0:0:
320,192,64437,1,0,0:0:0:0:
448,192,64437,1,0,0:0:0:0:
64,192,64609,1,0,0:0:0:0:
192,192,64609,1,0,0:0:0:0:
320,192,64694,1,0,0:0:0:0:
448,192,64780,1,0,0:0:0:0:
64,192,64780,1,0,0:0:0:0:
192,192,64866,1,0,0:0:0:0:
320,192,64952,1,0,0:0:0:0:
448,192,64952,1,0,0:0:0:0:
64,192,64952,1,0,0:0:0:0:
64,192,65123,1,0,0:0:0:0:
192,192,65123,1,0,0:0:0:0:
448,192,65123,1,0,0:0:0:0:
320,192,65294,1,0,0:0:0:0:
448,192,65294,1,0,0:0:0:0:
192,192,65380,1,0,0:0:0:0:
64,192,65466,1,0,0:0:0:0:
320,192,65466,1,0,0:0:0:0:
448,192,65552,1,0,0:0:0:0:
64,192,65637,1,0,0:0:0:0:
192,192,65637,1,0,0:0:0:0:
320,192,65637,1,0,0:0:0:0:
448,192,65809,1,0,0:0:0:0:
320,192,65809,1,0,0:0:0:0:
64,192,65809,1,0,0:0:0:0:
64,192,65980,1,0,0:0:0:0:
192,192,65980,1,0,0:0:0:0:
320,192,66066,1,0,0:0:0:0:
448,192,66152,1,0,0:0:0:0:
192,192,66152,1,0,0:0:0:0:
64,192,66237,1,0,0:0:0:0:
448,192,66323,1,0,0:0:0:0:
320,192,66323,1,0,0:0:0:0:
192,192,66366,1,0,0:0:0:0:
64,192,66409,1,0,0:0:0:0:
320,192,66494,1,0,0:0:0:0:
448,192,66494,1,0,0:0:0:0:
192,192,66494,1,0,0:0:0:0:
64,192,66580,1,0,0:0:0:0:
448,192,66666,1,0,0:0:0:0:
192,192,66752,1,0,0:0:0:0:
64,192,66752,1,0,0:0:0:0:
320,192,66752,1,0,0:0:0:0:
448,192,66837,1,0,0:0:0:0:
64,192,66923,1,0,0:0:0:0:
448,192,67009,1,0,0:0:0:0:
192,192,67009,1,0,0:0:0:0:
320,192,67009,1,0,0:0:0:0:
64,192,67094,1,0,0:0:0:0:
448,192,67180,1,0,0:0:0:0:
192,192,67180,1,0,0:0:0:0:
320,192,67180,1,0,0:0:0:0:
64,192,67266,1,0,0:0:0:0:
448,192,67352,1,0,0:0:0:0:
320,192,67437,1,0,0:0:0:0:
192,192,67437,1,0,0:0:0:0:
64,192,67437,1,0,0:0:0:0:
448,192,67523,1,0,0:0:0:0:
64,192,67609,1,0,0:0:0:0:
448,192,67694,1,0,0:0:0:0:
192,192,67694,1,0,0:0:0:0:
320,192,67694,1,0,0:0:0:0:
64,192,67780,1,0,0:0:0:0:
448,192,67866,1,0,0:0:0:0:
192,192,67866,1,0,0:0:0:0:
320,192,67866,1,0,0:0:0:0:
64,192,67952,1,0,0:0:0:0:
448,192,68037,1,0,0:0:0:0:
320,192,68123,1,0,0:0:0:0:
192,192,68123,1,0,0:0:0:0:
64,192,68123,1,0,0:0:0:0:
448,192,68209,1,0,0:0:0:0:
64,192,68294,1,0,0:0:0:0:
192,192,68380,1,0,0:0:0:0:
320,192,68380,1,0,0:0:0:0:
448,192,68380,1,0,0:0:0:0:
64,192,68466,1,0,0:0:0:0:
192,192,68552,1,0,0:0:0:0:
448,192,68552,1,0,0:0:0:0:
320,192,68552,1,0,0:0:0:0:
448,192,68637,1,0,0:0:0:0:
64,192,68637,1,0,0:0:0:0:
192,192,68723,1,0,0:0:0:0:
448,192,68809,1,0,0:0:0:0:
64,192,68809,1,0,0:0:0:0:
320,192,68809,1,0,0:0:0:0:
192,192,68894,1,0,0:0:0:0:
64,192,68980,1,0,0:0:0:0:
448,192,68980,1,0,0:0:0:0:
320,192,68980,1,0,0:0:0:0:
448,192,69066,1,0,0:0:0:0:
320,192,69066,1,0,0:0:0:0:
64,192,69152,1,0,0:0:0:0:
192,192,69152,1,0,0:0:0:0:
64,192,69237,1,0,0:0:0:0:
192,192,69237,1,0,0:0:0:0:
448,192,69237,1,0,0:0:0:0:
64,192,69494,1,0,0:0:0:0:
448,192,69752,1,0,0:0:0:0:
320,192,69923,1,0,0:0:0:0:
320,192,70009,1,0,0:0:0:0:
320,192,70180,1,0,0:0:0:0:
192,192,70352,1,0,0:0:0:0:
192,192,70437,1,0,0:0:0:0:
320,192,70523,1,0,0:0:0:0:
64,192,70609,1,0,0:0:0:0:
192,192,70609,1,0,0:0:0:0:
448,192,70609,1,0,0:0:0:0:
448,192,70780,1,0,0:0:0:0:
192,192,70780,1,0,0:0:0:0:
64,192,70952,1,0,0:0:0:0:
320,192,70952,1,0,0:0:0:0:
448,192,70952,1,0,0:0:0:0:
64,192,71123,1,0,0:0:0:0:
320,192,71123,1,0,0:0:0:0:
64,192,71294,128,0,71380:0:0:0:0:
320,192,71294,128,0,71552:0:0:0:0:
448,192,71294,128,0,71723:0:0:0:0:
192,192,71466,128,0,71552:0:0:0:0:
64,192,71466,128,0,71894:0:0:0:0:
320,192,71637,128,0,71723:0:0:0:0:
192,192,71637,128,0,71894:0:0:0:0:
448,192,71809,128,0,71894:0:0:0:0:
320,192,71809,128,0,71894:0:0:0:0:
64,192,71980,1,0,0:0:0:0:
192,192,71980,1,0,0:0:0:0:
320,192,72023,1,0,0:0:0:0:
448,192,72066,1,0,0:0:0:0:
192,192,72109,1,0,0:0:0:0:
320,192,72152,1,0,0:0:0:0:
64,192,72194,1,0,0:0:0:0:
192,192,72237,1,0,0:0:0:0:
448,192,72323,1,0,0:0:0:0:
320,192,72323,1,0,0:0:0:0:
64,192,72323,1,0,0:0:0:0:
192,192,72494,1,0,0:0:0:0:
320,192,72494,1,0,0:0:0:0:
192,192,72666,1,0,0:0:0:0:
64,192,72666,1,0,0:0:0:0:
448,192,72666,1,0,0:0:0:0:
320,192,72752,1,0,0:0:0:0:
192,192,72837,1,0,0:0:0:0:
448,192,72837,1,0,0:0:0:0:
64,192,72923,1,0,0:0:0:0:
448,192,73009,1,0,0:0:0:0:
320,192,73009,1,0,0:0:0:0:
192,192,73052,1,0,0:0:0:0:
64,192,73094,1,0,0:0:0:0:
192,192,73180,128,0,73266:0:0:0:0:
320,192,73209,128,0,73294:0:0:0:0:
448,192,73237,128,0,73494:0:0:0:0:
320,192,73437,128,0,73523:0:0:0:0:
192,192,73466,128,0,73552:0:0:0:0:
64,192,73494,128,0,73752:0:0:0:0:
192,192,73694,128,0,73780:0:0:0:0:
320,192,73723,128,0,73809:0:0:0:0:
448,192,73752,128,0,73837:0:0:0:0:
64,192,73866,1,0,0:0:0:0:
192,192,73866,1,0,0:0:0:0:
192,192,73952,1,0,0:0:0:0:
320,192,73952,1,0,0:0:0:0:
320,192,74037,1,0,0:0:0:0:
448,192,74037,1,0,0:0:0:0:
64,192,74037,1,0,0:0:0:0:
192,192,74123,1,0,0:0:0:0:
64,192,74209,1,0,0:0:0:0:
320,192,74209,1,0,0:0:0:0:
448,192,74294,1,0,0:0:0:0:
192,192,74380,128,0,74552:0:0:0:0:
64,192,74380,128,0,74466:0:0:0:0:
320,192,74466,128,0,74637:0:0:0:0:
448,192,74552,128,0,74637:0:0:0:0:
64,192,74552,128,0,74637:0:0:0:0:
192,192,74637,128,0,75009:0:0:0:0:
64,192,74723,128,0,75066:0:0:0:0:
320,192,74723,128,0,74952:0:0:0:0:
448,192,74723,128,0,74894:0:0:0:0:
320,192,75066,128,0,75237:0:0:0:0:
448,192,75066,128,0,75152:0:0:0:0:
192,192,75152,128,0,75323:0:0:0:0:
64,192,75237,128,0,75323:0:0:0:0:
448,192,75237,128,0,75409:0:0:0:0:
320,192,75323,128,0,75409:0:0:0:0:
192,192,75409,128,0,75580:0:0:0:0:
64,192,75409,128,0,75494:0:0:0:0:
320,192,75494,128,0,75666:0:0:0:0:
448,192,75580,128,0,75666:0:0:0:0:
64,192,75580,128,0,75752:0:0:0:0:
192,192,75666,128,0,75752:0:0:0:0:
320,192,75752,128,0,75923:0:0:0:0:
448,192,75752,128,0,75837:0:0:0:0:
192,192,75837,128,0,76009:0:0:0:0:
64,192,75923,128,0,76009:0:0:0:0:
448,192,75923,128,0,76094:0:0:0:0:
320,192,76009,128,0,76094:0:0:0:0:
192,192,76094,128,0,76180:0:0:0:0:
64,192,76094,128,0,76266:0:0:0:0:
320,192,76180,128,0,76352:0:0:0:0:
192,192,76266,128,0,76437:0:0:0:0:
448,192,76266,128,0,76352:0:0:0:0:
64,192,76352,128,0,76523:0:0:0:0:
320,192,76437,128,0,76523:0:0:0:0:
448,192,76437,128,0,76609:0:0:0:0:
192,192,76523,128,0,76694:0:0:0:0:
64,192,76609,128,0,76694:0:0:0:0:
320,192,76609,128,0,76780:0:0:0:0:
448,192,76694,128,0,76866:0:0:0:0:
192,192,76780,128,0,76866:0:0:0:0:
64,192,76780,128,0,76952:0:0:0:0:
320,192,76866,128,0,77037:0:0:0:0:
192,192,76952,128,0,77037:0:0:0:0:
448,192,76952,128,0,77037:0:0:0:0:
64,192,77037,1,0,0:0:0:0:
448,192,77123,1,0,0:0:0:0:
320,192,77123,1,0,0:0:0:0:
192,192,77166,1,0,0:0:0:0:
64,192,77209,1,0,0:0:0:0:
448,192,77252,1,0,0:0:0:0:
320,192,77294,1,0,0:0:0:0:
192,192,77337,1,0,0:0:0:0:
64,192,77380,1,0,0:0:0:0:
448,192,77466,1,0,0:0:0:0:
320,192,77466,1,0,0:0:0:0:
192,192,77509,1,0,0:0:0:0:
64,192,77552,1,0,0:0:0:0:
320,192,77594,1,0,0:0:0:0:
192,192,77637,1,0,0:0:0:0:
448,192,77680,1,0,0:0:0:0:
320,192,77723,1,0,0:0:0:0:
192,192,77809,1,0,0:0:0:0:
64,192,77809,1,0,0:0:0:0:
448,192,77809,1,0,0:0:0:0:
192,192,77980,1,0,0:0:0:0:
320,192,77980,1,0,0:0:0:0:
320,192,78152,1,0,0:0:0:0:
448,192,78152,1,0,0:0:0:0:
64,192,78152,1,0,0:0:0:0:
192,192,78237,1,0,0:0:0:0:
64,192,78323,1,0,0:0:0:0:
320,192,78323,1,0,0:0:0:0:
448,192,78409,1,0,0:0:0:0:
64,192,78494,1,0,0:0:0:0:
192,192,78494,1,0,0:0:0:0:
320,192,78537,1,0,0:0:0:0:
448,192,78580,1,0,0:0:0:0:
320,192,78666,128,0,78752:0:0:0:0:
192,192,78694,128,0,78780:0:0:0:0:
64,192,78723,128,0,78980:0:0:0:0:
192,192,78923,128,0,79009:0:0:0:0:
320,192,78952,128,0,79037:0:0:0:0:
448,192,78980,128,0,79237:0:0:0:0:
320,192,79180,128,0,79266:0:0:0:0:
192,192,79209,128,0,79294:0:0:0:0:
64,192,79237,128,0,79323:0:0:0:0:
448,192,79352,1,0,0:0:0:0:
320,192,79352,1,0,0:0:0:0:
192,192,79437,1,0,0:0:0:0:
320,192,79437,1,0,0:0:0:0:
64,192,79523,1,0,0:0:0:0:
192,192,79523,1,0,0:0:0:0:
448,192,79523,1,0,0:0:0:0:
320,192,79609,1,0,0:0:0:0:
448,192,79694,1,0,0:0:0:0:
64,192,79694,1,0,0:0:0:0:
192,192,79780,1,0,0:0:0:0:
320,192,79866,128,0,80123:0:0:0:0:
448,192,79866,128,0,79952:0:0:0:0:
192,192,79952,128,0,80123:0:0:0:0:
64,192,80037,128,0,80294:0:0:0:0:
448,192,80037,128,0,80123:0:0:0:0:
192,192,80209,128,0,80294:0:0:0:0:
320,192,80209,128,0,80380:0:0:0:0:
448,192,80209,128,0,80380:0:0:0:0:
192,192,80380,1,0,0:0:0:0:
64,192,80380,1,0,0:0:0:0:
192,192,80466,1,0,0:0:0:0:
320,192,80466,1,0,0:0:0:0:
320,192,80552,128,0,80637:0:0:0:0:
448,192,80552,128,0,80723:0:0:0:0:
192,192,80637,128,0,80809:0:0:0:0:
64,192,80723,128,0,80809:0:0:0:0:
320,192,80723,128,0,80894:0:0:0:0:
448,192,80809,128,0,80980:0:0:0:0:
192,192,80894,128,0,80980:0:0:0:0:
64,192,80894,128,0,81066:0:0:0:0:
320,192,80980,128,0,81152:0:0:0:0:
192,192,81066,128,0,81237:0:0:0:0:
448,192,81066,128,0,81152:0:0:0:0:
64,192,81152,128,0,81323:0:0:0:0:
320,192,81237,128,0,81323:0:0:0:0:
448,192,81237,128,0,81409:0:0:0:0:
192,192,81323,128,0,81494:0:0:0:0:
64,192,81409,128,0,81494:0:0:0:0:
320,192,81409,128,0,81580:0:0:0:0:
448,192,81494,128,0,81666:0:0:0:0:
192,192,81580,128,0,81752:0:0:0:0:
64,192,81580,128,0,81666:0:0:0:0:
320,192,81666,128,0,81837:0:0:0:0:
448,192,81752,128,0,81837:0:0:0:0:
64,192,81752,128,0,81923:0:0:0:0:
192,192,81837,128,0,81923:0:0:0:0:
320,192,81923,128,0,82094:0:0:0:0:
448,192,81923,128,0,82009:0:0:0:0:
192,192,82009,128,0,82180:0:0:0:0:
64,192,82094,128,0,82180:0:0:0:0:
448,192,82094,128,0,82266:0:0:0:0:
320,192,82180,128,0,82266:0:0:0:0:
192,192,82266,128,0,82437:0:0:0:0:
64,192,82266,128,0,82352:0:0:0:0:
320,192,82352,128,0,82523:0:0:0:0:
448,192,82437,128,0,82523:0:0:0:0:
64,192,82437,128,0,82523:0:0:0:0:
192,192,82523,1,0,0:0:0:0:
320,192,82609,1,0,0:0:0:0:
448,192,82609,1,0,0:0:0:0:
192,192,82652,1,0,0:0:0:0:
64,192,82694,1,0,0:0:0:0:
448,192,82737,1,0,0:0:0:0:
320,192,82780,1,0,0:0:0:0:
192,192,82823,1,0,0:0:0:0:
64,192,82866,1,0,0:0:0:0:
320,192,82952,1,0,0:0:0:0:
448,192,82952,128,0,83123:0:0:0:0:
192,192,83037,1,0,0:0:0:0:
320,192,83123,1,0,0:0:0:0:
64,192,83123,128,0,83294:0:0:0:0:
192,192,83209,1,0,0:0:0:0:
320,192,83294,1,0,0:0:0:0:
448,192,83294,1,0,0:0:0:0:
64,192,83380,1,0,0:0:0:0:
448,192,83466,1,0,0:0:0:0:
320,192,83466,1,0,0:0:0:0:
192,192,83552,1,0,0:0:0:0:
64,192,83637,128,0,83809:0:0:0:0:
448,192,83637,1,0,0:0:0:0:
320,192,83723,1,0,0:0:0:0:
192,192,83809,128,0,83980:0:0:0:0:
448,192,83809,1,0,0:0:0:0:
64,192,83894,1,0,0:0:0:0:
320,192,83980,128,0,84152:0:0:0:0:
448,192,83980,1,0,0:0:0:0:
64,192,84066,1,0,0:0:0:0:
448,192,84152,128,0,84323:0:0:0:0:
192,192,84152,1,0,0:0:0:0:
320,192,84237,1,0,0:0:0:0:
192,192,84323,1,0,0:0:0:0:
64,192,84323,128,0,84494:0:0:0:0:
320,192,84409,1,0,0:0:0:0:
448,192,84494,128,0,84666:0:0:0:0:
192,192,84494,1,0,0:0:0:0:
64,192,84580,1,0,0:0:0:0:
320,192,84666,1,0,0:0:0:0:
192,192,84666,1,0,0:0:0:0:
64,192,84752,1,0,0:0:0:0:
320,192,84837,1,0,0:0:0:0:
448,192,84837,128,0,85009:0:0:0:0:
192,192,84923,1,0,0:0:0:0:
320,192,85009,128,0,85180:0:0:0:0:
64,192,85009,1,0,0:0:0:0:
448,192,85094,128,0,85266:0:0:0:0:
64,192,85180,128,0,85352:0:0:0:0:
192,192,85180,128,0,85266:0:0:0:0:
320,192,85266,128,0,85437:0:0:0:0:
448,192,85352,128,0,85437:0:0:0:0:
192,192,85352,128,0,85523:0:0:0:0:
64,192,85437,128,0,85609:0:0:0:0:
320,192,85523,128,0,85694:0:0:0:0:
448,192,85523,128,0,85609:0:0:0:0:
192,192,85609,128,0,85694:0:0:0:0:
64,192,85694,1,0,0:0:0:0:
448,192,85694,128,0,85866:0:0:0:0:
320,192,85780,1,0,0:0:0:0:
192,192,85866,1,0,0:0:0:0:
64,192,85866,128,0,86037:0:0:0:0:
320,192,85952,1,0,0:0:0:0:
448,192,86037,1,0,0:0:0:0:
192,192,86037,1,0,0:0:0:0:
64,192,86123,1,0,0:0:0:0:
448,192,86209,1,0,0:0:0:0:
320,192,86209,1,0,0:0:0:0:
192,192,86294,1,0,0:0:0:0:
320,192,86380,1,0,0:0:0:0:
64,192,86380,128,0,86552:0:0:0:0:
448,192,86466,1,0,0:0:0:0:
192,192,86552,128,0,86723:0:0:0:0:
320,192,86552,1,0,0:0:0:0:
64,192,86637,1,0,0:0:0:0:
320,192,86723,128,0,86894:0:0:0:0:
448,192,86723,1,0,0:0:0:0:
192,192,86809,1,0,0:0:0:0:
448,192,86894,128,0,87066:0:0:0:0:
64,192,86894,1,0,0:0:0:0:
320,192,86980,1,0,0:0:0:0:
192,192,87066,1,0,0:0:0:0:
64,192,87066,128,0,87237:0:0:0:0:
320,192,87152,1,0,0:0:0:0:
192,192,87237,1,0,0:0:0:0:
448,192,87237,128,0,87409:0:0:0:0:
64,192,87323,1,0,0:0:0:0:
320,192,87409,1,0,0:0:0:0:
192,192,87409,1,0,0:0:0:0:
64,192,87494,1,0,0:0:0:0:
320,192,87580,1,0,0:0:0:0:
448,192,87580,128,0,87752:0:0:0:0:
192,192,87666,1,0,0:0:0:0:
64,192,87752,128,0,87923:0:0:0:0:
320,192,87752,128,0,87837:0:0:0:0:
192,192,87837,128,0,87923:0:0:0:0:
320,192,87923,128,0,88094:0:0:0:0:
448,192,87923,128,0,88009:0:0:0:0:
192,192,88009,128,0,88094:0:0:0:0:
64,192,88094,1,0,0:0:0:0:
448,192,88094,1,0,0:0:0:0:
64,192,88180,1,0,0:0:0:0:
192,192,88180,1,0,0:0:0:0:
320,192,88266,1,0,0:0:0:0:
448,192,88266,1,0,0:0:0:0:
320,192,88352,1,0,0:0:0:0:
448,192,88352,1,0,0:0:0:0:
192,192,88437,1,0,0:0:0:0:
64,192,88437,1,0,0:0:0:0:
320,192,88480,1,0,0:0:0:0:
448,192,88523,1,0,0:0:0:0:
192,192,88566,1,0,0:0:0:0:
320,192,88609,1,0,0:0:0:0:
64,192,88652,1,0,0:0:0:0:
192,192,88694,1,0,0:0:0:0:
448,192,88780,128,0,88952:0:0:0:0:
64,192,88780,128,0,88866:0:0:0:0:
320,192,88866,128,0,88952:0:0:0:0:
192,192,88866,128,0,89037:0:0:0:0:
64,192,88952,128,0,89037:0:0:0:0:
320,192,89037,1,0,0:0:0:0:
448,192,89037,1,0,0:0:0:0:
64,192,89123,1,0,0:0:0:0:
192,192,89123,1,0,0:0:0:0:
320,192,89166,1,0,0:0:0:0:
448,192,89209,1,0,0:0:0:0:
64,192,89252,1,0,0:0:0:0:
192,192,89294,1,0,0:0:0:0:
320,192,89380,1,0,0:0:0:0:
448,192,89380,1,0,0:0:0:0:
192,192,89466,128,0,89637:0:0:0:0:
320,192,89466,128,0,89552:0:0:0:0:
64,192,89552,128,0,89637:0:0:0:0:
448,192,89552,128,0,89723:0:0:0:0:
320,192,89637,128,0,89723:0:0:0:0:
192,192,89723,1,0,0:0:0:0:
64,192,89723,1,0,0:0:0:0:
448,192,89809,1,0,0:0:0:0:
320,192,89809,1,0,0:0:0:0:
192,192,89852,1,0,0:0:0:0:
64,192,89894,1,0,0:0:0:0:
448,192,89937,1,0,0:0:0:0:
320,192,89980,1,0,0:0:0:0:
64,192,90066,1,0,0:0:0:0:
192,192,90066,1,0,0:0:0:0:
320,192,90152,128,0,90323:0:0:0:0:
192,192,90152,128,0,90237:0:0:0:0:
448,192,90237,128,0,90323:0:0:0:0:
64,192,90237,128,0,90409:0:0:0:0:
192,192,90323,128,0,90409:0:0:0:0:
320,192,90409,128,0,90580:0:0:0:0:
448,192,90409,128,0,90494:0:0:0:0:
192,192,90494,128,0,90580:0:0:0:0:
64,192,90580,1,0,0:0:0:0:
448,192,90580,1,0,0:0:0:0:
192,192,90666,128,0,90837:0:0:0:0:
320,192,90666,128,0,90752:0:0:0:0:
64,192,90752,128,0,90837:0:0:0:0:
320,192,90837,128,0,90923:0:0:0:0:
448,192,90837,128,0,91009:0:0:0:0:
192,192,90923,128,0,91094:0:0:0:0:
320,192,91009,128,0,91094:0:0:0:0:
64,192,91009,128,0,91094:0:0:0:0:
448,192,91094,128,0,91180:0:0:0:0:
64,192,91180,1,0,0:0:0:0:
192,192,91180,1,0,0:0:0:0:
320,192,91223,1,0,0:0:0:0:
448,192,91266,1,0,0:0:0:0:
64,192,91309,1,0,0:0:0:0:
192,192,91352,1,0,0:0:0:0:
320,192,91394,1,0,0:0:0:0:
448,192,91437,1,0,0:0:0:0:
192,192,91523,128,0,91609:0:0:0:0:
64,192,91523,128,0,91694:0:0:0:0:
320,192,91609,128,0,91780:0:0:0:0:
448,192,91609,128,0,91694:0:0:0:0:
192,192,91694,128,0,91780:0:0:0:0:
448,192,91780,1,0,0:0:0:0:
64,192,91780,1,0,0:0:0:0:
320,192,91866,1,0,0:0:0:0:
192,192,91866,1,0,0:0:0:0:
448,192,91909,1,0,0:0:0:0:
192,192,91994,1,0,0:0:0:0:
320,192,92037,1,0,0:0:0:0:
64,192,92123,1,0,0:0:0:0:
192,192,92166,1,0,0:0:0:0:
320,192,92209,128,0,92294:0:0:0:0:
448,192,92209,128,0,92380:0:0:0:0:
192,192,92294,128,0,92466:0:0:0:0:
64,192,92294,128,0,92380:0:0:0:0:
320,192,92380,128,0,92466:0:0:0:0:
448,192,92466,1,0,0:0:0:0:
64,192,92466,1,0,0:0:0:0:
192,192,92552,1,0,0:0:0:0:
320,192,92552,1,0,0:0:0:0:
64,192,92594,1,0,0:0:0:0:
448,192,92680,1,0,0:0:0:0:
320,192,92723,1,0,0:0:0:0:
64,192,92809,1,0,0:0:0:0:
192,192,92852,1,0,0:0:0:0:
320,192,92894,128,0,92980:0:0:0:0:
448,192,92894,128,0,93066:0:0:0:0:
192,192,92980,128,0,93152:0:0:0:0:
64,192,92980,128,0,93066:0:0:0:0:
320,192,93066,128,0,93152:0:0:0:0:
64,192,93152,1,0,0:0:0:0:
448,192,93152,1,0,0:0:0:0:
320,192,93237,1,0,0:0:0:0:
192,192,93237,1,0,0:0:0:0:
64,192,93280,1,0,0:0:0:0:
320,192,93366,1,0,0:0:0:0:
192,192,93409,1,0,0:0:0:0:
448,192,93494,1,0,0:0:0:0:
320,192,93537,1,0,0:0:0:0:
192,192,93580,128,0,93666:0:0:0:0:
64,192,93580,128,0,93752:0:0:0:0:
320,192,93666,128,0,93837:0:0:0:0:
192,192,93752,128,0,93837:0:0:0:0:
448,192,93752,128,0,93837:0:0:0:0:
64,192,93837,1,0,0:0:0:0:
448,192,93923,1,0,0:0:0:0:
320,192,93923,1,0,0:0:0:0:
192,192,93966,1,0,0:0:0:0:
64,192,94009,1,0,0:0:0:0:
320,192,94052,1,0,0:0:0:0:
192,192,94094,1,0,0:0:0:0:
448,192,94137,1,0,0:0:0:0:
320,192,94180,1,0,0:0:0:0:
64,192,94266,1,0,0:0:0:0:
192,192,94266,1,0,0:0:0:0:
448,192,94266,1,0,0:0:0:0:
320,192,94352,1,0,0:0:0:0:
192,192,94437,1,0,0:0:0:0:
64,192,94437,1,0,0:0:0:0:
448,192,94523,1,0,0:0:0:0:
320,192,94609,1,0,0:0:0:0:
192,192,94609,1,0,0:0:0:0:
64,192,94652,1,0,0:0:0:0:
448,192,94694,1,0,0:0:0:0:
320,192,94737,1,0,0:0:0:0:
192,192,94780,1,0,0:0:0:0:
64,192,94780,1,0,0:0:0:0:
320,192,94866,1,0,0:0:0:0:
448,192,94952,1,0,0:0:0:0:
64,192,94952,1,0,0:0:0:0:
192,192,95037,1,0,0:0:0:0:
448,192,95123,1,0,0:0:0:0:
64,192,95123,1,0,0:0:0:0:
320,192,95166,1,0,0:0:0:0:
192,192,95209,1,0,0:0:0:0:
64,192,95294,1,0,0:0:0:0:
448,192,95294,1,0,0:0:0:0:
192,192,95337,1,0,0:0:0:0:
320,192,95380,1,0,0:0:0:0:
64,192,95466,1,0,0:0:0:0:
192,192,95466,1,0,0:0:0:0:
320,192,95552,1,0,0:0:0:0:
448,192,95637,1,0,0:0:0:0:
192,192,95637,1,0,0:0:0:0:
64,192,95680,1,0,0:0:0:0:
320,192,95723,1,0,0:0:0:0:
448,192,95766,1,0,0:0:0:0:
192,192,95809,1,0,0:0:0:0:
320,192,95852,1,0,0:0:0:0:
64,192,95894,1,0,0:0:0:0:
192,192,95937,1,0,0:0:0:0:
320,192,95980,128,0,96066:0:0:0:0:
448,192,95980,128,0,96152:0:0:0:0:
192,192,96066,128,0,96237:0:0:0:0:
64,192,96152,128,0,96237:0:0:0:0:
320,192,96152,128,0,96323:0:0:0:0:
448,192,96237,128,0,96409:0:0:0:0:
192,192,96323,128,0,96409:0:0:0:0:
64,192,96323,128,0,96409:0:0:0:0:
320,192,96409,128,0,96580:0:0:0:0:
192,192,96494,128,0,96952:0:0:0:0:
64,192,96494,128,0,96580:0:0:0:0:
448,192,96494,128,0,96580:0:0:0:0:
64,192,96666,128,0,97009:0:0:0:0:
320,192,96666,128,0,96894:0:0:0:0:
448,192,96666,128,0,96837:0:0:0:0:
448,192,97009,128,0,97180:0:0:0:0:
320,192,97009,128,0,97094:0:0:0:0:
192,192,97094,128,0,97266:0:0:0:0:
64,192,97180,128,0,97266:0:0:0:0:
320,192,97180,128,0,97352:0:0:0:0:
448,192,97266,128,0,97437:0:0:0:0:
192,192,97352,128,0,97437:0:0:0:0:
64,192,97352,128,0,97523:0:0:0:0:
320,192,97437,128,0,97609:0:0:0:0:
192,192,97523,128,0,97694:0:0:0:0:
448,192,97523,128,0,97609:0:0:0:0:
64,192,97609,128,0,97780:0:0:0:0:
320,192,97694,128,0,97780:0:0:0:0:
448,192,97694,128,0,97866:0:0:0:0:
192,192,97780,128,0,97952:0:0:0:0:
64,192,97866,128,0,97952:0:0:0:0:
320,192,97866,128,0,98037:0:0:0:0:
448,192,97952,128,0,98123:0:0:0:0:
192,192,98037,128,0,98209:0:0:0:0:
64,192,98037,128,0,98123:0:0:0:0:
320,192,98123,128,0,98294:0:0:0:0:
448,192,98209,128,0,98294:0:0:0:0:
64,192,98209,128,0,98380:0:0:0:0:
192,192,98294,128,0,98380:0:0:0:0:
320,192,98380,128,0,98552:0:0:0:0:
448,192,98380,128,0,98466:0:0:0:0:
192,192,98466,128,0,98637:0:0:0:0:
64,192,98552,128,0,98637:0:0:0:0:
448,192,98552,128,0,98723:0:0:0:0:
320,192,98637,128,0,98723:0:0:0:0:
192,192,98723,128,0,98894:0:0:0:0:
64,192,98723,128,0,98809:0:0:0:0:
320,192,98809,128,0,98980:0:0:0:0:
448,192,98894,128,0,98980:0:0:0:0:
64,192,98894,128,0,98980:0:0:0:0:
192,192,98980,1,0,0:0:0:0:
320,192,99066,1,0,0:0:0:0:
448,192,99066,1,0,0:0:0:0:
192,192,99109,1,0,0:0:0:0:
64,192,99152,1,0,0:0:0:0:
448,192,99194,1,0,0:0:0:0:
320,192,99237,1,0,0:0:0:0:
192,192,99280,1,0,0:0:0:0:
64,192,99323,1,0,0:0:0:0:
448,192,99409,1,0,0:0:0:0:
320,192,99409,1,0,0:0:0:0:
192,192,99452,1,0,0:0:0:0:
64,192,99494,1,0,0:0:0:0:
320,192,99537,1,0,0:0:0:0:
192,192,99580,1,0,0:0:0:0:
448,192,99623,1,0,0:0:0:0:
320,192,99666,1,0,0:0:0:0:
192,192,99752,1,0,0:0:0:0:
64,192,99752,1,0,0:0:0:0:
448,192,99752,1,0,0:0:0:0:
192,192,99923,1,0,0:0:0:0:
320,192,99923,1,0,0:0:0:0:
448,192,100094,1,0,0:0:0:0:
64,192,100094,1,0,0:0:0:0:
320,192,100137,1,0,0:0:0:0:
192,192,100180,1,0,0:0:0:0:
64,192,100223,1,0,0:0:0:0:
320,192,100266,128,0,100352:0:0:0:0:
448,192,100266,128,0,100437:0:0:0:0:
192,192,100352,128,0,100523:0:0:0:0:
320,192,100437,128,0,100694:0:0:0:0:
64,192,100437,128,0,100523:0:0:0:0:
448,192,100523,128,0,100694:0:0:0:0:
192,192,100609,128,0,100694:0:0:0:0:
64,192,100609,128,0,100694:0:0:0:0:
320,192,100780,1,0,0:0:0:0:
192,192,100823,1,0,0:0:0:0:
64,192,100866,1,0,0:0:0:0:
192,192,100952,1,0,0:0:0:0:
320,192,100994,1,0,0:0:0:0:
448,192,101037,1,0,0:0:0:0:
192,192,101123,1,0,0:0:0:0:
448,192,101166,1,0,0:0:0:0:
192,192,101209,1,0,0:0:0:0:
320,192,101252,1,0,0:0:0:0:
64,192,101294,1,0,0:0:0:0:
320,192,101337,1,0,0:0:0:0:
192,192,101380,1,0,0:0:0:0:
448,192,101423,1,0,0:0:0:0:
64,192,101466,128,0,101723:0:0:0:0:
320,192,101466,128,0,101552:0:0:0:0:
192,192,101552,128,0,101637:0:0:0:0:
320,192,101637,128,0,101809:0:0:0:0:
192,192,101723,128,0,101894:0:0:0:0:
448,192,101723,128,0,101809:0:0:0:0:
64,192,101809,128,0,101894:0:0:0:0:
320,192,101894,128,0,101980:0:0:0:0:
448,192,101894,128,0,101980:0:0:0:0:
192,192,101980,128,0,102152:0:0:0:0:
64,192,101980,128,0,102066:0:0:0:0:
320,192,102066,128,0,102152:0:0:0:0:
64,192,102152,1,0,0:0:0:0:
448,192,102152,1,0,0:0:0:0:
192,192,102237,1,0,0:0:0:0:
448,192,102323,1,0,0:0:0:0:
320,192,102323,1,0,0:0:0:0:
192,192,102409,1,0,0:0:0:0:
320,192,102409,1,0,0:0:0:0:
192,192,102494,128,0,102666:0:0:0:0:
64,192,102494,128,0,102580:0:0:0:0:
320,192,102580,128,0,102752:0:0:0:0:
448,192,102666,128,0,102752:0:0:0:0:
64,192,102666,128,0,102837:0:0:0:0:
192,192,102752,128,0,102837:0:0:0:0:
320,192,102837,128,0,103009:0:0:0:0:
448,192,102837,128,0,102923:0:0:0:0:
192,192,102923,128,0,103094:0:0:0:0:
64,192,103009,128,0,103094:0:0:0:0:
448,192,103009,128,0,103180:0:0:0:0:
320,192,103094,128,0,103180:0:0:0:0:
192,192,103180,128,0,103352:0:0:0:0:
64,192,103180,128,0,103266:0:0:0:0:
320,192,103266,128,0,103437:0:0:0:0:
448,192,103352,128,0,103437:0:0:0:0:
64,192,103352,128,0,103523:0:0:0:0:
192,192,103437,128,0,103523:0:0:0:0:
320,192,103523,128,0,103609:0:0:0:0:
448,192,103523,128,0,103694:0:0:0:0:
192,192,103609,128,0,103780:0:0:0:0:
64,192,103694,128,0,103780:0:0:0:0:
320,192,103694,128,0,103866:0:0:0:0:
448,192,103780,128,0,103952:0:0:0:0:
192,192,103866,128,0,103952:0:0:0:0:
64,192,103866,128,0,104037:0:0:0:0:
320,192,103952,128,0,104123:0:0:0:0:
192,192,104037,128,0,104209:0:0:0:0:
448,192,104037,128,0,104123:0:0:0:0:
64,192,104123,128,0,104294:0:0:0:0:
320,192,104209,128,0,104294:0:0:0:0:
448,192,104209,128,0,104380:0:0:0:0:
192,192,104294,128,0,104466:0:0:0:0:
64,192,104380,128,0,104466:0:0:0:0:
320,192,104380,128,0,104523:0:0:0:0:
448,192,104466,128,0,104552:0:0:0:0:
192,192,104552,128,0,104637:0:0:0:0:
64,192,104552,128,0,104637:0:0:0:0:
320,192,104594,128,0,104680:0:0:0:0:
448,192,104637,128,0,104723:0:0:0:0:
192,192,104723,128,0,104809:0:0:0:0:
64,192,104723,128,0,104809:0:0:0:0:
320,192,104809,128,0,104894:0:0:0:0:
192,192,104894,1,0,0:0:0:0:
448,192,104894,1,0,0:0:0:0:
64,192,104894,128,0,105066:0:0:0:0:
320,192,104980,1,0,0:0:0:0:
192,192,105066,1,0,0:0:0:0:
448,192,105066,128,0,105237:0:0:0:0:
64,192,105152,1,0,0:0:0:0:
320,192,105237,1,0,0:0:0:0:
192,192,105237,1,0,0:0:0:0:
64,192,105323,1,0,0:0:0:0:
448,192,105409,1,0,0:0:0:0:
320,192,105409,1,0,0:0:0:0:
192,192,105494,1,0,0:0:0:0:
448,192,105580,128,0,105752:0:0:0:0:
64,192,105580,1,0,0:0:0:0:
192,192,105666,1,0,0:0:0:0:
320,192,105752,128,0,105923:0:0:0:0:
64,192,105752,1,0,0:0:0:0:
448,192,105837,1,0,0:0:0:0:
192,192,105923,128,0,106094:0:0:0:0:
64,192,105923,1,0,0:0:0:0:
448,192,106009,1,0,0:0:0:0:
64,192,106094,128,0,106266:0:0:0:0:
320,192,106094,1,0,0:0:0:0:
192,192,106180,1,0,0:0:0:0:
320,192,106266,1,0,0:0:0:0:
448,192,106266,128,0,106437:0:0:0:0:
192,192,106352,1,0,0:0:0:0:
64,192,106437,128,0,106609:0:0:0:0:
320,192,106437,1,0,0:0:0:0:
448,192,106523,1,0,0:0:0:0:
192,192,106609,1,0,0:0:0:0:
320,192,106609,1,0,0:0:0:0:
448,192,106694,1,0,0:0:0:0:
64,192,106780,1,0,0:0:0:0:
192,192,106780,128,0,106952:0:0:0:0:
320,192,106866,1,0,0:0:0:0:
64,192,106952,128,0,107123:0:0:0:0:
448,192,106952,128,0,107037:0:0:0:0:
320,192,107037,128,0,107209:0:0:0:0:
192,192,107123,128,0,107294:0:0:0:0:
448,192,107123,128,0,107209:0:0:0:0:
64,192,107209,128,0,107380:0:0:0:0:
448,192,107294,128,0,107466:0:0:0:0:
320,192,107294,128,0,107380:0:0:0:0:
192,192,107380,128,0,107552:0:0:0:0:
320,192,107466,128,0,107637:0:0:0:0:
64,192,107466,128,0,107552:0:0:0:0:
448,192,107552,128,0,107637:0:0:0:0:
192,192,107637,1,0,0:0:0:0:
64,192,107637,128,0,107809:0:0:0:0:
320,192,107723,1,0,0:0:0:0:
448,192,107809,128,0,107980:0:0:0:0:
192,192,107809,1,0,0:0:0:0:
64,192,107894,1,0,0:0:0:0:
320,192,107980,1,0,0:0:0:0:
192,192,107980,1,0,0:0:0:0:
64,192,108066,1,0,0:0:0:0:
448,192,108152,1,0,0:0:0:0:
320,192,108152,1,0,0:0:0:0:
192,192,108237,1,0,0:0:0:0:
64,192,108323,1,0,0:0:0:0:
448,192,108323,128,0,108494:0:0:0:0:
192,192,108409,1,0,0:0:0:0:
320,192,108494,128,0,108666:0:0:0:0:
64,192,108494,1,0,0:0:0:0:
448,192,108580,1,0,0:0:0:0:
192,192,108666,128,0,108837:0:0:0:0:
64,192,108666,1,0,0:0:0:0:
448,192,108752,1,0,0:0:0:0:
64,192,108837,128,0,109009:0:0:0:0:
320,192,108837,1,0,0:0:0:0:
192,192,108923,1,0,0:0:0:0:
320,192,109009,1,0,0:0:0:0:
448,192,109009,128,0,109180:0:0:0:0:
192,192,109094,1,0,0:0:0:0:
64,192,109180,128,0,109352:0:0:0:0:
320,192,109180,1,0,0:0:0:0:
448,192,109266,1,0,0:0:0:0:
192,192,109352,1,0,0:0:0:0:
320,192,109352,1,0,0:0:0:0:
448,192,109437,1,0,0:0:0:0:
192,192,109523,1,0,0:0:0:0:
64,192,109523,128,0,109694:0:0:0:0:
320,192,109609,1,0,0:0:0:0:
448,192,109694,128,0,109866:0:0:0:0:
192,192,109694,128,0,109780:0:0:0:0:
64,192,109780,128,0,109866:0:0:0:0:
320,192,109866,128,0,109952:0:0:0:0:
192,192,109866,128,0,110037:0:0:0:0:
64,192,109952,128,0,110123:0:0:0:0:
320,192,110037,128,0,110123:0:0:0:0:
448,192,110037,128,0,110209:0:0:0:0:
192,192,110123,128,0,110294:0:0:0:0:
64,192,110209,128,0,110294:0:0:0:0:
320,192,110209,128,0,110294:0:0:0:0:
448,192,110294,1,0,0:0:0:0:
64,192,110380,1,0,0:0:0:0:
192,192,110380,1,0,0:0:0:0:
320,192,110423,1,0,0:0:0:0:
448,192,110466,1,0,0:0:0:0:
64,192,110509,1,0,0:0:0:0:
192,192,110552,1,0,0:0:0:0:
320,192,110594,1,0,0:0:0:0:
448,192,110637,1,0,0:0:0:0:
192,192,110723,128,0,110809:0:0:0:0:
64,192,110723,128,0,110894:0:0:0:0:
320,192,110809,128,0,110980:0:0:0:0:
448,192,110809,128,0,110894:0:0:0:0:
192,192,110894,128,0,110980:0:0:0:0:
448,192,110980,1,0,0:0:0:0:
64,192,110980,1,0,0:0:0:0:
320,192,111066,1,0,0:0:0:0:
192,192,111066,1,0,0:0:0:0:
448,192,111109,1,0,0:0:0:0:
64,192,111152,1,0,0:0:0:0:
192,192,111194,1,0,0:0:0:0:
320,192,111237,1,0,0:0:0:0:
64,192,111323,1,0,0:0:0:0:
192,192,111323,1,0,0:0:0:0:
192,192,111409,128,0,111580:0:0:0:0:
320,192,111409,128,0,111494:0:0:0:0:
64,192,111494,128,0,111580:0:0:0:0:
448,192,111494,128,0,111666:0:0:0:0:
320,192,111580,128,0,111666:0:0:0:0:
192,192,111666,1,0,0:0:0:0:
64,192,111666,1,0,0:0:0:0:
448,192,111752,1,0,0:0:0:0:
320,192,111752,1,0,0:0:0:0:
192,192,111794,1,0,0:0:0:0:
64,192,111837,1,0,0:0:0:0:
320,192,111880,1,0,0:0:0:0:
192,192,111923,1,0,0:0:0:0:
448,192,112009,1,0,0:0:0:0:
320,192,112009,1,0,0:0:0:0:
320,192,112094,128,0,112266:0:0:0:0:
192,192,112094,128,0,112180:0:0:0:0:
448,192,112180,128,0,112266:0:0:0:0:
64,192,112180,128,0,112352:0:0:0:0:
192,192,112266,128,0,112352:0:0:0:0:
320,192,112352,128,0,112437:0:0:0:0:
448,192,112352,128,0,112437:0:0:0:0:
192,192,112437,128,0,112523:0:0:0:0:
64,192,112437,128,0,112609:0:0:0:0:
320,192,112523,128,0,112694:0:0:0:0:
192,192,112609,128,0,112780:0:0:0:0:
448,192,112609,128,0,112694:0:0:0:0:
64,192,112694,128,0,112866:0:0:0:0:
448,192,112780,128,0,112866:0:0:0:0:
320,192,112780,128,0,112952:0:0:0:0:
192,192,112866,128,0,113037:0:0:0:0:
64,192,112952,128,0,113037:0:0:0:0:
448,192,112952,128,0,113037:0:0:0:0:
320,192,113037,1,0,0:0:0:0:
64,192,113123,1,0,0:0:0:0:
192,192,113123,1,0,0:0:0:0:
320,192,113166,1,0,0:0:0:0:
448,192,113209,1,0,0:0:0:0:
192,192,113252,1,0,0:0:0:0:
320,192,113294,1,0,0:0:0:0:
64,192,113337,1,0,0:0:0:0:
192,192,113380,1,0,0:0:0:0:
320,192,113466,128,0,113552:0:0:0:0:
448,192,113466,128,0,113637:0:0:0:0:
192,192,113552,128,0,113723:0:0:0:0:
64,192,113552,128,0,113637:0:0:0:0:
320,192,113637,128,0,113723:0:0:0:0:
448,192,113723,1,0,0:0:0:0:
64,192,113723,1,0,0:0:0:0:
192,192,113809,1,0,0:0:0:0:
320,192,113809,1,0,0:0:0:0:
448,192,113852,1,0,0:0:0:0:
192,192,113937,1,0,0:0:0:0:
320,192,113980,1,0,0:0:0:0:
64,192,114066,1,0,0:0:0:0:
192,192,114109,1,0,0:0:0:0:
320,192,114152,128,0,114237:0:0:0:0:
448,192,114152,128,0,114323:0:0:0:0:
192,192,114237,128,0,114409:0:0:0:0:
64,192,114237,128,0,114323:0:0:0:0:
320,192,114323,128,0,114409:0:0:0:0:
64,192,114409,1,0,0:0:0:0:
448,192,114409,1,0,0:0:0:0:
192,192,114494,1,0,0:0:0:0:
320,192,114494,1,0,0:0:0:0:
64,192,114537,1,0,0:0:0:0:
320,192,114623,1,0,0:0:0:0:
192,192,114666,1,0,0:0:0:0:
448,192,114752,1,0,0:0:0:0:
320,192,114794,1,0,0:0:0:0:
192,192,114837,128,0,114923:0:0:0:0:
64,192,114837,128,0,115009:0:0:0:0:
320,192,114923,128,0,115094:0:0:0:0:
448,192,114923,128,0,115009:0:0:0:0:
192,192,115009,128,0,115094:0:0:0:0:
64,192,115094,1,0,0:0:0:0:
448,192,115094,1,0,0:0:0:0:
320,192,115180,1,0,0:0:0:0:
192,192,115180,1,0,0:0:0:0:
448,192,115223,1,0,0:0:0:0:
64,192,115309,1,0,0:0:0:0:
192,192,115352,1,0,0:0:0:0:
448,192,115437,1,0,0:0:0:0:
320,192,115480,1,0,0:0:0:0:
192,192,115523,128,0,115609:0:0:0:0:
64,192,115523,128,0,115694:0:0:0:0:
320,192,115609,128,0,115780:0:0:0:0:
192,192,115694,128,0,115780:0:0:0:0:
448,192,115694,128,0,115780:0:0:0:0:
64,192,115780,128,0,116037:0:0:0:0:
192,192,115866,128,0,116294:0:0:0:0:
320,192,115866,128,0,116037:0:0:0:0:
448,192,115866,128,0,116037:0:0:0:0:
64,192,116123,128,0,116294:0:0:0:0:
320,192,116123,128,0,116466:0:0:0:0:
448,192,116123,128,0,116294:0:0:0:0:
192,192,116380,128,0,116552:0:0:0:0:
64,192,116380,128,0,116552:0:0:0:0:
448,192,116380,128,0,116552:0:0:0:0:
320,192,116552,1,0,0:0:0:0:
320,192,116637,1,0,0:0:0:0:
192,192,116723,1,0,0:0:0:0:
192,192,116809,1,0,0:0:0:0:
64,192,116894,1,0,0:0:0:0:
448,192,116894,1,0,0:0:0:0:
320,192,116937,1,0,0:0:0:0:
192,192,116980,1,0,0:0:0:0:
64,192,117023,1,0,0:0:0:0:
448,192,117066,1,0,0:0:0:0:
320,192,117109,1,0,0:0:0:0:
192,192,117152,1,0,0:0:0:0:
64,192,117237,128,0,117409:0:0:0:0:
320,192,117237,128,0,117666:0:0:0:0:
448,192,117237,128,0,117409:0:0:0:0:
192,192,117494,128,0,117752:0:0:0:0:
64,192,117494,128,0,117666:0:0:0:0:
448,192,117494,128,0,117666:0:0:0:0:
320,192,117752,128,0,117837:0:0:0:0:
448,192,117752,128,0,117923:0:0:0:0:
64,192,117752,128,0,117837:0:0:0:0:
192,192,117837,128,0,118009:0:0:0:0:
64,192,117923,128,0,118009:0:0:0:0:
320,192,117923,128,0,118094:0:0:0:0:
448,192,118009,128,0,118180:0:0:0:0:
192,192,118094,128,0,118180:0:0:0:0:
64,192,118094,128,0,118266:0:0:0:0:
320,192,118180,128,0,118352:0:0:0:0:
192,192,118266,128,0,118437:0:0:0:0:
448,192,118266,128,0,118352:0:0:0:0:
64,192,118352,128,0,118523:0:0:0:0:
320,192,118437,128,0,118523:0:0:0:0:
448,192,118437,128,0,118523:0:0:0:0:
192,192,118523,128,0,118780:0:0:0:0:
64,192,118609,128,0,118780:0:0:0:0:
320,192,118609,128,0,119037:0:0:0:0:
448,192,118609,128,0,118780:0:0:0:0:
192,192,118866,128,0,119037:0:0:0:0:
64,192,118866,128,0,119037:0:0:0:0:
448,192,118866,128,0,119209:0:0:0:0:
320,192,119123,128,0,119294:0:0:0:0:
192,192,119123,128,0,119294:0:0:0:0:
64,192,119123,128,0,119294:0:0:0:0:
448,192,119294,1,0,0:0:0:0:
448,192,119380,1,0,0:0:0:0:
192,192,119466,1,0,0:0:0:0:
192,192,119552,1,0,0:0:0:0:
320,192,119637,128,0,119809:0:0:0:0:
448,192,119637,128,0,119723:0:0:0:0:
64,192,119637,128,0,119809:0:0:0:0:
448,192,119809,1,0,0:0:0:0:
192,192,119809,1,0,0:0:0:0:
320,192,119894,1,0,0:0:0:0:
192,192,119980,128,0,120409:0:0:0:0:
64,192,119980,128,0,120152:0:0:0:0:
448,192,119980,128,0,120152:0:0:0:0:
64,192,120237,128,0,120409:0:0:0:0:
320,192,120237,128,0,120494:0:0:0:0:
448,192,120237,128,0,120409:0:0:0:0:
192,192,120494,128,0,120666:0:0:0:0:
64,192,120494,128,0,120580:0:0:0:0:
448,192,120494,128,0,120580:0:0:0:0:
320,192,120580,128,0,120752:0:0:0:0:
64,192,120666,128,0,120837:0:0:0:0:
448,192,120666,128,0,120752:0:0:0:0:
192,192,120752,128,0,120837:0:0:0:0:
320,192,120837,128,0,121009:0:0:0:0:
448,192,120837,128,0,120923:0:0:0:0:
192,192,120923,128,0,121094:0:0:0:0:
64,192,121009,128,0,121094:0:0:0:0:
448,192,121009,128,0,121180:0:0:0:0:
320,192,121094,128,0,121266:0:0:0:0:
192,192,121180,128,0,121266:0:0:0:0:
64,192,121180,128,0,121266:0:0:0:0:
448,192,121266,128,0,121352:0:0:0:0:
320,192,121352,1,0,0:0:0:0:
192,192,121352,1,0,0:0:0:0:
64,192,121352,1,0,0:0:0:0:
448,192,121437,1,0,0:0:0:0:
64,192,121523,1,0,0:0:0:0:
192,192,121523,1,0,0:0:0:0:
320,192,121609,1,0,0:0:0:0:
448,192,121694,1,0,0:0:0:0:
64,192,121694,1,0,0:0:0:0:
192,192,121694,128,0,121866:0:0:0:0:
320,192,121780,1,0,0:0:0:0:
448,192,121866,1,0,0:0:0:0:
64,192,121866,1,0,0:0:0:0:
192,192,121952,1,0,0:0:0:0:
320,192,122037,1,0,0:0:0:0:
448,192,122037,1,0,0:0:0:0:
64,192,122037,128,0,122209:0:0:0:0:
192,192,122123,1,0,0:0:0:0:
320,192,122209,1,0,0:0:0:0:
448,192,122209,1,0,0:0:0:0:
192,192,122294,1,0,0:0:0:0:
64,192,122380,1,0,0:0:0:0:
448,192,122380,1,0,0:0:0:0:
320,192,122380,128,0,122552:0:0:0:0:
192,192,122466,1,0,0:0:0:0:
64,192,122552,1,0,0:0:0:0:
448,192,122552,1,0,0:0:0:0:
320,192,122637,1,0,0:0:0:0:
192,192,122723,1,0,0:0:0:0:
64,192,122723,1,0,0:0:0:0:
448,192,122723,128,0,122894:0:0:0:0:
320,192,122809,1,0,0:0:0:0:
192,192,122894,1,0,0:0:0:0:
64,192,122894,1,0,0:0:0:0:
320,192,122980,1,0,0:0:0:0:
448,192,123066,1,0,0:0:0:0:
64,192,123066,1,0,0:0:0:0:
192,192,123066,1,0,0:0:0:0:
320,192,123152,1,0,0:0:0:0:
448,192,123237,1,0,0:0:0:0:
64,192,123237,128,0,123409:0:0:0:0:
192,192,123323,1,0,0:0:0:0:
320,192,123409,1,0,0:0:0:0:
448,192,123409,1,0,0:0:0:0:
192,192,123494,1,0,0:0:0:0:
320,192,123580,1,0,0:0:0:0:
448,192,123580,1,0,0:0:0:0:
192,192,123666,1,0,0:0:0:0:
64,192,123752,1,0,0:0:0:0:
448,192,123752,1,0,0:0:0:0:
320,192,123752,128,0,123923:0:0:0:0:
192,192,123837,1,0,0:0:0:0:
64,192,123923,1,0,0:0:0:0:
448,192,123923,1,0,0:0:0:0:
320,192,124009,1,0,0:0:0:0:
192,192,124094,1,0,0:0:0:0:
64,192,124094,1,0,0:0:0:0:
448,192,124180,1,0,0:0:0:0:
320,192,124180,1,0,0:0:0:0:
192,192,124266,1,0,0:0:0:0:
64,192,124266,1,0,0:0:0:0:
448,192,124352,1,0,0:0:0:0:
320,192,124352,1,0,0:0:0:0:
192,192,124437,1,0,0:0:0:0:
64,192,124437,1,0,0:0:0:0:
448,192,124523,1,0,0:0:0:0:
320,192,124523,1,0,0:0:0:0:
192,192,124609,1,0,0:0:0:0:
64,192,124609,1,0,0:0:0:0:
448,192,124694,1,0,0:0:0:0:
320,192,124694,1,0,0:0:0:0:
64,192,124780,1,0,0:0:0:0:
192,192,124823,1,0,0:0:0:0:
320,192,124866,1,0,0:0:0:0:
448,192,124909,1,0,0:0:0:0:
64,192,124952,1,0,0:0:0:0:
192,192,124994,1,0,0:0:0:0:
320,192,125037,1,0,0:0:0:0:
448,192,125080,1,0,0:0:0:0:
64,192,125123,1,0,0:0:0:0:
192,192,125166,1,0,0:0:0:0:
320,192,125209,1,0,0:0:0:0:
448,192,125252,1,0,0:0:0:0:
64,192,125294,1,0,0:0:0:0:
192,192,125337,1,0,0:0:0:0:
320,192,125380,1,0,0:0:0:0:
448,192,125423,1,0,0:0:0:0:
192,192,125466,1,0,0:0:0:0:
64,192,125466,128,0,126152:0:0:0:0:
448,192,126837,1,0,0:0:0:0:
320,192,126837,1,0,0:0:0:0:
192,192,126923,1,0,0:0:0:0:
64,192,127009,1,0,0:0:0:0:
448,192,127094,1,0,0:0:0:0:
320,192,127180,1,0,0:0:0:0:
64,192,127180,1,0,0:0:0:0:
192,192,127266,1,0,0:0:0:0:
320,192,127352,1,0,0:0:0:0:
448,192,127437,1,0,0:0:0:0:
192,192,127523,1,0,0:0:0:0:
64,192,127523,128,0,127609:0:0:0:0:
320,192,127609,1,0,0:0:0:0:
448,192,127694,1,0,0:0:0:0:
192,192,127780,1,0,0:0:0:0:
64,192,127866,1,0,0:0:0:0:
448,192,127866,1,0,0:0:0:0:
320,192,127952,1,0,0:0:0:0:
192,192,128037,1,0,0:0:0:0:
64,192,128123,1,0,0:0:0:0:
448,192,128209,1,0,0:0:0:0:
320,192,128209,1,0,0:0:0:0:
192,192,128294,1,0,0:0:0:0:
64,192,128380,1,0,0:0:0:0:
320,192,128466,1,0,0:0:0:0:
448,192,128552,1,0,0:0:0:0:
64,192,128552,1,0,0:0:0:0:
192,192,128637,1,0,0:0:0:0:
448,192,128723,1,0,0:0:0:0:
320,192,128809,1,0,0:0:0:0:
192,192,128894,1,0,0:0:0:0:
64,192,128894,1,0,0:0:0:0:
448,192,128980,1,0,0:0:0:0:
320,192,129066,1,0,0:0:0:0:
192,192,129152,1,0,0:0:0:0:
64,192,129237,1,0,0:0:0:0:
320,192,129237,1,0,0:0:0:0:
448,192,129280,1,0,0:0:0:0:
192,192,129323,1,0,0:0:0:0:
320,192,129366,1,0,0:0:0:0:
64,192,129409,1,0,0:0:0:0:
192,192,129452,1,0,0:0:0:0:
448,192,129494,1,0,0:0:0:0:
320,192,129537,1,0,0:0:0:0:
192,192,129580,1,0,0:0:0:0:
64,192,129580,1,0,0:0:0:0:
320,192,129666,1,0,0:0:0:0:
448,192,129752,1,0,0:0:0:0:
64,192,129837,1,0,0:0:0:0:
192,192,129923,1,0,0:0:0:0:
448,192,129923,1,0,0:0:0:0:
320,192,130009,1,0,0:0:0:0:
192,192,130094,1,0,0:0:0:0:
64,192,130180,1,0,0:0:0:0:
320,192,130266,1,0,0:0:0:0:
448,192,130266,128,0,130352:0:0:0:0:
192,192,130352,1,0,0:0:0:0:
64,192,130437,1,0,0:0:0:0:
448,192,130523,1,0,0:0:0:0:
320,192,130609,1,0,0:0:0:0:
192,192,130609,1,0,0:0:0:0:
64,192,130694,1,0,0:0:0:0:
448,192,130780,1,0,0:0:0:0:
320,192,130866,1,0,0:0:0:0:
192,192,130952,1,0,0:0:0:0:
64,192,130952,1,0,0:0:0:0:
320,192,131037,1,0,0:0:0:0:
448,192,131123,1,0,0:0:0:0:
64,192,131209,1,0,0:0:0:0:
192,192,131294,1,0,0:0:0:0:
320,192,131294,1,0,0:0:0:0:
448,192,131380,1,0,0:0:0:0:
64,192,131466,1,0,0:0:0:0:
192,192,131552,1,0,0:0:0:0:
448,192,131637,1,0,0:0:0:0:
320,192,131637,1,0,0:0:0:0:
192,192,131723,1,0,0:0:0:0:
64,192,131809,1,0,0:0:0:0:
448,192,131894,1,0,0:0:0:0:
320,192,131980,1,0,0:0:0:0:
192,192,131980,1,0,0:0:0:0:
64,192,132023,1,0,0:0:0:0:
448,192,132066,1,0,0:0:0:0:
320,192,132109,1,0,0:0:0:0:
192,192,132152,1,0,0:0:0:0:
64,192,132194,1,0,0:0:0:0:
448,192,132237,1,0,0:0:0:0:
320,192,132280,1,0,0:0:0:0:
192,192,132323,1,0,0:0:0:0:
64,192,132323,1,0,0:0:0:0:
320,192,132409,1,0,0:0:0:0:
448,192,132494,1,0,0:0:0:0:
64,192,132580,1,0,0:0:0:0:
192,192,132666,1,0,0:0:0:0:
320,192,132666,1,0,0:0:0:0:
448,192,132752,1,0,0:0:0:0:
64,192,132837,1,0,0:0:0:0:
192,192,132837,1,0,0:0:0:0:
320,192,132923,1,0,0:0:0:0:
448,192,133009,128,0,133094:0:0:0:0:
64,192,133009,1,0,0:0:0:0:
320,192,133094,1,0,0:0:0:0:
192,192,133180,1,0,0:0:0:0:
64,192,133266,1,0,0:0:0:0:
320,192,133352,1,0,0:0:0:0:
448,192,133352,1,0,0:0:0:0:
192,192,133437,1,0,0:0:0:0:
64,192,133523,1,0,0:0:0:0:
320,192,133609,1,0,0:0:0:0:
448,192,133694,1,0,0:0:0:0:
192,192,133694,1,0,0:0:0:0:
64,192,133780,1,0,0:0:0:0:
448,192,133866,1,0,0:0:0:0:
320,192,133952,1,0,0:0:0:0:
192,192,134037,1,0,0:0:0:0:
64,192,134037,1,0,0:0:0:0:
320,192,134123,1,0,0:0:0:0:
448,192,134209,1,0,0:0:0:0:
64,192,134294,1,0,0:0:0:0:
192,192,134380,1,0,0:0:0:0:
448,192,134380,1,0,0:0:0:0:
320,192,134466,1,0,0:0:0:0:
192,192,134552,1,0,0:0:0:0:
64,192,134637,1,0,0:0:0:0:
448,192,134723,1,0,0:0:0:0:
320,192,134723,1,0,0:0:0:0:
192,192,134766,1,0,0:0:0:0:
64,192,134809,1,0,0:0:0:0:
448,192,134852,1,0,0:0:0:0:
320,192,134894,1,0,0:0:0:0:
192,192,134937,1,0,0:0:0:0:
64,192,134980,1,0,0:0:0:0:
320,192,135023,1,0,0:0:0:0:
192,192,135066,1,0,0:0:0:0:
448,192,135066,1,0,0:0:0:0:
320,192,135152,1,0,0:0:0:0:
192,192,135237,1,0,0:0:0:0:
64,192,135323,1,0,0:0:0:0:
448,192,135409,1,0,0:0:0:0:
320,192,135409,1,0,0:0:0:0:
192,192,135494,1,0,0:0:0:0:
64,192,135580,1,0,0:0:0:0:
448,192,135666,1,0,0:0:0:0:
64,192,135752,128,0,135837:0:0:0:0:
320,192,135752,1,0,0:0:0:0:
192,192,135837,1,0,0:0:0:0:
320,192,135923,1,0,0:0:0:0:
448,192,136009,1,0,0:0:0:0:
64,192,136094,1,0,0:0:0:0:
192,192,136094,1,0,0:0:0:0:
320,192,136180,1,0,0:0:0:0:
448,192,136266,1,0,0:0:0:0:
192,192,136352,1,0,0:0:0:0:
64,192,136437,1,0,0:0:0:0:
448,192,136437,1,0,0:0:0:0:
320,192,136523,1,0,0:0:0:0:
192,192,136609,1,0,0:0:0:0:
64,192,136694,1,0,0:0:0:0:
320,192,136780,1,0,0:0:0:0:
448,192,136780,128,0,136952:0:0:0:0:
192,192,136866,1,0,0:0:0:0:
64,192,136952,128,0,137123:0:0:0:0:
192,192,137037,1,0,0:0:0:0:
448,192,137123,128,0,137466:0:0:0:0:
320,192,137166,1,0,0:0:0:0:
192,192,137209,1,0,0:0:0:0:
64,192,137294,1,0,0:0:0:0:
320,192,137380,1,0,0:0:0:0:
64,192,137466,128,0,137809:0:0:0:0:
192,192,137466,1,0,0:0:0:0:
320,192,137552,1,0,0:0:0:0:
448,192,137637,1,0,0:0:0:0:
192,192,137723,1,0,0:0:0:0:
320,192,137809,1,0,0:0:0:0:
448,192,137809,128,0,138152:0:0:0:0:
192,192,137894,1,0,0:0:0:0:
64,192,137980,1,0,0:0:0:0:
320,192,138066,1,0,0:0:0:0:
192,192,138152,128,0,138494:0:0:0:0:
64,192,138237,1,0,0:0:0:0:
320,192,138323,1,0,0:0:0:0:
448,192,138409,1,0,0:0:0:0:
64,192,138494,128,0,138580:0:0:0:0:
320,192,138494,1,0,0:0:0:0:
192,192,138580,1,0,0:0:0:0:
448,192,138666,1,0,0:0:0:0:
320,192,138752,1,0,0:0:0:0:
64,192,138837,128,0,138923:0:0:0:0:
192,192,138923,1,0,0:0:0:0:
320,192,139009,1,0,0:0:0:0:
448,192,139094,1,0,0:0:0:0:
64,192,139180,128,0,139266:0:0:0:0:
320,192,139266,1,0,0:0:0:0:
192,192,139352,1,0,0:0:0:0:
320,192,139437,1,0,0:0:0:0:
64,192,139523,128,0,139609:0:0:0:0:
192,192,139566,1,0,0:0:0:0:
448,192,139609,1,0,0:0:0:0:
320,192,139652,1,0,0:0:0:0:
192,192,139694,1,0,0:0:0:0:
64,192,139737,1,0,0:0:0:0:
448,192,139780,1,0,0:0:0:0:
320,192,139823,1,0,0:0:0:0:
64,192,139866,128,0,139952:0:0:0:0:
192,192,139866,1,0,0:0:0:0:
448,192,139952,1,0,0:0:0:0:
320,192,140037,1,0,0:0:0:0:
192,192,140123,1,0,0:0:0:0:
64,192,140209,128,0,140294:0:0:0:0:
192,192,140252,1,0,0:0:0:0:
320,192,140294,1,0,0:0:0:0:
448,192,140337,1,0,0:0:0:0:
192,192,140380,1,0,0:0:0:0:
64,192,140423,1,0,0:0:0:0:
448,192,140466,1,0,0:0:0:0:
320,192,140509,1,0,0:0:0:0:
192,192,140552,1,0,0:0:0:0:
64,192,140552,128,0,140894:0:0:0:0:
320,192,140637,1,0,0:0:0:0:
448,192,140723,1,0,0:0:0:0:
192,192,140809,1,0,0:0:0:0:
320,192,140894,128,0,141237:0:0:0:0:
448,192,140980,1,0,0:0:0:0:
192,192,141066,1,0,0:0:0:0:
64,192,141152,1,0,0:0:0:0:
448,192,141237,128,0,141323:0:0:0:0:
192,192,141237,1,0,0:0:0:0:
320,192,141323,1,0,0:0:0:0:
64,192,141409,1,0,0:0:0:0:
192,192,141494,1,0,0:0:0:0:
448,192,141580,128,0,141666:0:0:0:0:
320,192,141666,1,0,0:0:0:0:
192,192,141752,1,0,0:0:0:0:
64,192,141837,1,0,0:0:0:0:
448,192,141923,128,0,142009:0:0:0:0:
320,192,142009,1,0,0:0:0:0:
64,192,142094,1,0,0:0:0:0:
320,192,142180,1,0,0:0:0:0:
448,192,142266,1,0,0:0:0:0:
192,192,142266,1,0,0:0:0:0:
64,192,142309,1,0,0:0:0:0:
320,192,142352,1,0,0:0:0:0:
448,192,142394,1,0,0:0:0:0:
192,192,142437,1,0,0:0:0:0:
320,192,142480,1,0,0:0:0:0:
64,192,142523,1,0,0:0:0:0:
192,192,142566,1,0,0:0:0:0:
320,192,142609,1,0,0:0:0:0:
448,192,142609,1,0,0:0:0:0:
192,192,142694,1,0,0:0:0:0:
64,192,142780,1,0,0:0:0:0:
448,192,142866,1,0,0:0:0:0:
320,192,142952,1,0,0:0:0:0:
64,192,143037,1,0,0:0:0:0:
192,192,143123,1,0,0:0:0:0:
320,192,143209,1,0,0:0:0:0:
448,192,143294,128,0,143637:0:0:0:0:
192,192,143294,1,0,0:0:0:0:
64,192,143380,1,0,0:0:0:0:
320,192,143466,1,0,0:0:0:0:
64,192,143552,1,0,0:0:0:0:
192,192,143637,128,0,143980:0:0:0:0:
320,192,143723,1,0,0:0:0:0:
64,192,143809,1,0,0:0:0:0:
448,192,143894,1,0,0:0:0:0:
64,192,143980,128,0,144066:0:0:0:0:
320,192,143980,1,0,0:0:0:0:
192,192,144066,1,0,0:0:0:0:
448,192,144152,1,0,0:0:0:0:
320,192,144237,1,0,0:0:0:0:
64,192,144323,128,0,144409:0:0:0:0:
192,192,144366,1,0,0:0:0:0:
320,192,144409,1,0,0:0:0:0:
448,192,144452,1,0,0:0:0:0:
192,192,144494,1,0,0:0:0:0:
64,192,144537,1,0,0:0:0:0:
448,192,144580,1,0,0:0:0:0:
320,192,144623,1,0,0:0:0:0:
64,192,144666,128,0,144752:0:0:0:0:
192,192,144752,1,0,0:0:0:0:
448,192,144837,1,0,0:0:0:0:
320,192,144923,1,0,0:0:0:0:
64,192,145009,128,0,145094:0:0:0:0:
192,192,145094,1,0,0:0:0:0:
448,192,145180,1,0,0:0:0:0:
320,192,145266,1,0,0:0:0:0:
64,192,145352,128,0,145437:0:0:0:0:
192,192,145352,1,0,0:0:0:0:
448,192,145437,1,0,0:0:0:0:
192,192,145523,1,0,0:0:0:0:
320,192,145609,1,0,0:0:0:0:
64,192,145694,128,0,145780:0:0:0:0:
192,192,145737,1,0,0:0:0:0:
448,192,145780,1,0,0:0:0:0:
320,192,145823,1,0,0:0:0:0:
192,192,145866,1,0,0:0:0:0:
64,192,145909,1,0,0:0:0:0:
448,192,145952,1,0,0:0:0:0:
320,192,145994,1,0,0:0:0:0:
192,192,146037,1,0,0:0:0:0:
64,192,146037,128,0,146380:0:0:0:0:
320,192,146123,1,0,0:0:0:0:
448,192,146209,1,0,0:0:0:0:
192,192,146294,1,0,0:0:0:0:
320,192,146380,128,0,146723:0:0:0:0:
448,192,146466,1,0,0:0:0:0:
192,192,146552,1,0,0:0:0:0:
64,192,146637,1,0,0:0:0:0:
448,192,146723,128,0,146809:0:0:0:0:
192,192,146723,1,0,0:0:0:0:
320,192,146809,1,0,0:0:0:0:
64,192,146894,1,0,0:0:0:0:
192,192,146980,1,0,0:0:0:0:
448,192,147066,128,0,147152:0:0:0:0:
320,192,147109,1,0,0:0:0:0:
192,192,147152,1,0,0:0:0:0:
64,192,147194,1,0,0:0:0:0:
320,192,147237,1,0,0:0:0:0:
192,192,147280,1,0,0:0:0:0:
448,192,147323,1,0,0:0:0:0:
320,192,147366,1,0,0:0:0:0:
64,192,147409,1,0,0:0:0:0:
64,192,147494,1,0,0:0:0:0:
320,192,147580,1,0,0:0:0:0:
320,192,147666,1,0,0:0:0:0:
64,192,147752,1,0,0:0:0:0:
192,192,147794,1,0,0:0:0:0:
320,192,147837,1,0,0:0:0:0:
448,192,147880,1,0,0:0:0:0:
192,192,147923,1,0,0:0:0:0:
64,192,147966,1,0,0:0:0:0:
448,192,148009,1,0,0:0:0:0:
320,192,148052,1,0,0:0:0:0:
192,192,148094,128,0,148180:0:0:0:0:
64,192,148094,128,0,148266:0:0:0:0:
320,192,148180,128,0,148352:0:0:0:0:
448,192,148266,128,0,148352:0:0:0:0:
192,192,148266,128,0,148437:0:0:0:0:
64,192,148352,128,0,148523:0:0:0:0:
320,192,148437,128,0,148523:0:0:0:0:
448,192,148437,128,0,148609:0:0:0:0:
192,192,148523,128,0,148694:0:0:0:0:
64,192,148609,128,0,148694:0:0:0:0:
320,192,148609,128,0,148694:0:0:0:0:
448,192,148694,1,0,0:0:0:0:
192,192,148780,1,0,0:0:0:0:
64,192,148780,128,0,148866:0:0:0:0:
320,192,148866,1,0,0:0:0:0:
448,192,148952,1,0,0:0:0:0:
192,192,149037,1,0,0:0:0:0:
64,192,149123,128,0,149209:0:0:0:0:
448,192,149123,1,0,0:0:0:0:
320,192,149209,1,0,0:0:0:0:
192,192,149294,1,0,0:0:0:0:
448,192,149380,1,0,0:0:0:0:
64,192,149466,128,0,149552:0:0:0:0:
320,192,149466,1,0,0:0:0:0:
192,192,149466,1,0,0:0:0:0:
448,192,149552,1,0,0:0:0:0:
192,192,149637,1,0,0:0:0:0:
320,192,149723,1,0,0:0:0:0:
448,192,149809,128,0,149894:0:0:0:0:
192,192,149809,1,0,0:0:0:0:
64,192,149852,1,0,0:0:0:0:
320,192,149894,1,0,0:0:0:0:
192,192,149937,1,0,0:0:0:0:
64,192,149980,1,0,0:0:0:0:
448,192,150023,1,0,0:0:0:0:
320,192,150066,1,0,0:0:0:0:
192,192,150109,1,0,0:0:0:0:
448,192,150152,1,0,0:0:0:0:
64,192,150152,128,0,150237:0:0:0:0:
320,192,150237,1,0,0:0:0:0:
192,192,150323,1,0,0:0:0:0:
320,192,150409,1,0,0:0:0:0:
64,192,150494,128,0,150580:0:0:0:0:
448,192,150494,1,0,0:0:0:0:
192,192,150580,1,0,0:0:0:0:
320,192,150666,1,0,0:0:0:0:
448,192,150752,1,0,0:0:0:0:
64,192,150837,128,0,150923:0:0:0:0:
192,192,150837,1,0,0:0:0:0:
320,192,150837,1,0,0:0:0:0:
448,192,150923,1,0,0:0:0:0:
192,192,151009,1,0,0:0:0:0:
320,192,151094,1,0,0:0:0:0:
192,192,151180,1,0,0:0:0:0:
448,192,151180,1,0,0:0:0:0:
64,192,151223,1,0,0:0:0:0:
320,192,151266,1,0,0:0:0:0:
448,192,151309,1,0,0:0:0:0:
192,192,151352,1,0,0:0:0:0:
320,192,151394,1,0,0:0:0:0:
64,192,151437,1,0,0:0:0:0:
192,192,151480,1,0,0:0:0:0:
320,192,151523,1,0,0:0:0:0:
448,192,151523,128,0,151609:0:0:0:0:
192,192,151609,1,0,0:0:0:0:
64,192,151694,1,0,0:0:0:0:
320,192,151780,1,0,0:0:0:0:
448,192,151866,128,0,151952:0:0:0:0:
192,192,151866,1,0,0:0:0:0:
64,192,151952,1,0,0:0:0:0:
192,192,152037,1,0,0:0:0:0:
320,192,152123,1,0,0:0:0:0:
448,192,152209,128,0,152294:0:0:0:0:
64,192,152209,1,0,0:0:0:0:
192,192,152209,1,0,0:0:0:0:
320,192,152294,1,0,0:0:0:0:
64,192,152380,1,0,0:0:0:0:
192,192,152466,1,0,0:0:0:0:
64,192,152552,128,0,152637:0:0:0:0:
448,192,152552,1,0,0:0:0:0:
320,192,152637,1,0,0:0:0:0:
192,192,152723,1,0,0:0:0:0:
320,192,152809,1,0,0:0:0:0:
448,192,152894,128,0,152980:0:0:0:0:
64,192,152894,1,0,0:0:0:0:
192,192,152980,1,0,0:0:0:0:
320,192,153066,1,0,0:0:0:0:
192,192,153152,1,0,0:0:0:0:
448,192,153237,128,0,153323:0:0:0:0:
64,192,153237,1,0,0:0:0:0:
320,192,153280,1,0,0:0:0:0:
192,192,153323,1,0,0:0:0:0:
64,192,153366,1,0,0:0:0:0:
448,192,153409,1,0,0:0:0:0:
320,192,153452,1,0,0:0:0:0:
192,192,153494,1,0,0:0:0:0:
64,192,153537,1,0,0:0:0:0:
448,192,153580,128,0,153666:0:0:0:0:
320,192,153580,1,0,0:0:0:0:
192,192,153666,1,0,0:0:0:0:
64,192,153752,1,0,0:0:0:0:
448,192,153837,1,0,0:0:0:0:
64,192,153923,1,0,0:0:0:0:
192,192,153923,128,0,154009:0:0:0:0:
320,192,154009,1,0,0:0:0:0:
64,192,154094,1,0,0:0:0:0:
448,192,154094,128,0,154180:0:0:0:0:
192,192,154180,1,0,0:0:0:0:
64,192,154266,128,0,154352:0:0:0:0:
320,192,154266,1,0,0:0:0:0:
448,192,154352,1,0,0:0:0:0:
320,192,154437,1,0,0:0:0:0:
192,192,154523,1,0,0:0:0:0:
64,192,154609,128,0,154694:0:0:0:0:
448,192,154609,1,0,0:0:0:0:
320,192,154694,1,0,0:0:0:0:
192,192,154780,1,0,0:0:0:0:
320,192,154866,1,0,0:0:0:0:
64,192,154952,128,0,155037:0:0:0:0:
448,192,154952,1,0,0:0:0:0:
192,192,155037,1,0,0:0:0:0:
320,192,155123,1,0,0:0:0:0:
64,192,155209,1,0,0:0:0:0:
448,192,155294,128,0,155380:0:0:0:0:
192,192,155294,1,0,0:0:0:0:
320,192,155337,1,0,0:0:0:0:
64,192,155380,1,0,0:0:0:0:
192,192,155423,1,0,0:0:0:0:
320,192,155466,1,0,0:0:0:0:
64,192,155509,1,0,0:0:0:0:
448,192,155552,1,0,0:0:0:0:
320,192,155594,1,0,0:0:0:0:
192,192,155637,1,0,0:0:0:0:
64,192,155637,128,0,155723:0:0:0:0:
448,192,155723,1,0,0:0:0:0:
320,192,155809,1,0,0:0:0:0:
192,192,155894,1,0,0:0:0:0:
64,192,155980,128,0,156066:0:0:0:0:
448,192,155980,1,0,0:0:0:0:
192,192,156066,1,0,0:0:0:0:
320,192,156152,1,0,0:0:0:0:
448,192,156237,1,0,0:0:0:0:
64,192,156323,128,0,156409:0:0:0:0:
192,192,156323,1,0,0:0:0:0:
320,192,156409,1,0,0:0:0:0:
448,192,156494,1,0,0:0:0:0:
192,192,156580,1,0,0:0:0:0:
64,192,156666,1,0,0:0:0:0:
448,192,156666,1,0,0:0:0:0:
192,192,156709,1,0,0:0:0:0:
320,192,156752,1,0,0:0:0:0:
448,192,156794,1,0,0:0:0:0:
192,192,156837,1,0,0:0:0:0:
320,192,156880,1,0,0:0:0:0:
64,192,156923,1,0,0:0:0:0:
192,192,156966,1,0,0:0:0:0:
320,192,157009,1,0,0:0:0:0:
448,192,157009,128,0,157094:0:0:0:0:
64,192,157094,1,0,0:0:0:0:
192,192,157180,1,0,0:0:0:0:
320,192,157266,1,0,0:0:0:0:
448,192,157352,128,0,157437:0:0:0:0:
192,192,157352,1,0,0:0:0:0:
64,192,157437,1,0,0:0:0:0:
320,192,157523,1,0,0:0:0:0:
192,192,157609,1,0,0:0:0:0:
448,192,157694,128,0,157780:0:0:0:0:
64,192,157694,1,0,0:0:0:0:
320,192,157780,1,0,0:0:0:0:
192,192,157866,1,0,0:0:0:0:
448,192,157952,1,0,0:0:0:0:
64,192,158037,128,0,158123:0:0:0:0:
320,192,158037,1,0,0:0:0:0:
192,192,158080,1,0,0:0:0:0:
448,192,158123,1,0,0:0:0:0:
320,192,158166,1,0,0:0:0:0:
192,192,158209,1,0,0:0:0:0:
64,192,158252,1,0,0:0:0:0:
320,192,158294,1,0,0:0:0:0:
448,192,158380,128,0,158466:0:0:0:0:
192,192,158380,1,0,0:0:0:0:
192,192,158466,1,0,0:0:0:0:
64,192,158552,1,0,0:0:0:0:
448,192,158637,1,0,0:0:0:0:
64,192,158723,128,0,158809:0:0:0:0:
320,192,158723,1,0,0:0:0:0:
320,192,158809,1,0,0:0:0:0:
192,192,158894,1,0,0:0:0:0:
64,192,158980,1,0,0:0:0:0:
320,192,159066,128,0,159152:0:0:0:0:
448,192,159066,1,0,0:0:0:0:
192,192,159109,128,0,159194:0:0:0:0:
64,192,159152,128,0,159237:0:0:0:0:
448,192,159194,128,0,159280:0:0:0:0:
320,192,159237,128,0,159323:0:0:0:0:
192,192,159280,128,0,159366:0:0:0:0:
64,192,159323,128,0,159409:0:0:0:0:
320,192,159409,128,0,159494:0:0:0:0:
448,192,159409,128,0,159580:0:0:0:0:
192,192,159494,128,0,159666:0:0:0:0:
64,192,159580,128,0,159666:0:0:0:0:
320,192,159580,128,0,159752:0:0:0:0:
448,192,159666,128,0,159752:0:0:0:0:
64,192,159752,128,0,159923:0:0:0:0:
192,192,159752,128,0,159837:0:0:0:0:
448,192,159837,128,0,159923:0:0:0:0:
320,192,159923,128,0,160009:0:0:0:0:
192,192,160009,128,0,160094:0:0:0:0:
448,192,160009,128,0,160180:0:0:0:0:
64,192,160094,128,0,160180:0:0:0:0:
192,192,160180,128,0,160266:0:0:0:0:
320,192,160266,128,0,160352:0:0:0:0:
64,192,160266,128,0,160437:0:0:0:0:
448,192,160352,128,0,160523:0:0:0:0:
192,192,160352,128,0,160437:0:0:0:0:
320,192,160437,128,0,160523:0:0:0:0:
192,192,160523,128,0,160609:0:0:0:0:
320,192,160609,128,0,160694:0:0:0:0:
64,192,160609,128,0,160780:0:0:0:0:
448,192,160694,128,0,160780:0:0:0:0:
192,192,160780,128,0,160866:0:0:0:0:
320,192,160780,128,0,160952:0:0:0:0:
64,192,160866,128,0,160952:0:0:0:0:
448,192,160952,128,0,161123:0:0:0:0:
192,192,160952,128,0,161037:0:0:0:0:
320,192,161037,128,0,161123:0:0:0:0:
64,192,161123,128,0,161294:0:0:0:0:
192,192,161123,128,0,161209:0:0:0:0:
320,192,161209,128,0,161294:0:0:0:0:
448,192,161294,128,0,161380:0:0:0:0:
320,192,161380,128,0,161552:0:0:0:0:
192,192,161380,128,0,161466:0:0:0:0:
64,192,161466,128,0,161552:0:0:0:0:
448,192,161552,128,0,161637:0:0:0:0:
320,192,161637,128,0,161809:0:0:0:0:
192,192,161637,128,0,161723:0:0:0:0:
448,192,161723,128,0,161809:0:0:0:0:
64,192,161723,128,0,161894:0:0:0:0:
192,192,161809,128,0,161894:0:0:0:0:
448,192,161894,128,0,162066:0:0:0:0:
320,192,161980,128,0,162066:0:0:0:0:
192,192,162066,128,0,162237:0:0:0:0:
64,192,162152,128,0,162237:0:0:0:0:
320,192,162152,128,0,162323:0:0:0:0:
448,192,162237,128,0,162409:0:0:0:0:
192,192,162323,128,0,162494:0:0:0:0:
64,192,162323,128,0,162409:0:0:0:0:
320,192,162409,128,0,162494:0:0:0:0:
448,192,162494,128,0,162666:0:0:0:0:
64,192,162494,128,0,162580:0:0:0:0:
320,192,162580,128,0,162666:0:0:0:0:
192,192,162666,128,0,162752:0:0:0:0:
64,192,162752,128,0,162837:0:0:0:0:
320,192,162752,128,0,162923:0:0:0:0:
448,192,162837,128,0,162923:0:0:0:0:
64,192,162923,128,0,163009:0:0:0:0:
192,192,163009,128,0,163180:0:0:0:0:
320,192,163009,128,0,163094:0:0:0:0:
64,192,163094,128,0,163180:0:0:0:0:
448,192,163094,128,0,163266:0:0:0:0:
320,192,163180,128,0,163266:0:0:0:0:
192,192,163266,128,0,163352:0:0:0:0:
64,192,163352,128,0,163437:0:0:0:0:
448,192,163352,128,0,163437:0:0:0:0:
320,192,163437,128,0,163523:0:0:0:0:
192,192,163523,128,0,163609:0:0:0:0:
64,192,163523,128,0,163609:0:0:0:0:
320,192,163609,128,0,163694:0:0:0:0:
448,192,163694,128,0,163780:0:0:0:0:
64,192,163694,128,0,163780:0:0:0:0:
192,192,163780,128,0,163866:0:0:0:0:
320,192,163866,128,0,163952:0:0:0:0:
448,192,163866,128,0,164037:0:0:0:0:
64,192,163952,128,0,164037:0:0:0:0:
192,192,164037,128,0,164123:0:0:0:0:
64,192,164123,128,0,164294:0:0:0:0:
320,192,164123,128,0,164209:0:0:0:0:
448,192,164209,128,0,164294:0:0:0:0:
192,192,164294,128,0,164380:0:0:0:0:
64,192,164380,128,0,164466:0:0:0:0:
448,192,164380,128,0,164552:0:0:0:0:
192,192,164466,128,0,164637:0:0:0:0:
320,192,164466,128,0,164552:0:0:0:0:
64,192,164552,128,0,164637:0:0:0:0:
448,192,164637,128,0,164809:0:0:0:0:
320,192,164723,128,0,164809:0:0:0:0:
192,192,164723,128,0,164894:0:0:0:0:
64,192,164809,128,0,164980:0:0:0:0:
448,192,164894,128,0,165066:0:0:0:0:
320,192,164894,128,0,164980:0:0:0:0:
192,192,164980,128,0,165152:0:0:0:0:
64,192,165066,128,0,165152:0:0:0:0:
320,192,165066,128,0,165237:0:0:0:0:
448,192,165152,128,0,165237:0:0:0:0:
64,192,165237,128,0,165409:0:0:0:0:
192,192,165237,128,0,165323:0:0:0:0:
448,192,165323,128,0,165409:0:0:0:0:
320,192,165409,128,0,165494:0:0:0:0:
192,192,165494,128,0,165580:0:0:0:0:
448,192,165494,128,0,165666:0:0:0:0:
64,192,165580,128,0,165666:0:0:0:0:
320,192,165666,128,0,165752:0:0:0:0:
192,192,165752,128,0,165923:0:0:0:0:
64,192,165752,128,0,165837:0:0:0:0:
320,192,165837,128,0,165923:0:0:0:0:
448,192,165837,128,0,166009:0:0:0:0:
64,192,165923,128,0,166009:0:0:0:0:
192,192,166009,128,0,166094:0:0:0:0:
320,192,166094,128,0,166180:0:0:0:0:
448,192,166094,128,0,166180:0:0:0:0:
192,192,166180,128,0,166266:0:0:0:0:
64,192,166266,128,0,166352:0:0:0:0:
448,192,166266,128,0,166352:0:0:0:0:
320,192,166352,128,0,166437:0:0:0:0:
192,192,166437,128,0,166523:0:0:0:0:
64,192,166437,128,0,166523:0:0:0:0:
320,192,166523,128,0,166609:0:0:0:0:
448,192,166609,128,0,166780:0:0:0:0:
64,192,166609,128,0,166694:0:0:0:0:
192,192,166694,128,0,166780:0:0:0:0:
320,192,166780,128,0,166866:0:0:0:0:
192,192,166866,128,0,167037:0:0:0:0:
448,192,166866,128,0,166952:0:0:0:0:
64,192,166952,128,0,167037:0:0:0:0:
448,192,167037,128,0,167123:0:0:0:0:
320,192,167123,128,0,167294:0:0:0:0:
64,192,167123,128,0,167209:0:0:0:0:
192,192,167209,128,0,167380:0:0:0:0:
448,192,167209,128,0,167294:0:0:0:0:
64,192,167294,128,0,167380:0:0:0:0:
320,192,167380,128,0,167552:0:0:0:0:
192,192,167466,128,0,167552:0:0:0:0:
64,192,167466,128,0,167637:0:0:0:0:
448,192,167552,128,0,167723:0:0:0:0:
320,192,167637,128,0,167723:0:0:0:0:
192,192,167637,128,0,167809:0:0:0:0:
64,192,167723,128,0,167894:0:0:0:0:
448,192,167809,128,0,167894:0:0:0:0:
320,192,167809,128,0,167980:0:0:0:0:
192,192,167894,128,0,167980:0:0:0:0:
64,192,167980,128,0,168152:0:0:0:0:
448,192,167980,128,0,168066:0:0:0:0:
320,192,168066,128,0,168152:0:0:0:0:
192,192,168152,128,0,168237:0:0:0:0:
64,192,168237,128,0,168323:0:0:0:0:
320,192,168237,128,0,168409:0:0:0:0:
448,192,168323,128,0,168409:0:0:0:0:
64,192,168409,128,0,168494:0:0:0:0:
320,192,168494,128,0,168580:0:0:0:0:
448,192,168494,128,0,168666:0:0:0:0:
192,192,168580,128,0,168666:0:0:0:0:
64,192,168580,128,0,168752:0:0:0:0:
320,192,168666,128,0,168752:0:0:0:0:
448,192,168752,128,0,168837:0:0:0:0:
192,192,168837,128,0,168923:0:0:0:0:
64,192,168837,128,0,168923:0:0:0:0:
320,192,168923,128,0,169009:0:0:0:0:
192,192,169009,128,0,169094:0:0:0:0:
448,192,169009,128,0,169094:0:0:0:0:
64,192,169094,128,0,169180:0:0:0:0:
320,192,169180,128,0,169266:0:0:0:0:
448,192,169180,128,0,169266:0:0:0:0:
192,192,169266,128,0,169352:0:0:0:0:
448,192,169352,1,0,0:0:0:0:
320,192,169352,1,0,0:0:0:0:
64,192,169352,128,0,169437:0:0:0:0:
448,192,169437,1,0,0:0:0:0:
320,192,169437,1,0,0:0:0:0:
192,192,169523,128,0,169609:0:0:0:0:
320,192,169609,128,0,169694:0:0:0:0:
64,192,169694,1,0,0:0:0:0:
192,192,169694,1,0,0:0:0:0:
448,192,169694,128,0,169780:0:0:0:0:
64,192,169780,1,0,0:0:0:0:
192,192,169780,1,0,0:0:0:0:
448,192,169866,128,0,169952:0:0:0:0:
320,192,169952,128,0,170037:0:0:0:0:
192,192,170037,128,0,170123:0:0:0:0:
64,192,170037,128,0,170123:0:0:0:0:
320,192,170123,128,0,170209:0:0:0:0:
448,192,170209,128,0,170294:0:0:0:0:
64,192,170209,128,0,170294:0:0:0:0:
192,192,170294,128,0,170380:0:0:0:0:
448,192,170380,1,0,0:0:0:0:
320,192,170380,1,0,0:0:0:0:
320,192,170466,1,0,0:0:0:0:
448,192,170466,1,0,0:0:0:0:
192,192,170552,1,0,0:0:0:0:
64,192,170552,1,0,0:0:0:0:
192,192,170637,1,0,0:0:0:0:
64,192,170637,1,0,0:0:0:0:
320,192,170723,1,0,0:0:0:0:
64,192,170723,1,0,0:0:0:0:
448,192,170723,128,0,176037:0:0:0:0:
64,192,176080,1,0,0:0:0:0:
192,192,176123,1,0,0:0:0:0:
320,192,176166,1,0,0:0:0:0:
448,192,176209,1,0,0:0:0:0:
64,192,176209,128,0,176552:0:0:0:0:
320,192,176380,128,0,176723:0:0:0:0:
192,192,176552,128,0,177066:0:0:0:0:
64,192,176723,128,0,177066:0:0:0:0:
320,192,176894,128,0,177409:0:0:0:0:
448,192,177066,128,0,177409:0:0:0:0:
64,192,177237,128,0,177752:0:0:0:0:
192,192,177409,128,0,177752:0:0:0:0:
320,192,177580,128,0,178094:0:0:0:0:
448,192,177752,128,0,178094:0:0:0:0:
192,192,177923,128,0,178437:0:0:0:0:
64,192,178094,128,0,178437:0:0:0:0:
448,192,178266,128,0,178437:0:0:0:0:
320,192,178437,128,0,178609:0:0:0:0:
192,192,178609,128,0,178780:0:0:0:0:
448,192,178609,128,0,179123:0:0:0:0:
64,192,178780,128,0,178952:0:0:0:0:
320,192,178780,128,0,179294:0:0:0:0:
192,192,178952,128,0,179466:0:0:0:0:
64,192,179123,128,0,179466:0:0:0:0:
448,192,179294,128,0,179809:0:0:0:0:
320,192,179466,128,0,179809:0:0:0:0:
64,192,179637,128,0,180152:0:0:0:0:
192,192,179809,128,0,180152:0:0:0:0:
320,192,179980,128,0,180494:0:0:0:0:
448,192,180152,128,0,180494:0:0:0:0:
64,192,180323,128,0,180837:0:0:0:0:
192,192,180494,128,0,180837:0:0:0:0:
448,192,180666,128,0,181180:0:0:0:0:
320,192,180837,128,0,181180:0:0:0:0:
192,192,181009,128,0,181180:0:0:0:0:
64,192,181180,128,0,181352:0:0:0:0:
448,192,181352,128,0,181523:0:0:0:0:
192,192,181352,128,0,181866:0:0:0:0:
320,192,181523,128,0,182037:0:0:0:0:
64,192,181523,128,0,181694:0:0:0:0:
448,192,181694,128,0,182037:0:0:0:0:
64,192,181866,128,0,182209:0:0:0:0:
192,192,182037,128,0,182209:0:0:0:0:
320,192,182209,128,0,182723:0:0:0:0:
192,192,182380,128,0,182894:0:0:0:0:
448,192,182380,128,0,182552:0:0:0:0:
64,192,182552,128,0,182894:0:0:0:0:
448,192,182723,128,0,183066:0:0:0:0:
320,192,182894,128,0,183066:0:0:0:0:
192,192,183066,128,0,183409:0:0:0:0:
64,192,183066,128,0,183409:0:0:0:0:
320,192,183237,128,0,183409:0:0:0:0:
448,192,183409,128,0,183923:0:0:0:0:
320,192,183580,128,0,183923:0:0:0:0:
64,192,183580,128,0,183752:0:0:0:0:
192,192,183752,128,0,184094:0:0:0:0:
64,192,183923,128,0,184094:0:0:0:0:
448,192,184094,128,0,184437:0:0:0:0:
320,192,184266,128,0,184437:0:0:0:0:
64,192,184266,128,0,184780:0:0:0:0:
192,192,184437,128,0,184780:0:0:0:0:
320,192,184609,128,0,184952:0:0:0:0:
448,192,184780,128,0,184952:0:0:0:0:
64,192,184952,128,0,185294:0:0:0:0:
192,192,185123,128,0,185294:0:0:0:0:
448,192,185123,128,0,185637:0:0:0:0:
320,192,185294,128,0,185637:0:0:0:0:
192,192,185466,128,0,185809:0:0:0:0:
64,192,185637,128,0,185809:0:0:0:0:
320,192,185809,128,0,186323:0:0:0:0:
448,192,185809,128,0,186152:0:0:0:0:
192,192,185980,128,0,186152:0:0:0:0:
64,192,186152,128,0,186494:0:0:0:0:
192,192,186323,128,0,186494:0:0:0:0:
448,192,186323,128,0,186666:0:0:0:0:
320,192,186494,128,0,186666:0:0:0:0:
192,192,186666,128,0,187009:0:0:0:0:
64,192,186837,128,0,187009:0:0:0:0:
320,192,186837,128,0,187009:0:0:0:0:
448,192,187052,1,0,0:0:0:0:
320,192,187094,1,0,0:0:0:0:
192,192,187137,1,0,0:0:0:0:
448,192,187180,128,0,187694:0:0:0:0:
64,192,187180,1,0,0:0:0:0:
320,192,187352,128,0,187694:0:0:0:0:
192,192,187523,128,0,188037:0:0:0:0:
64,192,187694,128,0,188037:0:0:0:0:
320,192,187866,128,0,188037:0:0:0:0:
448,192,188037,128,0,188380:0:0:0:0:
320,192,188209,128,0,188380:0:0:0:0:
64,192,188209,128,0,188552:0:0:0:0:
192,192,188380,128,0,188552:0:0:0:0:
320,192,188552,128,0,188894:0:0:0:0:
448,192,188552,128,0,188894:0:0:0:0:
192,192,188723,128,0,188894:0:0:0:0:
64,192,188894,128,0,189409:0:0:0:0:
192,192,189066,128,0,189409:0:0:0:0:
448,192,189066,128,0,189237:0:0:0:0:
320,192,189237,128,0,189409:0:0:0:0:
448,192,189409,128,0,189580:0:0:0:0:
320,192,189580,128,0,190094:0:0:0:0:
64,192,189580,128,0,189752:0:0:0:0:
192,192,189752,128,0,190266:0:0:0:0:
448,192,189752,128,0,189923:0:0:0:0:
64,192,189923,128,0,190266:0:0:0:0:
448,192,190094,128,0,190609:0:0:0:0:
320,192,190266,128,0,190609:0:0:0:0:
192,192,190437,128,0,190952:0:0:0:0:
64,192,190609,128,0,190780:0:0:0:0:
320,192,190780,128,0,191123:0:0:0:0:
448,192,190952,128,0,191294:0:0:0:0:
64,192,190952,128,0,191123:0:0:0:0:
192,192,191123,128,0,191466:0:0:0:0:
320,192,191294,128,0,191637:0:0:0:0:
64,192,191294,128,0,191466:0:0:0:0:
448,192,191466,128,0,191637:0:0:0:0:
64,192,191637,128,0,191980:0:0:0:0:
448,192,191809,128,0,191980:0:0:0:0:
192,192,191809,128,0,192152:0:0:0:0:
320,192,191980,128,0,192323:0:0:0:0:
64,192,192152,128,0,192323:0:0:0:0:
448,192,192323,128,0,192666:0:0:0:0:
192,192,192323,128,0,192494:0:0:0:0:
320,192,192494,128,0,192666:0:0:0:0:
64,192,192494,128,0,193009:0:0:0:0:
192,192,192666,128,0,193009:0:0:0:0:
448,192,192837,128,0,193352:0:0:0:0:
320,192,193009,128,0,193352:0:0:0:0:
64,192,193180,128,0,193694:0:0:0:0:
192,192,193352,128,0,193694:0:0:0:0:
320,192,193523,128,0,194037:0:0:0:0:
448,192,193694,128,0,194037:0:0:0:0:
64,192,193866,128,0,194209:0:0:0:0:
192,192,194037,128,0,194209:0:0:0:0:
448,192,194209,128,0,194380:0:0:0:0:
320,192,194380,128,0,194552:0:0:0:0:
64,192,194380,128,0,194723:0:0:0:0:
192,192,194552,128,0,194723:0:0:0:0:
448,192,194552,128,0,195066:0:0:0:0:
320,192,194723,128,0,195066:0:0:0:0:
192,192,194894,128,0,195409:0:0:0:0:
64,192,195066,128,0,195409:0:0:0:0:
448,192,195237,128,0,195752:0:0:0:0:
320,192,195409,128,0,195752:0:0:0:0:
192,192,195580,128,0,196094:0:0:0:0:
64,192,195752,128,0,196094:0:0:0:0:
320,192,195923,128,0,196437:0:0:0:0:
448,192,196094,128,0,196437:0:0:0:0:
64,192,196266,128,0,196780:0:0:0:0:
192,192,196437,128,0,196780:0:0:0:0:
448,192,196609,128,0,197123:0:0:0:0:
320,192,196780,128,0,197123:0:0:0:0:
192,192,196952,128,0,197466:0:0:0:0:
64,192,197123,128,0,197466:0:0:0:0:
448,192,197294,128,0,197809:0:0:0:0:
320,192,197466,128,0,197809:0:0:0:0:
192,192,197637,128,0,197980:0:0:0:0:
64,192,197809,128,0,197980:0:0:0:0:
320,192,197980,128,0,198152:0:0:0:0:
448,192,198152,1,0,0:0:0:0:
192,192,198152,1,0,0:0:0:0:
64,192,198152,1,0,0:0:0:0:
448,192,200894,128,0,200980:0:0:0:0:
320,192,200980,128,0,201066:0:0:0:0:
64,192,201066,128,0,201409:0:0:0:0:
192,192,201237,128,0,201409:0:0:0:0:
448,192,201580,128,0,201923:0:0:0:0:
320,192,201752,128,0,201923:0:0:0:0:
64,192,201923,128,0,202009:0:0:0:0:
192,192,202009,128,0,202094:0:0:0:0:
320,192,202094,128,0,202180:0:0:0:0:
448,192,202266,128,0,202352:0:0:0:0:
320,192,202352,128,0,202437:0:0:0:0:
192,192,202437,128,0,202780:0:0:0:0:
64,192,202609,128,0,202780:0:0:0:0:
320,192,202952,128,0,203294:0:0:0:0:
448,192,203123,128,0,203294:0:0:0:0:
64,192,203294,128,0,203380:0:0:0:0:
192,192,203380,128,0,203466:0:0:0:0:
320,192,203466,128,0,203552:0:0:0:0:
448,192,203552,128,0,203637:0:0:0:0:
64,192,203637,128,0,204152:0:0:0:0:
192,192,203809,128,0,204152:0:0:0:0:
320,192,203980,128,0,204152:0:0:0:0:
448,192,204323,128,0,204666:0:0:0:0:
320,192,204494,128,0,204666:0:0:0:0:
192,192,204666,128,0,204752:0:0:0:0:
64,192,204752,128,0,204837:0:0:0:0:
320,192,204837,128,0,204923:0:0:0:0:
192,192,204923,128,0,205009:0:0:0:0:
448,192,205009,128,0,205523:0:0:0:0:
320,192,205180,128,0,205523:0:0:0:0:
192,192,205352,128,0,205523:0:0:0:0:
64,192,205694,128,0,206209:0:0:0:0:
192,192,205866,128,0,206209:0:0:0:0:
448,192,206037,128,0,206380:0:0:0:0:
320,192,206209,128,0,206380:0:0:0:0:
192,192,206380,128,0,206466:0:0:0:0:
64,192,206466,128,0,206552:0:0:0:0:
448,192,206552,128,0,206637:0:0:0:0:
320,192,206637,128,0,206723:0:0:0:0:
192,192,206723,128,0,206809:0:0:0:0:
320,192,206894,128,0,206980:0:0:0:0:
448,192,206980,128,0,207066:0:0:0:0:
64,192,207066,128,0,207152:0:0:0:0:
192,192,207152,128,0,207237:0:0:0:0:
320,192,207237,128,0,207323:0:0:0:0:
64,192,207409,128,0,207494:0:0:0:0:
192,192,207494,128,0,207580:0:0:0:0:
448,192,207580,128,0,207666:0:0:0:0:
320,192,207666,128,0,207752:0:0:0:0:
64,192,207752,128,0,207837:0:0:0:0:
192,192,207837,128,0,207923:0:0:0:0:
320,192,207923,128,0,208009:0:0:0:0:
448,192,208009,128,0,208437:0:0:0:0:
320,192,208094,128,0,208437:0:0:0:0:
192,192,208266,128,0,208437:0:0:0:0:
64,192,208437,128,0,209037:0:0:0:0:
192,192,208609,128,0,208694:0:0:0:0:
320,192,208694,128,0,208780:0:0:0:0:
448,192,208780,128,0,209037:0:0:0:0:
192,192,208952,128,0,209037:0:0:0:0:
64,192,209123,128,0,210323:0:0:0:0:
192,192,209123,128,0,209552:0:0:0:0:
320,192,209123,128,0,209380:0:0:0:0:
448,192,209123,128,0,210323:0:0:0:0:
320,192,209466,128,0,210066:0:0:0:0:
192,192,209637,128,0,209894:0:0:0:0:
192,192,209980,128,0,210323:0:0:0:0:
320,192,210152,128,0,210323:0:0:0:0:
448,192,210494,1,0,0:0:0:0:
320,192,210494,1,0,0:0:0:0:
64,192,210494,1,0,0:0:0:0:
320,192,210580,1,0,0:0:0:0:
192,192,210666,1,0,0:0:0:0:
192,192,210752,1,0,0:0:0:0:
448,192,210837,1,0,0:0:0:0:
320,192,210880,1,0,0:0:0:0:
192,192,210923,1,0,0:0:0:0:
64,192,210966,1,0,0:0:0:0:
448,192,211009,1,0,0:0:0:0:
320,192,211052,1,0,0:0:0:0:
192,192,211180,128,0,211266:0:0:0:0:
64,192,211180,128,0,211266:0:0:0:0:
320,192,211266,128,0,211352:0:0:0:0:
192,192,211352,128,0,211437:0:0:0:0:
448,192,211352,128,0,211437:0:0:0:0:
64,192,211437,128,0,211523:0:0:0:0:
320,192,211523,128,0,211609:0:0:0:0:
448,192,211523,128,0,211609:0:0:0:0:
192,192,211609,128,0,211694:0:0:0:0:
64,192,211694,128,0,211780:0:0:0:0:
448,192,211694,128,0,211780:0:0:0:0:
320,192,211780,128,0,212809:0:0:0:0:
192,192,211866,128,0,212294:0:0:0:0:
64,192,211866,128,0,212123:0:0:0:0:
448,192,211866,128,0,212637:0:0:0:0:
64,192,212209,128,0,213152:0:0:0:0:
192,192,212380,128,0,213152:0:0:0:0:
448,192,212723,128,0,213152:0:0:0:0:
320,192,212894,128,0,213152:0:0:0:0:
64,192,213237,128,0,214009:0:0:0:0:
192,192,213237,128,0,214180:0:0:0:0:
320,192,213237,128,0,213666:0:0:0:0:
448,192,213237,128,0,213494:0:0:0:0:
448,192,213580,128,0,214523:0:0:0:0:
320,192,213752,128,0,214523:0:0:0:0:
64,192,214094,128,0,214523:0:0:0:0:
192,192,214266,128,0,214523:0:0:0:0:
64,192,214609,128,0,215809:0:0:0:0:
448,192,214609,128,0,215809:0:0:0:0:
192,192,214609,128,0,214866:0:0:0:0:
320,192,214609,128,0,215037:0:0:0:0:
192,192,214952,128,0,215552:0:0:0:0:
320,192,215123,128,0,215380:0:0:0:0:
320,192,215466,128,0,215809:0:0:0:0:
192,192,215637,128,0,215809:0:0:0:0:
64,192,215980,1,0,0:0:0:0:
192,192,215980,1,0,0:0:0:0:
448,192,215980,1,0,0:0:0:0:
192,192,216066,1,0,0:0:0:0:
320,192,216152,1,0,0:0:0:0:
320,192,216237,1,0,0:0:0:0:
192,192,216323,1,0,0:0:0:0:
64,192,216366,1,0,0:0:0:0:
320,192,216409,1,0,0:0:0:0:
192,192,216452,1,0,0:0:0:0:
448,192,216494,1,0,0:0:0:0:
320,192,216537,1,0,0:0:0:0:
192,192,216666,128,0,216752:0:0:0:0:
64,192,216666,128,0,216752:0:0:0:0:
320,192,216752,128,0,216837:0:0:0:0:
448,192,216837,128,0,216923:0:0:0:0:
64,192,216837,128,0,216923:0:0:0:0:
192,192,216923,128,0,217009:0:0:0:0:
320,192,217009,128,0,217094:0:0:0:0:
448,192,217009,128,0,217094:0:0:0:0:
192,192,217094,128,0,217180:0:0:0:0:
64,192,217180,128,0,217266:0:0:0:0:
448,192,217180,128,0,217266:0:0:0:0:
320,192,217266,128,0,217609:0:0:0:0:
192,192,217352,128,0,218123:0:0:0:0:
64,192,217352,128,0,217780:0:0:0:0:
448,192,217352,128,0,218294:0:0:0:0:
320,192,217694,128,0,218637:0:0:0:0:
64,192,217866,128,0,218637:0:0:0:0:
192,192,218209,128,0,218637:0:0:0:0:
448,192,218380,128,0,218637:0:0:0:0:
64,192,218723,128,0,218980:0:0:0:0:
192,192,218723,128,0,219666:0:0:0:0:
320,192,218723,128,0,219152:0:0:0:0:
448,192,218723,128,0,219494:0:0:0:0:
64,192,219066,128,0,220009:0:0:0:0:
320,192,219237,128,0,220009:0:0:0:0:
448,192,219580,128,0,220009:0:0:0:0:
192,192,219752,128,0,220009:0:0:0:0:
64,192,220094,128,0,221294:0:0:0:0:
192,192,220094,128,0,220523:0:0:0:0:
320,192,220094,128,0,221037:0:0:0:0:
448,192,220094,128,0,221294:0:0:0:0:
192,192,220609,128,0,221294:0:0:0:0:
320,192,221123,128,0,221294:0:0:0:0:
64,192,221466,1,0,0:0:0:0:
448,192,221466,1,0,0:0:0:0:
192,192,221466,1,0,0:0:0:0:
192,192,221552,1,0,0:0:0:0:
320,192,221637,1,0,0:0:0:0:
320,192,221723,1,0,0:0:0:0:
64,192,221809,1,0,0:0:0:0:
192,192,221852,1,0,0:0:0:0:
320,192,221894,1,0,0:0:0:0:
448,192,221937,1,0,0:0:0:0:
64,192,221980,1,0,0:0:0:0:
192,192,222023,1,0,0:0:0:0:
320,192,222152,128,0,222237:0:0:0:0:
448,192,222152,128,0,222237:0:0:0:0:
192,192,222237,128,0,222323:0:0:0:0:
64,192,222323,128,0,222409:0:0:0:0:
320,192,222323,128,0,222409:0:0:0:0:
448,192,222409,128,0,222494:0:0:0:0:
64,192,222494,128,0,222580:0:0:0:0:
192,192,222494,128,0,222580:0:0:0:0:
320,192,222580,128,0,222666:0:0:0:0:
448,192,222666,128,0,222752:0:0:0:0:
64,192,222666,128,0,222752:0:0:0:0:
192,192,222752,128,0,223094:0:0:0:0:
64,192,222837,128,0,224123:0:0:0:0:
448,192,222837,128,0,224123:0:0:0:0:
320,192,222837,128,0,223266:0:0:0:0:
192,192,223180,128,0,223780:0:0:0:0:
320,192,223352,128,0,223609:0:0:0:0:
320,192,223694,128,0,224123:0:0:0:0:
192,192,223866,128,0,224123:0:0:0:0:
64,192,224209,128,0,225494:0:0:0:0:
448,192,224209,128,0,225494:0:0:0:0:
192,192,224209,128,0,224637:0:0:0:0:
320,192,224209,128,0,224466:0:0:0:0:
320,192,224552,128,0,225152:0:0:0:0:
192,192,224723,128,0,224980:0:0:0:0:
192,192,225066,128,0,225494:0:0:0:0:
320,192,225237,128,0,225494:0:0:0:0:
64,192,225580,128,0,226780:0:0:0:0:
448,192,225580,128,0,226780:0:0:0:0:
192,192,225580,128,0,226523:0:0:0:0:
320,192,225580,128,0,226009:0:0:0:0:
320,192,226094,128,0,226780:0:0:0:0:
192,192,226609,128,0,226780:0:0:0:0:
64,192,226952,1,0,0:0:0:0:
448,192,226952,1,0,0:0:0:0:
320,192,226952,1,0,0:0:0:0:
320,192,227037,1,0,0:0:0:0:
192,192,227123,1,0,0:0:0:0:
192,192,227209,1,0,0:0:0:0:
320,192,227294,1,0,0:0:0:0:
448,192,227337,1,0,0:0:0:0:
192,192,227380,1,0,0:0:0:0:
320,192,227423,1,0,0:0:0:0:
64,192,227466,1,0,0:0:0:0:
192,192,227509,1,0,0:0:0:0:
320,192,227637,128,0,227723:0:0:0:0:
448,192,227637,128,0,227723:0:0:0:0:
192,192,227723,128,0,227809:0:0:0:0:
64,192,227809,128,0,227894:0:0:0:0:
448,192,227809,128,0,227894:0:0:0:0:
320,192,227894,128,0,227980:0:0:0:0:
192,192,227980,1,0,0:0:0:0:
192,192,228066,1,0,0:0:0:0:
320,192,228152,1,0,0:0:0:0:
320,192,228237,128,0,229609:0:0:0:0:
448,192,228323,128,0,229609:0:0:0:0:
192,192,228323,128,0,229609:0:0:0:0:
64,192,228323,128,0,229609:0:0:0:0:
64,192,229694,128,0,230294:0:0:0:0:
192,192,229694,128,0,230123:0:0:0:0:
320,192,229694,128,0,230466:0:0:0:0:
448,192,229694,128,0,230637:0:0:0:0:
192,192,230209,128,0,230980:0:0:0:0:
64,192,230380,128,0,230980:0:0:0:0:
320,192,230552,128,0,230980:0:0:0:0:
448,192,230723,128,0,230980:0:0:0:0:
320,192,231066,128,0,231409:0:0:0:0:
448,192,231066,128,0,231237:0:0:0:0:
64,192,231066,128,0,231237:0:0:0:0:
192,192,231323,128,0,231580:0:0:0:0:
448,192,231323,128,0,231409:0:0:0:0:
64,192,231323,128,0,231409:0:0:0:0:
320,192,231494,128,0,231580:0:0:0:0:
448,192,231494,128,0,232009:0:0:0:0:
64,192,231494,128,0,231580:0:0:0:0:
320,192,231666,128,0,232009:0:0:0:0:
192,192,231666,128,0,231837:0:0:0:0:
64,192,231666,128,0,231837:0:0:0:0:
192,192,231923,128,0,232180:0:0:0:0:
64,192,231923,128,0,232180:0:0:0:0:
320,192,232094,128,0,232180:0:0:0:0:
448,192,232094,128,0,232180:0:0:0:0:
192,192,232266,128,0,232352:0:0:0:0:
64,192,232266,128,0,232352:0:0:0:0:
320,192,232352,128,0,232609:0:0:0:0:
192,192,232437,128,0,232780:0:0:0:0:
64,192,232437,128,0,232609:0:0:0:0:
448,192,232437,128,0,232609:0:0:0:0:
320,192,232694,128,0,232952:0:0:0:0:
64,192,232694,128,0,232780:0:0:0:0:
448,192,232694,128,0,232780:0:0:0:0:
192,192,232866,128,0,232952:0:0:0:0:
64,192,232866,128,0,233380:0:0:0:0:
448,192,232866,128,0,232952:0:0:0:0:
192,192,233037,128,0,233380:0:0:0:0:
320,192,233037,128,0,233209:0:0:0:0:
448,192,233037,128,0,233209:0:0:0:0:
320,192,233294,128,0,233552:0:0:0:0:
448,192,233294,128,0,233552:0:0:0:0:
192,192,233466,128,0,233552:0:0:0:0:
64,192,233466,128,0,233552:0:0:0:0:
320,192,233637,128,0,233723:0:0:0:0:
448,192,233637,128,0,233723:0:0:0:0:
192,192,233723,128,0,233980:0:0:0:0:
64,192,233809,128,0,233980:0:0:0:0:
448,192,233809,128,0,233980:0:0:0:0:
320,192,233809,128,0,234152:0:0:0:0:
64,192,234066,128,0,234152:0:0:0:0:
448,192,234066,128,0,234152:0:0:0:0:
192,192,234066,128,0,234323:0:0:0:0:
64,192,234237,128,0,234323:0:0:0:0:
448,192,234237,128,0,234752:0:0:0:0:
320,192,234237,128,0,234323:0:0:0:0:
64,192,234409,128,0,234580:0:0:0:0:
192,192,234409,128,0,234580:0:0:0:0:
320,192,234409,128,0,234752:0:0:0:0:
64,192,234666,128,0,234923:0:0:0:0:
192,192,234666,128,0,234923:0:0:0:0:
448,192,234837,128,0,234923:0:0:0:0:
320,192,234837,128,0,234923:0:0:0:0:
64,192,235009,128,0,235094:0:0:0:0:
192,192,235009,128,0,235094:0:0:0:0:
320,192,235094,128,0,235352:0:0:0:0:
192,192,235180,128,0,235523:0:0:0:0:
448,192,235180,128,0,235352:0:0:0:0:
64,192,235180,128,0,235352:0:0:0:0:
320,192,235437,128,0,235609:0:0:0:0:
64,192,235437,128,0,235523:0:0:0:0:
448,192,235437,128,0,235523:0:0:0:0:
64,192,235609,128,0,236123:0:0:0:0:
448,192,235609,128,0,235694:0:0:0:0:
192,192,235609,1,0,0:0:0:0:
320,192,235694,1,0,0:0:0:0:
192,192,235694,128,0,236123:0:0:0:0:
320,192,235780,128,0,235952:0:0:0:0:
448,192,235780,128,0,235952:0:0:0:0:
320,192,236037,128,0,236209:0:0:0:0:
448,192,236037,128,0,236209:0:0:0:0:
192,192,236209,128,0,236294:0:0:0:0:
64,192,236209,128,0,236294:0:0:0:0:
320,192,236294,128,0,236380:0:0:0:0:
64,192,236380,128,0,236466:0:0:0:0:
448,192,236380,128,0,236466:0:0:0:0:
192,192,236466,128,0,236552:0:0:0:0:
448,192,236552,1,0,0:0:0:0:
64,192,236552,1,0,0:0:0:0:
320,192,236552,1,0,0:0:0:0:
448,192,236723,1,0,0:0:0:0:
64,192,236723,1,0,0:0:0:0:
192,192,236723,1,0,0:0:0:0:
448,192,236894,1,0,0:0:0:0:
64,192,236894,1,0,0:0:0:0:
320,192,236894,1,0,0:0:0:0:
448,192,237066,1,0,0:0:0:0:
320,192,237066,1,0,0:0:0:0:
192,192,237066,1,0,0:0:0:0:
320,192,237237,1,0,0:0:0:0:
192,192,237237,1,0,0:0:0:0:
64,192,237237,1,0,0:0:0:0:
448,192,237409,1,0,0:0:0:0:
192,192,237409,1,0,0:0:0:0:
64,192,237409,1,0,0:0:0:0:
448,192,237580,1,0,0:0:0:0:
64,192,237580,1,0,0:0:0:0:
320,192,237580,1,0,0:0:0:0:
448,192,237752,1,0,0:0:0:0:
320,192,237752,1,0,0:0:0:0:
192,192,237752,1,0,0:0:0:0:
320,192,237923,1,0,0:0:0:0:
64,192,237923,1,0,0:0:0:0:
448,192,237923,1,0,0:0:0:0:
448,192,238094,1,0,0:0:0:0:
192,192,238094,1,0,0:0:0:0:
64,192,238094,1,0,0:0:0:0:
320,192,238266,1,0,0:0:0:0:
192,192,238266,1,0,0:0:0:0:
64,192,238266,1,0,0:0:0:0:
448,192,238437,1,0,0:0:0:0:
320,192,238437,1,0,0:0:0:0:
192,192,238437,1,0,0:0:0:0:
448,192,238609,1,0,0:0:0:0:
320,192,238609,1,0,0:0:0:0:
64,192,238609,1,0,0:0:0:0:
448,192,238780,1,0,0:0:0:0:
192,192,238780,1,0,0:0:0:0:
64,192,238780,1,0,0:0:0:0:
320,192,238952,1,0,0:0:0:0:
192,192,238952,1,0,0:0:0:0:
64,192,238952,1,0,0:0:0:0:
448,192,239123,1,0,0:0:0:0:
320,192,239123,1,0,0:0:0:0:
192,192,239123,1,0,0:0:0:0:
64,192,239294,1,0,0:0:0:0:
192,192,239294,1,0,0:0:0:0:
320,192,239380,1,0,0:0:0:0:
448,192,239380,1,0,0:0:0:0:
64,192,239466,1,0,0:0:0:0:
192,192,239466,1,0,0:0:0:0:
320,192,239552,1,0,0:0:0:0:
448,192,239552,1,0,0:0:0:0:
192,192,239637,1,0,0:0:0:0:
64,192,239637,1,0,0:0:0:0:
320,192,239723,1,0,0:0:0:0:
448,192,239723,1,0,0:0:0:0:
64,192,239809,1,0,0:0:0:0:
192,192,239809,1,0,0:0:0:0:
448,192,239894,1,0,0:0:0:0:
320,192,239894,1,0,0:0:0:0:
64,192,239980,1,0,0:0:0:0:
192,192,239980,1,0,0:0:0:0:
320,192,240066,1,0,0:0:0:0:
448,192,240066,1,0,0:0:0:0:
192,192,240152,1,0,0:0:0:0:
64,192,240152,1,0,0:0:0:0:
320,192,240237,1,0,0:0:0:0:
448,192,240237,1,0,0:0:0:0:
192,192,240323,1,0,0:0:0:0:
64,192,240323,1,0,0:0:0:0:
320,192,240409,1,0,0:0:0:0:
448,192,240409,1,0,0:0:0:0:
64,192,240494,1,0,0:0:0:0:
192,192,240494,1,0,0:0:0:0:
320,192,240580,1,0,0:0:0:0:
192,192,240666,1,0,0:0:0:0:
64,192,240666,1,0,0:0:0:0:
448,192,240666,128,0,241009:0:0:0:0:
64,192,241009,128,0,241352:0:0:0:0:
192,192,241009,1,0,0:0:0:0:
320,192,241009,1,0,0:0:0:0:
320,192,241180,1,0,0:0:0:0:
192,192,241266,1,0,0:0:0:0:
448,192,241352,128,0,241952:0:0:0:0:
320,192,241352,1,0,0:0:0:0:
192,192,241437,1,0,0:0:0:0:
64,192,241523,1,0,0:0:0:0:
320,192,241523,1,0,0:0:0:0:
64,192,241694,128,0,242037:0:0:0:0:
192,192,241694,128,0,241952:0:0:0:0:
320,192,241694,128,0,241952:0:0:0:0:
192,192,242037,128,0,242209:0:0:0:0:
320,192,242037,128,0,242123:0:0:0:0:
448,192,242037,128,0,242123:0:0:0:0:
64,192,242123,128,0,242294:0:0:0:0:
320,192,242209,128,0,242294:0:0:0:0:
448,192,242209,128,0,242294:0:0:0:0:
192,192,242294,128,0,242380:0:0:0:0:
64,192,242380,128,0,242466:0:0:0:0:
320,192,242380,128,0,242552:0:0:0:0:
448,192,242380,128,0,242466:0:0:0:0:
192,192,242466,128,0,242637:0:0:0:0:
64,192,242552,128,0,242637:0:0:0:0:
448,192,242552,128,0,242723:0:0:0:0:
320,192,242637,128,0,242723:0:0:0:0:
192,192,242723,128,0,242809:0:0:0:0:
64,192,242723,128,0,242894:0:0:0:0:
320,192,242809,128,0,242980:0:0:0:0:
448,192,242894,128,0,242980:0:0:0:0:
192,192,242894,128,0,242980:0:0:0:0:
64,192,242980,128,0,243066:0:0:0:0:
192,192,243066,128,0,243152:0:0:0:0:
320,192,243066,128,0,243152:0:0:0:0:
448,192,243066,128,0,243152:0:0:0:0:
64,192,243152,128,0,243237:0:0:0:0:
320,192,243237,128,0,243323:0:0:0:0:
448,192,243237,128,0,243323:0:0:0:0:
192,192,243323,128,0,243409:0:0:0:0:
64,192,243409,128,0,243494:0:0:0:0:
320,192,243409,128,0,243580:0:0:0:0:
448,192,243409,128,0,243494:0:0:0:0:
192,192,243494,128,0,243666:0:0:0:0:
64,192,243580,128,0,243666:0:0:0:0:
448,192,243580,128,0,243666:0:0:0:0:
320,192,243666,128,0,243752:0:0:0:0:
448,192,243752,128,0,243923:0:0:0:0:
192,192,243752,128,0,243837:0:0:0:0:
64,192,243752,128,0,243837:0:0:0:0:
320,192,243837,128,0,243923:0:0:0:0:
64,192,243923,128,0,244009:0:0:0:0:
192,192,243923,128,0,244094:0:0:0:0:
320,192,244009,128,0,244180:0:0:0:0:
448,192,244094,128,0,244180:0:0:0:0:
64,192,244094,128,0,244266:0:0:0:0:
192,192,244180,128,0,244266:0:0:0:0:
320,192,244266,128,0,244352:0:0:0:0:
448,192,244266,128,0,244352:0:0:0:0:
192,192,244352,128,0,244437:0:0:0:0:
64,192,244437,128,0,244523:0:0:0:0:
320,192,244437,128,0,244523:0:0:0:0:
448,192,244437,128,0,244523:0:0:0:0:
192,192,244523,128,0,244609:0:0:0:0:
64,192,244609,128,0,244694:0:0:0:0:
448,192,244609,128,0,244694:0:0:0:0:
320,192,244694,128,0,244780:0:0:0:0:
448,192,244780,128,0,244952:0:0:0:0:
192,192,244780,128,0,244866:0:0:0:0:
64,192,244780,128,0,244866:0:0:0:0:
320,192,244866,128,0,245037:0:0:0:0:
192,192,244952,128,0,245037:0:0:0:0:
64,192,244952,128,0,245037:0:0:0:0:
448,192,245037,128,0,245123:0:0:0:0:
320,192,245123,128,0,245209:0:0:0:0:
192,192,245123,128,0,245209:0:0:0:0:
64,192,245123,128,0,245294:0:0:0:0:
448,192,245209,128,0,245380:0:0:0:0:
320,192,245294,128,0,245380:0:0:0:0:
192,192,245294,128,0,245466:0:0:0:0:
64,192,245380,128,0,245466:0:0:0:0:
320,192,245466,128,0,245637:0:0:0:0:
448,192,245466,128,0,245552:0:0:0:0:
192,192,245552,128,0,245723:0:0:0:0:
64,192,245637,128,0,245723:0:0:0:0:
448,192,245637,128,0,245723:0:0:0:0:
320,192,245723,128,0,245809:0:0:0:0:
448,192,245809,128,0,245894:0:0:0:0:
192,192,245809,128,0,245894:0:0:0:0:
64,192,245809,128,0,245894:0:0:0:0:
320,192,245894,128,0,245980:0:0:0:0:
448,192,245980,128,0,246066:0:0:0:0:
64,192,245980,128,0,246066:0:0:0:0:
192,192,246066,128,0,246152:0:0:0:0:
320,192,246152,128,0,246237:0:0:0:0:
448,192,246152,128,0,246237:0:0:0:0:
64,192,246152,128,0,246323:0:0:0:0:
192,192,246237,128,0,246409:0:0:0:0:
320,192,246323,128,0,246409:0:0:0:0:
448,192,246323,128,0,246409:0:0:0:0:
64,192,246409,128,0,246494:0:0:0:0:
192,192,246494,128,0,246580:0:0:0:0:
320,192,246494,128,0,246580:0:0:0:0:
448,192,246494,128,0,246666:0:0:0:0:
64,192,246580,128,0,246752:0:0:0:0:
192,192,246666,128,0,246752:0:0:0:0:
320,192,246666,128,0,246837:0:0:0:0:
448,192,246752,128,0,246837:0:0:0:0:
192,192,246837,128,0,246923:0:0:0:0:
64,192,246837,128,0,246923:0:0:0:0:
320,192,246894,128,0,246980:0:0:0:0:
448,192,246952,128,0,247037:0:0:0:0:
64,192,247009,128,0,247094:0:0:0:0:
192,192,247066,128,0,247152:0:0:0:0:
320,192,247180,128,0,247266:0:0:0:0:
448,192,247180,128,0,247266:0:0:0:0:
192,192,247237,128,0,247323:0:0:0:0:
64,192,247294,128,0,247380:0:0:0:0:
448,192,247352,128,0,247437:0:0:0:0:
320,192,247409,128,0,247494:0:0:0:0:
192,192,247523,128,0,247609:0:0:0:0:
64,192,247523,128,0,247694:0:0:0:0:
448,192,247523,128,0,247609:0:0:0:0:
320,192,247609,128,0,247694:0:0:0:0:
192,192,247694,128,0,247780:0:0:0:0:
64,192,247780,128,0,247866:0:0:0:0:
448,192,247780,128,0,247952:0:0:0:0:
320,192,247866,128,0,247952:0:0:0:0:
192,192,247952,128,0,248123:0:0:0:0:
64,192,247952,128,0,248037:0:0:0:0:
320,192,248037,128,0,248123:0:0:0:0:
448,192,248123,128,0,248209:0:0:0:0:
64,192,248123,128,0,248209:0:0:0:0:
192,192,248209,128,0,248294:0:0:0:0:
320,192,248209,128,0,248294:0:0:0:0:
448,192,248266,128,0,248352:0:0:0:0:
64,192,248323,128,0,248409:0:0:0:0:
192,192,248380,128,0,248466:0:0:0:0:
448,192,248466,128,0,248552:0:0:0:0:
320,192,248552,128,0,248637:0:0:0:0:
192,192,248552,128,0,248637:0:0:0:0:
64,192,248609,128,0,248694:0:0:0:0:
448,192,248666,128,0,248752:0:0:0:0:
320,192,248723,128,0,248809:0:0:0:0:
192,192,248809,128,0,248894:0:0:0:0:
320,192,248894,128,0,248980:0:0:0:0:
448,192,248894,128,0,249066:0:0:0:0:
64,192,248894,128,0,248980:0:0:0:0:
192,192,248980,128,0,249066:0:0:0:0:
320,192,249066,128,0,249152:0:0:0:0:
448,192,249152,128,0,249237:0:0:0:0:
64,192,249152,128,0,249323:0:0:0:0:
192,192,249237,128,0,249323:0:0:0:0:
320,192,249323,128,0,249494:0:0:0:0:
192,192,249409,128,0,249494:0:0:0:0:
448,192,249409,128,0,249494:0:0:0:0:
64,192,249494,128,0,249580:0:0:0:0:
320,192,249580,128,0,249752:0:0:0:0:
448,192,249580,128,0,249666:0:0:0:0:
192,192,249666,128,0,249837:0:0:0:0:
64,192,249752,128,0,249837:0:0:0:0:
448,192,249752,128,0,249923:0:0:0:0:
320,192,249837,128,0,249923:0:0:0:0:
192,192,249923,128,0,250094:0:0:0:0:
64,192,249923,128,0,250009:0:0:0:0:
320,192,250009,128,0,250180:0:0:0:0:
448,192,250094,128,0,250180:0:0:0:0:
64,192,250094,128,0,250180:0:0:0:0:
192,192,250180,128,0,250266:0:0:0:0:
320,192,250266,128,0,250352:0:0:0:0:
448,192,250266,128,0,250437:0:0:0:0:
64,192,250266,128,0,250352:0:0:0:0:
192,192,250352,128,0,250437:0:0:0:0:
320,192,250437,128,0,250523:0:0:0:0:
192,192,250523,128,0,250694:0:0:0:0:
448,192,250523,128,0,250609:0:0:0:0:
64,192,250609,128,0,250694:0:0:0:0:
448,192,250694,128,0,250780:0:0:0:0:
320,192,250780,128,0,250866:0:0:0:0:
192,192,250780,128,0,250952:0:0:0:0:
64,192,250866,128,0,250952:0:0:0:0:
320,192,250952,128,0,251037:0:0:0:0:
448,192,250952,128,0,251123:0:0:0:0:
192,192,251037,128,0,251209:0:0:0:0:
64,192,251123,128,0,251209:0:0:0:0:
320,192,251123,128,0,251294:0:0:0:0:
448,192,251209,128,0,251380:0:0:0:0:
192,192,251294,128,0,251380:0:0:0:0:
64,192,251294,128,0,251466:0:0:0:0:
320,192,251380,128,0,251552:0:0:0:0:
192,192,251466,128,0,251552:0:0:0:0:
448,192,251466,128,0,251552:0:0:0:0:
64,192,251552,128,0,251637:0:0:0:0:
448,192,251637,128,0,251723:0:0:0:0:
320,192,251637,128,0,251723:0:0:0:0:
192,192,251637,128,0,251809:0:0:0:0:
64,192,251723,128,0,251809:0:0:0:0:
448,192,251809,128,0,251894:0:0:0:0:
320,192,251894,128,0,251980:0:0:0:0:
192,192,251894,128,0,252066:0:0:0:0:
64,192,251980,128,0,252066:0:0:0:0:
320,192,252066,128,0,252237:0:0:0:0:
448,192,252152,128,0,252237:0:0:0:0:
64,192,252152,128,0,252237:0:0:0:0:
192,192,252237,128,0,252323:0:0:0:0:
320,192,252323,128,0,252409:0:0:0:0:
448,192,252323,128,0,252409:0:0:0:0:
192,192,252380,128,0,252466:0:0:0:0:
64,192,252437,128,0,252523:0:0:0:0:
448,192,252494,128,0,252580:0:0:0:0:
320,192,252552,128,0,252637:0:0:0:0:
64,192,252666,128,0,252752:0:0:0:0:
192,192,252666,128,0,252752:0:0:0:0:
320,192,252723,128,0,252809:0:0:0:0:
448,192,252780,128,0,252866:0:0:0:0:
64,192,252837,128,0,252923:0:0:0:0:
192,192,252894,128,0,252980:0:0:0:0:
320,192,253009,128,0,253094:0:0:0:0:
64,192,253009,128,0,253180:0:0:0:0:
448,192,253009,128,0,253094:0:0:0:0:
192,192,253094,128,0,253180:0:0:0:0:
320,192,253180,128,0,253352:0:0:0:0:
448,192,253180,128,0,253266:0:0:0:0:
192,192,253266,128,0,253437:0:0:0:0:
64,192,253266,128,0,253437:0:0:0:0:
448,192,253352,128,0,253437:0:0:0:0:
320,192,253437,128,0,253523:0:0:0:0:
448,192,253523,128,0,253694:0:0:0:0:
192,192,253523,128,0,253609:0:0:0:0:
64,192,253523,128,0,253609:0:0:0:0:
320,192,253609,128,0,253694:0:0:0:0:
192,192,253694,128,0,253780:0:0:0:0:
64,192,253694,128,0,253780:0:0:0:0:
320,192,253780,128,0,253866:0:0:0:0:
448,192,253866,128,0,253952:0:0:0:0:
64,192,253866,128,0,253952:0:0:0:0:
192,192,253952,128,0,254037:0:0:0:0:
64,192,254037,128,0,254123:0:0:0:0:
320,192,254037,128,0,254209:0:0:0:0:
448,192,254037,128,0,254123:0:0:0:0:
192,192,254123,128,0,254209:0:0:0:0:
64,192,254209,128,0,254294:0:0:0:0:
448,192,254209,128,0,254294:0:0:0:0:
320,192,254294,128,0,254380:0:0:0:0:
192,192,254380,128,0,254466:0:0:0:0:
64,192,254380,128,0,254466:0:0:0:0:
448,192,254380,128,0,254552:0:0:0:0:
320,192,254466,128,0,254552:0:0:0:0:
192,192,254552,128,0,254723:0:0:0:0:
64,192,254552,128,0,254637:0:0:0:0:
320,192,254637,128,0,254809:0:0:0:0:
448,192,254637,128,0,254809:0:0:0:0:
64,192,254723,128,0,254809:0:0:0:0:
192,192,254809,128,0,254894:0:0:0:0:
320,192,254894,128,0,254980:0:0:0:0:
64,192,254894,128,0,255066:0:0:0:0:
448,192,254894,128,0,254980:0:0:0:0:
192,192,254980,128,0,255066:0:0:0:0:
320,192,255066,128,0,255152:0:0:0:0:
448,192,255066,128,0,255152:0:0:0:0:
192,192,255152,128,0,255237:0:0:0:0:
64,192,255237,128,0,255323:0:0:0:0:
448,192,255237,128,0,255323:0:0:0:0:
320,192,255323,128,0,255409:0:0:0:0:
448,192,255409,128,0,255494:0:0:0:0:
192,192,255409,128,0,255580:0:0:0:0:
64,192,255409,128,0,255494:0:0:0:0:
320,192,255494,128,0,255580:0:0:0:0:
448,192,255580,128,0,255666:0:0:0:0:
64,192,255580,128,0,255666:0:0:0:0:
192,192,255666,128,0,255752:0:0:0:0:
64,192,255752,128,0,255923:0:0:0:0:
320,192,255752,128,0,255837:0:0:0:0:
448,192,255752,128,0,255837:0:0:0:0:
192,192,255837,128,0,255923:0:0:0:0:
320,192,255923,128,0,256094:0:0:0:0:
448,192,255923,128,0,256009:0:0:0:0:
192,192,256009,128,0,256180:0:0:0:0:
64,192,256009,128,0,256180:0:0:0:0:
448,192,256094,128,0,256180:0:0:0:0:
320,192,256180,128,0,256266:0:0:0:0:
192,192,256266,128,0,256352:0:0:0:0:
64,192,256266,128,0,256352:0:0:0:0:
448,192,256266,128,0,256437:0:0:0:0:
320,192,256352,128,0,256437:0:0:0:0:
192,192,256437,128,0,256523:0:0:0:0:
64,192,256437,128,0,256523:0:0:0:0:
320,192,256523,128,0,256609:0:0:0:0:
192,192,256609,128,0,256694:0:0:0:0:
448,192,256609,128,0,256694:0:0:0:0:
64,192,256694,128,0,256780:0:0:0:0:
192,192,256780,128,0,256952:0:0:0:0:
320,192,256780,128,0,256866:0:0:0:0:
448,192,256780,128,0,256866:0:0:0:0:
64,192,256866,128,0,256952:0:0:0:0:
320,192,256952,128,0,257037:0:0:0:0:
448,192,256952,128,0,257037:0:0:0:0:
192,192,257037,128,0,257123:0:0:0:0:
64,192,257123,128,0,257294:0:0:0:0:
320,192,257123,128,0,257209:0:0:0:0:
448,192,257123,128,0,257209:0:0:0:0:
192,192,257209,128,0,257294:0:0:0:0:
320,192,257294,128,0,257380:0:0:0:0:
448,192,257294,128,0,257466:0:0:0:0:
192,192,257380,128,0,257552:0:0:0:0:
64,192,257380,128,0,257552:0:0:0:0:
320,192,257466,128,0,257552:0:0:0:0:
448,192,257552,128,0,257637:0:0:0:0:
320,192,257637,128,0,257809:0:0:0:0:
192,192,257637,128,0,257723:0:0:0:0:
64,192,257637,128,0,257723:0:0:0:0:
448,192,257723,128,0,257809:0:0:0:0:
192,192,257809,128,0,257894:0:0:0:0:
64,192,257809,128,0,257894:0:0:0:0:
320,192,257894,128,0,257980:0:0:0:0:
192,192,257980,128,0,258066:0:0:0:0:
448,192,257980,128,0,258066:0:0:0:0:
64,192,258066,128,0,258152:0:0:0:0:
320,192,258152,128,0,258237:0:0:0:0:
448,192,258152,128,0,258237:0:0:0:0:
192,192,258209,128,0,258294:0:0:0:0:
64,192,258266,128,0,258352:0:0:0:0:
448,192,258323,128,0,258409:0:0:0:0:
192,192,258409,128,0,258494:0:0:0:0:
64,192,258494,128,0,258666:0:0:0:0:
320,192,258494,128,0,258580:0:0:0:0:
448,192,258494,128,0,258580:0:0:0:0:
192,192,258580,128,0,258666:0:0:0:0:
320,192,258666,128,0,258752:0:0:0:0:
448,192,258666,128,0,258752:0:0:0:0:
192,192,258752,128,0,258837:0:0:0:0:
64,192,258752,128,0,258837:0:0:0:0:
320,192,258809,128,0,258894:0:0:0:0:
448,192,258866,128,0,258952:0:0:0:0:
64,192,258923,128,0,259009:0:0:0:0:
192,192,258980,128,0,259066:0:0:0:0:
320,192,259037,128,0,259123:0:0:0:0:
448,192,259094,128,0,259180:0:0:0:0:
64,192,259180,128,0,259352:0:0:0:0:
192,192,259180,128,0,259266:0:0:0:0:
320,192,259180,128,0,259266:0:0:0:0:
448,192,259266,128,0,259437:0:0:0:0:
320,192,259352,128,0,259437:0:0:0:0:
192,192,259352,128,0,259437:0:0:0:0:
64,192,259437,128,0,259523:0:0:0:0:
192,192,259523,128,0,259694:0:0:0:0:
320,192,259523,128,0,259609:0:0:0:0:
448,192,259523,128,0,259609:0:0:0:0:
64,192,259609,128,0,259694:0:0:0:0:
320,192,259694,128,0,259780:0:0:0:0:
448,192,259694,128,0,259780:0:0:0:0:
192,192,259780,128,0,259866:0:0:0:0:
64,192,259866,128,0,260123:0:0:0:0:
320,192,259866,128,0,259952:0:0:0:0:
448,192,259866,128,0,260037:0:0:0:0:
192,192,259952,128,0,260037:0:0:0:0:
320,192,260037,128,0,260209:0:0:0:0:
448,192,260123,128,0,260380:0:0:0:0:
192,192,260123,128,0,260294:0:0:0:0:
64,192,260209,128,0,260294:0:0:0:0:
320,192,260294,128,0,260466:0:0:0:0:
64,192,260380,128,0,260637:0:0:0:0:
192,192,260380,128,0,260466:0:0:0:0:
448,192,260466,128,0,260552:0:0:0:0:
320,192,260552,128,0,260809:0:0:0:0:
192,192,260552,128,0,260723:0:0:0:0:
448,192,260637,128,0,260809:0:0:0:0:
64,192,260723,128,0,260809:0:0:0:0:
192,192,260809,128,0,260980:0:0:0:0:
64,192,260894,128,0,261152:0:0:0:0:
448,192,260894,128,0,260980:0:0:0:0:
320,192,260980,128,0,261066:0:0:0:0:
192,192,261066,128,0,261152:0:0:0:0:
448,192,261066,128,0,261152:0:0:0:0:
320,192,261152,128,0,261237:0:0:0:0:
448,192,261237,128,0,261494:0:0:0:0:
192,192,261237,128,0,261323:0:0:0:0:
64,192,261237,128,0,261409:0:0:0:0:
320,192,261323,128,0,261409:0:0:0:0:
192,192,261409,128,0,261580:0:0:0:0:
64,192,261494,128,0,261752:0:0:0:0:
320,192,261494,128,0,261666:0:0:0:0:
448,192,261580,128,0,261666:0:0:0:0:
192,192,261666,128,0,261837:0:0:0:0:
448,192,261752,128,0,262009:0:0:0:0:
320,192,261752,128,0,261837:0:0:0:0:
64,192,261837,128,0,261923:0:0:0:0:
192,192,261923,128,0,262180:0:0:0:0:
320,192,261923,128,0,262094:0:0:0:0:
64,192,262009,128,0,262180:0:0:0:0:
448,192,262094,128,0,262180:0:0:0:0:
320,192,262180,128,0,262352:0:0:0:0:
448,192,262266,128,0,262523:0:0:0:0:
192,192,262266,128,0,262352:0:0:0:0:
64,192,262352,128,0,262437:0:0:0:0:
320,192,262437,128,0,262523:0:0:0:0:
192,192,262437,128,0,262523:0:0:0:0:
64,192,262523,128,0,262609:0:0:0:0:
192,192,262609,128,0,262780:0:0:0:0:
320,192,262609,128,0,262694:0:0:0:0:
448,192,262609,128,0,262694:0:0:0:0:
64,192,262694,128,0,262866:0:0:0:0:
320,192,262780,128,0,262866:0:0:0:0:
448,192,262780,128,0,262866:0:0:0:0:
192,192,262866,128,0,262952:0:0:0:0:
64,192,262952,128,0,263037:0:0:0:0:
448,192,262952,128,0,263123:0:0:0:0:
320,192,262952,128,0,263037:0:0:0:0:
192,192,263037,128,0,263209:0:0:0:0:
64,192,263123,128,0,263209:0:0:0:0:
320,192,263123,128,0,263294:0:0:0:0:
448,192,263209,128,0,263380:0:0:0:0:
192,192,263294,128,0,263466:0:0:0:0:
64,192,263294,128,0,263380:0:0:0:0:
320,192,263380,128,0,263552:0:0:0:0:
448,192,263466,128,0,263552:0:0:0:0:
64,192,263466,128,0,263552:0:0:0:0:
192,192,263552,128,0,263894:0:0:0:0:
320,192,263637,128,0,263980:0:0:0:0:
448,192,263637,128,0,263894:0:0:0:0:
64,192,263637,128,0,263894:0:0:0:0:
192,192,263980,128,0,264152:0:0:0:0:
64,192,263980,128,0,264066:0:0:0:0:
448,192,263980,128,0,264066:0:0:0:0:
320,192,264066,128,0,264237:0:0:0:0:
448,192,264152,128,0,264237:0:0:0:0:
64,192,264152,128,0,264237:0:0:0:0:
192,192,264237,128,0,264323:0:0:0:0:
64,192,264323,128,0,264494:0:0:0:0:
320,192,264323,128,0,264409:0:0:0:0:
448,192,264323,128,0,264409:0:0:0:0:
192,192,264409,128,0,264494:0:0:0:0:
320,192,264494,128,0,264666:0:0:0:0:
448,192,264494,128,0,264580:0:0:0:0:
192,192,264580,128,0,264752:0:0:0:0:
64,192,264666,128,0,264752:0:0:0:0:
448,192,264666,128,0,264752:0:0:0:0:
320,192,264752,128,0,264923:0:0:0:0:
192,192,264837,128,0,264923:0:0:0:0:
64,192,264837,128,0,264923:0:0:0:0:
448,192,264923,128,0,265009:0:0:0:0:
320,192,265009,128,0,265094:0:0:0:0:
192,192,265009,128,0,265094:0:0:0:0:
64,192,265009,128,0,265180:0:0:0:0:
448,192,265094,128,0,265266:0:0:0:0:
320,192,265180,128,0,265266:0:0:0:0:
192,192,265266,128,0,265352:0:0:0:0:
64,192,265352,128,0,265437:0:0:0:0:
320,192,265352,128,0,265437:0:0:0:0:
448,192,265352,128,0,265523:0:0:0:0:
192,192,265437,128,0,265609:0:0:0:0:
320,192,265523,128,0,265609:0:0:0:0:
64,192,265523,128,0,265609:0:0:0:0:
448,192,265609,128,0,265694:0:0:0:0:
320,192,265694,128,0,265780:0:0:0:0:
192,192,265694,128,0,265780:0:0:0:0:
64,192,265694,128,0,265780:0:0:0:0:
448,192,265780,128,0,265866:0:0:0:0:
64,192,265866,128,0,266037:0:0:0:0:
192,192,265866,128,0,265952:0:0:0:0:
320,192,265952,128,0,266123:0:0:0:0:
192,192,266037,128,0,266209:0:0:0:0:
448,192,266037,128,0,266123:0:0:0:0:
64,192,266123,128,0,266209:0:0:0:0:
320,192,266209,128,0,266294:0:0:0:0:
448,192,266209,128,0,266294:0:0:0:0:
192,192,266294,128,0,266380:0:0:0:0:
64,192,266380,128,0,266466:0:0:0:0:
320,192,266380,128,0,266552:0:0:0:0:
448,192,266380,128,0,266466:0:0:0:0:
192,192,266466,128,0,266637:0:0:0:0:
64,192,266552,128,0,266637:0:0:0:0:
448,192,266552,128,0,266637:0:0:0:0:
320,192,266637,128,0,266723:0:0:0:0:
448,192,266723,128,0,266894:0:0:0:0:
192,192,266723,128,0,266809:0:0:0:0:
64,192,266723,128,0,266809:0:0:0:0:
320,192,266809,128,0,266980:0:0:0:0:
192,192,266894,128,0,266980:0:0:0:0:
64,192,266894,128,0,266980:0:0:0:0:
448,192,266980,128,0,267066:0:0:0:0:
320,192,267066,128,0,267237:0:0:0:0:
192,192,267066,128,0,267152:0:0:0:0:
64,192,267066,128,0,267152:0:0:0:0:
448,192,267152,128,0,267323:0:0:0:0:
192,192,267237,128,0,267323:0:0:0:0:
64,192,267237,128,0,267409:0:0:0:0:
320,192,267323,128,0,267494:0:0:0:0:
192,192,267409,128,0,267580:0:0:0:0:
448,192,267409,128,0,267494:0:0:0:0:
64,192,267494,128,0,267580:0:0:0:0:
320,192,267580,128,0,267666:0:0:0:0:
448,192,267580,128,0,267666:0:0:0:0:
192,192,267666,128,0,267752:0:0:0:0:
64,192,267752,128,0,267923:0:0:0:0:
320,192,267752,128,0,267837:0:0:0:0:
448,192,267752,128,0,267837:0:0:0:0:
192,192,267837,128,0,268009:0:0:0:0:
320,192,267923,128,0,268009:0:0:0:0:
448,192,268009,128,0,268094:0:0:0:0:
320,192,268094,128,0,268266:0:0:0:0:
192,192,268094,128,0,268180:0:0:0:0:
64,192,268094,128,0,268180:0:0:0:0:
448,192,268180,128,0,268352:0:0:0:0:
192,192,268266,128,0,268352:0:0:0:0:
64,192,268266,128,0,268352:0:0:0:0:
320,192,268352,128,0,268437:0:0:0:0:
192,192,268437,128,0,268523:0:0:0:0:
64,192,268437,128,0,268523:0:0:0:0:
448,192,268437,128,0,268523:0:0:0:0:
320,192,268523,128,0,268609:0:0:0:0:
448,192,268609,128,0,268694:0:0:0:0:
64,192,268609,128,0,268780:0:0:0:0:
192,192,268694,128,0,268780:0:0:0:0:
320,192,268780,128,0,268952:0:0:0:0:
448,192,268780,128,0,268866:0:0:0:0:
192,192,268866,128,0,268952:0:0:0:0:
64,192,268952,128,0,269037:0:0:0:0:
448,192,268952,128,0,269037:0:0:0:0:
320,192,269037,128,0,269123:0:0:0:0:
448,192,269123,128,0,269294:0:0:0:0:
64,192,269123,128,0,269209:0:0:0:0:
192,192,269123,128,0,269209:0:0:0:0:
320,192,269209,128,0,269380:0:0:0:0:
192,192,269294,128,0,269380:0:0:0:0:
64,192,269294,128,0,269380:0:0:0:0:
448,192,269380,128,0,269466:0:0:0:0:
320,192,269466,128,0,269637:0:0:0:0:
192,192,269466,128,0,269552:0:0:0:0:
64,192,269466,128,0,269552:0:0:0:0:
448,192,269552,128,0,269637:0:0:0:0:
64,192,269637,128,0,269723:0:0:0:0:
192,192,269723,128,0,269809:0:0:0:0:
448,192,269723,128,0,269894:0:0:0:0:
320,192,269809,128,0,269894:0:0:0:0:
192,192,269894,128,0,270066:0:0:0:0:
64,192,269894,128,0,269980:0:0:0:0:
320,192,269980,128,0,270066:0:0:0:0:
448,192,270066,128,0,270152:0:0:0:0:
64,192,270066,128,0,270152:0:0:0:0:
192,192,270152,128,0,270237:0:0:0:0:
320,192,270152,128,0,270237:0:0:0:0:
448,192,270209,128,0,270294:0:0:0:0:
64,192,270266,128,0,270352:0:0:0:0:
192,192,270323,128,0,270409:0:0:0:0:
320,192,270409,128,0,270494:0:0:0:0:
448,192,270494,128,0,270580:0:0:0:0:
192,192,270494,128,0,270580:0:0:0:0:
64,192,270552,128,0,270637:0:0:0:0:
320,192,270609,128,0,270694:0:0:0:0:
192,192,270666,128,0,270752:0:0:0:0:
448,192,270752,128,0,270837:0:0:0:0:
320,192,270837,128,0,271009:0:0:0:0:
192,192,270837,128,0,270923:0:0:0:0:
64,192,270837,128,0,270923:0:0:0:0:
448,192,270923,128,0,271009:0:0:0:0:
64,192,271009,128,0,271094:0:0:0:0:
192,192,271094,128,0,271180:0:0:0:0:
320,192,271094,128,0,271266:0:0:0:0:
448,192,271180,128,0,271266:0:0:0:0:
64,192,271266,128,0,271352:0:0:0:0:
192,192,271352,128,0,271437:0:0:0:0:
448,192,271352,128,0,271523:0:0:0:0:
320,192,271437,128,0,271523:0:0:0:0:
192,192,271523,128,0,271609:0:0:0:0:
64,192,271523,128,0,271694:0:0:0:0:
320,192,271609,128,0,271780:0:0:0:0:
192,192,271694,128,0,271866:0:0:0:0:
448,192,271694,128,0,271780:0:0:0:0:
64,192,271780,128,0,271952:0:0:0:0:
320,192,271866,128,0,272037:0:0:0:0:
448,192,271866,128,0,271952:0:0:0:0:
192,192,271952,128,0,272123:0:0:0:0:
64,192,272037,128,0,272123:0:0:0:0:
448,192,272037,128,0,272123:0:0:0:0:
320,192,272123,128,0,272209:0:0:0:0:
192,192,272209,128,0,272294:0:0:0:0:
64,192,272209,128,0,272380:0:0:0:0:
448,192,272209,128,0,272294:0:0:0:0:
320,192,272294,128,0,272380:0:0:0:0:
192,192,272380,128,0,272466:0:0:0:0:
64,192,272466,128,0,272552:0:0:0:0:
448,192,272466,128,0,272637:0:0:0:0:
320,192,272552,128,0,272637:0:0:0:0:
192,192,272637,128,0,272723:0:0:0:0:
64,192,272723,128,0,272809:0:0:0:0:
320,192,272723,128,0,272894:0:0:0:0:
448,192,272809,128,0,272894:0:0:0:0:
64,192,272894,128,0,272980:0:0:0:0:
192,192,272894,128,0,273066:0:0:0:0:
320,192,272980,128,0,273152:0:0:0:0:
448,192,273066,128,0,273152:0:0:0:0:
64,192,273066,128,0,273237:0:0:0:0:
192,192,273152,128,0,273237:0:0:0:0:
320,192,273237,128,0,273323:0:0:0:0:
448,192,273237,128,0,273409:0:0:0:0:
192,192,273323,128,0,273494:0:0:0:0:
64,192,273409,128,0,273494:0:0:0:0:
320,192,273409,128,0,273494:0:0:0:0:
448,192,273494,128,0,273580:0:0:0:0:
320,192,273580,128,0,273752:0:0:0:0:
192,192,273580,128,0,273666:0:0:0:0:
64,192,273580,128,0,273666:0:0:0:0:
448,192,273666,128,0,273752:0:0:0:0:
192,192,273752,128,0,273837:0:0:0:0:
64,192,273837,128,0,273923:0:0:0:0:
320,192,273837,128,0,274009:0:0:0:0:
448,192,273923,128,0,274009:0:0:0:0:
64,192,274009,128,0,274094:0:0:0:0:
192,192,274094,128,0,274180:0:0:0:0:
320,192,274094,128,0,274266:0:0:0:0:
448,192,274180,128,0,274266:0:0:0:0:
192,192,274266,128,0,274352:0:0:0:0:
64,192,274266,128,0,274352:0:0:0:0:
320,192,274323,128,0,274409:0:0:0:0:
448,192,274380,128,0,274466:0:0:0:0:
64,192,274437,128,0,274523:0:0:0:0:
192,192,274494,128,0,274580:0:0:0:0:
320,192,274609,128,0,274694:0:0:0:0:
448,192,274609,128,0,274694:0:0:0:0:
192,192,274666,128,0,274752:0:0:0:0:
64,192,274723,128,0,274809:0:0:0:0:
448,192,274780,128,0,274866:0:0:0:0:
320,192,274837,128,0,274923:0:0:0:0:
192,192,274952,128,0,275037:0:0:0:0:
64,192,274952,128,0,275123:0:0:0:0:
448,192,274952,128,0,275037:0:0:0:0:
320,192,275037,128,0,275123:0:0:0:0:
192,192,275123,128,0,275209:0:0:0:0:
64,192,275209,128,0,275294:0:0:0:0:
448,192,275209,128,0,275380:0:0:0:0:
320,192,275294,128,0,275380:0:0:0:0:
192,192,275294,128,0,275380:0:0:0:0:
64,192,275380,128,0,275466:0:0:0:0:
192,192,275466,128,0,275637:0:0:0:0:
320,192,275466,128,0,275552:0:0:0:0:
448,192,275466,128,0,275552:0:0:0:0:
64,192,275552,128,0,275637:0:0:0:0:
448,192,275637,128,0,275723:0:0:0:0:
320,192,275637,128,0,275723:0:0:0:0:
192,192,275723,128,0,275809:0:0:0:0:
64,192,275809,128,0,275894:0:0:0:0:
320,192,275809,128,0,275894:0:0:0:0:
448,192,275894,128,0,275980:0:0:0:0:
320,192,275980,128,0,276152:0:0:0:0:
192,192,275980,128,0,276066:0:0:0:0:
64,192,275980,128,0,276066:0:0:0:0:
448,192,276066,128,0,276152:0:0:0:0:
192,192,276152,128,0,276237:0:0:0:0:
64,192,276152,128,0,276237:0:0:0:0:
320,192,276237,128,0,276323:0:0:0:0:
448,192,276323,128,0,276409:0:0:0:0:
192,192,276323,128,0,276494:0:0:0:0:
64,192,276323,128,0,276409:0:0:0:0:
320,192,276409,128,0,276494:0:0:0:0:
448,192,276494,128,0,276580:0:0:0:0:
192,192,276580,128,0,276666:0:0:0:0:
64,192,276580,128,0,276752:0:0:0:0:
320,192,276666,128,0,276752:0:0:0:0:
448,192,276666,128,0,276752:0:0:0:0:
192,192,276752,128,0,276837:0:0:0:0:
64,192,276837,128,0,276923:0:0:0:0:
320,192,276837,128,0,277009:0:0:0:0:
448,192,276837,128,0,276923:0:0:0:0:
192,192,276923,128,0,277009:0:0:0:0:
64,192,277009,128,0,277094:0:0:0:0:
448,192,277009,128,0,277094:0:0:0:0:
320,192,277094,128,0,277180:0:0:0:0:
192,192,277180,128,0,277266:0:0:0:0:
64,192,277180,128,0,277266:0:0:0:0:
320,192,277266,128,0,277352:0:0:0:0:
448,192,277352,128,0,277437:0:0:0:0:
64,192,277352,128,0,277437:0:0:0:0:
192,192,277352,128,0,277523:0:0:0:0:
320,192,277437,128,0,277523:0:0:0:0:
448,192,277523,128,0,277609:0:0:0:0:
64,192,277523,128,0,277609:0:0:0:0:
192,192,277609,128,0,277694:0:0:0:0:
320,192,277694,128,0,277866:0:0:0:0:
64,192,277694,128,0,277780:0:0:0:0:
448,192,277694,128,0,277780:0:0:0:0:
192,192,277780,128,0,277866:0:0:0:0:
448,192,277866,128,0,277952:0:0:0:0:
320,192,277952,128,0,278037:0:0:0:0:
192,192,277952,128,0,278123:0:0:0:0:
64,192,278037,128,0,278123:0:0:0:0:
448,192,278037,128,0,278123:0:0:0:0:
320,192,278123,128,0,278209:0:0:0:0:
448,192,278209,128,0,278380:0:0:0:0:
192,192,278209,128,0,278294:0:0:0:0:
64,192,278209,128,0,278294:0:0:0:0:
320,192,278294,128,0,278380:0:0:0:0:
192,192,278380,128,0,278466:0:0:0:0:
64,192,278380,128,0,278466:0:0:0:0:
320,192,278466,128,0,278552:0:0:0:0:
192,192,278552,128,0,278637:0:0:0:0:
448,192,278552,128,0,278637:0:0:0:0:
64,192,278637,128,0,278723:0:0:0:0:
192,192,278723,128,0,278894:0:0:0:0:
320,192,278723,128,0,278809:0:0:0:0:
448,192,278723,128,0,278809:0:0:0:0:
64,192,278809,128,0,278894:0:0:0:0:
320,192,278894,128,0,278980:0:0:0:0:
448,192,278894,128,0,278980:0:0:0:0:
192,192,278980,128,0,279066:0:0:0:0:
64,192,279066,128,0,279152:0:0:0:0:
448,192,279066,128,0,279152:0:0:0:0:
320,192,279066,128,0,279237:0:0:0:0:
192,192,279152,128,0,279237:0:0:0:0:
64,192,279237,128,0,279323:0:0:0:0:
320,192,279323,128,0,279409:0:0:0:0:
448,192,279323,128,0,279494:0:0:0:0:
192,192,279409,128,0,279494:0:0:0:0:
64,192,279409,128,0,279494:0:0:0:0:
320,192,279494,128,0,279580:0:0:0:0:
448,192,279580,128,0,279666:0:0:0:0:
192,192,279580,128,0,279752:0:0:0:0:
64,192,279580,128,0,279666:0:0:0:0:
320,192,279666,128,0,279752:0:0:0:0:
448,192,279752,128,0,279837:0:0:0:0:
64,192,279752,128,0,279923:0:0:0:0:
192,192,279837,128,0,279923:0:0:0:0:
320,192,279923,128,0,280094:0:0:0:0:
448,192,279923,128,0,280009:0:0:0:0:
192,192,280009,128,0,280180:0:0:0:0:
64,192,280094,128,0,280180:0:0:0:0:
448,192,280094,128,0,280266:0:0:0:0:
320,192,280180,128,0,280266:0:0:0:0:
192,192,280266,128,0,280352:0:0:0:0:
64,192,280266,128,0,280352:0:0:0:0:
320,192,280352,128,0,280437:0:0:0:0:
192,192,280437,128,0,280523:0:0:0:0:
64,192,280437,128,0,280609:0:0:0:0:
448,192,280437,128,0,280523:0:0:0:0:
320,192,280523,128,0,280694:0:0:0:0:
192,192,280609,128,0,280694:0:0:0:0:
448,192,280609,128,0,280694:0:0:0:0:
64,192,280694,128,0,280780:0:0:0:0:
192,192,280780,128,0,280952:0:0:0:0:
320,192,280780,128,0,280866:0:0:0:0:
448,192,280780,128,0,280866:0:0:0:0:
64,192,280866,128,0,281037:0:0:0:0:
320,192,280952,128,0,281037:0:0:0:0:
448,192,280952,128,0,281037:0:0:0:0:
192,192,281037,128,0,281123:0:0:0:0:
64,192,281123,128,0,281209:0:0:0:0:
320,192,281123,128,0,281209:0:0:0:0:
448,192,281123,128,0,281294:0:0:0:0:
192,192,281209,128,0,281380:0:0:0:0:
64,192,281294,128,0,281380:0:0:0:0:
320,192,281294,128,0,281380:0:0:0:0:
448,192,281380,128,0,281466:0:0:0:0:
320,192,281466,128,0,281637:0:0:0:0:
192,192,281466,128,0,281552:0:0:0:0:
64,192,281466,128,0,281552:0:0:0:0:
448,192,281552,128,0,281723:0:0:0:0:
64,192,281637,128,0,281723:0:0:0:0:
192,192,281637,128,0,281723:0:0:0:0:
320,192,281723,128,0,281809:0:0:0:0:
192,192,281809,128,0,281894:0:0:0:0:
64,192,281809,128,0,281980:0:0:0:0:
448,192,281809,128,0,281894:0:0:0:0:
320,192,281894,128,0,282066:0:0:0:0:
192,192,281980,128,0,282066:0:0:0:0:
448,192,281980,128,0,282066:0:0:0:0:
64,192,282066,128,0,282152:0:0:0:0:
448,192,282152,128,0,282237:0:0:0:0:
320,192,282152,128,0,282237:0:0:0:0:
192,192,282152,128,0,282323:0:0:0:0:
64,192,282237,128,0,282409:0:0:0:0:
320,192,282323,128,0,282409:0:0:0:0:
448,192,282323,128,0,282409:0:0:0:0:
192,192,282409,128,0,282494:0:0:0:0:
64,192,282494,128,0,282580:0:0:0:0:
320,192,282494,128,0,282580:0:0:0:0:
448,192,282494,128,0,282666:0:0:0:0:
192,192,282580,128,0,282752:0:0:0:0:
64,192,282666,128,0,282752:0:0:0:0:
320,192,282666,128,0,282752:0:0:0:0:
448,192,282752,128,0,282837:0:0:0:0:
320,192,282837,128,0,283009:0:0:0:0:
192,192,282837,128,0,282923:0:0:0:0:
64,192,282837,128,0,282923:0:0:0:0:
448,192,282923,128,0,283094:0:0:0:0:
64,192,283009,128,0,283094:0:0:0:0:
192,192,283009,128,0,283094:0:0:0:0:
320,192,283094,128,0,283180:0:0:0:0:
192,192,283180,128,0,283266:0:0:0:0:
64,192,283180,128,0,283266:0:0:0:0:
448,192,283180,128,0,283266:0:0:0:0:
320,192,283266,128,0,283352:0:0:0:0:
192,192,283352,128,0,283437:0:0:0:0:
64,192,283352,128,0,283437:0:0:0:0:
448,192,283352,128,0,283437:0:0:0:0:
320,192,283437,128,0,283523:0:0:0:0:
448,192,283523,128,0,283609:0:0:0:0:
192,192,283523,128,0,283609:0:0:0:0:
64,192,283523,128,0,283609:0:0:0:0:
320,192,283609,128,0,283694:0:0:0:0:
448,192,283694,128,0,283780:0:0:0:0:
64,192,283694,128,0,283780:0:0:0:0:
192,192,283780,128,0,283866:0:0:0:0:
320,192,283866,128,0,283952:0:0:0:0:
64,192,283866,128,0,283952:0:0:0:0:
448,192,283866,128,0,283952:0:0:0:0:
192,192,283952,128,0,284037:0:0:0:0:
320,192,284037,128,0,284123:0:0:0:0:
448,192,284037,128,0,284123:0:0:0:0:
64,192,284037,128,0,284123:0:0:0:0:
192,192,284123,128,0,284209:0:0:0:0:
320,192,284209,128,0,284294:0:0:0:0:
448,192,284209,128,0,284294:0:0:0:0:
64,192,284209,128,0,284294:0:0:0:0:
192,192,284294,128,0,284380:0:0:0:0:
320,192,284380,128,0,284466:0:0:0:0:
448,192,284380,128,0,284466:0:0:0:0:
64,192,284380,128,0,284466:0:0:0:0:
192,192,284466,128,0,284552:0:0:0:0:
448,192,284552,1,0,0:0:0:0:
320,192,284552,1,0,0:0:0:0:
192,192,284637,1,0,0:0:0:0:
64,192,284637,1,0,0:0:0:0:
448,192,284723,1,0,0:0:0:0:
320,192,284723,1,0,0:0:0:0:
192,192,284809,1,0,0:0:0:0:
64,192,284809,1,0,0:0:0:0:
448,192,284894,1,0,0:0:0:0:
320,192,284894,1,0,0:0:0:0:
192,192,284980,1,0,0:0:0:0:
64,192,284980,1,0,0:0:0:0:
448,192,285066,1,0,0:0:0:0:
320,192,285066,1,0,0:0:0:0:
192,192,285152,1,0,0:0:0:0:
64,192,285152,1,0,0:0:0:0:
448,192,285237,1,0,0:0:0:0:
320,192,285237,1,0,0:0:0:0:
192,192,285323,1,0,0:0:0:0:
64,192,285323,1,0,0:0:0:0:
448,192,285409,1,0,0:0:0:0:
320,192,285409,1,0,0:0:0:0:
192,192,285494,1,0,0:0:0:0:
64,192,285494,1,0,0:0:0:0:
448,192,285580,1,0,0:0:0:0:
320,192,285580,1,0,0:0:0:0:
192,192,285666,1,0,0:0:0:0:
64,192,285752,1,0,0:0:0:0:
448,192,285752,1,0,0:0:0:0:
320,192,285837,1,0,0:0:0:0:
192,192,285923,128,0,286266:0:0:0:0:
64,192,285923,128,0,286094:0:0:0:0:
448,192,285923,128,0,286094:0:0:0:0:
64,192,286180,128,0,286352:0:0:0:0:
320,192,286180,128,0,286352:0:0:0:0:
448,192,286180,128,0,286352:0:0:0:0:
192,192,286352,128,0,286523:0:0:0:0:
64,192,286437,128,0,286523:0:0:0:0:
320,192,286437,128,0,286523:0:0:0:0:
448,192,286437,128,0,286523:0:0:0:0:
448,192,286609,1,0,0:0:0:0:
320,192,286609,1,0,0:0:0:0:
192,192,286652,1,0,0:0:0:0:
64,192,286694,1,0,0:0:0:0:
320,192,286737,1,0,0:0:0:0:
192,192,286780,1,0,0:0:0:0:
448,192,286823,1,0,0:0:0:0:
320,192,286866,1,0,0:0:0:0:
64,192,286952,1,0,0:0:0:0:
192,192,286952,1,0,0:0:0:0:
192,192,287037,1,0,0:0:0:0:
448,192,287123,1,0,0:0:0:0:
320,192,287123,1,0,0:0:0:0:
320,192,287209,1,0,0:0:0:0:
64,192,287294,128,0,287466:0:0:0:0:
448,192,287294,128,0,287466:0:0:0:0:
192,192,287294,128,0,287723:0:0:0:0:
64,192,287552,128,0,287723:0:0:0:0:
448,192,287552,128,0,287723:0:0:0:0:
320,192,287552,128,0,287637:0:0:0:0:
320,192,287723,128,0,287894:0:0:0:0:
64,192,287809,128,0,287894:0:0:0:0:
448,192,287809,128,0,287894:0:0:0:0:
192,192,287809,128,0,287894:0:0:0:0:
192,192,287980,128,0,288066:0:0:0:0:
64,192,287980,128,0,288152:0:0:0:0:
320,192,288066,128,0,288237:0:0:0:0:
448,192,288152,128,0,288237:0:0:0:0:
192,192,288152,128,0,288323:0:0:0:0:
64,192,288237,128,0,288409:0:0:0:0:
320,192,288323,128,0,288409:0:0:0:0:
448,192,288323,128,0,288494:0:0:0:0:
192,192,288409,128,0,288580:0:0:0:0:
64,192,288494,128,0,288580:0:0:0:0:
320,192,288494,128,0,288580:0:0:0:0:
448,192,288580,128,0,288837:0:0:0:0:
320,192,288666,128,0,288837:0:0:0:0:
192,192,288666,128,0,289009:0:0:0:0:
64,192,288666,128,0,288837:0:0:0:0:
64,192,288923,128,0,289094:0:0:0:0:
320,192,288923,128,0,289094:0:0:0:0:
448,192,288923,128,0,289094:0:0:0:0:
192,192,289094,128,0,289266:0:0:0:0:
64,192,289180,128,0,289266:0:0:0:0:
320,192,289180,128,0,289266:0:0:0:0:
448,192,289180,128,0,289266:0:0:0:0:
64,192,289352,1,0,0:0:0:0:
192,192,289352,1,0,0:0:0:0:
64,192,289437,1,0,0:0:0:0:
448,192,289523,1,0,0:0:0:0:
320,192,289523,1,0,0:0:0:0:
448,192,289609,1,0,0:0:0:0:
192,192,289694,128,0,289780:0:0:0:0:
64,192,289694,128,0,289780:0:0:0:0:
320,192,289780,128,0,289952:0:0:0:0:
448,192,289866,128,0,289952:0:0:0:0:
192,192,289866,128,0,289952:0:0:0:0:
64,192,289866,128,0,289952:0:0:0:0:
320,192,290037,128,0,290380:0:0:0:0:
64,192,290037,128,0,290209:0:0:0:0:
448,192,290037,128,0,290209:0:0:0:0:
192,192,290294,128,0,290466:0:0:0:0:
64,192,290294,128,0,290466:0:0:0:0:
448,192,290294,128,0,290466:0:0:0:0:
320,192,290466,128,0,290637:0:0:0:0:
192,192,290552,128,0,290637:0:0:0:0:
64,192,290552,128,0,290637:0:0:0:0:
448,192,290552,128,0,290637:0:0:0:0:
448,192,290723,128,0,291037:0:0:0:0:
320,192,290752,128,0,291009:0:0:0:0:
192,192,290780,128,0,290980:0:0:0:0:
64,192,290809,128,0,290952:0:0:0:0:
64,192,291037,1,0,0:0:0:0:
192,192,291066,1,0,0:0:0:0:
64,192,291123,1,0,0:0:0:0:
192,192,291152,1,0,0:0:0:0:
448,192,291209,1,0,0:0:0:0:
320,192,291237,1,0,0:0:0:0:
448,192,291294,1,0,0:0:0:0:
320,192,291323,1,0,0:0:0:0:
192,192,291409,128,0,291494:0:0:0:0:
64,192,291409,128,0,291494:0:0:0:0:
448,192,291409,128,0,291494:0:0:0:0:
64,192,291666,128,0,291752:0:0:0:0:
192,192,291666,128,0,291752:0:0:0:0:
320,192,291666,128,0,291752:0:0:0:0:
448,192,291752,1,0,0:0:0:0:
64,192,291837,128,0,291923:0:0:0:0:
192,192,291923,128,0,292009:0:0:0:0:
320,192,291923,128,0,292009:0:0:0:0:
448,192,291923,128,0,292009:0:0:0:0:
64,192,292009,1,0,0:0:0:0:
448,192,292094,128,0,292180:0:0:0:0:
320,192,292094,128,0,292180:0:0:0:0:
192,192,292094,128,0,292180:0:0:0:0:
64,192,292180,1,0,0:0:0:0:
448,192,292266,1,0,0:0:0:0:
320,192,292352,128,0,292437:0:0:0:0:
192,192,292352,128,0,292437:0:0:0:0:
64,192,292352,128,0,292437:0:0:0:0:
448,192,292437,1,0,0:0:0:0:
64,192,292523,128,0,292609:0:0:0:0:
192,192,292609,128,0,292694:0:0:0:0:
320,192,292609,128,0,292694:0:0:0:0:
448,192,292609,128,0,292694:0:0:0:0:
64,192,292694,1,0,0:0:0:0:
192,192,292780,128,0,292866:0:0:0:0:
320,192,292780,128,0,292866:0:0:0:0:
448,192,292780,128,0,292866:0:0:0:0:
64,192,292866,1,0,0:0:0:0:
448,192,292952,1,0,0:0:0:0:
192,192,293037,1,0,0:0:0:0:
64,192,293037,1,0,0:0:0:0:
320,192,293037,1,0,0:0:0:0:
448,192,293123,1,0,0:0:0:0:
64,192,293209,128,0,293380:0:0:0:0:
192,192,293294,128,0,293380:0:0:0:0:
320,192,293294,128,0,293380:0:0:0:0:
448,192,293294,128,0,293380:0:0:0:0:
64,192,293466,128,0,293894:0:0:0:0:
192,192,293494,128,0,293580:0:0:0:0:
320,192,293523,128,0,293609:0:0:0:0:
448,192,293723,128,0,294037:0:0:0:0:
320,192,293752,128,0,293837:0:0:0:0:
192,192,293780,128,0,293866:0:0:0:0:
64,192,293980,128,0,294066:0:0:0:0:
192,192,294009,128,0,294094:0:0:0:0:
320,192,294037,128,0,294123:0:0:0:0:
64,192,294152,128,0,294237:0:0:0:0:
192,192,294152,128,0,294323:0:0:0:0:
448,192,294152,128,0,294237:0:0:0:0:
320,192,294237,128,0,294323:0:0:0:0:
448,192,294323,128,0,294409:0:0:0:0:
64,192,294323,128,0,294409:0:0:0:0:
192,192,294409,128,0,294494:0:0:0:0:
320,192,294409,128,0,294580:0:0:0:0:
448,192,294494,128,0,294580:0:0:0:0:
64,192,294494,128,0,294666:0:0:0:0:
192,192,294580,128,0,294666:0:0:0:0:
320,192,294666,128,0,294837:0:0:0:0:
448,192,294666,128,0,294752:0:0:0:0:
192,192,294752,128,0,294923:0:0:0:0:
64,192,294837,128,0,295009:0:0:0:0:
448,192,294837,128,0,295094:0:0:0:0:
320,192,294923,128,0,295009:0:0:0:0:
192,192,295009,128,0,295094:0:0:0:0:
320,192,295094,1,0,0:0:0:0:
64,192,295094,1,0,0:0:0:0:
448,192,295180,1,0,0:0:0:0:
320,192,295223,1,0,0:0:0:0:
192,192,295266,1,0,0:0:0:0:
64,192,295309,1,0,0:0:0:0:
448,192,295352,1,0,0:0:0:0:
320,192,295394,1,0,0:0:0:0:
192,192,295437,1,0,0:0:0:0:
64,192,295480,1,0,0:0:0:0:
448,192,295523,128,0,295866:0:0:0:0:
320,192,295694,128,0,295866:0:0:0:0:
64,192,295866,128,0,296466:0:0:0:0:
192,192,295952,128,0,296294:0:0:0:0:
320,192,296209,128,0,296294:0:0:0:0:
448,192,296209,128,0,296466:0:0:0:0:
192,192,296380,128,0,296466:0:0:0:0:
320,192,296380,128,0,296637:0:0:0:0:
448,192,296552,128,0,296637:0:0:0:0:
192,192,296552,128,0,296637:0:0:0:0:
64,192,296552,128,0,296637:0:0:0:0:
448,192,296894,1,0,0:0:0:0:
320,192,296894,1,0,0:0:0:0:
192,192,296937,1,0,0:0:0:0:
64,192,296980,1,0,0:0:0:0:
320,192,297023,1,0,0:0:0:0:
192,192,297066,1,0,0:0:0:0:
448,192,297109,1,0,0:0:0:0:
320,192,297152,1,0,0:0:0:0:
192,192,297237,128,0,297323:0:0:0:0:
64,192,297237,128,0,297409:0:0:0:0:
448,192,297237,128,0,297323:0:0:0:0:
320,192,297323,128,0,297452:0:0:0:0:
192,192,297409,128,0,297580:0:0:0:0:
448,192,297409,128,0,297494:0:0:0:0:
64,192,297494,128,0,297580:0:0:0:0:
320,192,297580,128,0,297752:0:0:0:0:
448,192,297580,128,0,297666:0:0:0:0:
192,192,297666,128,0,297837:0:0:0:0:
64,192,297752,128,0,297837:0:0:0:0:
448,192,297752,128,0,297837:0:0:0:0:
320,192,297837,128,0,297923:0:0:0:0:
192,192,297923,128,0,298009:0:0:0:0:
64,192,297923,128,0,298180:0:0:0:0:
448,192,297923,128,0,298180:0:0:0:0:
320,192,298009,128,0,298180:0:0:0:0:
192,192,298094,128,0,298180:0:0:0:0:
320,192,298266,128,0,298352:0:0:0:0:
448,192,298266,128,0,298437:0:0:0:0:
64,192,298266,128,0,298352:0:0:0:0:
192,192,298352,128,0,298523:0:0:0:0:
320,192,298437,128,0,298523:0:0:0:0:
64,192,298437,128,0,298523:0:0:0:0:
448,192,298523,128,0,298609:0:0:0:0:
320,192,298609,128,0,298780:0:0:0:0:
192,192,298609,128,0,298694:0:0:0:0:
64,192,298609,128,0,298694:0:0:0:0:
448,192,298694,128,0,298866:0:0:0:0:
192,192,298780,128,0,298909:0:0:0:0:
64,192,298780,128,0,298866:0:0:0:0:
320,192,298866,128,0,298952:0:0:0:0:
64,192,298952,1,0,0:0:0:0:
448,192,298952,1,0,0:0:0:0:
192,192,298994,1,0,0:0:0:0:
320,192,299037,1,0,0:0:0:0:
448,192,299080,1,0,0:0:0:0:
64,192,299123,1,0,0:0:0:0:
192,192,299166,1,0,0:0:0:0:
320,192,299294,128,0,299380:0:0:0:0:
448,192,299294,128,0,299380:0:0:0:0:
192,192,299380,128,0,299466:0:0:0:0:
64,192,299466,128,0,299552:0:0:0:0:
320,192,299466,128,0,299552:0:0:0:0:
448,192,299466,128,0,299552:0:0:0:0:
192,192,299552,128,0,299637:0:0:0:0:
64,192,299637,1,0,0:0:0:0:
320,192,299637,1,0,0:0:0:0:
448,192,299680,1,0,0:0:0:0:
192,192,299723,1,0,0:0:0:0:
320,192,299766,1,0,0:0:0:0:
64,192,299809,1,0,0:0:0:0:
192,192,299852,1,0,0:0:0:0:
448,192,299894,1,0,0:0:0:0:
320,192,299937,1,0,0:0:0:0:
64,192,299980,1,0,0:0:0:0:
192,192,299980,1,0,0:0:0:0:
320,192,300066,1,0,0:0:0:0:
448,192,300152,1,0,0:0:0:0:
64,192,300152,1,0,0:0:0:0:
192,192,300237,1,0,0:0:0:0:
320,192,300323,1,0,0:0:0:0:
448,192,300323,1,0,0:0:0:0:
192,192,300409,1,0,0:0:0:0:
64,192,300494,1,0,0:0:0:0:
448,192,300494,1,0,0:0:0:0:
320,192,300580,1,0,0:0:0:0:
192,192,300666,1,0,0:0:0:0:
64,192,300666,1,0,0:0:0:0:
448,192,300666,1,0,0:0:0:0:
320,192,300752,1,0,0:0:0:0:
192,192,300837,1,0,0:0:0:0:
64,192,300837,1,0,0:0:0:0:
448,192,300923,1,0,0:0:0:0:
192,192,301009,1,0,0:0:0:0:
64,192,301009,1,0,0:0:0:0:
320,192,301052,1,0,0:0:0:0:
448,192,301094,1,0,0:0:0:0:
64,192,301137,1,0,0:0:0:0:
192,192,301180,1,0,0:0:0:0:
320,192,301223,1,0,0:0:0:0:
448,192,301266,1,0,0:0:0:0:
64,192,301352,1,0,0:0:0:0:
192,192,301352,1,0,0:0:0:0:
320,192,301352,1,0,0:0:0:0:
448,192,301437,1,0,0:0:0:0:
64,192,301523,1,0,0:0:0:0:
320,192,301523,1,0,0:0:0:0:
192,192,301609,1,0,0:0:0:0:
320,192,301694,1,0,0:0:0:0:
448,192,301694,1,0,0:0:0:0:
192,192,301737,1,0,0:0:0:0:
64,192,301780,1,0,0:0:0:0:
448,192,301823,1,0,0:0:0:0:
320,192,301866,1,0,0:0:0:0:
192,192,301909,1,0,0:0:0:0:
64,192,301952,1,0,0:0:0:0:
320,192,302037,128,0,302123:0:0:0:0:
448,192,302037,128,0,302209:0:0:0:0:
192,192,302123,128,0,302294:0:0:0:0:
64,192,302209,128,0,302294:0:0:0:0:
320,192,302209,128,0,302294:0:0:0:0:
448,192,302294,1,0,0:0:0:0:
64,192,302380,1,0,0:0:0:0:
192,192,302380,1,0,0:0:0:0:
320,192,302423,1,0,0:0:0:0:
448,192,302466,1,0,0:0:0:0:
192,192,302509,1,0,0:0:0:0:
320,192,302552,1,0,0:0:0:0:
64,192,302594,1,0,0:0:0:0:
192,192,302637,1,0,0:0:0:0:
320,192,302723,128,0,302809:0:0:0:0:
448,192,302723,128,0,302894:0:0:0:0:
64,192,302723,128,0,302809:0:0:0:0:
192,192,302809,128,0,302980:0:0:0:0:
320,192,302894,128,0,303066:0:0:0:0:
64,192,302894,128,0,302980:0:0:0:0:
448,192,302980,128,0,303066:0:0:0:0:
192,192,303066,128,0,303237:0:0:0:0:
64,192,303066,128,0,303152:0:0:0:0:
320,192,303152,128,0,303323:0:0:0:0:
448,192,303237,128,0,303323:0:0:0:0:
64,192,303237,128,0,303323:0:0:0:0:
192,192,303323,128,0,303409:0:0:0:0:
320,192,303409,128,0,303494:0:0:0:0:
448,192,303409,128,0,303666:0:0:0:0:
64,192,303409,128,0,303666:0:0:0:0:
192,192,303494,128,0,303666:0:0:0:0:
320,192,303580,128,0,303666:0:0:0:0:
192,192,303752,128,0,303837:0:0:0:0:
64,192,303752,128,0,303923:0:0:0:0:
448,192,303752,128,0,303837:0:0:0:0:
320,192,303837,128,0,304009:0:0:0:0:
192,192,303923,128,0,304009:0:0:0:0:
448,192,303923,128,0,304009:0:0:0:0:
64,192,304009,128,0,304094:0:0:0:0:
192,192,304094,128,0,304266:0:0:0:0:
320,192,304094,128,0,304180:0:0:0:0:
448,192,304094,128,0,304180:0:0:0:0:
64,192,304180,128,0,304352:0:0:0:0:
320,192,304266,128,0,304394:0:0:0:0:
448,192,304266,128,0,304352:0:0:0:0:
192,192,304352,128,0,304437:0:0:0:0:
448,192,304437,1,0,0:0:0:0:
64,192,304437,1,0,0:0:0:0:
320,192,304480,1,0,0:0:0:0:
192,192,304523,1,0,0:0:0:0:
64,192,304566,1,0,0:0:0:0:
448,192,304609,1,0,0:0:0:0:
320,192,304652,1,0,0:0:0:0:
192,192,304780,128,0,304866:0:0:0:0:
64,192,304780,128,0,304952:0:0:0:0:
320,192,304866,128,0,305037:0:0:0:0:
192,192,304952,128,0,305037:0:0:0:0:
448,192,304952,128,0,305037:0:0:0:0:
64,192,305037,128,0,305123:0:0:0:0:
448,192,305123,1,0,0:0:0:0:
320,192,305123,1,0,0:0:0:0:
192,192,305180,1,0,0:0:0:0:
64,192,305237,1,0,0:0:0:0:
448,192,305294,1,0,0:0:0:0:
320,192,305352,1,0,0:0:0:0:
192,192,305409,1,0,0:0:0:0:
64,192,305466,1,0,0:0:0:0:
320,192,305466,1,0,0:0:0:0:
448,192,305523,1,0,0:0:0:0:
192,192,305580,1,0,0:0:0:0:
320,192,305637,1,0,0:0:0:0:
64,192,305694,1,0,0:0:0:0:
192,192,305752,1,0,0:0:0:0:
448,192,305809,1,0,0:0:0:0:
320,192,305809,1,0,0:0:0:0:
192,192,305866,1,0,0:0:0:0:
64,192,305923,1,0,0:0:0:0:
448,192,305980,1,0,0:0:0:0:
320,192,306037,1,0,0:0:0:0:
192,192,306094,1,0,0:0:0:0:
64,192,306152,1,0,0:0:0:0:
448,192,306152,1,0,0:0:0:0:
320,192,306209,1,0,0:0:0:0:
192,192,306266,1,0,0:0:0:0:
448,192,306323,1,0,0:0:0:0:
320,192,306380,1,0,0:0:0:0:
192,192,306437,1,0,0:0:0:0:
64,192,306494,1,0,0:0:0:0:
320,192,306494,1,0,0:0:0:0:
448,192,306552,1,0,0:0:0:0:
192,192,306609,1,0,0:0:0:0:
320,192,306666,1,0,0:0:0:0:
64,192,306723,1,0,0:0:0:0:
192,192,306780,1,0,0:0:0:0:
448,192,306837,1,0,0:0:0:0:
320,192,306837,1,0,0:0:0:0:
192,192,306894,1,0,0:0:0:0:
64,192,306952,1,0,0:0:0:0:
448,192,307009,1,0,0:0:0:0:
320,192,307066,1,0,0:0:0:0:
192,192,307123,1,0,0:0:0:0:
64,192,307180,1,0,0:0:0:0:
448,192,307180,1,0,0:0:0:0:
320,192,307237,1,0,0:0:0:0:
192,192,307294,1,0,0:0:0:0:
320,192,307352,1,0,0:0:0:0:
448,192,307409,1,0,0:0:0:0:
64,192,307466,1,0,0:0:0:0:
192,192,307523,128,0,307609:0:0:0:0:
320,192,307523,128,0,307823:0:0:0:0:
448,192,307609,128,0,307694:0:0:0:0:
192,192,307694,128,0,307780:0:0:0:0:
64,192,307694,128,0,307780:0:0:0:0:
448,192,307780,128,0,307866:0:0:0:0:
192,192,307866,1,0,0:0:0:0:
64,192,307866,1,0,0:0:0:0:
320,192,307909,1,0,0:0:0:0:
448,192,307952,1,0,0:0:0:0:
192,192,307994,1,0,0:0:0:0:
320,192,308037,1,0,0:0:0:0:
64,192,308080,1,0,0:0:0:0:
192,192,308123,1,0,0:0:0:0:
448,192,308209,1,0,0:0:0:0:
320,192,308209,1,0,0:0:0:0:
64,192,308209,1,0,0:0:0:0:
192,192,308323,1,0,0:0:0:0:
320,192,308323,1,0,0:0:0:0:
64,192,308437,1,0,0:0:0:0:
192,192,308437,1,0,0:0:0:0:
448,192,308552,1,0,0:0:0:0:
320,192,308552,1,0,0:0:0:0:
64,192,308552,1,0,0:0:0:0:
320,192,308666,1,0,0:0:0:0:
192,192,308666,1,0,0:0:0:0:
192,192,308780,1,0,0:0:0:0:
64,192,308780,1,0,0:0:0:0:
448,192,308894,1,0,0:0:0:0:
320,192,308894,1,0,0:0:0:0:
64,192,308894,1,0,0:0:0:0:
192,192,309009,1,0,0:0:0:0:
320,192,309009,1,0,0:0:0:0:
192,192,309123,1,0,0:0:0:0:
64,192,309123,1,0,0:0:0:0:
64,192,309237,1,0,0:0:0:0:
448,192,309237,1,0,0:0:0:0:
320,192,309237,1,0,0:0:0:0:
192,192,309352,1,0,0:0:0:0:
320,192,309352,1,0,0:0:0:0:
320,192,309466,1,0,0:0:0:0:
448,192,309466,1,0,0:0:0:0:
64,192,309580,1,0,0:0:0:0:
192,192,309580,1,0,0:0:0:0:
448,192,309580,1,0,0:0:0:0:
320,192,309694,1,0,0:0:0:0:
192,192,309694,1,0,0:0:0:0:
320,192,309809,1,0,0:0:0:0:
448,192,309809,1,0,0:0:0:0:
64,192,309923,1,0,0:0:0:0:
448,192,309923,1,0,0:0:0:0:
192,192,309923,1,0,0:0:0:0:
192,192,310037,1,0,0:0:0:0:
320,192,310037,1,0,0:0:0:0:
320,192,310152,1,0,0:0:0:0:
448,192,310152,1,0,0:0:0:0:
320,192,310266,128,0,310380:0:0:0:0:
64,192,310266,128,0,310380:0:0:0:0:
192,192,310380,128,0,310494:0:0:0:0:
448,192,310380,128,0,310494:0:0:0:0:
64,192,310494,128,0,310609:0:0:0:0:
320,192,310494,1,0,0:0:0:0:
448,192,310609,1,0,0:0:0:0:
320,192,310609,1,0,0:0:0:0:
192,192,310652,1,0,0:0:0:0:
64,192,310694,1,0,0:0:0:0:
320,192,310737,1,0,0:0:0:0:
192,192,310780,1,0,0:0:0:0:
448,192,310823,1,0,0:0:0:0:
320,192,310866,1,0,0:0:0:0:
64,192,310952,1,0,0:0:0:0:
192,192,310952,1,0,0:0:0:0:
448,192,310952,1,0,0:0:0:0:
320,192,311037,1,0,0:0:0:0:
192,192,311123,1,0,0:0:0:0:
64,192,311123,1,0,0:0:0:0:
448,192,311209,1,0,0:0:0:0:
320,192,311294,1,0,0:0:0:0:
192,192,311294,1,0,0:0:0:0:
64,192,311294,1,0,0:0:0:0:
448,192,311380,1,0,0:0:0:0:
64,192,311466,1,0,0:0:0:0:
192,192,311466,1,0,0:0:0:0:
320,192,311552,1,0,0:0:0:0:
448,192,311637,1,0,0:0:0:0:
192,192,311637,1,0,0:0:0:0:
64,192,311723,1,0,0:0:0:0:
448,192,311809,1,0,0:0:0:0:
320,192,311809,1,0,0:0:0:0:
192,192,311894,1,0,0:0:0:0:
320,192,311980,1,0,0:0:0:0:
448,192,311980,1,0,0:0:0:0:
192,192,312023,1,0,0:0:0:0:
64,192,312066,1,0,0:0:0:0:
448,192,312109,1,0,0:0:0:0:
320,192,312152,1,0,0:0:0:0:
192,192,312194,1,0,0:0:0:0:
64,192,312237,1,0,0:0:0:0:
448,192,312323,1,0,0:0:0:0:
320,192,312323,1,0,0:0:0:0:
192,192,312409,1,0,0:0:0:0:
64,192,312494,1,0,0:0:0:0:
320,192,312494,1,0,0:0:0:0:
448,192,312580,1,0,0:0:0:0:
64,192,312666,1,0,0:0:0:0:
192,192,312666,1,0,0:0:0:0:
320,192,312666,1,0,0:0:0:0:
448,192,312752,1,0,0:0:0:0:
192,192,312837,1,0,0:0:0:0:
320,192,312837,1,0,0:0:0:0:
64,192,312923,1,0,0:0:0:0:
320,192,313009,1,0,0:0:0:0:
448,192,313009,1,0,0:0:0:0:
192,192,313052,1,0,0:0:0:0:
64,192,313094,1,0,0:0:0:0:
448,192,313137,1,0,0:0:0:0:
192,192,313180,1,0,0:0:0:0:
320,192,313223,1,0,0:0:0:0:
64,192,313266,1,0,0:0:0:0:
192,192,313309,1,0,0:0:0:0:
448,192,313352,1,0,0:0:0:0:
320,192,313352,1,0,0:0:0:0:
192,192,313394,1,0,0:0:0:0:
64,192,313437,1,0,0:0:0:0:
320,192,313480,1,0,0:0:0:0:
192,192,313523,1,0,0:0:0:0:
448,192,313566,1,0,0:0:0:0:
320,192,313609,1,0,0:0:0:0:
64,192,313694,1,0,0:0:0:0:
192,192,313694,1,0,0:0:0:0:
448,192,313694,1,0,0:0:0:0:
192,192,313809,1,0,0:0:0:0:
320,192,313809,1,0,0:0:0:0:
320,192,313923,1,0,0:0:0:0:
448,192,313923,1,0,0:0:0:0:
64,192,314037,1,0,0:0:0:0:
192,192,314037,1,0,0:0:0:0:
448,192,314037,1,0,0:0:0:0:
192,192,314152,1,0,0:0:0:0:
320,192,314152,1,0,0:0:0:0:
320,192,314266,1,0,0:0:0:0:
448,192,314266,1,0,0:0:0:0:
320,192,314380,128,0,314523:0:0:0:0:
192,192,314409,128,0,314552:0:0:0:0:
64,192,314437,128,0,314752:0:0:0:0:
192,192,314637,128,0,314780:0:0:0:0:
320,192,314666,128,0,314809:0:0:0:0:
448,192,314694,128,0,314837:0:0:0:0:
320,192,314952,1,0,0:0:0:0:
192,192,314952,1,0,0:0:0:0:
64,192,315066,1,0,0:0:0:0:
192,192,315066,1,0,0:0:0:0:
448,192,315066,1,0,0:0:0:0:
448,192,315180,1,0,0:0:0:0:
320,192,315180,1,0,0:0:0:0:
320,192,315294,1,0,0:0:0:0:
192,192,315294,1,0,0:0:0:0:
192,192,315409,1,0,0:0:0:0:
64,192,315409,1,0,0:0:0:0:
448,192,315409,1,0,0:0:0:0:
448,192,315523,1,0,0:0:0:0:
320,192,315523,1,0,0:0:0:0:
320,192,315637,1,0,0:0:0:0:
192,192,315637,1,0,0:0:0:0:
64,192,315752,128,0,315866:0:0:0:0:
448,192,315752,128,0,315866:0:0:0:0:
192,192,315866,128,0,315980:0:0:0:0:
320,192,315866,128,0,315980:0:0:0:0:
64,192,315980,1,0,0:0:0:0:
448,192,315980,128,0,316094:0:0:0:0:
64,192,316094,1,0,0:0:0:0:
192,192,316094,1,0,0:0:0:0:
320,192,316137,1,0,0:0:0:0:
448,192,316180,1,0,0:0:0:0:
192,192,316223,1,0,0:0:0:0:
320,192,316266,1,0,0:0:0:0:
64,192,316309,1,0,0:0:0:0:
192,192,316352,1,0,0:0:0:0:
448,192,316437,1,0,0:0:0:0:
320,192,316437,1,0,0:0:0:0:
192,192,316523,1,0,0:0:0:0:
64,192,316609,1,0,0:0:0:0:
448,192,316609,1,0,0:0:0:0:
320,192,316694,1,0,0:0:0:0:
448,192,316780,1,0,0:0:0:0:
192,192,316780,1,0,0:0:0:0:
64,192,316780,1,0,0:0:0:0:
320,192,316866,1,0,0:0:0:0:
64,192,316952,1,0,0:0:0:0:
192,192,316952,1,0,0:0:0:0:
320,192,317037,1,0,0:0:0:0:
448,192,317037,1,0,0:0:0:0:
64,192,317123,1,0,0:0:0:0:
192,192,317123,1,0,0:0:0:0:
320,192,317209,1,0,0:0:0:0:
448,192,317294,1,0,0:0:0:0:
64,192,317294,1,0,0:0:0:0:
192,192,317380,1,0,0:0:0:0:
320,192,317380,1,0,0:0:0:0:
64,192,317466,1,0,0:0:0:0:
448,192,317466,1,0,0:0:0:0:
320,192,317552,1,0,0:0:0:0:
192,192,317637,1,0,0:0:0:0:
64,192,317637,1,0,0:0:0:0:
320,192,317723,1,0,0:0:0:0:
64,192,317809,128,0,318409:0:0:0:0:
192,192,317809,128,0,318066:0:0:0:0:
448,192,317809,128,0,318066:0:0:0:0:
192,192,318152,128,0,318409:0:0:0:0:
320,192,318152,128,0,318409:0:0:0:0:
448,192,318152,128,0,318409:0:0:0:0:
64,192,318494,1,0,0:0:0:0:
448,192,318494,1,0,0:0:0:0:
320,192,318580,1,0,0:0:0:0:
192,192,318580,1,0,0:0:0:0:
64,192,318666,1,0,0:0:0:0:
448,192,318666,1,0,0:0:0:0:
320,192,318752,1,0,0:0:0:0:
448,192,318837,1,0,0:0:0:0:
192,192,318837,1,0,0:0:0:0:
64,192,318837,1,0,0:0:0:0:
320,192,318923,1,0,0:0:0:0:
192,192,319009,1,0,0:0:0:0:
64,192,319094,1,0,0:0:0:0:
448,192,319094,1,0,0:0:0:0:
320,192,319094,1,0,0:0:0:0:
192,192,319180,1,0,0:0:0:0:
320,192,319266,1,0,0:0:0:0:
192,192,319352,1,0,0:0:0:0:
64,192,319352,1,0,0:0:0:0:
448,192,319352,1,0,0:0:0:0:
320,192,319437,1,0,0:0:0:0:
192,192,319523,1,0,0:0:0:0:
64,192,319523,1,0,0:0:0:0:
448,192,319523,1,0,0:0:0:0:
320,192,319609,1,0,0:0:0:0:
192,192,319694,1,0,0:0:0:0:
64,192,319780,1,0,0:0:0:0:
320,192,319780,1,0,0:0:0:0:
448,192,319780,1,0,0:0:0:0:
192,192,319866,1,0,0:0:0:0:
448,192,319952,1,0,0:0:0:0:
192,192,320037,1,0,0:0:0:0:
64,192,320037,1,0,0:0:0:0:
320,192,320037,1,0,0:0:0:0:
448,192,320123,1,0,0:0:0:0:
64,192,320209,1,0,0:0:0:0:
192,192,320209,1,0,0:0:0:0:
320,192,320209,1,0,0:0:0:0:
448,192,320294,1,0,0:0:0:0:
192,192,320380,1,0,0:0:0:0:
64,192,320466,1,0,0:0:0:0:
448,192,320466,1,0,0:0:0:0:
320,192,320466,1,0,0:0:0:0:
192,192,320552,1,0,0:0:0:0:
64,192,320637,1,0,0:0:0:0:
448,192,320723,1,0,0:0:0:0:
320,192,320723,1,0,0:0:0:0:
192,192,320723,1,0,0:0:0:0:
64,192,320809,1,0,0:0:0:0:
448,192,320894,1,0,0:0:0:0:
320,192,320894,1,0,0:0:0:0:
192,192,320894,1,0,0:0:0:0:
64,192,320980,1,0,0:0:0:0:
448,192,321066,1,0,0:0:0:0:
320,192,321066,1,0,0:0:0:0:
192,192,321152,1,0,0:0:0:0:
64,192,321237,1,0,0:0:0:0:
320,192,321237,1,0,0:0:0:0:
448,192,321323,1,0,0:0:0:0:
64,192,321409,1,0,0:0:0:0:
192,192,321409,1,0,0:0:0:0:
320,192,321494,1,0,0:0:0:0:
448,192,321580,1,0,0:0:0:0:
192,192,321580,1,0,0:0:0:0:
64,192,321580,1,0,0:0:0:0:
320,192,321666,1,0,0:0:0:0:
448,192,321752,1,0,0:0:0:0:
192,192,321837,1,0,0:0:0:0:
64,192,321837,1,0,0:0:0:0:
320,192,321837,1,0,0:0:0:0:
448,192,321923,1,0,0:0:0:0:
64,192,322009,1,0,0:0:0:0:
192,192,322094,1,0,0:0:0:0:
320,192,322094,1,0,0:0:0:0:
448,192,322094,1,0,0:0:0:0:
64,192,322180,1,0,0:0:0:0:
448,192,322266,1,0,0:0:0:0:
320,192,322266,1,0,0:0:0:0:
192,192,322266,1,0,0:0:0:0:
64,192,322352,1,0,0:0:0:0:
448,192,322437,1,0,0:0:0:0:
320,192,322523,1,0,0:0:0:0:
192,192,322523,1,0,0:0:0:0:
64,192,322523,1,0,0:0:0:0:
448,192,322609,1,0,0:0:0:0:
64,192,322694,1,0,0:0:0:0:
192,192,322780,1,0,0:0:0:0:
320,192,322780,1,0,0:0:0:0:
448,192,322780,1,0,0:0:0:0:
64,192,322866,1,0,0:0:0:0:
448,192,322952,1,0,0:0:0:0:
320,192,322952,1,0,0:0:0:0:
192,192,322952,1,0,0:0:0:0:
64,192,323037,1,0,0:0:0:0:
320,192,323123,1,0,0:0:0:0:
448,192,323209,1,0,0:0:0:0:
192,192,323209,1,0,0:0:0:0:
64,192,323209,1,0,0:0:0:0:
320,192,323294,1,0,0:0:0:0:
192,192,323380,1,0,0:0:0:0:
64,192,323466,1,0,0:0:0:0:
320,192,323466,1,0,0:0:0:0:
448,192,323466,1,0,0:0:0:0:
192,192,323552,1,0,0:0:0:0:
64,192,323637,1,0,0:0:0:0:
320,192,323637,1,0,0:0:0:0:
448,192,323680,1,0,0:0:0:0:
192,192,323723,1,0,0:0:0:0:
320,192,323766,1,0,0:0:0:0:
64,192,323809,1,0,0:0:0:0:
192,192,323852,1,0,0:0:0:0:
448,192,323894,1,0,0:0:0:0:
320,192,323937,1,0,0:0:0:0:
192,192,323980,1,0,0:0:0:0:
64,192,323980,1,0,0:0:0:0:
64,192,324066,1,0,0:0:0:0:
192,192,324066,1,0,0:0:0:0:
320,192,324152,1,0,0:0:0:0:
448,192,324152,1,0,0:0:0:0:
448,192,324237,1,0,0:0:0:0:
320,192,324237,1,0,0:0:0:0:
192,192,324323,1,0,0:0:0:0:
64,192,324323,1,0,0:0:0:0:
448,192,324323,1,0,0:0:0:0:
320,192,324409,1,0,0:0:0:0:
64,192,324494,1,0,0:0:0:0:
192,192,324580,1,0,0:0:0:0:
320,192,324580,1,0,0:0:0:0:
448,192,324580,1,0,0:0:0:0:
64,192,324666,1,0,0:0:0:0:
320,192,324752,1,0,0:0:0:0:
192,192,324837,1,0,0:0:0:0:
64,192,324837,1,0,0:0:0:0:
448,192,324837,1,0,0:0:0:0:
320,192,324923,1,0,0:0:0:0:
448,192,325009,1,0,0:0:0:0:
192,192,325009,1,0,0:0:0:0:
64,192,325009,1,0,0:0:0:0:
320,192,325094,1,0,0:0:0:0:
64,192,325180,1,0,0:0:0:0:
192,192,325266,1,0,0:0:0:0:
448,192,325266,1,0,0:0:0:0:
320,192,325266,1,0,0:0:0:0:
64,192,325352,1,0,0:0:0:0:
192,192,325437,1,0,0:0:0:0:
448,192,325523,1,0,0:0:0:0:
64,192,325523,1,0,0:0:0:0:
320,192,325523,1,0,0:0:0:0:
192,192,325609,1,0,0:0:0:0:
448,192,325694,1,0,0:0:0:0:
320,192,325694,1,0,0:0:0:0:
64,192,325694,1,0,0:0:0:0:
192,192,325780,1,0,0:0:0:0:
320,192,325866,1,0,0:0:0:0:
448,192,325952,1,0,0:0:0:0:
192,192,325952,1,0,0:0:0:0:
64,192,325952,1,0,0:0:0:0:
320,192,326037,1,0,0:0:0:0:
64,192,326123,1,0,0:0:0:0:
448,192,326209,1,0,0:0:0:0:
320,192,326209,1,0,0:0:0:0:
192,192,326209,1,0,0:0:0:0:
64,192,326294,1,0,0:0:0:0:
448,192,326380,1,0,0:0:0:0:
320,192,326380,1,0,0:0:0:0:
192,192,326380,1,0,0:0:0:0:
64,192,326466,1,0,0:0:0:0:
448,192,326552,1,0,0:0:0:0:
320,192,326552,1,0,0:0:0:0:
192,192,326637,1,0,0:0:0:0:
64,192,326723,1,0,0:0:0:0:
320,192,326723,1,0,0:0:0:0:
448,192,326723,1,0,0:0:0:0:
320,192,326809,1,0,0:0:0:0:
448,192,326809,1,0,0:0:0:0:
192,192,326894,1,0,0:0:0:0:
64,192,326894,1,0,0:0:0:0:
64,192,326980,1,0,0:0:0:0:
192,192,326980,1,0,0:0:0:0:
64,192,327066,1,0,0:0:0:0:
320,192,327066,1,0,0:0:0:0:
448,192,327066,1,0,0:0:0:0:
192,192,327152,1,0,0:0:0:0:
320,192,327237,1,0,0:0:0:0:
448,192,327237,1,0,0:0:0:0:
192,192,327323,1,0,0:0:0:0:
64,192,327323,1,0,0:0:0:0:
320,192,327323,1,0,0:0:0:0:
64,192,327409,1,0,0:0:0:0:
448,192,327409,1,0,0:0:0:0:
320,192,327494,1,0,0:0:0:0:
192,192,327580,1,0,0:0:0:0:
64,192,327580,1,0,0:0:0:0:
448,192,327580,1,0,0:0:0:0:
320,192,327666,1,0,0:0:0:0:
64,192,327752,1,0,0:0:0:0:
192,192,327752,1,0,0:0:0:0:
448,192,327752,1,0,0:0:0:0:
320,192,327837,1,0,0:0:0:0:
64,192,327923,1,0,0:0:0:0:
192,192,327923,1,0,0:0:0:0:
192,192,328009,1,0,0:0:0:0:
320,192,328009,1,0,0:0:0:0:
448,192,328009,1,0,0:0:0:0:
64,192,328094,1,0,0:0:0:0:
448,192,328094,1,0,0:0:0:0:
320,192,328180,1,0,0:0:0:0:
192,192,328266,1,0,0:0:0:0:
64,192,328266,1,0,0:0:0:0:
448,192,328266,1,0,0:0:0:0:
320,192,328352,1,0,0:0:0:0:
192,192,328437,1,0,0:0:0:0:
64,192,328437,1,0,0:0:0:0:
448,192,328437,1,0,0:0:0:0:
192,192,328523,1,0,0:0:0:0:
64,192,328523,1,0,0:0:0:0:
320,192,328609,1,0,0:0:0:0:
448,192,328609,1,0,0:0:0:0:
448,192,328694,1,0,0:0:0:0:
320,192,328694,1,0,0:0:0:0:
64,192,328780,1,0,0:0:0:0:
192,192,328780,1,0,0:0:0:0:
192,192,328866,1,0,0:0:0:0:
64,192,328866,1,0,0:0:0:0:
320,192,328952,1,0,0:0:0:0:
448,192,328952,1,0,0:0:0:0:
448,192,329037,1,0,0:0:0:0:
320,192,329037,1,0,0:0:0:0:
64,192,329123,1,0,0:0:0:0:
192,192,329123,1,0,0:0:0:0:
64,192,329209,1,0,0:0:0:0:
192,192,329209,1,0,0:0:0:0:
320,192,329294,1,0,0:0:0:0:
448,192,329294,1,0,0:0:0:0:
448,192,329380,1,0,0:0:0:0:
320,192,329380,1,0,0:0:0:0:
192,192,329466,1,0,0:0:0:0:
64,192,329466,1,0,0:0:0:0:
64,192,329552,1,0,0:0:0:0:
192,192,329552,1,0,0:0:0:0:
320,192,329637,1,0,0:0:0:0:
448,192,329637,1,0,0:0:0:0:
448,192,329723,1,0,0:0:0:0:
320,192,329723,1,0,0:0:0:0:
64,192,329809,128,0,338037:0:0:0:0:
448,192,329809,1,0,0:0:0:0:
320,192,329809,1,0,0:0:0:0:
192,192,329809,1,0,0:0:0:0:
