osu file format v14

[General]
AudioFilename: audio.mp3
AudioLeadIn: 0
PreviewTime: 240681
Countdown: 0
SampleSet: Drum
StackLeniency: 0.7
Mode: 3
LetterboxInBreaks: 0
SpecialStyle: 0
WidescreenStoryboard: 0

[Editor]
Bookmarks: 28097,43355,50040,61012,66497,71983,82955,104897,115869,126840,137812,148783,176212,198155,209126,225583,240669,283183,284555,285926,291412,296897,318840
DistanceSpacing: 2
BeatDivisor: 8
GridSize: 32
TimelineZoom: 4.599998

[Metadata]
Title:Clinozoisite
TitleUnicode:Clinozoisite
Artist:Ludicin
ArtistUnicode:Ludicin
Creator:Incivelry
Version:Incandescent
Source:
Tags:hardcore utopia v hcu5 electronic instrumental drum'n'bass artcore experimental j-core club uk hardcore long notes
BeatmapID:4498850
BeatmapSetID:2137716

[Difficulty]
HPDrainRate:8
CircleSize:4
OverallDifficulty:7.6
ApproachRate:5
SliderMultiplier:1.4
SliderTickRate:1

[Events]
//Background and Video events
0,0,"F2IH_RpacAAZIEd.jpg",0,0
//Break Periods
2,170926,174883
//Storyboard Layer 0 (Background)
//Storyboard Layer 1 (Fail)
//Storyboard Layer 2 (Pass)
//Storyboard Layer 3 (Foreground)
//Storyboard Layer 4 (Overlay)
//Storyboard Sound Samples

[TimingPoints]
6155,342.857142857143,4,3,1,39,1,0
209126,-100,4,3,1,39,0,1
231069,-100,4,3,1,39,0,0
242040,-100,4,3,1,39,0,1
262612,-100,4,3,1,39,0,0
263983,-100,4,3,1,39,0,1
285926,-100,4,3,1,39,0,0

[HitObjects]
320,192,6154,128,0,6240:0:0:0:0:
448,192,6154,128,0,6240:0:0:0:0:
64,192,6154,128,0,6240:0:0:0:0:
192,192,6326,1,0,0:0:0:0:
320,192,6497,1,0,0:0:0:0:
64,192,6669,128,0,8897:0:0:0:0:
448,192,6840,1,0,0:0:0:0:
320,192,7012,1,0,0:0:0:0:
192,192,7183,1,0,0:0:0:0:
448,192,7354,1,0,0:0:0:0:
192,192,7526,1,0,0:0:0:0:
320,192,7697,1,0,0:0:0:0:
448,192,7869,1,0,0:0:0:0:
192,192,8040,1,0,0:0:0:0:
320,192,8212,1,0,0:0:0:0:
448,192,8383,1,0,0:0:0:0:
192,192,8554,1,0,0:0:0:0:
448,192,8726,1,0,0:0:0:0:
192,192,8897,1,0,0:0:0:0:
320,192,8897,128,0,10269:0:0:0:0:
64,192,9069,1,0,0:0:0:0:
448,192,9240,1,0,0:0:0:0:
192,192,9412,1,0,0:0:0:0:
448,192,9583,1,0,0:0:0:0:
64,192,9755,1,0,0:0:0:0:
192,192,9926,1,0,0:0:0:0:
64,192,10097,1,0,0:0:0:0:
448,192,10269,1,0,0:0:0:0:
192,192,10269,128,0,11640:0:0:0:0:
320,192,10440,1,0,0:0:0:0:
64,192,10612,1,0,0:0:0:0:
448,192,10783,1,0,0:0:0:0:
64,192,10955,1,0,0:0:0:0:
320,192,11126,1,0,0:0:0:0:
448,192,11297,1,0,0:0:0:0:
64,192,11469,1,0,0:0:0:0:
320,192,11640,128,0,11726:0:0:0:0:
448,192,11640,128,0,11726:0:0:0:0:
192,192,11812,128,0,11897:0:0:0:0:
64,192,11812,128,0,11897:0:0:0:0:
320,192,11983,1,0,0:0:0:0:
64,192,12155,1,0,0:0:0:0:
448,192,12155,128,0,14383:0:0:0:0:
192,192,12326,1,0,0:0:0:0:
320,192,12497,1,0,0:0:0:0:
64,192,12669,1,0,0:0:0:0:
192,192,12840,1,0,0:0:0:0:
320,192,13012,1,0,0:0:0:0:
192,192,13183,1,0,0:0:0:0:
64,192,13355,1,0,0:0:0:0:
320,192,13526,1,0,0:0:0:0:
64,192,13697,1,0,0:0:0:0:
320,192,13869,1,0,0:0:0:0:
64,192,14040,1,0,0:0:0:0:
192,192,14212,1,0,0:0:0:0:
64,192,14383,128,0,15755:0:0:0:0:
320,192,14383,1,0,0:0:0:0:
192,192,14555,1,0,0:0:0:0:
448,192,14726,1,0,0:0:0:0:
320,192,14897,1,0,0:0:0:0:
192,192,15069,1,0,0:0:0:0:
320,192,15240,1,0,0:0:0:0:
448,192,15412,1,0,0:0:0:0:
320,192,15583,1,0,0:0:0:0:
192,192,15755,128,0,16783:0:0:0:0:
448,192,15755,1,0,0:0:0:0:
320,192,15926,1,0,0:0:0:0:
64,192,16097,1,0,0:0:0:0:
320,192,16269,1,0,0:0:0:0:
448,192,16440,1,0,0:0:0:0:
64,192,16612,1,0,0:0:0:0:
320,192,16783,128,0,16955:0:0:0:0:
448,192,16783,1,0,0:0:0:0:
448,192,16955,128,0,17126:0:0:0:0:
192,192,16955,1,0,0:0:0:0:
64,192,17126,128,0,19869:0:0:0:0:
320,192,17126,1,0,0:0:0:0:
192,192,17297,1,0,0:0:0:0:
320,192,17469,1,0,0:0:0:0:
448,192,17640,1,0,0:0:0:0:
192,192,17812,1,0,0:0:0:0:
320,192,17983,1,0,0:0:0:0:
448,192,18155,1,0,0:0:0:0:
192,192,18326,1,0,0:0:0:0:
448,192,18497,1,0,0:0:0:0:
320,192,18669,1,0,0:0:0:0:
192,192,18840,1,0,0:0:0:0:
448,192,19012,1,0,0:0:0:0:
320,192,19183,1,0,0:0:0:0:
192,192,19355,1,0,0:0:0:0:
448,192,19526,1,0,0:0:0:0:
192,192,19697,1,0,0:0:0:0:
320,192,19869,128,0,21240:0:0:0:0:
448,192,19869,1,0,0:0:0:0:
192,192,20040,1,0,0:0:0:0:
448,192,20212,1,0,0:0:0:0:
64,192,20383,1,0,0:0:0:0:
192,192,20555,1,0,0:0:0:0:
64,192,20726,1,0,0:0:0:0:
448,192,20897,1,0,0:0:0:0:
64,192,21069,1,0,0:0:0:0:
448,192,21240,1,0,0:0:0:0:
192,192,21240,128,0,21926:0:0:0:0:
64,192,21412,1,0,0:0:0:0:
448,192,21583,1,0,0:0:0:0:
320,192,21755,1,0,0:0:0:0:
448,192,21926,128,0,22612:0:0:0:0:
64,192,21926,1,0,0:0:0:0:
192,192,22097,1,0,0:0:0:0:
64,192,22269,1,0,0:0:0:0:
320,192,22440,1,0,0:0:0:0:
64,192,22612,128,0,22783:0:0:0:0:
192,192,22612,1,0,0:0:0:0:
192,192,22783,128,0,23640:0:0:0:0:
320,192,22783,1,0,0:0:0:0:
448,192,22955,1,0,0:0:0:0:
64,192,23126,1,0,0:0:0:0:
320,192,23297,1,0,0:0:0:0:
448,192,23469,1,0,0:0:0:0:
320,192,23640,128,0,25312:0:0:0:0:
64,192,23640,1,0,0:0:0:0:
192,192,23812,1,0,0:0:0:0:
64,192,23983,1,0,0:0:0:0:
448,192,24155,1,0,0:0:0:0:
192,192,24326,1,0,0:0:0:0:
64,192,24497,1,0,0:0:0:0:
448,192,24669,1,0,0:0:0:0:
192,192,24840,1,0,0:0:0:0:
64,192,25012,1,0,0:0:0:0:
192,192,25183,1,0,0:0:0:0:
320,192,25355,128,0,26726:0:0:0:0:
448,192,25355,1,0,0:0:0:0:
192,192,25526,1,0,0:0:0:0:
448,192,25697,1,0,0:0:0:0:
64,192,25869,1,0,0:0:0:0:
192,192,26040,1,0,0:0:0:0:
448,192,26212,1,0,0:0:0:0:
64,192,26383,1,0,0:0:0:0:
192,192,26555,1,0,0:0:0:0:
448,192,26726,1,0,0:0:0:0:
64,192,26726,128,0,27412:0:0:0:0:
192,192,26897,1,0,0:0:0:0:
320,192,27069,128,0,27240:0:0:0:0:
448,192,27240,128,0,27412:0:0:0:0:
320,192,27412,128,0,27755:0:0:0:0:
192,192,27412,1,0,0:0:0:0:
64,192,27583,1,0,0:0:0:0:
192,192,27755,128,0,27926:0:0:0:0:
448,192,27755,1,0,0:0:0:0:
448,192,27926,128,0,28097:0:0:0:0:
64,192,27926,1,0,0:0:0:0:
192,192,28097,1,0,0:0:0:0:
64,192,28097,1,0,0:0:0:0:
320,192,28097,1,0,0:0:0:0:
192,192,28269,1,0,0:0:0:0:
64,192,28440,1,0,0:0:0:0:
320,192,28440,128,0,28612:0:0:0:0:
448,192,28612,1,0,0:0:0:0:
192,192,28612,128,0,28783:0:0:0:0:
64,192,28783,1,0,0:0:0:0:
448,192,28783,1,0,0:0:0:0:
64,192,28955,1,0,0:0:0:0:
448,192,29126,1,0,0:0:0:0:
320,192,29126,128,0,29297:0:0:0:0:
64,192,29297,1,0,0:0:0:0:
448,192,29297,128,0,29469:0:0:0:0:
192,192,29469,1,0,0:0:0:0:
64,192,29469,1,0,0:0:0:0:
192,192,29640,1,0,0:0:0:0:
64,192,29812,128,0,29983:0:0:0:0:
320,192,29812,1,0,0:0:0:0:
192,192,29983,128,0,30155:0:0:0:0:
64,192,30155,1,0,0:0:0:0:
448,192,30155,1,0,0:0:0:0:
448,192,30326,1,0,0:0:0:0:
192,192,30497,128,0,30669:0:0:0:0:
64,192,30497,1,0,0:0:0:0:
320,192,30669,128,0,30840:0:0:0:0:
64,192,30669,1,0,0:0:0:0:
448,192,30840,1,0,0:0:0:0:
192,192,30840,1,0,0:0:0:0:
320,192,31012,1,0,0:0:0:0:
64,192,31183,128,0,31355:0:0:0:0:
448,192,31183,1,0,0:0:0:0:
448,192,31355,128,0,31526:0:0:0:0:
192,192,31526,1,0,0:0:0:0:
320,192,31526,1,0,0:0:0:0:
192,192,31697,1,0,0:0:0:0:
320,192,31869,128,0,32040:0:0:0:0:
64,192,31869,1,0,0:0:0:0:
64,192,32040,128,0,32212:0:0:0:0:
320,192,32212,1,0,0:0:0:0:
192,192,32212,1,0,0:0:0:0:
320,192,32383,1,0,0:0:0:0:
448,192,32555,128,0,32726:0:0:0:0:
64,192,32555,1,0,0:0:0:0:
192,192,32726,128,0,32897:0:0:0:0:
320,192,32726,1,0,0:0:0:0:
64,192,32897,1,0,0:0:0:0:
320,192,32897,128,0,33069:0:0:0:0:
192,192,33069,128,0,33240:0:0:0:0:
64,192,33240,128,0,33412:0:0:0:0:
448,192,33240,1,0,0:0:0:0:
320,192,33326,1,0,0:0:0:0:
192,192,33412,1,0,0:0:0:0:
320,192,33497,1,0,0:0:0:0:
448,192,33583,1,0,0:0:0:0:
64,192,33583,128,0,33755:0:0:0:0:
192,192,33755,128,0,33926:0:0:0:0:
320,192,33926,128,0,34097:0:0:0:0:
448,192,33926,1,0,0:0:0:0:
64,192,34097,128,0,34183:0:0:0:0:
448,192,34097,128,0,34183:0:0:0:0:
192,192,34183,1,0,0:0:0:0:
320,192,34269,1,0,0:0:0:0:
192,192,34355,1,0,0:0:0:0:
64,192,34440,1,0,0:0:0:0:
448,192,34440,1,0,0:0:0:0:
448,192,34612,1,0,0:0:0:0:
320,192,34612,128,0,34697:0:0:0:0:
192,192,34783,1,0,0:0:0:0:
320,192,34869,1,0,0:0:0:0:
64,192,34955,128,0,35040:0:0:0:0:
448,192,35040,1,0,0:0:0:0:
64,192,35126,1,0,0:0:0:0:
192,192,35126,1,0,0:0:0:0:
64,192,35297,1,0,0:0:0:0:
448,192,35297,128,0,35383:0:0:0:0:
320,192,35383,1,0,0:0:0:0:
192,192,35469,1,0,0:0:0:0:
320,192,35555,1,0,0:0:0:0:
64,192,35640,1,0,0:0:0:0:
192,192,35640,128,0,35726:0:0:0:0:
448,192,35726,1,0,0:0:0:0:
320,192,35812,1,0,0:0:0:0:
192,192,35897,1,0,0:0:0:0:
448,192,35983,1,0,0:0:0:0:
64,192,35983,128,0,36026:0:0:0:0:
448,192,36069,1,0,0:0:0:0:
320,192,36069,1,0,0:0:0:0:
192,192,36155,128,0,36197:0:0:0:0:
448,192,36240,1,0,0:0:0:0:
64,192,36326,128,0,36412:0:0:0:0:
192,192,36326,128,0,36412:0:0:0:0:
320,192,36412,1,0,0:0:0:0:
448,192,36497,1,0,0:0:0:0:
64,192,36583,1,0,0:0:0:0:
448,192,36669,1,0,0:0:0:0:
320,192,36669,1,0,0:0:0:0:
192,192,36755,1,0,0:0:0:0:
320,192,36840,1,0,0:0:0:0:
64,192,36926,1,0,0:0:0:0:
448,192,37012,1,0,0:0:0:0:
320,192,37012,1,0,0:0:0:0:
192,192,37097,1,0,0:0:0:0:
64,192,37097,1,0,0:0:0:0:
320,192,37183,1,0,0:0:0:0:
448,192,37269,1,0,0:0:0:0:
64,192,37355,1,0,0:0:0:0:
192,192,37355,128,0,37397:0:0:0:0:
320,192,37440,1,0,0:0:0:0:
192,192,37526,1,0,0:0:0:0:
64,192,37526,128,0,37569:0:0:0:0:
448,192,37612,1,0,0:0:0:0:
320,192,37697,128,0,37783:0:0:0:0:
64,192,37697,128,0,37783:0:0:0:0:
192,192,37783,1,0,0:0:0:0:
448,192,37869,1,0,0:0:0:0:
64,192,37955,1,0,0:0:0:0:
448,192,38040,1,0,0:0:0:0:
320,192,38040,1,0,0:0:0:0:
448,192,38126,1,0,0:0:0:0:
192,192,38212,1,0,0:0:0:0:
64,192,38297,1,0,0:0:0:0:
320,192,38383,1,0,0:0:0:0:
192,192,38469,1,0,0:0:0:0:
320,192,38555,1,0,0:0:0:0:
64,192,38640,1,0,0:0:0:0:
320,192,38726,1,0,0:0:0:0:
448,192,38726,128,0,38769:0:0:0:0:
64,192,38812,1,0,0:0:0:0:
448,192,38897,1,0,0:0:0:0:
320,192,38897,128,0,38940:0:0:0:0:
192,192,38983,1,0,0:0:0:0:
64,192,39069,128,0,39112:0:0:0:0:
448,192,39069,128,0,39112:0:0:0:0:
448,192,39155,1,0,0:0:0:0:
64,192,39240,1,0,0:0:0:0:
320,192,39326,1,0,0:0:0:0:
192,192,39412,1,0,0:0:0:0:
64,192,39412,1,0,0:0:0:0:
448,192,39497,1,0,0:0:0:0:
64,192,39583,1,0,0:0:0:0:
320,192,39669,1,0,0:0:0:0:
448,192,39755,1,0,0:0:0:0:
64,192,39755,1,0,0:0:0:0:
192,192,39840,1,0,0:0:0:0:
320,192,39926,1,0,0:0:0:0:
64,192,40012,1,0,0:0:0:0:
320,192,40097,1,0,0:0:0:0:
448,192,40097,1,0,0:0:0:0:
192,192,40183,1,0,0:0:0:0:
320,192,40269,1,0,0:0:0:0:
64,192,40355,1,0,0:0:0:0:
192,192,40440,1,0,0:0:0:0:
320,192,40440,1,0,0:0:0:0:
448,192,40526,1,0,0:0:0:0:
64,192,40612,1,0,0:0:0:0:
320,192,40697,1,0,0:0:0:0:
192,192,40783,1,0,0:0:0:0:
448,192,40783,1,0,0:0:0:0:
64,192,40869,1,0,0:0:0:0:
320,192,40955,1,0,0:0:0:0:
192,192,41040,1,0,0:0:0:0:
320,192,41126,1,0,0:0:0:0:
448,192,41126,1,0,0:0:0:0:
64,192,41212,1,0,0:0:0:0:
192,192,41297,1,0,0:0:0:0:
320,192,41383,1,0,0:0:0:0:
64,192,41469,1,0,0:0:0:0:
448,192,41469,1,0,0:0:0:0:
64,192,41555,1,0,0:0:0:0:
320,192,41640,1,0,0:0:0:0:
320,192,41726,1,0,0:0:0:0:
64,192,41812,1,0,0:0:0:0:
448,192,41812,1,0,0:0:0:0:
192,192,41897,1,0,0:0:0:0:
320,192,41983,1,0,0:0:0:0:
192,192,42069,1,0,0:0:0:0:
320,192,42155,1,0,0:0:0:0:
448,192,42155,1,0,0:0:0:0:
64,192,42240,1,0,0:0:0:0:
320,192,42326,1,0,0:0:0:0:
320,192,42412,1,0,0:0:0:0:
64,192,42497,1,0,0:0:0:0:
448,192,42497,1,0,0:0:0:0:
192,192,42583,1,0,0:0:0:0:
320,192,42583,1,0,0:0:0:0:
448,192,42669,1,0,0:0:0:0:
64,192,42755,1,0,0:0:0:0:
320,192,42840,1,0,0:0:0:0:
448,192,42840,1,0,0:0:0:0:
320,192,42926,1,0,0:0:0:0:
64,192,43012,1,0,0:0:0:0:
448,192,43012,1,0,0:0:0:0:
192,192,43097,1,0,0:0:0:0:
448,192,43183,1,0,0:0:0:0:
64,192,43183,1,0,0:0:0:0:
320,192,43269,1,0,0:0:0:0:
192,192,43355,1,0,0:0:0:0:
64,192,43355,1,0,0:0:0:0:
448,192,43440,1,0,0:0:0:0:
320,192,43440,1,0,0:0:0:0:
64,192,43526,1,0,0:0:0:0:
448,192,43612,1,0,0:0:0:0:
192,192,43697,1,0,0:0:0:0:
320,192,43783,1,0,0:0:0:0:
64,192,43869,1,0,0:0:0:0:
448,192,43869,1,0,0:0:0:0:
320,192,43955,1,0,0:0:0:0:
448,192,44040,1,0,0:0:0:0:
192,192,44126,1,0,0:0:0:0:
64,192,44212,1,0,0:0:0:0:
64,192,44297,1,0,0:0:0:0:
64,192,44383,1,0,0:0:0:0:
64,192,44469,1,0,0:0:0:0:
448,192,44555,1,0,0:0:0:0:
320,192,44555,1,0,0:0:0:0:
192,192,44640,1,0,0:0:0:0:
320,192,44726,1,0,0:0:0:0:
64,192,44812,1,0,0:0:0:0:
448,192,44897,1,0,0:0:0:0:
320,192,44897,1,0,0:0:0:0:
192,192,44983,1,0,0:0:0:0:
64,192,45069,1,0,0:0:0:0:
448,192,45069,1,0,0:0:0:0:
320,192,45155,1,0,0:0:0:0:
192,192,45240,1,0,0:0:0:0:
64,192,45240,1,0,0:0:0:0:
448,192,45326,1,0,0:0:0:0:
192,192,45412,1,0,0:0:0:0:
320,192,45412,1,0,0:0:0:0:
64,192,45497,1,0,0:0:0:0:
448,192,45497,1,0,0:0:0:0:
448,192,45583,1,0,0:0:0:0:
192,192,45583,1,0,0:0:0:0:
320,192,45669,1,0,0:0:0:0:
192,192,45755,1,0,0:0:0:0:
64,192,45755,1,0,0:0:0:0:
448,192,45840,1,0,0:0:0:0:
64,192,45926,1,0,0:0:0:0:
192,192,45926,1,0,0:0:0:0:
448,192,46012,1,0,0:0:0:0:
64,192,46097,1,0,0:0:0:0:
320,192,46183,1,0,0:0:0:0:
192,192,46269,1,0,0:0:0:0:
64,192,46269,1,0,0:0:0:0:
320,192,46355,1,0,0:0:0:0:
192,192,46440,1,0,0:0:0:0:
64,192,46440,1,0,0:0:0:0:
320,192,46526,1,0,0:0:0:0:
448,192,46526,1,0,0:0:0:0:
64,192,46612,1,0,0:0:0:0:
448,192,46612,1,0,0:0:0:0:
192,192,46697,1,0,0:0:0:0:
64,192,46783,1,0,0:0:0:0:
320,192,46783,1,0,0:0:0:0:
192,192,46869,1,0,0:0:0:0:
448,192,46869,1,0,0:0:0:0:
64,192,46955,1,0,0:0:0:0:
448,192,46955,1,0,0:0:0:0:
320,192,47040,1,0,0:0:0:0:
192,192,47040,1,0,0:0:0:0:
64,192,47126,1,0,0:0:0:0:
448,192,47126,1,0,0:0:0:0:
320,192,47212,1,0,0:0:0:0:
448,192,47297,1,0,0:0:0:0:
64,192,47297,1,0,0:0:0:0:
192,192,47297,1,0,0:0:0:0:
320,192,47383,1,0,0:0:0:0:
192,192,47469,1,0,0:0:0:0:
64,192,47555,1,0,0:0:0:0:
320,192,47640,1,0,0:0:0:0:
448,192,47640,1,0,0:0:0:0:
192,192,47726,1,0,0:0:0:0:
448,192,47812,1,0,0:0:0:0:
64,192,47812,1,0,0:0:0:0:
320,192,47897,1,0,0:0:0:0:
192,192,47983,1,0,0:0:0:0:
64,192,47983,1,0,0:0:0:0:
448,192,48069,1,0,0:0:0:0:
192,192,48155,1,0,0:0:0:0:
192,192,48240,1,0,0:0:0:0:
448,192,48326,1,0,0:0:0:0:
64,192,48326,1,0,0:0:0:0:
192,192,48412,1,0,0:0:0:0:
320,192,48412,1,0,0:0:0:0:
64,192,48497,1,0,0:0:0:0:
448,192,48497,1,0,0:0:0:0:
320,192,48583,1,0,0:0:0:0:
192,192,48669,1,0,0:0:0:0:
64,192,48669,1,0,0:0:0:0:
448,192,48669,1,0,0:0:0:0:
192,192,48755,1,0,0:0:0:0:
320,192,48840,1,0,0:0:0:0:
448,192,48926,1,0,0:0:0:0:
320,192,49012,1,0,0:0:0:0:
192,192,49012,1,0,0:0:0:0:
64,192,49012,1,0,0:0:0:0:
320,192,49097,1,0,0:0:0:0:
192,192,49183,1,0,0:0:0:0:
64,192,49269,1,0,0:0:0:0:
320,192,49355,1,0,0:0:0:0:
448,192,49355,1,0,0:0:0:0:
320,192,49440,1,0,0:0:0:0:
192,192,49526,1,0,0:0:0:0:
64,192,49526,1,0,0:0:0:0:
320,192,49612,1,0,0:0:0:0:
448,192,49612,1,0,0:0:0:0:
192,192,49697,1,0,0:0:0:0:
64,192,49697,1,0,0:0:0:0:
448,192,49697,1,0,0:0:0:0:
320,192,49697,1,0,0:0:0:0:
64,192,50040,1,0,0:0:0:0:
192,192,50040,1,0,0:0:0:0:
448,192,50040,128,0,50126:0:0:0:0:
320,192,50083,128,0,50169:0:0:0:0:
192,192,50126,128,0,50212:0:0:0:0:
64,192,50169,128,0,50212:0:0:0:0:
448,192,50212,1,0,0:0:0:0:
320,192,50297,1,0,0:0:0:0:
64,192,50297,1,0,0:0:0:0:
192,192,50297,128,0,50383:0:0:0:0:
448,192,50340,128,0,50426:0:0:0:0:
320,192,50383,128,0,50469:0:0:0:0:
64,192,50426,128,0,50512:0:0:0:0:
192,192,50469,128,0,50555:0:0:0:0:
320,192,50555,128,0,50683:0:0:0:0:
64,192,50555,128,0,50726:0:0:0:0:
448,192,50555,128,0,50726:0:0:0:0:
192,192,50726,1,0,0:0:0:0:
320,192,50726,1,0,0:0:0:0:
320,192,50812,1,0,0:0:0:0:
64,192,50897,1,0,0:0:0:0:
64,192,50983,1,0,0:0:0:0:
320,192,51069,128,0,51197:0:0:0:0:
448,192,51069,128,0,51197:0:0:0:0:
64,192,51155,128,0,51369:0:0:0:0:
192,192,51155,128,0,51369:0:0:0:0:
320,192,51240,128,0,51369:0:0:0:0:
448,192,51240,128,0,51369:0:0:0:0:
192,192,51412,128,0,51583:0:0:0:0:
64,192,51412,128,0,51583:0:0:0:0:
448,192,51412,128,0,51583:0:0:0:0:
320,192,51583,1,0,0:0:0:0:
320,192,51669,128,0,51755:0:0:0:0:
192,192,51669,128,0,51755:0:0:0:0:
448,192,51840,128,0,51883:0:0:0:0:
448,192,51926,128,0,51969:0:0:0:0:
192,192,52012,1,0,0:0:0:0:
320,192,52097,128,0,52140:0:0:0:0:
64,192,52183,128,0,52226:0:0:0:0:
448,192,52269,128,0,52355:0:0:0:0:
192,192,52355,128,0,52440:0:0:0:0:
64,192,52355,128,0,52440:0:0:0:0:
320,192,52440,128,0,52483:0:0:0:0:
320,192,52526,128,0,52569:0:0:0:0:
192,192,52612,128,0,52740:0:0:0:0:
448,192,52612,128,0,52740:0:0:0:0:
448,192,52783,1,0,0:0:0:0:
320,192,52783,1,0,0:0:0:0:
64,192,52783,128,0,52869:0:0:0:0:
192,192,52826,128,0,52912:0:0:0:0:
320,192,52869,128,0,52955:0:0:0:0:
448,192,52912,128,0,52955:0:0:0:0:
64,192,52955,1,0,0:0:0:0:
192,192,53040,1,0,0:0:0:0:
448,192,53040,1,0,0:0:0:0:
320,192,53040,128,0,53126:0:0:0:0:
64,192,53083,128,0,53169:0:0:0:0:
192,192,53126,128,0,53212:0:0:0:0:
448,192,53169,128,0,53255:0:0:0:0:
320,192,53212,128,0,53297:0:0:0:0:
192,192,53297,128,0,53469:0:0:0:0:
64,192,53297,128,0,53469:0:0:0:0:
448,192,53297,128,0,53426:0:0:0:0:
320,192,53469,1,0,0:0:0:0:
448,192,53469,1,0,0:0:0:0:
64,192,53512,128,0,53555:0:0:0:0:
192,192,53555,128,0,53597:0:0:0:0:
320,192,53597,128,0,53640:0:0:0:0:
64,192,53640,128,0,53726:0:0:0:0:
448,192,53683,128,0,53769:0:0:0:0:
320,192,53726,128,0,53812:0:0:0:0:
192,192,53769,128,0,53812:0:0:0:0:
448,192,53812,128,0,53855:0:0:0:0:
64,192,53812,128,0,53855:0:0:0:0:
448,192,53897,128,0,53940:0:0:0:0:
192,192,53983,128,0,54026:0:0:0:0:
192,192,54069,128,0,54112:0:0:0:0:
64,192,54155,128,0,54240:0:0:0:0:
448,192,54155,128,0,54240:0:0:0:0:
192,192,54197,128,0,54283:0:0:0:0:
320,192,54240,128,0,54326:0:0:0:0:
192,192,54412,128,0,54455:0:0:0:0:
448,192,54412,128,0,54455:0:0:0:0:
192,192,54497,1,0,0:0:0:0:
64,192,54497,1,0,0:0:0:0:
320,192,54669,128,0,54712:0:0:0:0:
64,192,54669,128,0,54712:0:0:0:0:
320,192,54755,1,0,0:0:0:0:
448,192,54755,1,0,0:0:0:0:
64,192,54840,128,0,55012:0:0:0:0:
192,192,54926,128,0,55012:0:0:0:0:
448,192,54926,128,0,54969:0:0:0:0:
320,192,55012,1,0,0:0:0:0:
448,192,55012,1,0,0:0:0:0:
320,192,55097,1,0,0:0:0:0:
448,192,55183,1,0,0:0:0:0:
64,192,55183,128,0,55269:0:0:0:0:
192,192,55226,128,0,55355:0:0:0:0:
320,192,55269,128,0,55312:0:0:0:0:
64,192,55312,1,0,0:0:0:0:
448,192,55355,1,0,0:0:0:0:
320,192,55355,128,0,55526:0:0:0:0:
192,192,55526,1,0,0:0:0:0:
64,192,55526,1,0,0:0:0:0:
448,192,55526,128,0,55612:0:0:0:0:
320,192,55569,128,0,55697:0:0:0:0:
192,192,55612,128,0,55697:0:0:0:0:
64,192,55655,128,0,55697:0:0:0:0:
448,192,55697,1,0,0:0:0:0:
320,192,55783,1,0,0:0:0:0:
64,192,55783,1,0,0:0:0:0:
192,192,55783,128,0,55869:0:0:0:0:
448,192,55826,128,0,55912:0:0:0:0:
320,192,55869,128,0,55955:0:0:0:0:
64,192,55912,128,0,55997:0:0:0:0:
192,192,55955,128,0,56040:0:0:0:0:
448,192,56040,128,0,56212:0:0:0:0:
64,192,56040,128,0,56169:0:0:0:0:
320,192,56040,128,0,56212:0:0:0:0:
192,192,56212,1,0,0:0:0:0:
64,192,56212,1,0,0:0:0:0:
64,192,56297,1,0,0:0:0:0:
320,192,56383,1,0,0:0:0:0:
320,192,56469,1,0,0:0:0:0:
448,192,56555,128,0,56640:0:0:0:0:
64,192,56555,128,0,56640:0:0:0:0:
192,192,56640,128,0,56855:0:0:0:0:
320,192,56640,128,0,56855:0:0:0:0:
64,192,56726,128,0,56855:0:0:0:0:
448,192,56726,128,0,56855:0:0:0:0:
64,192,56897,1,0,0:0:0:0:
320,192,56897,1,0,0:0:0:0:
448,192,56897,1,0,0:0:0:0:
192,192,57069,1,0,0:0:0:0:
192,192,57155,1,0,0:0:0:0:
320,192,57155,1,0,0:0:0:0:
320,192,57326,1,0,0:0:0:0:
64,192,57326,1,0,0:0:0:0:
320,192,57412,1,0,0:0:0:0:
448,192,57497,1,0,0:0:0:0:
192,192,57583,128,0,57626:0:0:0:0:
64,192,57583,128,0,57797:0:0:0:0:
192,192,57669,128,0,57883:0:0:0:0:
448,192,57755,128,0,57883:0:0:0:0:
320,192,57755,128,0,57883:0:0:0:0:
64,192,57840,128,0,57883:0:0:0:0:
320,192,57926,1,0,0:0:0:0:
448,192,57926,1,0,0:0:0:0:
320,192,58012,1,0,0:0:0:0:
192,192,58097,1,0,0:0:0:0:
192,192,58183,1,0,0:0:0:0:
448,192,58269,1,0,0:0:0:0:
320,192,58269,128,0,58355:0:0:0:0:
64,192,58269,128,0,58355:0:0:0:0:
192,192,58312,128,0,58397:0:0:0:0:
448,192,58355,128,0,58440:0:0:0:0:
320,192,58397,128,0,58440:0:0:0:0:
64,192,58440,128,0,58526:0:0:0:0:
448,192,58526,128,0,58612:0:0:0:0:
320,192,58526,128,0,58569:0:0:0:0:
192,192,58526,128,0,58569:0:0:0:0:
64,192,58569,128,0,58655:0:0:0:0:
192,192,58612,128,0,58697:0:0:0:0:
320,192,58655,128,0,58740:0:0:0:0:
448,192,58697,128,0,58783:0:0:0:0:
64,192,58783,128,0,58955:0:0:0:0:
192,192,58783,128,0,58869:0:0:0:0:
320,192,58783,128,0,58869:0:0:0:0:
448,192,58955,1,0,0:0:0:0:
320,192,58955,1,0,0:0:0:0:
192,192,58955,128,0,59212:0:0:0:0:
448,192,59212,128,0,59383:0:0:0:0:
64,192,59383,1,0,0:0:0:0:
320,192,59469,128,0,59640:0:0:0:0:
192,192,59640,128,0,59983:0:0:0:0:
448,192,59983,128,0,60326:0:0:0:0:
64,192,60326,1,0,0:0:0:0:
192,192,60412,1,0,0:0:0:0:
320,192,60497,1,0,0:0:0:0:
192,192,60669,128,0,60712:0:0:0:0:
64,192,60669,128,0,60712:0:0:0:0:
64,192,60755,128,0,60797:0:0:0:0:
320,192,60840,128,0,60883:0:0:0:0:
448,192,60840,128,0,60883:0:0:0:0:
320,192,60926,128,0,60969:0:0:0:0:
448,192,61012,1,0,0:0:0:0:
64,192,61012,128,0,61183:0:0:0:0:
192,192,61012,128,0,61183:0:0:0:0:
320,192,61097,128,0,61183:0:0:0:0:
448,192,61183,1,0,0:0:0:0:
64,192,61269,1,0,0:0:0:0:
192,192,61269,1,0,0:0:0:0:
448,192,61312,128,0,61397:0:0:0:0:
320,192,61355,128,0,61440:0:0:0:0:
192,192,61397,128,0,61483:0:0:0:0:
64,192,61440,128,0,61526:0:0:0:0:
320,192,61526,1,0,0:0:0:0:
448,192,61526,1,0,0:0:0:0:
192,192,61612,1,0,0:0:0:0:
64,192,61697,1,0,0:0:0:0:
320,192,61697,128,0,61869:0:0:0:0:
448,192,61697,128,0,61869:0:0:0:0:
192,192,61783,128,0,61869:0:0:0:0:
64,192,61869,1,0,0:0:0:0:
320,192,61955,1,0,0:0:0:0:
448,192,61955,1,0,0:0:0:0:
64,192,61997,128,0,62083:0:0:0:0:
192,192,62040,128,0,62126:0:0:0:0:
320,192,62083,128,0,62169:0:0:0:0:
448,192,62126,128,0,62212:0:0:0:0:
192,192,62212,1,0,0:0:0:0:
64,192,62212,1,0,0:0:0:0:
448,192,62297,1,0,0:0:0:0:
320,192,62383,1,0,0:0:0:0:
64,192,62383,128,0,62555:0:0:0:0:
192,192,62383,128,0,62555:0:0:0:0:
448,192,62469,128,0,62555:0:0:0:0:
320,192,62555,1,0,0:0:0:0:
64,192,62640,1,0,0:0:0:0:
192,192,62640,1,0,0:0:0:0:
448,192,62683,128,0,62769:0:0:0:0:
320,192,62726,128,0,62812:0:0:0:0:
192,192,62769,128,0,62855:0:0:0:0:
64,192,62812,128,0,62897:0:0:0:0:
320,192,62897,1,0,0:0:0:0:
448,192,62897,1,0,0:0:0:0:
64,192,62983,1,0,0:0:0:0:
192,192,63069,1,0,0:0:0:0:
320,192,63069,128,0,63240:0:0:0:0:
448,192,63069,128,0,63240:0:0:0:0:
64,192,63155,128,0,63240:0:0:0:0:
192,192,63240,1,0,0:0:0:0:
320,192,63326,1,0,0:0:0:0:
448,192,63326,1,0,0:0:0:0:
64,192,63369,128,0,63455:0:0:0:0:
192,192,63412,128,0,63497:0:0:0:0:
320,192,63455,128,0,63540:0:0:0:0:
448,192,63497,128,0,63583:0:0:0:0:
192,192,63583,128,0,63626:0:0:0:0:
320,192,63626,128,0,63669:0:0:0:0:
64,192,63669,128,0,63712:0:0:0:0:
192,192,63712,128,0,63755:0:0:0:0:
320,192,63755,1,0,0:0:0:0:
64,192,63755,128,0,63926:0:0:0:0:
448,192,63755,128,0,63926:0:0:0:0:
192,192,63840,128,0,63926:0:0:0:0:
320,192,63926,1,0,0:0:0:0:
64,192,64012,128,0,64097:0:0:0:0:
192,192,64055,128,0,64140:0:0:0:0:
448,192,64097,128,0,64183:0:0:0:0:
320,192,64140,128,0,64183:0:0:0:0:
192,192,64183,1,0,0:0:0:0:
64,192,64183,1,0,0:0:0:0:
320,192,64269,1,0,0:0:0:0:
448,192,64269,1,0,0:0:0:0:
192,192,64355,1,0,0:0:0:0:
320,192,64440,1,0,0:0:0:0:
64,192,64440,128,0,64612:0:0:0:0:
448,192,64440,128,0,64612:0:0:0:0:
320,192,64526,128,0,64612:0:0:0:0:
192,192,64612,1,0,0:0:0:0:
448,192,64697,128,0,64783:0:0:0:0:
320,192,64740,128,0,64826:0:0:0:0:
64,192,64783,128,0,64869:0:0:0:0:
192,192,64826,128,0,64869:0:0:0:0:
320,192,64869,1,0,0:0:0:0:
448,192,64869,1,0,0:0:0:0:
192,192,64955,1,0,0:0:0:0:
64,192,64955,1,0,0:0:0:0:
320,192,65040,1,0,0:0:0:0:
64,192,65126,128,0,65297:0:0:0:0:
448,192,65126,128,0,65297:0:0:0:0:
192,192,65126,1,0,0:0:0:0:
320,192,65212,128,0,65297:0:0:0:0:
192,192,65297,1,0,0:0:0:0:
448,192,65383,128,0,65469:0:0:0:0:
320,192,65426,128,0,65512:0:0:0:0:
192,192,65469,128,0,65555:0:0:0:0:
64,192,65512,128,0,65555:0:0:0:0:
320,192,65555,1,0,0:0:0:0:
448,192,65555,1,0,0:0:0:0:
64,192,65640,1,0,0:0:0:0:
448,192,65640,1,0,0:0:0:0:
192,192,65726,1,0,0:0:0:0:
64,192,65812,128,0,65983:0:0:0:0:
320,192,65812,1,0,0:0:0:0:
448,192,65812,128,0,65983:0:0:0:0:
192,192,65897,128,0,65983:0:0:0:0:
320,192,65983,1,0,0:0:0:0:
64,192,66069,128,0,66155:0:0:0:0:
192,192,66112,128,0,66197:0:0:0:0:
320,192,66155,128,0,66240:0:0:0:0:
448,192,66197,128,0,66240:0:0:0:0:
192,192,66240,1,0,0:0:0:0:
64,192,66240,1,0,0:0:0:0:
64,192,66326,1,0,0:0:0:0:
448,192,66326,128,0,66369:0:0:0:0:
320,192,66369,128,0,66412:0:0:0:0:
192,192,66412,128,0,66455:0:0:0:0:
64,192,66455,128,0,66497:0:0:0:0:
192,192,66497,128,0,66669:0:0:0:0:
320,192,66497,128,0,66540:0:0:0:0:
448,192,66497,128,0,66583:0:0:0:0:
64,192,66583,128,0,66669:0:0:0:0:
320,192,66583,128,0,66669:0:0:0:0:
448,192,66669,128,0,66755:0:0:0:0:
320,192,66755,128,0,66926:0:0:0:0:
192,192,66755,128,0,66797:0:0:0:0:
64,192,66755,128,0,66840:0:0:0:0:
448,192,66840,128,0,66926:0:0:0:0:
192,192,66840,128,0,66926:0:0:0:0:
64,192,66926,128,0,67012:0:0:0:0:
320,192,67012,128,0,67140:0:0:0:0:
448,192,67012,128,0,67140:0:0:0:0:
192,192,67097,128,0,67183:0:0:0:0:
64,192,67097,128,0,67140:0:0:0:0:
64,192,67183,128,0,67355:0:0:0:0:
320,192,67183,128,0,67269:0:0:0:0:
448,192,67183,128,0,67226:0:0:0:0:
192,192,67269,128,0,67355:0:0:0:0:
448,192,67269,128,0,67355:0:0:0:0:
320,192,67355,128,0,67440:0:0:0:0:
448,192,67440,128,0,67612:0:0:0:0:
192,192,67440,128,0,67526:0:0:0:0:
64,192,67440,128,0,67483:0:0:0:0:
320,192,67526,128,0,67612:0:0:0:0:
64,192,67526,128,0,67612:0:0:0:0:
192,192,67612,128,0,67697:0:0:0:0:
320,192,67697,128,0,67783:0:0:0:0:
448,192,67697,128,0,67783:0:0:0:0:
64,192,67783,128,0,67869:0:0:0:0:
192,192,67783,128,0,67826:0:0:0:0:
192,192,67869,128,0,68040:0:0:0:0:
320,192,67869,128,0,67955:0:0:0:0:
448,192,67869,128,0,67912:0:0:0:0:
64,192,67955,128,0,68040:0:0:0:0:
448,192,67955,128,0,68040:0:0:0:0:
320,192,68040,128,0,68126:0:0:0:0:
192,192,68126,128,0,68297:0:0:0:0:
64,192,68126,128,0,68169:0:0:0:0:
448,192,68126,128,0,68212:0:0:0:0:
320,192,68212,128,0,68297:0:0:0:0:
64,192,68212,128,0,68297:0:0:0:0:
448,192,68297,128,0,68383:0:0:0:0:
192,192,68383,128,0,68469:0:0:0:0:
64,192,68383,128,0,68469:0:0:0:0:
320,192,68469,128,0,68512:0:0:0:0:
448,192,68469,128,0,68555:0:0:0:0:
320,192,68555,128,0,68726:0:0:0:0:
192,192,68555,128,0,68640:0:0:0:0:
64,192,68555,128,0,68597:0:0:0:0:
448,192,68640,128,0,68726:0:0:0:0:
64,192,68640,128,0,68726:0:0:0:0:
192,192,68726,128,0,68812:0:0:0:0:
448,192,68812,1,0,0:0:0:0:
64,192,68812,128,0,68897:0:0:0:0:
320,192,68812,128,0,68940:0:0:0:0:
192,192,68897,128,0,68983:0:0:0:0:
448,192,68897,128,0,68983:0:0:0:0:
320,192,68983,1,0,0:0:0:0:
64,192,68983,128,0,69069:0:0:0:0:
320,192,69069,128,0,69155:0:0:0:0:
448,192,69069,128,0,69155:0:0:0:0:
192,192,69155,128,0,69240:0:0:0:0:
64,192,69155,128,0,69240:0:0:0:0:
320,192,69240,1,0,0:0:0:0:
448,192,69240,1,0,0:0:0:0:
192,192,69497,1,0,0:0:0:0:
64,192,69497,1,0,0:0:0:0:
192,192,69755,1,0,0:0:0:0:
64,192,69755,1,0,0:0:0:0:
448,192,69926,1,0,0:0:0:0:
192,192,69926,1,0,0:0:0:0:
64,192,70012,1,0,0:0:0:0:
320,192,70012,1,0,0:0:0:0:
192,192,70183,1,0,0:0:0:0:
320,192,70183,1,0,0:0:0:0:
320,192,70355,1,0,0:0:0:0:
448,192,70355,1,0,0:0:0:0:
192,192,70440,1,0,0:0:0:0:
64,192,70440,1,0,0:0:0:0:
320,192,70526,1,0,0:0:0:0:
448,192,70526,1,0,0:0:0:0:
192,192,70612,1,0,0:0:0:0:
448,192,70612,1,0,0:0:0:0:
64,192,70612,1,0,0:0:0:0:
192,192,70783,1,0,0:0:0:0:
320,192,70783,1,0,0:0:0:0:
64,192,70955,1,0,0:0:0:0:
320,192,70955,1,0,0:0:0:0:
448,192,70955,1,0,0:0:0:0:
320,192,71126,1,0,0:0:0:0:
192,192,71126,1,0,0:0:0:0:
64,192,71297,128,0,71640:0:0:0:0:
448,192,71297,128,0,71555:0:0:0:0:
320,192,71469,1,0,0:0:0:0:
192,192,71555,1,0,0:0:0:0:
448,192,71640,1,0,0:0:0:0:
320,192,71662,1,0,0:0:0:0:
64,192,71812,1,0,0:0:0:0:
448,192,71812,1,0,0:0:0:0:
192,192,71833,1,0,0:0:0:0:
64,192,71983,1,0,0:0:0:0:
448,192,71983,128,0,72069:0:0:0:0:
320,192,72026,128,0,72112:0:0:0:0:
192,192,72069,128,0,72155:0:0:0:0:
448,192,72112,128,0,72197:0:0:0:0:
64,192,72155,128,0,72240:0:0:0:0:
192,192,72197,128,0,72283:0:0:0:0:
320,192,72240,128,0,72326:0:0:0:0:
64,192,72283,128,0,72369:0:0:0:0:
192,192,72326,128,0,72369:0:0:0:0:
448,192,72369,128,0,72412:0:0:0:0:
320,192,72412,128,0,72455:0:0:0:0:
192,192,72455,128,0,72497:0:0:0:0:
448,192,72497,1,0,0:0:0:0:
64,192,72497,1,0,0:0:0:0:
448,192,72583,1,0,0:0:0:0:
192,192,72669,1,0,0:0:0:0:
64,192,72669,128,0,72840:0:0:0:0:
192,192,72755,128,0,72840:0:0:0:0:
320,192,72840,1,0,0:0:0:0:
448,192,72840,128,0,72969:0:0:0:0:
320,192,72926,128,0,73012:0:0:0:0:
448,192,73012,1,0,0:0:0:0:
64,192,73012,1,0,0:0:0:0:
192,192,73055,1,0,0:0:0:0:
320,192,73097,1,0,0:0:0:0:
64,192,73183,1,0,0:0:0:0:
448,192,73183,128,0,73247:0:0:0:0:
192,192,73183,128,0,73247:0:0:0:0:
320,192,73226,128,0,73290:0:0:0:0:
64,192,73269,128,0,73355:0:0:0:0:
192,192,73440,128,0,73505:0:0:0:0:
448,192,73440,128,0,73505:0:0:0:0:
320,192,73483,128,0,73547:0:0:0:0:
64,192,73526,128,0,73612:0:0:0:0:
64,192,73697,128,0,73762:0:0:0:0:
320,192,73697,128,0,73762:0:0:0:0:
192,192,73740,128,0,73805:0:0:0:0:
448,192,73783,128,0,73869:0:0:0:0:
64,192,73869,1,0,0:0:0:0:
64,192,73955,1,0,0:0:0:0:
448,192,74040,128,0,74126:0:0:0:0:
320,192,74083,128,0,74169:0:0:0:0:
64,192,74126,128,0,74212:0:0:0:0:
192,192,74169,128,0,74297:0:0:0:0:
320,192,74212,1,0,0:0:0:0:
448,192,74212,1,0,0:0:0:0:
320,192,74297,1,0,0:0:0:0:
64,192,74383,1,0,0:0:0:0:
448,192,74383,128,0,74512:0:0:0:0:
64,192,74469,128,0,74555:0:0:0:0:
192,192,74469,128,0,74512:0:0:0:0:
320,192,74555,128,0,74726:0:0:0:0:
448,192,74555,128,0,74597:0:0:0:0:
192,192,74640,128,0,74726:0:0:0:0:
448,192,74726,1,0,0:0:0:0:
64,192,74726,128,0,74812:0:0:0:0:
192,192,74769,128,0,74855:0:0:0:0:
320,192,74812,128,0,74897:0:0:0:0:
448,192,74855,128,0,74897:0:0:0:0:
192,192,74897,1,0,0:0:0:0:
64,192,74897,1,0,0:0:0:0:
64,192,75069,1,0,0:0:0:0:
320,192,75069,128,0,75240:0:0:0:0:
448,192,75069,128,0,75155:0:0:0:0:
192,192,75155,128,0,75326:0:0:0:0:
64,192,75155,128,0,75240:0:0:0:0:
448,192,75240,128,0,75326:0:0:0:0:
64,192,75326,1,0,0:0:0:0:
320,192,75326,128,0,75412:0:0:0:0:
192,192,75412,128,0,75497:0:0:0:0:
448,192,75412,1,0,0:0:0:0:
64,192,75412,128,0,75583:0:0:0:0:
448,192,75497,128,0,75669:0:0:0:0:
320,192,75497,128,0,75669:0:0:0:0:
192,192,75583,128,0,75669:0:0:0:0:
64,192,75669,128,0,75755:0:0:0:0:
192,192,75755,1,0,0:0:0:0:
320,192,75755,128,0,75840:0:0:0:0:
448,192,75755,128,0,76012:0:0:0:0:
192,192,75840,128,0,75926:0:0:0:0:
64,192,75840,128,0,75926:0:0:0:0:
320,192,75926,128,0,76012:0:0:0:0:
64,192,76012,1,0,0:0:0:0:
192,192,76012,128,0,76097:0:0:0:0:
448,192,76097,1,0,0:0:0:0:
64,192,76097,128,0,76183:0:0:0:0:
320,192,76097,128,0,76269:0:0:0:0:
192,192,76183,128,0,76355:0:0:0:0:
448,192,76183,128,0,76355:0:0:0:0:
64,192,76269,128,0,76355:0:0:0:0:
320,192,76355,128,0,76440:0:0:0:0:
64,192,76440,1,0,0:0:0:0:
192,192,76440,128,0,76526:0:0:0:0:
448,192,76440,128,0,76697:0:0:0:0:
64,192,76526,128,0,76697:0:0:0:0:
320,192,76526,128,0,76612:0:0:0:0:
192,192,76612,128,0,76697:0:0:0:0:
320,192,76697,128,0,76783:0:0:0:0:
64,192,76783,128,0,76955:0:0:0:0:
192,192,76783,128,0,76869:0:0:0:0:
448,192,76783,128,0,76869:0:0:0:0:
320,192,76869,128,0,77040:0:0:0:0:
192,192,76955,128,0,77126:0:0:0:0:
448,192,76955,128,0,77040:0:0:0:0:
64,192,77040,128,0,77126:0:0:0:0:
320,192,77126,1,0,0:0:0:0:
448,192,77126,1,0,0:0:0:0:
192,192,77212,1,0,0:0:0:0:
320,192,77297,128,0,77469:0:0:0:0:
64,192,77469,1,0,0:0:0:0:
192,192,77469,1,0,0:0:0:0:
448,192,77469,128,0,77555:0:0:0:0:
320,192,77512,128,0,77597:0:0:0:0:
192,192,77555,128,0,77640:0:0:0:0:
448,192,77597,128,0,77683:0:0:0:0:
320,192,77640,128,0,77726:0:0:0:0:
64,192,77683,128,0,77769:0:0:0:0:
192,192,77726,128,0,77812:0:0:0:0:
320,192,77769,128,0,77812:0:0:0:0:
64,192,77812,128,0,77855:0:0:0:0:
448,192,77855,128,0,77897:0:0:0:0:
320,192,77897,128,0,77940:0:0:0:0:
192,192,77940,128,0,77983:0:0:0:0:
64,192,77983,1,0,0:0:0:0:
448,192,77983,1,0,0:0:0:0:
448,192,78155,1,0,0:0:0:0:
320,192,78155,128,0,78240:0:0:0:0:
64,192,78155,128,0,78197:0:0:0:0:
448,192,78240,128,0,78326:0:0:0:0:
192,192,78326,128,0,78369:0:0:0:0:
192,192,78412,128,0,78497:0:0:0:0:
64,192,78497,1,0,0:0:0:0:
448,192,78497,1,0,0:0:0:0:
320,192,78540,1,0,0:0:0:0:
192,192,78583,1,0,0:0:0:0:
448,192,78669,1,0,0:0:0:0:
64,192,78669,128,0,78733:0:0:0:0:
320,192,78669,128,0,78733:0:0:0:0:
192,192,78712,128,0,78776:0:0:0:0:
448,192,78755,128,0,78840:0:0:0:0:
64,192,78926,128,0,78990:0:0:0:0:
320,192,78926,128,0,78990:0:0:0:0:
448,192,78969,128,0,79033:0:0:0:0:
192,192,79012,128,0,79097:0:0:0:0:
64,192,79183,128,0,79247:0:0:0:0:
448,192,79183,128,0,79226:0:0:0:0:
320,192,79226,128,0,79290:0:0:0:0:
448,192,79269,128,0,79355:0:0:0:0:
192,192,79355,1,0,0:0:0:0:
64,192,79355,1,0,0:0:0:0:
320,192,79440,128,0,79526:0:0:0:0:
448,192,79440,128,0,79483:0:0:0:0:
192,192,79526,128,0,79783:0:0:0:0:
64,192,79526,128,0,79612:0:0:0:0:
448,192,79526,128,0,79612:0:0:0:0:
320,192,79612,128,0,79697:0:0:0:0:
64,192,79697,128,0,79783:0:0:0:0:
448,192,79697,128,0,79783:0:0:0:0:
320,192,79783,128,0,79869:0:0:0:0:
192,192,79869,128,0,79955:0:0:0:0:
448,192,79955,128,0,80040:0:0:0:0:
64,192,80040,128,0,80169:0:0:0:0:
448,192,80212,1,0,0:0:0:0:
64,192,80212,128,0,80297:0:0:0:0:
192,192,80255,128,0,80340:0:0:0:0:
320,192,80297,128,0,80383:0:0:0:0:
448,192,80340,128,0,80469:0:0:0:0:
192,192,80383,1,0,0:0:0:0:
64,192,80383,1,0,0:0:0:0:
192,192,80469,1,0,0:0:0:0:
448,192,80555,1,0,0:0:0:0:
64,192,80555,128,0,80812:0:0:0:0:
320,192,80555,128,0,80640:0:0:0:0:
448,192,80640,128,0,80812:0:0:0:0:
192,192,80640,128,0,80726:0:0:0:0:
320,192,80726,128,0,80812:0:0:0:0:
192,192,80812,128,0,80897:0:0:0:0:
64,192,80897,1,0,0:0:0:0:
320,192,80897,128,0,80983:0:0:0:0:
448,192,80897,128,0,81069:0:0:0:0:
192,192,80983,128,0,81155:0:0:0:0:
64,192,80983,128,0,81155:0:0:0:0:
320,192,81069,128,0,81155:0:0:0:0:
448,192,81155,128,0,81240:0:0:0:0:
192,192,81240,1,0,0:0:0:0:
320,192,81240,128,0,81412:0:0:0:0:
64,192,81240,128,0,81326:0:0:0:0:
192,192,81326,128,0,81497:0:0:0:0:
448,192,81326,128,0,81497:0:0:0:0:
64,192,81412,128,0,81497:0:0:0:0:
320,192,81497,128,0,81583:0:0:0:0:
448,192,81583,1,0,0:0:0:0:
192,192,81583,128,0,81755:0:0:0:0:
64,192,81583,128,0,81669:0:0:0:0:
320,192,81669,128,0,81840:0:0:0:0:
448,192,81669,128,0,81840:0:0:0:0:
64,192,81755,128,0,81840:0:0:0:0:
192,192,81840,128,0,81926:0:0:0:0:
448,192,81926,1,0,0:0:0:0:
320,192,81926,128,0,82097:0:0:0:0:
64,192,81926,128,0,82012:0:0:0:0:
192,192,82012,1,0,0:0:0:0:
448,192,82012,128,0,82183:0:0:0:0:
192,192,82097,128,0,82183:0:0:0:0:
64,192,82097,128,0,82183:0:0:0:0:
320,192,82183,128,0,82269:0:0:0:0:
64,192,82269,1,0,0:0:0:0:
192,192,82269,128,0,82526:0:0:0:0:
448,192,82269,128,0,82355:0:0:0:0:
320,192,82355,128,0,82526:0:0:0:0:
64,192,82355,128,0,82440:0:0:0:0:
448,192,82440,128,0,82526:0:0:0:0:
64,192,82526,1,0,0:0:0:0:
320,192,82612,1,0,0:0:0:0:
448,192,82612,1,0,0:0:0:0:
192,192,82697,1,0,0:0:0:0:
64,192,82697,1,0,0:0:0:0:
448,192,82783,1,0,0:0:0:0:
64,192,82783,1,0,0:0:0:0:
320,192,82869,1,0,0:0:0:0:
64,192,82955,128,0,83040:0:0:0:0:
448,192,82955,128,0,82997:0:0:0:0:
192,192,82997,128,0,83083:0:0:0:0:
320,192,83040,128,0,83126:0:0:0:0:
448,192,83083,128,0,83169:0:0:0:0:
64,192,83126,128,0,83212:0:0:0:0:
192,192,83126,128,0,83169:0:0:0:0:
320,192,83212,128,0,83297:0:0:0:0:
448,192,83212,128,0,83255:0:0:0:0:
448,192,83297,128,0,83383:0:0:0:0:
192,192,83297,128,0,83383:0:0:0:0:
64,192,83297,128,0,83340:0:0:0:0:
64,192,83383,128,0,83469:0:0:0:0:
192,192,83469,128,0,83555:0:0:0:0:
448,192,83469,128,0,83512:0:0:0:0:
320,192,83555,128,0,83597:0:0:0:0:
64,192,83555,128,0,83640:0:0:0:0:
448,192,83597,128,0,83683:0:0:0:0:
320,192,83640,128,0,83726:0:0:0:0:
192,192,83683,128,0,83769:0:0:0:0:
448,192,83726,128,0,83812:0:0:0:0:
192,192,83812,128,0,83897:0:0:0:0:
64,192,83812,128,0,83855:0:0:0:0:
320,192,83897,128,0,83983:0:0:0:0:
448,192,83983,1,0,0:0:0:0:
64,192,83983,128,0,84069:0:0:0:0:
192,192,83983,128,0,84069:0:0:0:0:
448,192,84069,128,0,84240:0:0:0:0:
64,192,84155,1,0,0:0:0:0:
320,192,84155,128,0,84240:0:0:0:0:
64,192,84240,128,0,84326:0:0:0:0:
448,192,84326,1,0,0:0:0:0:
192,192,84326,128,0,84412:0:0:0:0:
320,192,84369,128,0,84455:0:0:0:0:
448,192,84412,128,0,84497:0:0:0:0:
192,192,84497,128,0,84583:0:0:0:0:
64,192,84497,128,0,84540:0:0:0:0:
320,192,84583,128,0,84755:0:0:0:0:
448,192,84583,128,0,84626:0:0:0:0:
448,192,84669,128,0,84755:0:0:0:0:
192,192,84669,128,0,84840:0:0:0:0:
64,192,84669,128,0,84712:0:0:0:0:
64,192,84755,128,0,84840:0:0:0:0:
320,192,84840,128,0,84926:0:0:0:0:
448,192,84840,128,0,84883:0:0:0:0:
448,192,84926,128,0,84969:0:0:0:0:
64,192,84926,128,0,85012:0:0:0:0:
192,192,84969,128,0,85055:0:0:0:0:
320,192,85012,128,0,85097:0:0:0:0:
448,192,85055,128,0,85140:0:0:0:0:
192,192,85097,128,0,85183:0:0:0:0:
64,192,85097,128,0,85140:0:0:0:0:
64,192,85183,128,0,85226:0:0:0:0:
448,192,85183,128,0,85269:0:0:0:0:
320,192,85226,128,0,85312:0:0:0:0:
192,192,85269,1,0,0:0:0:0:
64,192,85312,1,0,0:0:0:0:
192,192,85355,128,0,85483:0:0:0:0:
448,192,85355,128,0,85397:0:0:0:0:
320,192,85440,128,0,85526:0:0:0:0:
448,192,85440,128,0,85612:0:0:0:0:
64,192,85526,128,0,85655:0:0:0:0:
192,192,85612,128,0,85655:0:0:0:0:
64,192,85697,128,0,85783:0:0:0:0:
448,192,85697,128,0,85740:0:0:0:0:
320,192,85740,128,0,85783:0:0:0:0:
448,192,85783,128,0,85869:0:0:0:0:
320,192,85826,128,0,85869:0:0:0:0:
192,192,85869,128,0,85955:0:0:0:0:
64,192,85869,128,0,85912:0:0:0:0:
320,192,85955,128,0,86040:0:0:0:0:
448,192,86040,128,0,86126:0:0:0:0:
192,192,86040,128,0,86212:0:0:0:0:
64,192,86040,128,0,86083:0:0:0:0:
64,192,86126,128,0,86212:0:0:0:0:
320,192,86212,128,0,86297:0:0:0:0:
448,192,86212,128,0,86255:0:0:0:0:
448,192,86297,128,0,86340:0:0:0:0:
64,192,86297,128,0,86383:0:0:0:0:
192,192,86340,128,0,86426:0:0:0:0:
320,192,86383,128,0,86469:0:0:0:0:
448,192,86426,128,0,86512:0:0:0:0:
64,192,86469,128,0,86555:0:0:0:0:
320,192,86555,128,0,86640:0:0:0:0:
448,192,86555,128,0,86597:0:0:0:0:
192,192,86640,128,0,86726:0:0:0:0:
64,192,86726,128,0,86812:0:0:0:0:
448,192,86726,128,0,86769:0:0:0:0:
320,192,86726,1,0,0:0:0:0:
320,192,86812,128,0,86983:0:0:0:0:
64,192,86897,1,0,0:0:0:0:
448,192,86897,128,0,86983:0:0:0:0:
192,192,86983,128,0,87069:0:0:0:0:
64,192,87069,128,0,87112:0:0:0:0:
320,192,87069,128,0,87155:0:0:0:0:
448,192,87112,128,0,87197:0:0:0:0:
192,192,87155,128,0,87240:0:0:0:0:
320,192,87197,128,0,87283:0:0:0:0:
64,192,87240,128,0,87326:0:0:0:0:
320,192,87326,128,0,87412:0:0:0:0:
448,192,87326,128,0,87369:0:0:0:0:
448,192,87412,128,0,87583:0:0:0:0:
64,192,87412,128,0,87497:0:0:0:0:
192,192,87412,128,0,87455:0:0:0:0:
192,192,87497,128,0,87583:0:0:0:0:
320,192,87583,128,0,87626:0:0:0:0:
64,192,87583,128,0,87669:0:0:0:0:
192,192,87669,128,0,87712:0:0:0:0:
448,192,87669,128,0,87755:0:0:0:0:
320,192,87712,128,0,87797:0:0:0:0:
192,192,87755,128,0,87840:0:0:0:0:
64,192,87797,128,0,87883:0:0:0:0:
320,192,87840,128,0,87926:0:0:0:0:
448,192,87840,128,0,87883:0:0:0:0:
64,192,87926,128,0,88012:0:0:0:0:
448,192,87926,128,0,87969:0:0:0:0:
192,192,87969,128,0,88055:0:0:0:0:
320,192,88012,1,0,0:0:0:0:
448,192,88055,1,0,0:0:0:0:
64,192,88097,1,0,0:0:0:0:
320,192,88097,1,0,0:0:0:0:
192,192,88097,128,0,88183:0:0:0:0:
64,192,88183,128,0,88269:0:0:0:0:
192,192,88269,1,0,0:0:0:0:
448,192,88269,128,0,88355:0:0:0:0:
64,192,88355,1,0,0:0:0:0:
320,192,88355,128,0,88440:0:0:0:0:
448,192,88440,128,0,88526:0:0:0:0:
320,192,88483,128,0,88569:0:0:0:0:
64,192,88526,128,0,88612:0:0:0:0:
192,192,88569,128,0,88655:0:0:0:0:
448,192,88612,128,0,88697:0:0:0:0:
320,192,88655,128,0,88740:0:0:0:0:
192,192,88697,128,0,88783:0:0:0:0:
64,192,88740,128,0,88783:0:0:0:0:
320,192,88783,1,0,0:0:0:0:
448,192,88783,128,0,88869:0:0:0:0:
192,192,88869,128,0,89040:0:0:0:0:
320,192,88955,1,0,0:0:0:0:
64,192,88955,128,0,89040:0:0:0:0:
320,192,89040,128,0,89126:0:0:0:0:
448,192,89040,128,0,89126:0:0:0:0:
64,192,89126,128,0,89212:0:0:0:0:
192,192,89169,128,0,89255:0:0:0:0:
320,192,89212,128,0,89297:0:0:0:0:
64,192,89297,1,0,0:0:0:0:
448,192,89297,1,0,0:0:0:0:
192,192,89383,1,0,0:0:0:0:
320,192,89383,1,0,0:0:0:0:
320,192,89469,128,0,89640:0:0:0:0:
448,192,89469,128,0,89512:0:0:0:0:
64,192,89469,128,0,89512:0:0:0:0:
192,192,89555,128,0,89640:0:0:0:0:
448,192,89640,128,0,89726:0:0:0:0:
64,192,89726,128,0,89812:0:0:0:0:
192,192,89726,128,0,89812:0:0:0:0:
448,192,89812,128,0,89897:0:0:0:0:
320,192,89855,128,0,89940:0:0:0:0:
192,192,89897,128,0,89983:0:0:0:0:
448,192,89983,1,0,0:0:0:0:
64,192,89983,1,0,0:0:0:0:
192,192,90069,1,0,0:0:0:0:
320,192,90069,1,0,0:0:0:0:
64,192,90155,128,0,90197:0:0:0:0:
192,192,90155,128,0,90326:0:0:0:0:
448,192,90155,128,0,90197:0:0:0:0:
320,192,90240,128,0,90326:0:0:0:0:
64,192,90326,128,0,90412:0:0:0:0:
320,192,90412,128,0,90497:0:0:0:0:
448,192,90412,128,0,90497:0:0:0:0:
64,192,90497,1,0,0:0:0:0:
192,192,90497,128,0,90583:0:0:0:0:
448,192,90583,1,0,0:0:0:0:
64,192,90583,128,0,90669:0:0:0:0:
448,192,90669,1,0,0:0:0:0:
320,192,90669,128,0,90755:0:0:0:0:
192,192,90755,128,0,90840:0:0:0:0:
64,192,90840,1,0,0:0:0:0:
320,192,90840,128,0,90926:0:0:0:0:
448,192,90840,128,0,90926:0:0:0:0:
192,192,90926,128,0,91012:0:0:0:0:
64,192,90926,128,0,91012:0:0:0:0:
320,192,91012,128,0,91097:0:0:0:0:
448,192,91012,128,0,91097:0:0:0:0:
192,192,91097,128,0,91183:0:0:0:0:
64,192,91097,128,0,91183:0:0:0:0:
320,192,91183,128,0,91269:0:0:0:0:
448,192,91183,128,0,91269:0:0:0:0:
64,192,91226,128,0,91312:0:0:0:0:
192,192,91269,128,0,91355:0:0:0:0:
320,192,91312,128,0,91397:0:0:0:0:
448,192,91355,128,0,91440:0:0:0:0:
64,192,91397,128,0,91483:0:0:0:0:
192,192,91440,128,0,91526:0:0:0:0:
448,192,91483,128,0,91526:0:0:0:0:
64,192,91526,1,0,0:0:0:0:
320,192,91526,128,0,91612:0:0:0:0:
192,192,91612,1,0,0:0:0:0:
448,192,91612,128,0,91697:0:0:0:0:
192,192,91697,128,0,91783:0:0:0:0:
64,192,91697,128,0,91740:0:0:0:0:
448,192,91783,1,0,0:0:0:0:
320,192,91783,1,0,0:0:0:0:
64,192,91826,1,0,0:0:0:0:
192,192,91869,128,0,91926:0:0:0:0:
448,192,91897,128,0,91983:0:0:0:0:
320,192,91926,128,0,92012:0:0:0:0:
192,192,91955,128,0,92040:0:0:0:0:
64,192,91983,128,0,92040:0:0:0:0:
320,192,92040,1,0,0:0:0:0:
448,192,92040,1,0,0:0:0:0:
448,192,92126,1,0,0:0:0:0:
64,192,92126,1,0,0:0:0:0:
320,192,92212,1,0,0:0:0:0:
64,192,92212,128,0,92383:0:0:0:0:
192,192,92212,1,0,0:0:0:0:
192,192,92297,128,0,92383:0:0:0:0:
320,192,92383,1,0,0:0:0:0:
64,192,92469,1,0,0:0:0:0:
448,192,92469,1,0,0:0:0:0:
192,192,92512,1,0,0:0:0:0:
320,192,92555,128,0,92612:0:0:0:0:
64,192,92583,128,0,92669:0:0:0:0:
192,192,92612,128,0,92697:0:0:0:0:
320,192,92640,128,0,92726:0:0:0:0:
448,192,92669,128,0,92726:0:0:0:0:
192,192,92726,1,0,0:0:0:0:
64,192,92726,1,0,0:0:0:0:
192,192,92812,1,0,0:0:0:0:
64,192,92897,1,0,0:0:0:0:
448,192,92897,1,0,0:0:0:0:
320,192,92897,128,0,93069:0:0:0:0:
448,192,92983,1,0,0:0:0:0:
192,192,92983,128,0,93069:0:0:0:0:
64,192,93069,1,0,0:0:0:0:
320,192,93155,1,0,0:0:0:0:
448,192,93155,1,0,0:0:0:0:
192,192,93240,128,0,93283:0:0:0:0:
64,192,93240,128,0,93326:0:0:0:0:
448,192,93283,128,0,93369:0:0:0:0:
320,192,93326,128,0,93412:0:0:0:0:
192,192,93369,128,0,93455:0:0:0:0:
448,192,93412,128,0,93497:0:0:0:0:
64,192,93455,128,0,93540:0:0:0:0:
192,192,93497,128,0,93540:0:0:0:0:
320,192,93540,128,0,93583:0:0:0:0:
448,192,93583,1,0,0:0:0:0:
192,192,93583,128,0,93669:0:0:0:0:
64,192,93583,128,0,93669:0:0:0:0:
320,192,93669,128,0,93755:0:0:0:0:
448,192,93669,128,0,93755:0:0:0:0:
192,192,93755,128,0,93840:0:0:0:0:
64,192,93755,128,0,93840:0:0:0:0:
448,192,93840,1,0,0:0:0:0:
320,192,93840,128,0,93926:0:0:0:0:
192,192,93926,1,0,0:0:0:0:
448,192,93926,128,0,94012:0:0:0:0:
64,192,93969,128,0,94055:0:0:0:0:
192,192,94012,128,0,94097:0:0:0:0:
448,192,94055,128,0,94140:0:0:0:0:
320,192,94097,128,0,94183:0:0:0:0:
64,192,94140,128,0,94226:0:0:0:0:
192,192,94183,128,0,94269:0:0:0:0:
320,192,94226,128,0,94269:0:0:0:0:
64,192,94269,1,0,0:0:0:0:
448,192,94269,128,0,94569:0:0:0:0:
320,192,94355,128,0,94569:0:0:0:0:
192,192,94440,128,0,94569:0:0:0:0:
64,192,94612,128,0,94740:0:0:0:0:
448,192,94612,128,0,94740:0:0:0:0:
192,192,94697,128,0,94783:0:0:0:0:
64,192,94783,128,0,94869:0:0:0:0:
320,192,94783,128,0,94826:0:0:0:0:
448,192,94783,128,0,94826:0:0:0:0:
320,192,94869,128,0,94955:0:0:0:0:
192,192,94955,1,0,0:0:0:0:
64,192,94955,1,0,0:0:0:0:
448,192,94955,1,0,0:0:0:0:
320,192,95040,1,0,0:0:0:0:
64,192,95126,1,0,0:0:0:0:
448,192,95126,1,0,0:0:0:0:
320,192,95155,1,0,0:0:0:0:
192,192,95183,1,0,0:0:0:0:
448,192,95297,1,0,0:0:0:0:
192,192,95297,1,0,0:0:0:0:
64,192,95326,1,0,0:0:0:0:
320,192,95355,1,0,0:0:0:0:
64,192,95469,1,0,0:0:0:0:
320,192,95469,1,0,0:0:0:0:
192,192,95497,1,0,0:0:0:0:
448,192,95526,1,0,0:0:0:0:
64,192,95640,1,0,0:0:0:0:
192,192,95640,1,0,0:0:0:0:
320,192,95726,128,0,95769:0:0:0:0:
192,192,95769,128,0,95812:0:0:0:0:
448,192,95812,128,0,95855:0:0:0:0:
320,192,95855,128,0,95897:0:0:0:0:
64,192,95897,128,0,95940:0:0:0:0:
192,192,95940,128,0,95983:0:0:0:0:
320,192,95983,1,0,0:0:0:0:
448,192,95983,128,0,96155:0:0:0:0:
64,192,96069,1,0,0:0:0:0:
320,192,96069,128,0,96155:0:0:0:0:
64,192,96155,128,0,96240:0:0:0:0:
192,192,96240,128,0,96412:0:0:0:0:
320,192,96326,128,0,96412:0:0:0:0:
448,192,96326,1,0,0:0:0:0:
448,192,96412,128,0,96497:0:0:0:0:
64,192,96412,128,0,96497:0:0:0:0:
320,192,96497,128,0,96540:0:0:0:0:
192,192,96540,128,0,96583:0:0:0:0:
64,192,96583,128,0,96626:0:0:0:0:
320,192,96626,128,0,96669:0:0:0:0:
192,192,96669,128,0,96840:0:0:0:0:
64,192,96669,128,0,97012:0:0:0:0:
448,192,96669,128,0,96755:0:0:0:0:
320,192,97012,1,0,0:0:0:0:
192,192,97012,128,0,97183:0:0:0:0:
448,192,97012,128,0,97097:0:0:0:0:
320,192,97097,128,0,97269:0:0:0:0:
64,192,97097,128,0,97355:0:0:0:0:
448,192,97183,128,0,97269:0:0:0:0:
192,192,97269,128,0,97440:0:0:0:0:
320,192,97355,1,0,0:0:0:0:
448,192,97355,128,0,97612:0:0:0:0:
320,192,97440,128,0,97526:0:0:0:0:
64,192,97440,128,0,97612:0:0:0:0:
192,192,97526,128,0,97612:0:0:0:0:
320,192,97612,128,0,97697:0:0:0:0:
64,192,97697,1,0,0:0:0:0:
192,192,97697,128,0,97869:0:0:0:0:
448,192,97697,128,0,97783:0:0:0:0:
320,192,97783,128,0,97955:0:0:0:0:
64,192,97783,128,0,97955:0:0:0:0:
448,192,97869,128,0,98040:0:0:0:0:
192,192,97955,128,0,98126:0:0:0:0:
64,192,98040,128,0,98126:0:0:0:0:
320,192,98040,128,0,98212:0:0:0:0:
448,192,98126,128,0,98297:0:0:0:0:
192,192,98212,128,0,98297:0:0:0:0:
64,192,98212,128,0,98297:0:0:0:0:
320,192,98297,128,0,98383:0:0:0:0:
64,192,98383,1,0,0:0:0:0:
192,192,98383,128,0,98469:0:0:0:0:
448,192,98383,128,0,98640:0:0:0:0:
320,192,98469,128,0,98555:0:0:0:0:
64,192,98469,128,0,98640:0:0:0:0:
192,192,98555,128,0,98726:0:0:0:0:
320,192,98640,128,0,98726:0:0:0:0:
64,192,98726,128,0,98812:0:0:0:0:
448,192,98726,128,0,98983:0:0:0:0:
192,192,98812,128,0,99069:0:0:0:0:
320,192,98812,128,0,98897:0:0:0:0:
64,192,98897,128,0,98983:0:0:0:0:
320,192,98983,128,0,99240:0:0:0:0:
448,192,99069,1,0,0:0:0:0:
64,192,99069,128,0,99155:0:0:0:0:
192,192,99155,1,0,0:0:0:0:
448,192,99155,128,0,99326:0:0:0:0:
192,192,99240,128,0,99412:0:0:0:0:
64,192,99240,128,0,99326:0:0:0:0:
320,192,99326,128,0,99412:0:0:0:0:
448,192,99412,1,0,0:0:0:0:
64,192,99412,128,0,99497:0:0:0:0:
192,192,99455,128,0,99540:0:0:0:0:
320,192,99497,128,0,99583:0:0:0:0:
448,192,99540,128,0,99626:0:0:0:0:
192,192,99583,128,0,99669:0:0:0:0:
320,192,99626,128,0,99712:0:0:0:0:
64,192,99669,128,0,99712:0:0:0:0:
192,192,99712,128,0,99755:0:0:0:0:
448,192,99755,1,0,0:0:0:0:
320,192,99755,1,0,0:0:0:0:
64,192,99755,1,0,0:0:0:0:
448,192,99926,128,0,99983:0:0:0:0:
320,192,99955,128,0,100012:0:0:0:0:
64,192,100097,1,0,0:0:0:0:
192,192,100097,1,0,0:0:0:0:
448,192,100097,128,0,100183:0:0:0:0:
320,192,100140,128,0,100226:0:0:0:0:
192,192,100183,128,0,100226:0:0:0:0:
448,192,100226,128,0,100269:0:0:0:0:
64,192,100269,128,0,100355:0:0:0:0:
192,192,100269,128,0,100355:0:0:0:0:
320,192,100312,128,0,100397:0:0:0:0:
448,192,100355,128,0,100397:0:0:0:0:
64,192,100397,128,0,100440:0:0:0:0:
192,192,100440,1,0,0:0:0:0:
448,192,100440,128,0,100526:0:0:0:0:
320,192,100483,128,0,100569:0:0:0:0:
192,192,100526,128,0,100612:0:0:0:0:
64,192,100569,128,0,100612:0:0:0:0:
448,192,100612,1,0,0:0:0:0:
320,192,100612,128,0,100783:0:0:0:0:
64,192,100783,128,0,100840:0:0:0:0:
448,192,100783,128,0,100840:0:0:0:0:
192,192,100840,128,0,100897:0:0:0:0:
320,192,100897,128,0,100955:0:0:0:0:
192,192,100955,1,0,0:0:0:0:
64,192,100955,128,0,101012:0:0:0:0:
448,192,100955,128,0,101012:0:0:0:0:
320,192,101126,1,0,0:0:0:0:
448,192,101126,1,0,0:0:0:0:
64,192,101169,1,0,0:0:0:0:
320,192,101212,1,0,0:0:0:0:
64,192,101255,1,0,0:0:0:0:
192,192,101297,1,0,0:0:0:0:
448,192,101340,1,0,0:0:0:0:
192,192,101383,1,0,0:0:0:0:
320,192,101426,1,0,0:0:0:0:
64,192,101469,1,0,0:0:0:0:
448,192,101469,128,0,101555:0:0:0:0:
64,192,101555,1,0,0:0:0:0:
192,192,101555,128,0,101640:0:0:0:0:
448,192,101640,1,0,0:0:0:0:
320,192,101640,128,0,101726:0:0:0:0:
448,192,101726,1,0,0:0:0:0:
64,192,101726,128,0,101812:0:0:0:0:
192,192,101812,1,0,0:0:0:0:
448,192,101812,128,0,101897:0:0:0:0:
64,192,101897,1,0,0:0:0:0:
320,192,101897,128,0,101983:0:0:0:0:
448,192,101983,1,0,0:0:0:0:
192,192,101983,128,0,102155:0:0:0:0:
64,192,102155,128,0,102326:0:0:0:0:
320,192,102155,128,0,102197:0:0:0:0:
448,192,102155,128,0,102197:0:0:0:0:
192,192,102240,128,0,102326:0:0:0:0:
320,192,102326,1,0,0:0:0:0:
448,192,102326,128,0,102412:0:0:0:0:
64,192,102412,1,0,0:0:0:0:
192,192,102412,128,0,102497:0:0:0:0:
320,192,102497,1,0,0:0:0:0:
448,192,102497,128,0,102755:0:0:0:0:
64,192,102497,128,0,102583:0:0:0:0:
320,192,102583,128,0,102669:0:0:0:0:
192,192,102583,128,0,102840:0:0:0:0:
64,192,102669,128,0,102755:0:0:0:0:
320,192,102755,128,0,102926:0:0:0:0:
448,192,102840,128,0,102926:0:0:0:0:
64,192,102840,128,0,103097:0:0:0:0:
192,192,102926,128,0,103012:0:0:0:0:
320,192,103012,128,0,103097:0:0:0:0:
448,192,103012,128,0,103097:0:0:0:0:
192,192,103097,128,0,103183:0:0:0:0:
448,192,103183,1,0,0:0:0:0:
320,192,103183,128,0,103355:0:0:0:0:
64,192,103183,128,0,103269:0:0:0:0:
448,192,103269,128,0,103440:0:0:0:0:
192,192,103269,128,0,103440:0:0:0:0:
64,192,103355,128,0,103612:0:0:0:0:
320,192,103440,128,0,103526:0:0:0:0:
192,192,103526,128,0,103612:0:0:0:0:
448,192,103526,128,0,103697:0:0:0:0:
320,192,103612,128,0,103783:0:0:0:0:
64,192,103697,1,0,0:0:0:0:
192,192,103697,128,0,103783:0:0:0:0:
448,192,103783,1,0,0:0:0:0:
64,192,103783,128,0,103869:0:0:0:0:
320,192,103869,128,0,103955:0:0:0:0:
448,192,103869,128,0,103955:0:0:0:0:
192,192,103869,128,0,104126:0:0:0:0:
64,192,103955,128,0,104040:0:0:0:0:
320,192,104040,1,0,0:0:0:0:
448,192,104040,128,0,104126:0:0:0:0:
320,192,104126,128,0,104212:0:0:0:0:
64,192,104126,128,0,104297:0:0:0:0:
192,192,104212,128,0,104297:0:0:0:0:
448,192,104212,128,0,104469:0:0:0:0:
320,192,104297,128,0,104383:0:0:0:0:
192,192,104383,128,0,104469:0:0:0:0:
64,192,104383,128,0,104469:0:0:0:0:
320,192,104469,128,0,104555:0:0:0:0:
448,192,104555,1,0,0:0:0:0:
192,192,104555,128,0,104597:0:0:0:0:
64,192,104555,128,0,104597:0:0:0:0:
320,192,104640,128,0,104726:0:0:0:0:
448,192,104640,128,0,104683:0:0:0:0:
192,192,104726,128,0,104897:0:0:0:0:
64,192,104726,128,0,104812:0:0:0:0:
320,192,104812,128,0,104897:0:0:0:0:
64,192,104897,128,0,104940:0:0:0:0:
448,192,104897,128,0,104983:0:0:0:0:
320,192,104940,128,0,105026:0:0:0:0:
192,192,104983,128,0,105069:0:0:0:0:
64,192,105026,128,0,105112:0:0:0:0:
320,192,105069,128,0,105155:0:0:0:0:
448,192,105069,128,0,105112:0:0:0:0:
192,192,105155,128,0,105240:0:0:0:0:
64,192,105155,128,0,105197:0:0:0:0:
64,192,105240,128,0,105326:0:0:0:0:
320,192,105240,128,0,105326:0:0:0:0:
448,192,105240,128,0,105283:0:0:0:0:
448,192,105326,128,0,105412:0:0:0:0:
320,192,105412,128,0,105497:0:0:0:0:
64,192,105412,128,0,105455:0:0:0:0:
448,192,105497,128,0,105583:0:0:0:0:
192,192,105497,128,0,105540:0:0:0:0:
64,192,105540,128,0,105626:0:0:0:0:
192,192,105583,128,0,105669:0:0:0:0:
320,192,105626,128,0,105712:0:0:0:0:
64,192,105669,128,0,105755:0:0:0:0:
320,192,105755,128,0,105840:0:0:0:0:
448,192,105755,128,0,105797:0:0:0:0:
192,192,105840,128,0,105926:0:0:0:0:
64,192,105926,1,0,0:0:0:0:
320,192,105926,128,0,106012:0:0:0:0:
448,192,105926,128,0,106012:0:0:0:0:
64,192,106012,128,0,106183:0:0:0:0:
448,192,106097,1,0,0:0:0:0:
192,192,106097,128,0,106183:0:0:0:0:
448,192,106183,128,0,106269:0:0:0:0:
64,192,106269,1,0,0:0:0:0:
320,192,106269,128,0,106355:0:0:0:0:
192,192,106312,128,0,106397:0:0:0:0:
64,192,106355,128,0,106440:0:0:0:0:
320,192,106440,128,0,106526:0:0:0:0:
448,192,106440,128,0,106483:0:0:0:0:
64,192,106526,128,0,106569:0:0:0:0:
192,192,106526,128,0,106697:0:0:0:0:
64,192,106612,128,0,106697:0:0:0:0:
320,192,106612,128,0,106783:0:0:0:0:
448,192,106612,128,0,106655:0:0:0:0:
448,192,106697,128,0,106783:0:0:0:0:
192,192,106783,128,0,106869:0:0:0:0:
64,192,106783,128,0,106826:0:0:0:0:
64,192,106869,128,0,106912:0:0:0:0:
448,192,106869,128,0,106955:0:0:0:0:
320,192,106912,128,0,106997:0:0:0:0:
192,192,106955,128,0,107040:0:0:0:0:
64,192,106997,128,0,107083:0:0:0:0:
320,192,107040,128,0,107126:0:0:0:0:
448,192,107040,128,0,107083:0:0:0:0:
448,192,107126,128,0,107169:0:0:0:0:
64,192,107126,128,0,107212:0:0:0:0:
192,192,107169,128,0,107255:0:0:0:0:
320,192,107212,1,0,0:0:0:0:
448,192,107255,1,0,0:0:0:0:
320,192,107297,128,0,107426:0:0:0:0:
64,192,107297,128,0,107340:0:0:0:0:
192,192,107383,128,0,107597:0:0:0:0:
448,192,107383,128,0,107469:0:0:0:0:
64,192,107469,128,0,107597:0:0:0:0:
320,192,107555,128,0,107640:0:0:0:0:
448,192,107640,128,0,107726:0:0:0:0:
64,192,107640,128,0,107683:0:0:0:0:
192,192,107683,128,0,107726:0:0:0:0:
64,192,107726,128,0,107812:0:0:0:0:
192,192,107769,128,0,107812:0:0:0:0:
320,192,107812,128,0,107897:0:0:0:0:
448,192,107812,128,0,107855:0:0:0:0:
192,192,107897,128,0,108069:0:0:0:0:
64,192,107983,128,0,108069:0:0:0:0:
320,192,107983,128,0,108155:0:0:0:0:
448,192,107983,128,0,108026:0:0:0:0:
448,192,108069,128,0,108155:0:0:0:0:
192,192,108155,128,0,108240:0:0:0:0:
64,192,108155,128,0,108197:0:0:0:0:
64,192,108240,128,0,108283:0:0:0:0:
448,192,108240,128,0,108326:0:0:0:0:
320,192,108283,128,0,108369:0:0:0:0:
192,192,108326,128,0,108412:0:0:0:0:
64,192,108369,128,0,108455:0:0:0:0:
448,192,108412,128,0,108497:0:0:0:0:
192,192,108497,128,0,108583:0:0:0:0:
64,192,108497,128,0,108540:0:0:0:0:
320,192,108583,128,0,108669:0:0:0:0:
192,192,108669,1,0,0:0:0:0:
64,192,108669,128,0,108755:0:0:0:0:
448,192,108669,128,0,108755:0:0:0:0:
192,192,108755,128,0,108926:0:0:0:0:
448,192,108840,1,0,0:0:0:0:
64,192,108840,128,0,108926:0:0:0:0:
320,192,108926,128,0,109012:0:0:0:0:
192,192,109012,128,0,109097:0:0:0:0:
448,192,109012,128,0,109055:0:0:0:0:
64,192,109055,128,0,109140:0:0:0:0:
320,192,109097,128,0,109183:0:0:0:0:
192,192,109140,128,0,109226:0:0:0:0:
448,192,109183,128,0,109269:0:0:0:0:
192,192,109269,128,0,109355:0:0:0:0:
64,192,109269,128,0,109312:0:0:0:0:
64,192,109355,128,0,109526:0:0:0:0:
448,192,109355,128,0,109440:0:0:0:0:
320,192,109355,128,0,109397:0:0:0:0:
320,192,109440,128,0,109526:0:0:0:0:
448,192,109526,128,0,109612:0:0:0:0:
192,192,109526,128,0,109569:0:0:0:0:
64,192,109612,128,0,109697:0:0:0:0:
320,192,109612,128,0,109655:0:0:0:0:
192,192,109655,128,0,109740:0:0:0:0:
320,192,109697,128,0,109783:0:0:0:0:
448,192,109740,128,0,109826:0:0:0:0:
192,192,109783,128,0,109869:0:0:0:0:
64,192,109783,128,0,109826:0:0:0:0:
64,192,109869,128,0,109912:0:0:0:0:
448,192,109869,128,0,109955:0:0:0:0:
320,192,109912,128,0,109997:0:0:0:0:
192,192,109955,1,0,0:0:0:0:
64,192,109997,1,0,0:0:0:0:
320,192,110040,1,0,0:0:0:0:
448,192,110040,1,0,0:0:0:0:
192,192,110040,128,0,110126:0:0:0:0:
320,192,110126,128,0,110212:0:0:0:0:
448,192,110212,1,0,0:0:0:0:
64,192,110212,128,0,110297:0:0:0:0:
320,192,110297,1,0,0:0:0:0:
192,192,110297,128,0,110383:0:0:0:0:
64,192,110383,128,0,110469:0:0:0:0:
448,192,110383,128,0,110469:0:0:0:0:
192,192,110426,128,0,110512:0:0:0:0:
320,192,110469,128,0,110555:0:0:0:0:
448,192,110512,128,0,110597:0:0:0:0:
192,192,110555,128,0,110640:0:0:0:0:
64,192,110597,128,0,110683:0:0:0:0:
448,192,110640,128,0,110683:0:0:0:0:
320,192,110683,128,0,110726:0:0:0:0:
192,192,110726,1,0,0:0:0:0:
64,192,110726,1,0,0:0:0:0:
448,192,110726,1,0,0:0:0:0:
320,192,110812,1,0,0:0:0:0:
64,192,110897,1,0,0:0:0:0:
192,192,110897,1,0,0:0:0:0:
448,192,110983,1,0,0:0:0:0:
64,192,110983,1,0,0:0:0:0:
320,192,111069,128,0,111155:0:0:0:0:
192,192,111112,128,0,111197:0:0:0:0:
64,192,111155,128,0,111240:0:0:0:0:
320,192,111240,1,0,0:0:0:0:
448,192,111240,1,0,0:0:0:0:
64,192,111326,1,0,0:0:0:0:
192,192,111412,128,0,111583:0:0:0:0:
320,192,111412,128,0,111455:0:0:0:0:
448,192,111412,128,0,111455:0:0:0:0:
448,192,111497,1,0,0:0:0:0:
64,192,111497,128,0,111583:0:0:0:0:
320,192,111583,128,0,111669:0:0:0:0:
192,192,111669,1,0,0:0:0:0:
64,192,111669,1,0,0:0:0:0:
320,192,111755,128,0,111840:0:0:0:0:
448,192,111797,128,0,111883:0:0:0:0:
192,192,111840,128,0,111926:0:0:0:0:
320,192,111926,1,0,0:0:0:0:
64,192,111926,1,0,0:0:0:0:
448,192,112012,1,0,0:0:0:0:
320,192,112097,128,0,112269:0:0:0:0:
192,192,112097,128,0,112140:0:0:0:0:
64,192,112097,128,0,112140:0:0:0:0:
448,192,112183,128,0,112269:0:0:0:0:
192,192,112269,128,0,112355:0:0:0:0:
320,192,112355,1,0,0:0:0:0:
64,192,112355,1,0,0:0:0:0:
320,192,112440,1,0,0:0:0:0:
448,192,112440,128,0,112526:0:0:0:0:
192,192,112526,128,0,112612:0:0:0:0:
448,192,112612,1,0,0:0:0:0:
64,192,112612,128,0,112697:0:0:0:0:
320,192,112697,128,0,112783:0:0:0:0:
448,192,112783,1,0,0:0:0:0:
192,192,112783,128,0,112869:0:0:0:0:
64,192,112783,128,0,112869:0:0:0:0:
320,192,112869,128,0,112955:0:0:0:0:
448,192,112869,128,0,112955:0:0:0:0:
192,192,112955,128,0,113040:0:0:0:0:
64,192,112955,128,0,113040:0:0:0:0:
320,192,113040,128,0,113126:0:0:0:0:
448,192,113040,128,0,113126:0:0:0:0:
192,192,113126,128,0,113212:0:0:0:0:
64,192,113126,128,0,113212:0:0:0:0:
448,192,113169,128,0,113255:0:0:0:0:
320,192,113212,128,0,113297:0:0:0:0:
192,192,113255,128,0,113340:0:0:0:0:
64,192,113297,128,0,113383:0:0:0:0:
448,192,113340,128,0,113426:0:0:0:0:
320,192,113383,128,0,113469:0:0:0:0:
192,192,113426,128,0,113469:0:0:0:0:
64,192,113469,128,0,113640:0:0:0:0:
448,192,113469,1,0,0:0:0:0:
192,192,113555,128,0,113640:0:0:0:0:
448,192,113555,128,0,113726:0:0:0:0:
320,192,113640,128,0,113726:0:0:0:0:
192,192,113726,128,0,113812:0:0:0:0:
64,192,113726,128,0,113769:0:0:0:0:
448,192,113769,128,0,113855:0:0:0:0:
320,192,113812,128,0,113855:0:0:0:0:
64,192,113840,128,0,113897:0:0:0:0:
192,192,113869,128,0,113926:0:0:0:0:
320,192,113897,128,0,113983:0:0:0:0:
64,192,113983,1,0,0:0:0:0:
448,192,113983,1,0,0:0:0:0:
192,192,114069,1,0,0:0:0:0:
448,192,114155,128,0,114197:0:0:0:0:
320,192,114155,128,0,114197:0:0:0:0:
64,192,114197,128,0,114283:0:0:0:0:
192,192,114240,128,0,114326:0:0:0:0:
320,192,114283,128,0,114369:0:0:0:0:
448,192,114326,128,0,114412:0:0:0:0:
192,192,114412,1,0,0:0:0:0:
64,192,114412,128,0,114497:0:0:0:0:
448,192,114455,128,0,114540:0:0:0:0:
320,192,114497,128,0,114555:0:0:0:0:
192,192,114526,128,0,114583:0:0:0:0:
64,192,114555,128,0,114612:0:0:0:0:
448,192,114583,128,0,114669:0:0:0:0:
64,192,114669,1,0,0:0:0:0:
320,192,114669,1,0,0:0:0:0:
448,192,114755,1,0,0:0:0:0:
192,192,114840,128,0,114883:0:0:0:0:
64,192,114840,128,0,114883:0:0:0:0:
448,192,114883,128,0,114969:0:0:0:0:
320,192,114926,128,0,115012:0:0:0:0:
64,192,114969,128,0,115055:0:0:0:0:
448,192,115012,128,0,115097:0:0:0:0:
64,192,115097,1,0,0:0:0:0:
192,192,115097,128,0,115183:0:0:0:0:
320,192,115183,1,0,0:0:0:0:
448,192,115183,1,0,0:0:0:0:
64,192,115212,128,0,115269:0:0:0:0:
192,192,115240,128,0,115297:0:0:0:0:
320,192,115269,128,0,115355:0:0:0:0:
64,192,115355,1,0,0:0:0:0:
448,192,115355,128,0,115440:0:0:0:0:
320,192,115397,128,0,115483:0:0:0:0:
192,192,115440,128,0,115526:0:0:0:0:
64,192,115483,128,0,115526:0:0:0:0:
448,192,115526,1,0,0:0:0:0:
320,192,115526,128,0,115697:0:0:0:0:
64,192,115612,1,0,0:0:0:0:
192,192,115612,128,0,115697:0:0:0:0:
64,192,115697,128,0,115783:0:0:0:0:
448,192,115697,128,0,115826:0:0:0:0:
320,192,115783,1,0,0:0:0:0:
192,192,115783,128,0,115869:0:0:0:0:
320,192,115869,128,0,115955:0:0:0:0:
448,192,115869,128,0,116040:0:0:0:0:
64,192,115869,128,0,116083:0:0:0:0:
192,192,115955,128,0,116083:0:0:0:0:
320,192,116040,128,0,116126:0:0:0:0:
192,192,116126,128,0,116212:0:0:0:0:
64,192,116126,128,0,116297:0:0:0:0:
448,192,116126,128,0,116340:0:0:0:0:
320,192,116212,128,0,116340:0:0:0:0:
192,192,116297,128,0,116383:0:0:0:0:
64,192,116383,128,0,116469:0:0:0:0:
320,192,116383,128,0,116469:0:0:0:0:
192,192,116469,128,0,116555:0:0:0:0:
448,192,116469,128,0,116555:0:0:0:0:
320,192,116555,1,0,0:0:0:0:
64,192,116576,1,0,0:0:0:0:
320,192,116640,1,0,0:0:0:0:
64,192,116726,1,0,0:0:0:0:
448,192,116747,1,0,0:0:0:0:
64,192,116812,1,0,0:0:0:0:
448,192,116897,128,0,116983:0:0:0:0:
192,192,116897,1,0,0:0:0:0:
320,192,116940,128,0,117026:0:0:0:0:
192,192,116983,128,0,117069:0:0:0:0:
64,192,117026,128,0,117069:0:0:0:0:
320,192,117069,1,0,0:0:0:0:
448,192,117069,1,0,0:0:0:0:
320,192,117155,1,0,0:0:0:0:
192,192,117240,128,0,117369:0:0:0:0:
64,192,117240,128,0,117412:0:0:0:0:
448,192,117240,128,0,117455:0:0:0:0:
320,192,117326,128,0,117455:0:0:0:0:
192,192,117412,128,0,117497:0:0:0:0:
320,192,117497,128,0,117626:0:0:0:0:
448,192,117497,128,0,117712:0:0:0:0:
64,192,117497,128,0,117712:0:0:0:0:
192,192,117583,128,0,117755:0:0:0:0:
320,192,117669,128,0,117755:0:0:0:0:
64,192,117755,128,0,117840:0:0:0:0:
448,192,117755,128,0,117840:0:0:0:0:
192,192,117840,128,0,117926:0:0:0:0:
320,192,117840,128,0,117926:0:0:0:0:
448,192,117926,128,0,118012:0:0:0:0:
64,192,118012,128,0,118097:0:0:0:0:
320,192,118097,128,0,118183:0:0:0:0:
192,192,118183,128,0,118269:0:0:0:0:
448,192,118269,128,0,118355:0:0:0:0:
64,192,118355,128,0,118440:0:0:0:0:
192,192,118440,128,0,118526:0:0:0:0:
320,192,118526,128,0,118612:0:0:0:0:
192,192,118612,128,0,118740:0:0:0:0:
64,192,118612,128,0,118783:0:0:0:0:
448,192,118612,128,0,118826:0:0:0:0:
320,192,118697,128,0,118826:0:0:0:0:
192,192,118783,128,0,118869:0:0:0:0:
320,192,118869,128,0,118997:0:0:0:0:
448,192,118869,128,0,119040:0:0:0:0:
64,192,118869,128,0,119083:0:0:0:0:
192,192,118955,128,0,119083:0:0:0:0:
320,192,119040,128,0,119126:0:0:0:0:
192,192,119126,128,0,119212:0:0:0:0:
64,192,119126,128,0,119212:0:0:0:0:
320,192,119212,128,0,119297:0:0:0:0:
448,192,119212,128,0,119297:0:0:0:0:
64,192,119297,1,0,0:0:0:0:
192,192,119319,1,0,0:0:0:0:
64,192,119383,1,0,0:0:0:0:
448,192,119469,1,0,0:0:0:0:
320,192,119490,1,0,0:0:0:0:
448,192,119555,1,0,0:0:0:0:
320,192,119640,128,0,119697:0:0:0:0:
64,192,119640,128,0,119697:0:0:0:0:
192,192,119669,128,0,119726:0:0:0:0:
448,192,119697,128,0,119755:0:0:0:0:
320,192,119726,128,0,119812:0:0:0:0:
64,192,119812,128,0,119855:0:0:0:0:
192,192,119812,128,0,119855:0:0:0:0:
192,192,119897,128,0,119940:0:0:0:0:
320,192,119983,128,0,120112:0:0:0:0:
448,192,119983,128,0,120155:0:0:0:0:
64,192,119983,128,0,120197:0:0:0:0:
192,192,120069,128,0,120197:0:0:0:0:
320,192,120155,128,0,120240:0:0:0:0:
192,192,120240,128,0,120369:0:0:0:0:
64,192,120240,128,0,120412:0:0:0:0:
448,192,120240,128,0,120455:0:0:0:0:
320,192,120326,128,0,120455:0:0:0:0:
192,192,120412,128,0,120497:0:0:0:0:
320,192,120497,128,0,120583:0:0:0:0:
64,192,120497,128,0,120583:0:0:0:0:
192,192,120583,128,0,120669:0:0:0:0:
448,192,120583,128,0,120669:0:0:0:0:
64,192,120669,128,0,120755:0:0:0:0:
448,192,120755,128,0,120840:0:0:0:0:
192,192,120840,128,0,120926:0:0:0:0:
320,192,120926,128,0,121012:0:0:0:0:
64,192,121012,128,0,121097:0:0:0:0:
448,192,121097,128,0,121183:0:0:0:0:
320,192,121183,128,0,121269:0:0:0:0:
192,192,121269,128,0,121355:0:0:0:0:
320,192,121355,1,0,0:0:0:0:
448,192,121355,128,0,121526:0:0:0:0:
64,192,121355,128,0,121440:0:0:0:0:
320,192,121440,128,0,121526:0:0:0:0:
64,192,121526,128,0,121612:0:0:0:0:
320,192,121612,128,0,121697:0:0:0:0:
448,192,121612,128,0,121655:0:0:0:0:
64,192,121697,1,0,0:0:0:0:
192,192,121697,128,0,121869:0:0:0:0:
448,192,121697,128,0,121783:0:0:0:0:
64,192,121783,128,0,121869:0:0:0:0:
448,192,121869,1,0,0:0:0:0:
320,192,121869,128,0,121955:0:0:0:0:
448,192,121955,128,0,122040:0:0:0:0:
64,192,121955,128,0,121997:0:0:0:0:
192,192,122040,1,0,0:0:0:0:
320,192,122040,128,0,122212:0:0:0:0:
64,192,122040,128,0,122126:0:0:0:0:
448,192,122126,128,0,122297:0:0:0:0:
192,192,122212,128,0,122297:0:0:0:0:
64,192,122212,128,0,122255:0:0:0:0:
320,192,122297,128,0,122383:0:0:0:0:
192,192,122383,128,0,122555:0:0:0:0:
448,192,122383,128,0,122469:0:0:0:0:
64,192,122383,128,0,122426:0:0:0:0:
64,192,122469,128,0,122555:0:0:0:0:
448,192,122555,128,0,122683:0:0:0:0:
320,192,122555,128,0,122597:0:0:0:0:
320,192,122640,128,0,122726:0:0:0:0:
64,192,122726,1,0,0:0:0:0:
192,192,122726,128,0,122897:0:0:0:0:
448,192,122726,128,0,122812:0:0:0:0:
64,192,122812,128,0,122897:0:0:0:0:
320,192,122897,128,0,123026:0:0:0:0:
448,192,122897,128,0,123026:0:0:0:0:
64,192,122983,128,0,123069:0:0:0:0:
448,192,123069,1,0,0:0:0:0:
192,192,123069,128,0,123240:0:0:0:0:
320,192,123069,128,0,123155:0:0:0:0:
448,192,123155,128,0,123240:0:0:0:0:
320,192,123240,128,0,123326:0:0:0:0:
64,192,123240,128,0,123283:0:0:0:0:
448,192,123326,128,0,123412:0:0:0:0:
192,192,123326,128,0,123369:0:0:0:0:
64,192,123412,1,0,0:0:0:0:
192,192,123412,128,0,123583:0:0:0:0:
320,192,123412,128,0,123497:0:0:0:0:
64,192,123497,128,0,123583:0:0:0:0:
320,192,123583,128,0,123669:0:0:0:0:
448,192,123583,128,0,123626:0:0:0:0:
192,192,123669,128,0,123755:0:0:0:0:
448,192,123755,128,0,123926:0:0:0:0:
64,192,123755,128,0,123840:0:0:0:0:
320,192,123755,128,0,123797:0:0:0:0:
320,192,123840,128,0,123926:0:0:0:0:
192,192,123926,128,0,124097:0:0:0:0:
64,192,123926,128,0,123969:0:0:0:0:
64,192,124012,128,0,124097:0:0:0:0:
320,192,124097,128,0,124269:0:0:0:0:
448,192,124097,128,0,124183:0:0:0:0:
64,192,124183,1,0,0:0:0:0:
192,192,124183,128,0,124269:0:0:0:0:
448,192,124269,1,0,0:0:0:0:
64,192,124269,128,0,124440:0:0:0:0:
320,192,124355,1,0,0:0:0:0:
192,192,124355,128,0,124440:0:0:0:0:
448,192,124440,1,0,0:0:0:0:
320,192,124440,128,0,124612:0:0:0:0:
64,192,124526,1,0,0:0:0:0:
448,192,124526,128,0,124612:0:0:0:0:
192,192,124612,128,0,124783:0:0:0:0:
64,192,124612,128,0,124697:0:0:0:0:
320,192,124697,128,0,124783:0:0:0:0:
448,192,124697,128,0,124783:0:0:0:0:
64,192,124783,128,0,124869:0:0:0:0:
192,192,124826,128,0,124912:0:0:0:0:
448,192,124869,128,0,124955:0:0:0:0:
320,192,124912,128,0,124997:0:0:0:0:
64,192,124955,128,0,125040:0:0:0:0:
192,192,124997,128,0,125083:0:0:0:0:
448,192,125040,128,0,125126:0:0:0:0:
320,192,125083,128,0,125169:0:0:0:0:
64,192,125126,128,0,125212:0:0:0:0:
192,192,125169,128,0,125255:0:0:0:0:
448,192,125212,128,0,125297:0:0:0:0:
320,192,125255,128,0,125340:0:0:0:0:
64,192,125297,128,0,125383:0:0:0:0:
192,192,125340,128,0,125426:0:0:0:0:
448,192,125383,128,0,125469:0:0:0:0:
320,192,125426,128,0,125469:0:0:0:0:
192,192,125469,128,0,126155:0:0:0:0:
64,192,125469,128,0,126155:0:0:0:0:
192,192,126669,1,0,0:0:0:0:
320,192,126755,1,0,0:0:0:0:
64,192,126840,1,0,0:0:0:0:
448,192,126840,1,0,0:0:0:0:
192,192,126926,1,0,0:0:0:0:
64,192,127012,1,0,0:0:0:0:
320,192,127097,1,0,0:0:0:0:
192,192,127183,1,0,0:0:0:0:
448,192,127269,1,0,0:0:0:0:
320,192,127355,1,0,0:0:0:0:
64,192,127440,1,0,0:0:0:0:
320,192,127526,128,0,127569:0:0:0:0:
192,192,127526,128,0,127569:0:0:0:0:
320,192,127612,1,0,0:0:0:0:
64,192,127697,1,0,0:0:0:0:
448,192,127783,1,0,0:0:0:0:
64,192,127869,1,0,0:0:0:0:
320,192,127955,1,0,0:0:0:0:
448,192,128040,1,0,0:0:0:0:
192,192,128126,1,0,0:0:0:0:
448,192,128212,1,0,0:0:0:0:
64,192,128212,1,0,0:0:0:0:
320,192,128297,1,0,0:0:0:0:
448,192,128383,1,0,0:0:0:0:
192,192,128469,1,0,0:0:0:0:
320,192,128555,1,0,0:0:0:0:
64,192,128640,1,0,0:0:0:0:
448,192,128726,1,0,0:0:0:0:
192,192,128812,1,0,0:0:0:0:
320,192,128897,1,0,0:0:0:0:
448,192,128897,1,0,0:0:0:0:
192,192,128983,1,0,0:0:0:0:
64,192,129069,1,0,0:0:0:0:
320,192,129155,1,0,0:0:0:0:
64,192,129240,128,0,129326:0:0:0:0:
192,192,129283,128,0,129369:0:0:0:0:
320,192,129326,128,0,129412:0:0:0:0:
448,192,129369,128,0,129455:0:0:0:0:
192,192,129412,128,0,129497:0:0:0:0:
320,192,129455,128,0,129540:0:0:0:0:
64,192,129497,128,0,129583:0:0:0:0:
192,192,129540,128,0,129583:0:0:0:0:
320,192,129583,1,0,0:0:0:0:
448,192,129583,1,0,0:0:0:0:
192,192,129669,1,0,0:0:0:0:
448,192,129755,1,0,0:0:0:0:
320,192,129840,1,0,0:0:0:0:
64,192,129926,1,0,0:0:0:0:
320,192,130012,1,0,0:0:0:0:
192,192,130097,1,0,0:0:0:0:
448,192,130183,1,0,0:0:0:0:
192,192,130269,128,0,130312:0:0:0:0:
64,192,130269,128,0,130312:0:0:0:0:
192,192,130355,1,0,0:0:0:0:
448,192,130440,1,0,0:0:0:0:
320,192,130526,1,0,0:0:0:0:
64,192,130612,1,0,0:0:0:0:
192,192,130697,1,0,0:0:0:0:
320,192,130783,1,0,0:0:0:0:
448,192,130869,1,0,0:0:0:0:
192,192,130955,1,0,0:0:0:0:
64,192,130955,1,0,0:0:0:0:
320,192,131040,1,0,0:0:0:0:
192,192,131126,1,0,0:0:0:0:
448,192,131212,1,0,0:0:0:0:
320,192,131297,1,0,0:0:0:0:
64,192,131383,1,0,0:0:0:0:
448,192,131469,1,0,0:0:0:0:
64,192,131555,1,0,0:0:0:0:
320,192,131640,128,0,131726:0:0:0:0:
192,192,131683,128,0,131769:0:0:0:0:
448,192,131726,128,0,131812:0:0:0:0:
64,192,131769,128,0,131855:0:0:0:0:
192,192,131812,128,0,131897:0:0:0:0:
320,192,131855,128,0,131940:0:0:0:0:
64,192,131897,1,0,0:0:0:0:
448,192,131940,1,0,0:0:0:0:
320,192,131983,1,0,0:0:0:0:
192,192,131983,1,0,0:0:0:0:
192,192,132069,1,0,0:0:0:0:
448,192,132155,1,0,0:0:0:0:
64,192,132240,1,0,0:0:0:0:
320,192,132326,1,0,0:0:0:0:
448,192,132326,1,0,0:0:0:0:
192,192,132412,1,0,0:0:0:0:
320,192,132497,1,0,0:0:0:0:
448,192,132583,1,0,0:0:0:0:
192,192,132669,1,0,0:0:0:0:
64,192,132755,1,0,0:0:0:0:
320,192,132840,1,0,0:0:0:0:
192,192,132926,1,0,0:0:0:0:
320,192,133012,128,0,133055:0:0:0:0:
448,192,133012,128,0,133055:0:0:0:0:
448,192,133097,1,0,0:0:0:0:
64,192,133183,1,0,0:0:0:0:
192,192,133269,1,0,0:0:0:0:
448,192,133355,1,0,0:0:0:0:
192,192,133440,1,0,0:0:0:0:
320,192,133526,1,0,0:0:0:0:
64,192,133612,1,0,0:0:0:0:
192,192,133697,1,0,0:0:0:0:
320,192,133697,1,0,0:0:0:0:
448,192,133783,1,0,0:0:0:0:
192,192,133869,1,0,0:0:0:0:
64,192,133955,1,0,0:0:0:0:
320,192,134040,1,0,0:0:0:0:
192,192,134126,1,0,0:0:0:0:
448,192,134212,1,0,0:0:0:0:
64,192,134297,1,0,0:0:0:0:
320,192,134383,1,0,0:0:0:0:
448,192,134383,1,0,0:0:0:0:
192,192,134469,1,0,0:0:0:0:
448,192,134555,1,0,0:0:0:0:
64,192,134640,1,0,0:0:0:0:
192,192,134726,128,0,134769:0:0:0:0:
320,192,134769,128,0,134812:0:0:0:0:
64,192,134812,128,0,134855:0:0:0:0:
192,192,134855,128,0,134940:0:0:0:0:
448,192,134897,128,0,134983:0:0:0:0:
320,192,134940,128,0,135026:0:0:0:0:
192,192,134983,128,0,135069:0:0:0:0:
64,192,135026,128,0,135069:0:0:0:0:
448,192,135069,1,0,0:0:0:0:
320,192,135069,1,0,0:0:0:0:
192,192,135155,1,0,0:0:0:0:
320,192,135240,1,0,0:0:0:0:
64,192,135326,1,0,0:0:0:0:
192,192,135412,1,0,0:0:0:0:
320,192,135497,1,0,0:0:0:0:
64,192,135583,1,0,0:0:0:0:
448,192,135669,1,0,0:0:0:0:
192,192,135755,128,0,135797:0:0:0:0:
64,192,135755,128,0,135797:0:0:0:0:
192,192,135840,1,0,0:0:0:0:
448,192,135926,1,0,0:0:0:0:
64,192,136012,1,0,0:0:0:0:
320,192,136097,1,0,0:0:0:0:
192,192,136183,1,0,0:0:0:0:
64,192,136269,1,0,0:0:0:0:
448,192,136355,1,0,0:0:0:0:
320,192,136440,1,0,0:0:0:0:
192,192,136440,1,0,0:0:0:0:
64,192,136526,1,0,0:0:0:0:
320,192,136612,1,0,0:0:0:0:
192,192,136697,1,0,0:0:0:0:
320,192,136783,1,0,0:0:0:0:
64,192,136869,1,0,0:0:0:0:
448,192,136955,1,0,0:0:0:0:
192,192,137040,1,0,0:0:0:0:
320,192,137126,1,0,0:0:0:0:
448,192,137126,1,0,0:0:0:0:
64,192,137212,1,0,0:0:0:0:
192,192,137297,1,0,0:0:0:0:
320,192,137383,1,0,0:0:0:0:
64,192,137469,128,0,137555:0:0:0:0:
192,192,137512,128,0,137597:0:0:0:0:
320,192,137555,128,0,137640:0:0:0:0:
64,192,137597,128,0,137683:0:0:0:0:
448,192,137640,128,0,137726:0:0:0:0:
320,192,137683,128,0,137769:0:0:0:0:
192,192,137726,128,0,137769:0:0:0:0:
448,192,137769,128,0,137812:0:0:0:0:
192,192,137812,1,0,0:0:0:0:
64,192,137812,1,0,0:0:0:0:
320,192,137897,1,0,0:0:0:0:
448,192,137897,1,0,0:0:0:0:
192,192,137983,1,0,0:0:0:0:
64,192,138069,1,0,0:0:0:0:
448,192,138069,1,0,0:0:0:0:
320,192,138155,1,0,0:0:0:0:
192,192,138240,1,0,0:0:0:0:
448,192,138326,1,0,0:0:0:0:
320,192,138326,1,0,0:0:0:0:
64,192,138412,1,0,0:0:0:0:
192,192,138497,1,0,0:0:0:0:
320,192,138497,1,0,0:0:0:0:
448,192,138497,1,0,0:0:0:0:
64,192,138583,1,0,0:0:0:0:
448,192,138669,1,0,0:0:0:0:
320,192,138755,1,0,0:0:0:0:
192,192,138840,1,0,0:0:0:0:
64,192,138840,1,0,0:0:0:0:
448,192,138926,1,0,0:0:0:0:
192,192,139012,1,0,0:0:0:0:
320,192,139097,1,0,0:0:0:0:
64,192,139183,1,0,0:0:0:0:
448,192,139183,1,0,0:0:0:0:
192,192,139269,1,0,0:0:0:0:
320,192,139355,1,0,0:0:0:0:
192,192,139440,1,0,0:0:0:0:
64,192,139440,1,0,0:0:0:0:
448,192,139526,128,0,139612:0:0:0:0:
320,192,139569,128,0,139655:0:0:0:0:
192,192,139612,128,0,139697:0:0:0:0:
448,192,139655,128,0,139740:0:0:0:0:
64,192,139697,128,0,139783:0:0:0:0:
192,192,139740,128,0,139826:0:0:0:0:
320,192,139783,128,0,139869:0:0:0:0:
64,192,139826,128,0,139869:0:0:0:0:
448,192,139869,1,0,0:0:0:0:
192,192,139869,1,0,0:0:0:0:
320,192,139955,1,0,0:0:0:0:
64,192,140040,1,0,0:0:0:0:
320,192,140126,1,0,0:0:0:0:
448,192,140126,1,0,0:0:0:0:
64,192,140212,128,0,140297:0:0:0:0:
448,192,140255,128,0,140340:0:0:0:0:
320,192,140297,128,0,140383:0:0:0:0:
192,192,140340,128,0,140426:0:0:0:0:
448,192,140383,128,0,140469:0:0:0:0:
320,192,140426,128,0,140512:0:0:0:0:
192,192,140469,128,0,140555:0:0:0:0:
64,192,140512,128,0,140555:0:0:0:0:
320,192,140555,1,0,0:0:0:0:
448,192,140555,1,0,0:0:0:0:
192,192,140640,1,0,0:0:0:0:
320,192,140726,1,0,0:0:0:0:
448,192,140812,1,0,0:0:0:0:
64,192,140812,1,0,0:0:0:0:
192,192,140897,1,0,0:0:0:0:
64,192,140983,1,0,0:0:0:0:
320,192,141069,1,0,0:0:0:0:
448,192,141069,1,0,0:0:0:0:
192,192,141155,1,0,0:0:0:0:
64,192,141240,1,0,0:0:0:0:
448,192,141240,1,0,0:0:0:0:
448,192,141326,1,0,0:0:0:0:
192,192,141412,1,0,0:0:0:0:
320,192,141497,1,0,0:0:0:0:
64,192,141583,1,0,0:0:0:0:
448,192,141669,1,0,0:0:0:0:
320,192,141755,1,0,0:0:0:0:
64,192,141840,1,0,0:0:0:0:
192,192,141926,1,0,0:0:0:0:
320,192,141926,1,0,0:0:0:0:
448,192,142012,1,0,0:0:0:0:
64,192,142097,1,0,0:0:0:0:
320,192,142183,1,0,0:0:0:0:
64,192,142269,128,0,142355:0:0:0:0:
192,192,142312,128,0,142397:0:0:0:0:
320,192,142355,128,0,142440:0:0:0:0:
64,192,142397,128,0,142483:0:0:0:0:
448,192,142440,128,0,142497:0:0:0:0:
320,192,142469,128,0,142526:0:0:0:0:
192,192,142497,128,0,142555:0:0:0:0:
64,192,142526,128,0,142583:0:0:0:0:
448,192,142555,128,0,142612:0:0:0:0:
320,192,142583,128,0,142612:0:0:0:0:
192,192,142612,1,0,0:0:0:0:
64,192,142612,1,0,0:0:0:0:
320,192,142697,1,0,0:0:0:0:
192,192,142783,1,0,0:0:0:0:
448,192,142869,128,0,142955:0:0:0:0:
320,192,142912,128,0,142997:0:0:0:0:
192,192,142955,128,0,143040:0:0:0:0:
64,192,142997,128,0,143040:0:0:0:0:
320,192,143040,1,0,0:0:0:0:
192,192,143126,128,0,143212:0:0:0:0:
320,192,143169,128,0,143255:0:0:0:0:
448,192,143212,128,0,143297:0:0:0:0:
64,192,143255,128,0,143297:0:0:0:0:
192,192,143297,1,0,0:0:0:0:
320,192,143297,1,0,0:0:0:0:
320,192,143383,1,0,0:0:0:0:
64,192,143469,1,0,0:0:0:0:
448,192,143555,1,0,0:0:0:0:
320,192,143555,1,0,0:0:0:0:
192,192,143640,1,0,0:0:0:0:
448,192,143726,1,0,0:0:0:0:
64,192,143812,1,0,0:0:0:0:
192,192,143812,1,0,0:0:0:0:
64,192,143897,1,0,0:0:0:0:
448,192,143983,1,0,0:0:0:0:
192,192,143983,1,0,0:0:0:0:
320,192,143983,1,0,0:0:0:0:
64,192,144069,1,0,0:0:0:0:
320,192,144155,1,0,0:0:0:0:
192,192,144240,128,0,144326:0:0:0:0:
448,192,144240,128,0,144326:0:0:0:0:
64,192,144283,1,0,0:0:0:0:
320,192,144326,128,0,144412:0:0:0:0:
192,192,144369,128,0,144455:0:0:0:0:
448,192,144412,128,0,144497:0:0:0:0:
64,192,144455,128,0,144540:0:0:0:0:
192,192,144497,128,0,144583:0:0:0:0:
320,192,144540,1,0,0:0:0:0:
448,192,144583,128,0,144669:0:0:0:0:
320,192,144626,128,0,144669:0:0:0:0:
64,192,144669,1,0,0:0:0:0:
192,192,144669,1,0,0:0:0:0:
448,192,144755,1,0,0:0:0:0:
192,192,144840,1,0,0:0:0:0:
320,192,144926,1,0,0:0:0:0:
448,192,144926,1,0,0:0:0:0:
64,192,145012,1,0,0:0:0:0:
192,192,145097,1,0,0:0:0:0:
448,192,145183,1,0,0:0:0:0:
64,192,145269,1,0,0:0:0:0:
192,192,145355,1,0,0:0:0:0:
320,192,145355,1,0,0:0:0:0:
448,192,145355,1,0,0:0:0:0:
64,192,145440,1,0,0:0:0:0:
320,192,145526,1,0,0:0:0:0:
448,192,145612,1,0,0:0:0:0:
64,192,145612,128,0,145697:0:0:0:0:
192,192,145655,128,0,145740:0:0:0:0:
320,192,145697,128,0,145783:0:0:0:0:
64,192,145740,128,0,145826:0:0:0:0:
448,192,145783,128,0,145869:0:0:0:0:
320,192,145826,128,0,145912:0:0:0:0:
192,192,145869,128,0,145955:0:0:0:0:
64,192,145912,128,0,145997:0:0:0:0:
448,192,145955,128,0,146040:0:0:0:0:
320,192,145997,128,0,146040:0:0:0:0:
192,192,146040,1,0,0:0:0:0:
64,192,146040,1,0,0:0:0:0:
320,192,146126,1,0,0:0:0:0:
64,192,146212,1,0,0:0:0:0:
448,192,146297,1,0,0:0:0:0:
320,192,146297,1,0,0:0:0:0:
192,192,146383,1,0,0:0:0:0:
320,192,146469,1,0,0:0:0:0:
64,192,146555,1,0,0:0:0:0:
448,192,146555,1,0,0:0:0:0:
192,192,146640,1,0,0:0:0:0:
320,192,146726,1,0,0:0:0:0:
448,192,146726,1,0,0:0:0:0:
64,192,146726,1,0,0:0:0:0:
448,192,146812,1,0,0:0:0:0:
192,192,146897,1,0,0:0:0:0:
448,192,146983,128,0,147026:0:0:0:0:
64,192,146983,128,0,147026:0:0:0:0:
320,192,147026,128,0,147112:0:0:0:0:
192,192,147069,128,0,147155:0:0:0:0:
448,192,147112,128,0,147197:0:0:0:0:
64,192,147155,128,0,147240:0:0:0:0:
192,192,147197,128,0,147283:0:0:0:0:
448,192,147240,128,0,147326:0:0:0:0:
320,192,147283,128,0,147369:0:0:0:0:
192,192,147326,128,0,147412:0:0:0:0:
64,192,147369,128,0,147412:0:0:0:0:
448,192,147412,1,0,0:0:0:0:
320,192,147412,1,0,0:0:0:0:
320,192,147497,1,0,0:0:0:0:
192,192,147583,1,0,0:0:0:0:
192,192,147669,1,0,0:0:0:0:
64,192,147755,1,0,0:0:0:0:
448,192,147755,128,0,147840:0:0:0:0:
320,192,147797,128,0,147883:0:0:0:0:
192,192,147840,128,0,147926:0:0:0:0:
64,192,147883,128,0,147969:0:0:0:0:
448,192,147926,128,0,148012:0:0:0:0:
320,192,147969,128,0,148055:0:0:0:0:
192,192,148012,128,0,148097:0:0:0:0:
64,192,148055,128,0,148097:0:0:0:0:
320,192,148097,1,0,0:0:0:0:
448,192,148097,1,0,0:0:0:0:
320,192,148183,1,0,0:0:0:0:
64,192,148269,1,0,0:0:0:0:
64,192,148355,1,0,0:0:0:0:
320,192,148440,1,0,0:0:0:0:
448,192,148440,128,0,148526:0:0:0:0:
64,192,148483,128,0,148569:0:0:0:0:
192,192,148526,128,0,148612:0:0:0:0:
320,192,148569,128,0,148655:0:0:0:0:
64,192,148612,128,0,148697:0:0:0:0:
448,192,148655,128,0,148740:0:0:0:0:
320,192,148697,128,0,148783:0:0:0:0:
192,192,148740,128,0,148783:0:0:0:0:
448,192,148783,1,0,0:0:0:0:
64,192,148783,128,0,148955:0:0:0:0:
192,192,148869,128,0,148955:0:0:0:0:
320,192,148869,128,0,148955:0:0:0:0:
448,192,148955,128,0,149040:0:0:0:0:
192,192,149040,128,0,149126:0:0:0:0:
448,192,149126,128,0,149297:0:0:0:0:
64,192,149126,128,0,149212:0:0:0:0:
320,192,149212,128,0,149297:0:0:0:0:
192,192,149297,128,0,149426:0:0:0:0:
320,192,149383,128,0,149469:0:0:0:0:
64,192,149469,1,0,0:0:0:0:
192,192,149469,1,0,0:0:0:0:
448,192,149469,128,0,149555:0:0:0:0:
320,192,149512,128,0,149597:0:0:0:0:
192,192,149555,128,0,149640:0:0:0:0:
64,192,149597,128,0,149683:0:0:0:0:
320,192,149640,1,0,0:0:0:0:
448,192,149726,1,0,0:0:0:0:
64,192,149812,1,0,0:0:0:0:
192,192,149812,128,0,149897:0:0:0:0:
320,192,149855,128,0,149940:0:0:0:0:
448,192,149897,128,0,149983:0:0:0:0:
64,192,149940,128,0,149983:0:0:0:0:
192,192,149983,1,0,0:0:0:0:
320,192,149983,1,0,0:0:0:0:
448,192,150069,1,0,0:0:0:0:
64,192,150155,128,0,150326:0:0:0:0:
192,192,150155,128,0,150240:0:0:0:0:
448,192,150240,1,0,0:0:0:0:
320,192,150240,128,0,150326:0:0:0:0:
192,192,150326,128,0,150497:0:0:0:0:
448,192,150412,1,0,0:0:0:0:
64,192,150497,1,0,0:0:0:0:
320,192,150497,128,0,150669:0:0:0:0:
192,192,150583,128,0,150669:0:0:0:0:
448,192,150669,1,0,0:0:0:0:
64,192,150669,128,0,150797:0:0:0:0:
320,192,150755,128,0,150840:0:0:0:0:
192,192,150840,1,0,0:0:0:0:
64,192,150840,1,0,0:0:0:0:
448,192,150840,128,0,150926:0:0:0:0:
320,192,150883,128,0,150969:0:0:0:0:
192,192,150926,128,0,151012:0:0:0:0:
64,192,150969,128,0,151012:0:0:0:0:
448,192,151012,1,0,0:0:0:0:
192,192,151097,1,0,0:0:0:0:
448,192,151183,1,0,0:0:0:0:
64,192,151183,128,0,151269:0:0:0:0:
192,192,151226,128,0,151312:0:0:0:0:
320,192,151269,128,0,151355:0:0:0:0:
448,192,151312,128,0,151397:0:0:0:0:
64,192,151355,128,0,151440:0:0:0:0:
192,192,151397,128,0,151483:0:0:0:0:
320,192,151440,128,0,151526:0:0:0:0:
448,192,151483,128,0,151526:0:0:0:0:
192,192,151526,128,0,151697:0:0:0:0:
64,192,151526,128,0,151612:0:0:0:0:
448,192,151612,1,0,0:0:0:0:
320,192,151612,128,0,151697:0:0:0:0:
64,192,151697,1,0,0:0:0:0:
192,192,151783,128,0,151869:0:0:0:0:
448,192,151869,128,0,152040:0:0:0:0:
64,192,151869,128,0,151955:0:0:0:0:
320,192,151955,128,0,152040:0:0:0:0:
64,192,152040,128,0,152083:0:0:0:0:
192,192,152126,128,0,152212:0:0:0:0:
320,192,152212,1,0,0:0:0:0:
448,192,152212,1,0,0:0:0:0:
64,192,152212,128,0,152297:0:0:0:0:
192,192,152255,128,0,152340:0:0:0:0:
320,192,152297,128,0,152383:0:0:0:0:
448,192,152340,128,0,152383:0:0:0:0:
64,192,152383,1,0,0:0:0:0:
192,192,152469,1,0,0:0:0:0:
448,192,152555,1,0,0:0:0:0:
320,192,152555,128,0,152640:0:0:0:0:
192,192,152597,128,0,152683:0:0:0:0:
64,192,152640,128,0,152726:0:0:0:0:
448,192,152683,128,0,152726:0:0:0:0:
192,192,152726,1,0,0:0:0:0:
320,192,152726,128,0,152897:0:0:0:0:
192,192,152812,128,0,152897:0:0:0:0:
448,192,152897,128,0,153069:0:0:0:0:
64,192,152897,128,0,152983:0:0:0:0:
192,192,152983,1,0,0:0:0:0:
320,192,152983,128,0,153069:0:0:0:0:
64,192,153069,1,0,0:0:0:0:
192,192,153155,128,0,153240:0:0:0:0:
64,192,153240,1,0,0:0:0:0:
448,192,153240,128,0,153326:0:0:0:0:
320,192,153283,128,0,153369:0:0:0:0:
192,192,153326,128,0,153412:0:0:0:0:
448,192,153369,128,0,153455:0:0:0:0:
64,192,153412,128,0,153497:0:0:0:0:
192,192,153455,128,0,153540:0:0:0:0:
320,192,153497,128,0,153583:0:0:0:0:
448,192,153540,128,0,153583:0:0:0:0:
192,192,153583,1,0,0:0:0:0:
64,192,153583,1,0,0:0:0:0:
448,192,153669,1,0,0:0:0:0:
320,192,153669,128,0,153840:0:0:0:0:
192,192,153755,128,0,153883:0:0:0:0:
64,192,153840,128,0,153926:0:0:0:0:
448,192,153926,1,0,0:0:0:0:
320,192,153926,128,0,154097:0:0:0:0:
448,192,154012,128,0,154097:0:0:0:0:
64,192,154097,1,0,0:0:0:0:
192,192,154097,128,0,154269:0:0:0:0:
64,192,154183,128,0,154269:0:0:0:0:
320,192,154269,128,0,154440:0:0:0:0:
448,192,154269,128,0,154355:0:0:0:0:
64,192,154355,1,0,0:0:0:0:
192,192,154355,128,0,154440:0:0:0:0:
448,192,154440,128,0,154612:0:0:0:0:
320,192,154526,1,0,0:0:0:0:
192,192,154612,128,0,154783:0:0:0:0:
64,192,154612,128,0,154697:0:0:0:0:
448,192,154697,128,0,154783:0:0:0:0:
320,192,154783,1,0,0:0:0:0:
192,192,154869,1,0,0:0:0:0:
448,192,154955,1,0,0:0:0:0:
320,192,154955,1,0,0:0:0:0:
64,192,154955,128,0,155040:0:0:0:0:
192,192,154997,128,0,155083:0:0:0:0:
320,192,155040,128,0,155126:0:0:0:0:
448,192,155083,128,0,155169:0:0:0:0:
192,192,155126,1,0,0:0:0:0:
64,192,155212,1,0,0:0:0:0:
320,192,155297,128,0,155383:0:0:0:0:
448,192,155297,128,0,155383:0:0:0:0:
192,192,155340,128,0,155426:0:0:0:0:
64,192,155383,128,0,155469:0:0:0:0:
320,192,155426,128,0,155512:0:0:0:0:
448,192,155469,128,0,155555:0:0:0:0:
64,192,155512,128,0,155597:0:0:0:0:
192,192,155555,128,0,155597:0:0:0:0:
448,192,155597,128,0,155640:0:0:0:0:
192,192,155640,128,0,155812:0:0:0:0:
320,192,155640,128,0,155726:0:0:0:0:
448,192,155726,1,0,0:0:0:0:
64,192,155726,128,0,155812:0:0:0:0:
320,192,155812,128,0,155983:0:0:0:0:
192,192,155897,1,0,0:0:0:0:
64,192,155983,128,0,156155:0:0:0:0:
448,192,155983,128,0,156069:0:0:0:0:
192,192,156069,128,0,156155:0:0:0:0:
448,192,156155,1,0,0:0:0:0:
320,192,156240,1,0,0:0:0:0:
192,192,156326,1,0,0:0:0:0:
64,192,156326,1,0,0:0:0:0:
448,192,156326,128,0,156412:0:0:0:0:
320,192,156369,128,0,156455:0:0:0:0:
192,192,156412,128,0,156497:0:0:0:0:
64,192,156455,128,0,156540:0:0:0:0:
448,192,156497,1,0,0:0:0:0:
320,192,156583,1,0,0:0:0:0:
448,192,156669,1,0,0:0:0:0:
64,192,156669,128,0,156755:0:0:0:0:
192,192,156712,128,0,156797:0:0:0:0:
320,192,156755,128,0,156840:0:0:0:0:
448,192,156797,128,0,156883:0:0:0:0:
64,192,156840,128,0,156926:0:0:0:0:
192,192,156883,128,0,156969:0:0:0:0:
320,192,156926,128,0,157012:0:0:0:0:
448,192,156969,128,0,157012:0:0:0:0:
64,192,157012,128,0,157183:0:0:0:0:
192,192,157012,128,0,157097:0:0:0:0:
320,192,157097,1,0,0:0:0:0:
448,192,157097,128,0,157183:0:0:0:0:
192,192,157183,128,0,157355:0:0:0:0:
64,192,157269,1,0,0:0:0:0:
448,192,157355,128,0,157526:0:0:0:0:
320,192,157355,128,0,157397:0:0:0:0:
320,192,157440,128,0,157526:0:0:0:0:
64,192,157526,128,0,157569:0:0:0:0:
192,192,157612,128,0,157697:0:0:0:0:
448,192,157697,1,0,0:0:0:0:
320,192,157697,1,0,0:0:0:0:
64,192,157697,128,0,157783:0:0:0:0:
192,192,157740,128,0,157826:0:0:0:0:
320,192,157783,128,0,157869:0:0:0:0:
448,192,157826,128,0,157869:0:0:0:0:
192,192,157869,1,0,0:0:0:0:
64,192,157955,1,0,0:0:0:0:
448,192,158040,1,0,0:0:0:0:
320,192,158040,128,0,158126:0:0:0:0:
192,192,158083,128,0,158169:0:0:0:0:
64,192,158126,128,0,158212:0:0:0:0:
320,192,158169,128,0,158255:0:0:0:0:
192,192,158212,128,0,158297:0:0:0:0:
448,192,158255,128,0,158340:0:0:0:0:
320,192,158297,128,0,158383:0:0:0:0:
192,192,158340,128,0,158383:0:0:0:0:
448,192,158383,128,0,158555:0:0:0:0:
64,192,158383,128,0,158426:0:0:0:0:
192,192,158469,128,0,158726:0:0:0:0:
64,192,158469,1,0,0:0:0:0:
320,192,158555,128,0,158640:0:0:0:0:
64,192,158640,128,0,158726:0:0:0:0:
320,192,158726,1,0,0:0:0:0:
448,192,158726,1,0,0:0:0:0:
64,192,158769,128,0,158855:0:0:0:0:
192,192,158812,128,0,158897:0:0:0:0:
320,192,158855,128,0,158940:0:0:0:0:
448,192,158897,128,0,158983:0:0:0:0:
64,192,158940,128,0,159026:0:0:0:0:
192,192,158983,128,0,159026:0:0:0:0:
320,192,159026,128,0,159069:0:0:0:0:
448,192,159069,1,0,0:0:0:0:
192,192,159069,1,0,0:0:0:0:
64,192,159069,128,0,159155:0:0:0:0:
320,192,159155,1,0,0:0:0:0:
448,192,159155,128,0,159240:0:0:0:0:
64,192,159240,1,0,0:0:0:0:
192,192,159240,128,0,159412:0:0:0:0:
320,192,159326,128,0,159412:0:0:0:0:
64,192,159412,128,0,159455:0:0:0:0:
448,192,159412,128,0,159455:0:0:0:0:
192,192,159497,128,0,159540:0:0:0:0:
64,192,159497,128,0,159540:0:0:0:0:
320,192,159583,128,0,159626:0:0:0:0:
448,192,159583,128,0,159626:0:0:0:0:
192,192,159669,128,0,159712:0:0:0:0:
448,192,159669,128,0,159712:0:0:0:0:
192,192,159755,128,0,159926:0:0:0:0:
64,192,159755,128,0,159797:0:0:0:0:
448,192,159840,1,0,0:0:0:0:
64,192,159840,128,0,159926:0:0:0:0:
320,192,159926,128,0,160097:0:0:0:0:
192,192,160012,128,0,160097:0:0:0:0:
448,192,160097,128,0,160269:0:0:0:0:
64,192,160097,128,0,160183:0:0:0:0:
320,192,160183,128,0,160269:0:0:0:0:
64,192,160269,128,0,160312:0:0:0:0:
320,192,160355,128,0,160440:0:0:0:0:
64,192,160440,1,0,0:0:0:0:
192,192,160440,1,0,0:0:0:0:
448,192,160440,128,0,160526:0:0:0:0:
320,192,160483,128,0,160569:0:0:0:0:
192,192,160526,128,0,160612:0:0:0:0:
64,192,160569,128,0,160612:0:0:0:0:
448,192,160612,1,0,0:0:0:0:
320,192,160697,1,0,0:0:0:0:
64,192,160783,1,0,0:0:0:0:
192,192,160783,128,0,160869:0:0:0:0:
320,192,160826,128,0,160912:0:0:0:0:
448,192,160869,128,0,160955:0:0:0:0:
64,192,160912,128,0,160955:0:0:0:0:
192,192,160955,1,0,0:0:0:0:
320,192,160955,1,0,0:0:0:0:
448,192,161040,1,0,0:0:0:0:
64,192,161126,1,0,0:0:0:0:
192,192,161126,128,0,161297:0:0:0:0:
448,192,161212,128,0,161297:0:0:0:0:
64,192,161212,128,0,161297:0:0:0:0:
320,192,161297,128,0,161469:0:0:0:0:
192,192,161383,128,0,161469:0:0:0:0:
448,192,161469,1,0,0:0:0:0:
64,192,161469,128,0,161555:0:0:0:0:
192,192,161512,128,0,161597:0:0:0:0:
320,192,161555,128,0,161640:0:0:0:0:
64,192,161597,128,0,161683:0:0:0:0:
448,192,161640,128,0,161726:0:0:0:0:
320,192,161683,128,0,161769:0:0:0:0:
192,192,161726,128,0,161812:0:0:0:0:
64,192,161769,128,0,161812:0:0:0:0:
448,192,161812,128,0,161983:0:0:0:0:
320,192,161812,128,0,161855:0:0:0:0:
320,192,161897,128,0,161983:0:0:0:0:
64,192,161983,128,0,162069:0:0:0:0:
192,192,161983,128,0,162026:0:0:0:0:
192,192,162069,128,0,162155:0:0:0:0:
64,192,162155,1,0,0:0:0:0:
448,192,162155,128,0,162240:0:0:0:0:
320,192,162197,128,0,162283:0:0:0:0:
192,192,162240,128,0,162326:0:0:0:0:
448,192,162283,128,0,162369:0:0:0:0:
64,192,162326,128,0,162412:0:0:0:0:
192,192,162369,128,0,162455:0:0:0:0:
320,192,162412,128,0,162497:0:0:0:0:
448,192,162455,128,0,162497:0:0:0:0:
192,192,162497,128,0,162669:0:0:0:0:
64,192,162497,128,0,162540:0:0:0:0:
448,192,162583,1,0,0:0:0:0:
64,192,162583,128,0,162669:0:0:0:0:
320,192,162669,128,0,162840:0:0:0:0:
192,192,162755,128,0,162840:0:0:0:0:
448,192,162840,128,0,163012:0:0:0:0:
64,192,162840,128,0,162926:0:0:0:0:
320,192,162926,128,0,163012:0:0:0:0:
192,192,163012,1,0,0:0:0:0:
320,192,163097,1,0,0:0:0:0:
192,192,163183,1,0,0:0:0:0:
64,192,163183,1,0,0:0:0:0:
448,192,163183,128,0,163269:0:0:0:0:
320,192,163226,128,0,163312:0:0:0:0:
192,192,163269,128,0,163355:0:0:0:0:
64,192,163312,128,0,163355:0:0:0:0:
320,192,163355,1,0,0:0:0:0:
448,192,163440,1,0,0:0:0:0:
320,192,163526,1,0,0:0:0:0:
64,192,163526,128,0,163612:0:0:0:0:
192,192,163569,128,0,163655:0:0:0:0:
448,192,163612,128,0,163697:0:0:0:0:
320,192,163655,128,0,163697:0:0:0:0:
192,192,163697,1,0,0:0:0:0:
64,192,163697,1,0,0:0:0:0:
320,192,163783,1,0,0:0:0:0:
448,192,163869,128,0,164040:0:0:0:0:
64,192,163869,128,0,163912:0:0:0:0:
64,192,163955,1,0,0:0:0:0:
192,192,163955,128,0,164040:0:0:0:0:
320,192,164040,128,0,164126:0:0:0:0:
64,192,164126,128,0,164212:0:0:0:0:
320,192,164212,128,0,164383:0:0:0:0:
448,192,164212,128,0,164297:0:0:0:0:
192,192,164297,128,0,164383:0:0:0:0:
64,192,164383,128,0,164555:0:0:0:0:
448,192,164383,128,0,164469:0:0:0:0:
320,192,164469,128,0,164555:0:0:0:0:
192,192,164555,1,0,0:0:0:0:
448,192,164555,128,0,164640:0:0:0:0:
320,192,164597,128,0,164683:0:0:0:0:
64,192,164640,128,0,164726:0:0:0:0:
192,192,164683,128,0,164726:0:0:0:0:
320,192,164726,1,0,0:0:0:0:
192,192,164812,1,0,0:0:0:0:
64,192,164897,1,0,0:0:0:0:
448,192,164897,128,0,164983:0:0:0:0:
320,192,164940,128,0,165026:0:0:0:0:
192,192,164983,128,0,165069:0:0:0:0:
64,192,165026,128,0,165112:0:0:0:0:
448,192,165069,128,0,165155:0:0:0:0:
320,192,165112,128,0,165155:0:0:0:0:
192,192,165155,1,0,0:0:0:0:
64,192,165155,1,0,0:0:0:0:
64,192,165240,128,0,165412:0:0:0:0:
448,192,165240,128,0,165283:0:0:0:0:
448,192,165326,1,0,0:0:0:0:
320,192,165326,128,0,165412:0:0:0:0:
192,192,165412,128,0,165497:0:0:0:0:
448,192,165497,128,0,165583:0:0:0:0:
192,192,165583,128,0,165755:0:0:0:0:
64,192,165583,128,0,165669:0:0:0:0:
320,192,165669,128,0,165755:0:0:0:0:
64,192,165755,128,0,165797:0:0:0:0:
192,192,165840,128,0,165926:0:0:0:0:
448,192,165926,1,0,0:0:0:0:
320,192,165926,1,0,0:0:0:0:
64,192,165926,128,0,166012:0:0:0:0:
192,192,165969,128,0,166055:0:0:0:0:
320,192,166012,128,0,166097:0:0:0:0:
448,192,166055,128,0,166097:0:0:0:0:
192,192,166097,1,0,0:0:0:0:
64,192,166183,1,0,0:0:0:0:
448,192,166269,1,0,0:0:0:0:
320,192,166269,128,0,166355:0:0:0:0:
192,192,166312,128,0,166397:0:0:0:0:
64,192,166355,128,0,166440:0:0:0:0:
320,192,166397,128,0,166483:0:0:0:0:
192,192,166440,128,0,166526:0:0:0:0:
448,192,166440,1,0,0:0:0:0:
64,192,166526,1,0,0:0:0:0:
320,192,166526,128,0,166612:0:0:0:0:
64,192,166612,128,0,166783:0:0:0:0:
448,192,166612,128,0,166655:0:0:0:0:
448,192,166697,1,0,0:0:0:0:
320,192,166697,128,0,166783:0:0:0:0:
192,192,166783,128,0,166869:0:0:0:0:
448,192,166869,128,0,166955:0:0:0:0:
192,192,166955,128,0,167126:0:0:0:0:
64,192,166955,128,0,166997:0:0:0:0:
64,192,167040,128,0,167126:0:0:0:0:
448,192,167126,1,0,0:0:0:0:
320,192,167126,128,0,167212:0:0:0:0:
192,192,167212,128,0,167297:0:0:0:0:
320,192,167297,1,0,0:0:0:0:
448,192,167297,1,0,0:0:0:0:
64,192,167297,128,0,167383:0:0:0:0:
192,192,167340,128,0,167426:0:0:0:0:
320,192,167383,128,0,167469:0:0:0:0:
448,192,167426,128,0,167469:0:0:0:0:
64,192,167469,1,0,0:0:0:0:
320,192,167555,1,0,0:0:0:0:
192,192,167640,1,0,0:0:0:0:
64,192,167640,128,0,167726:0:0:0:0:
448,192,167683,128,0,167769:0:0:0:0:
320,192,167726,128,0,167812:0:0:0:0:
192,192,167769,128,0,167855:0:0:0:0:
64,192,167812,128,0,167897:0:0:0:0:
320,192,167855,128,0,167940:0:0:0:0:
192,192,167897,128,0,167983:0:0:0:0:
448,192,167940,128,0,167983:0:0:0:0:
64,192,167983,128,0,168155:0:0:0:0:
320,192,167983,128,0,168069:0:0:0:0:
448,192,168069,1,0,0:0:0:0:
192,192,168069,128,0,168155:0:0:0:0:
320,192,168155,128,0,168283:0:0:0:0:
64,192,168240,1,0,0:0:0:0:
192,192,168240,1,0,0:0:0:0:
320,192,168326,128,0,168497:0:0:0:0:
448,192,168326,128,0,168412:0:0:0:0:
192,192,168412,128,0,168497:0:0:0:0:
448,192,168497,128,0,168583:0:0:0:0:
64,192,168583,128,0,168669:0:0:0:0:
320,192,168669,1,0,0:0:0:0:
448,192,168669,1,0,0:0:0:0:
192,192,168669,128,0,168840:0:0:0:0:
64,192,168755,128,0,168840:0:0:0:0:
320,192,168840,128,0,168926:0:0:0:0:
448,192,168926,128,0,169097:0:0:0:0:
192,192,168926,128,0,169055:0:0:0:0:
320,192,169012,128,0,169097:0:0:0:0:
64,192,169097,1,0,0:0:0:0:
192,192,169097,1,0,0:0:0:0:
320,192,169183,128,0,169269:0:0:0:0:
448,192,169183,128,0,169269:0:0:0:0:
192,192,169269,128,0,169355:0:0:0:0:
448,192,169355,128,0,169526:0:0:0:0:
320,192,169355,128,0,169440:0:0:0:0:
192,192,169440,1,0,0:0:0:0:
64,192,169440,128,0,169526:0:0:0:0:
320,192,169526,128,0,169697:0:0:0:0:
192,192,169612,128,0,169697:0:0:0:0:
448,192,169697,128,0,169783:0:0:0:0:
64,192,169697,128,0,169783:0:0:0:0:
320,192,169783,128,0,169869:0:0:0:0:
448,192,169869,1,0,0:0:0:0:
64,192,169869,128,0,169955:0:0:0:0:
192,192,169955,128,0,170040:0:0:0:0:
64,192,170040,128,0,170255:0:0:0:0:
320,192,170040,128,0,170126:0:0:0:0:
448,192,170040,128,0,170126:0:0:0:0:
192,192,170126,128,0,170255:0:0:0:0:
320,192,170212,128,0,170297:0:0:0:0:
448,192,170297,1,0,0:0:0:0:
192,192,170297,128,0,170469:0:0:0:0:
64,192,170297,128,0,170383:0:0:0:0:
320,192,170383,128,0,170426:0:0:0:0:
448,192,170469,1,0,0:0:0:0:
64,192,170469,1,0,0:0:0:0:
320,192,170469,1,0,0:0:0:0:
192,192,170555,1,0,0:0:0:0:
448,192,170555,1,0,0:0:0:0:
320,192,170640,1,0,0:0:0:0:
64,192,170640,1,0,0:0:0:0:
448,192,170726,1,0,0:0:0:0:
64,192,170726,1,0,0:0:0:0:
192,192,170726,1,0,0:0:0:0:
64,192,176083,5,0,0:0:0:0:
320,192,176126,5,0,0:0:0:0:
192,192,176169,1,0,0:0:0:0:
64,192,176212,128,0,176255:0:0:0:0:
448,192,176212,128,0,176255:0:0:0:0:
320,192,176383,1,0,0:0:0:0:
64,192,176555,128,0,176726:0:0:0:0:
320,192,176726,1,0,0:0:0:0:
192,192,176897,1,0,0:0:0:0:
448,192,177069,128,0,177240:0:0:0:0:
192,192,177240,1,0,0:0:0:0:
448,192,177412,1,0,0:0:0:0:
64,192,177583,128,0,177755:0:0:0:0:
320,192,177755,1,0,0:0:0:0:
192,192,177926,1,0,0:0:0:0:
448,192,178097,128,0,178269:0:0:0:0:
64,192,178269,1,0,0:0:0:0:
320,192,178440,1,0,0:0:0:0:
192,192,178612,128,0,178655:0:0:0:0:
64,192,178612,128,0,178697:0:0:0:0:
320,192,178783,128,0,178826:0:0:0:0:
448,192,178783,128,0,178869:0:0:0:0:
192,192,178955,1,0,0:0:0:0:
320,192,179126,1,0,0:0:0:0:
64,192,179297,128,0,179469:0:0:0:0:
320,192,179469,1,0,0:0:0:0:
192,192,179640,1,0,0:0:0:0:
448,192,179812,128,0,179983:0:0:0:0:
192,192,179983,1,0,0:0:0:0:
320,192,180155,1,0,0:0:0:0:
64,192,180326,128,0,180497:0:0:0:0:
320,192,180497,1,0,0:0:0:0:
192,192,180669,1,0,0:0:0:0:
448,192,180840,128,0,181012:0:0:0:0:
192,192,181012,1,0,0:0:0:0:
320,192,181183,1,0,0:0:0:0:
64,192,181355,128,0,181397:0:0:0:0:
192,192,181355,128,0,181440:0:0:0:0:
320,192,181526,128,0,181569:0:0:0:0:
448,192,181526,128,0,181612:0:0:0:0:
64,192,181697,1,0,0:0:0:0:
192,192,181869,1,0,0:0:0:0:
320,192,182040,128,0,182212:0:0:0:0:
64,192,182212,1,0,0:0:0:0:
320,192,182383,128,0,182426:0:0:0:0:
448,192,182383,128,0,182426:0:0:0:0:
192,192,182555,128,0,182726:0:0:0:0:
64,192,182726,1,0,0:0:0:0:
448,192,182897,1,0,0:0:0:0:
192,192,183069,128,0,183112:0:0:0:0:
320,192,183069,128,0,183240:0:0:0:0:
64,192,183240,1,0,0:0:0:0:
448,192,183412,1,0,0:0:0:0:
192,192,183583,128,0,183626:0:0:0:0:
64,192,183583,128,0,183755:0:0:0:0:
320,192,183755,1,0,0:0:0:0:
448,192,183926,1,0,0:0:0:0:
192,192,184097,128,0,184269:0:0:0:0:
64,192,184269,128,0,184312:0:0:0:0:
448,192,184269,128,0,184312:0:0:0:0:
320,192,184440,1,0,0:0:0:0:
192,192,184612,1,0,0:0:0:0:
448,192,184783,128,0,184955:0:0:0:0:
192,192,184955,1,0,0:0:0:0:
320,192,185126,1,0,0:0:0:0:
64,192,185297,128,0,185469:0:0:0:0:
320,192,185469,1,0,0:0:0:0:
192,192,185640,1,0,0:0:0:0:
320,192,185812,128,0,185983:0:0:0:0:
448,192,185812,128,0,185855:0:0:0:0:
64,192,185983,1,0,0:0:0:0:
320,192,186155,1,0,0:0:0:0:
192,192,186326,128,0,186497:0:0:0:0:
64,192,186326,128,0,186369:0:0:0:0:
448,192,186497,1,0,0:0:0:0:
64,192,186669,128,0,186712:0:0:0:0:
320,192,186840,128,0,186883:0:0:0:0:
448,192,186840,128,0,187012:0:0:0:0:
192,192,187012,1,0,0:0:0:0:
320,192,187097,1,0,0:0:0:0:
64,192,187183,128,0,187226:0:0:0:0:
448,192,187183,128,0,187226:0:0:0:0:
320,192,187355,1,0,0:0:0:0:
64,192,187526,128,0,187697:0:0:0:0:
448,192,187697,1,0,0:0:0:0:
192,192,187869,1,0,0:0:0:0:
320,192,188040,128,0,188212:0:0:0:0:
192,192,188212,128,0,188255:0:0:0:0:
64,192,188212,128,0,188255:0:0:0:0:
320,192,188383,1,0,0:0:0:0:
448,192,188555,128,0,188597:0:0:0:0:
64,192,188555,128,0,188726:0:0:0:0:
192,192,188726,1,0,0:0:0:0:
320,192,188897,1,0,0:0:0:0:
64,192,189069,128,0,189112:0:0:0:0:
192,192,189069,128,0,189240:0:0:0:0:
448,192,189240,1,0,0:0:0:0:
320,192,189412,1,0,0:0:0:0:
64,192,189583,128,0,189626:0:0:0:0:
448,192,189583,128,0,189626:0:0:0:0:
320,192,189755,128,0,189797:0:0:0:0:
64,192,189755,128,0,189797:0:0:0:0:
192,192,189926,1,0,0:0:0:0:
448,192,190097,1,0,0:0:0:0:
64,192,190269,128,0,190440:0:0:0:0:
320,192,190440,1,0,0:0:0:0:
64,192,190612,1,0,0:0:0:0:
448,192,190783,128,0,190955:0:0:0:0:
192,192,190955,128,0,190997:0:0:0:0:
64,192,190955,128,0,190997:0:0:0:0:
320,192,191126,1,0,0:0:0:0:
448,192,191297,128,0,191340:0:0:0:0:
320,192,191297,128,0,191469:0:0:0:0:
192,192,191469,1,0,0:0:0:0:
448,192,191640,1,0,0:0:0:0:
192,192,191812,128,0,191855:0:0:0:0:
64,192,191812,128,0,191983:0:0:0:0:
320,192,191983,1,0,0:0:0:0:
192,192,192155,1,0,0:0:0:0:
64,192,192326,128,0,192369:0:0:0:0:
448,192,192326,128,0,192369:0:0:0:0:
448,192,192497,128,0,192540:0:0:0:0:
192,192,192497,128,0,192540:0:0:0:0:
448,192,192669,1,0,0:0:0:0:
192,192,192840,1,0,0:0:0:0:
320,192,193012,128,0,193183:0:0:0:0:
64,192,193183,1,0,0:0:0:0:
320,192,193355,1,0,0:0:0:0:
192,192,193526,128,0,193697:0:0:0:0:
448,192,193697,1,0,0:0:0:0:
192,192,193869,1,0,0:0:0:0:
320,192,194040,128,0,194212:0:0:0:0:
64,192,194212,1,0,0:0:0:0:
320,192,194383,128,0,194426:0:0:0:0:
448,192,194383,128,0,194426:0:0:0:0:
192,192,194555,128,0,194726:0:0:0:0:
448,192,194726,1,0,0:0:0:0:
64,192,194897,1,0,0:0:0:0:
320,192,195069,128,0,195240:0:0:0:0:
64,192,195240,1,0,0:0:0:0:
448,192,195412,1,0,0:0:0:0:
320,192,195583,1,0,0:0:0:0:
64,192,195755,128,0,195926:0:0:0:0:
192,192,195926,1,0,0:0:0:0:
64,192,196097,1,0,0:0:0:0:
448,192,196269,128,0,196440:0:0:0:0:
320,192,196440,1,0,0:0:0:0:
64,192,196612,128,0,196655:0:0:0:0:
448,192,196612,128,0,196655:0:0:0:0:
192,192,196783,1,0,0:0:0:0:
320,192,196955,128,0,197126:0:0:0:0:
64,192,197126,1,0,0:0:0:0:
192,192,197297,1,0,0:0:0:0:
320,192,197469,128,0,197640:0:0:0:0:
64,192,197640,1,0,0:0:0:0:
192,192,197812,1,0,0:0:0:0:
320,192,197983,128,0,198155:0:0:0:0:
64,192,198155,128,0,200897:0:0:0:0:
448,192,198155,128,0,198840:0:0:0:0:
192,192,199526,1,0,0:0:0:0:
320,192,199612,1,0,0:0:0:0:
448,192,199697,1,0,0:0:0:0:
192,192,199783,1,0,0:0:0:0:
320,192,199869,128,0,200040:0:0:0:0:
448,192,200040,1,0,0:0:0:0:
320,192,200126,1,0,0:0:0:0:
192,192,200212,1,0,0:0:0:0:
448,192,200297,1,0,0:0:0:0:
320,192,200383,128,0,200555:0:0:0:0:
192,192,200555,1,0,0:0:0:0:
448,192,200640,1,0,0:0:0:0:
320,192,200726,1,0,0:0:0:0:
448,192,200812,1,0,0:0:0:0:
192,192,200897,1,0,0:0:0:0:
320,192,200983,1,0,0:0:0:0:
64,192,201069,1,0,0:0:0:0:
448,192,201155,1,0,0:0:0:0:
192,192,201240,128,0,201412:0:0:0:0:
448,192,201412,1,0,0:0:0:0:
64,192,201497,1,0,0:0:0:0:
320,192,201583,1,0,0:0:0:0:
192,192,201669,1,0,0:0:0:0:
448,192,201755,128,0,201926:0:0:0:0:
64,192,201926,1,0,0:0:0:0:
192,192,202012,1,0,0:0:0:0:
448,192,202097,1,0,0:0:0:0:
320,192,202183,1,0,0:0:0:0:
64,192,202269,1,0,0:0:0:0:
448,192,202355,1,0,0:0:0:0:
192,192,202440,1,0,0:0:0:0:
320,192,202526,1,0,0:0:0:0:
64,192,202612,128,0,202783:0:0:0:0:
448,192,202783,1,0,0:0:0:0:
192,192,202869,1,0,0:0:0:0:
320,192,202955,1,0,0:0:0:0:
64,192,203040,1,0,0:0:0:0:
448,192,203126,128,0,203297:0:0:0:0:
192,192,203297,1,0,0:0:0:0:
64,192,203383,1,0,0:0:0:0:
448,192,203469,1,0,0:0:0:0:
320,192,203555,1,0,0:0:0:0:
64,192,203640,128,0,203726:0:0:0:0:
448,192,203726,128,0,203812:0:0:0:0:
192,192,203812,128,0,203897:0:0:0:0:
320,192,203897,128,0,203983:0:0:0:0:
448,192,203983,128,0,204155:0:0:0:0:
64,192,204155,128,0,204240:0:0:0:0:
320,192,204240,128,0,204326:0:0:0:0:
192,192,204326,128,0,204412:0:0:0:0:
448,192,204412,128,0,204497:0:0:0:0:
64,192,204497,128,0,204669:0:0:0:0:
320,192,204669,128,0,204755:0:0:0:0:
192,192,204755,128,0,204840:0:0:0:0:
448,192,204840,128,0,204926:0:0:0:0:
320,192,204926,128,0,205012:0:0:0:0:
64,192,205012,128,0,205097:0:0:0:0:
320,192,205097,128,0,205183:0:0:0:0:
192,192,205183,128,0,205269:0:0:0:0:
448,192,205269,128,0,205355:0:0:0:0:
64,192,205355,128,0,205526:0:0:0:0:
320,192,205526,128,0,205612:0:0:0:0:
192,192,205612,128,0,205697:0:0:0:0:
448,192,205697,128,0,205783:0:0:0:0:
64,192,205783,128,0,205869:0:0:0:0:
320,192,205869,128,0,206040:0:0:0:0:
448,192,206040,128,0,206212:0:0:0:0:
192,192,206212,128,0,206383:0:0:0:0:
320,192,206383,128,0,206469:0:0:0:0:
64,192,206469,128,0,206555:0:0:0:0:
448,192,206555,128,0,206640:0:0:0:0:
192,192,206640,128,0,206726:0:0:0:0:
320,192,206726,128,0,206812:0:0:0:0:
64,192,206812,128,0,206897:0:0:0:0:
192,192,206897,128,0,206983:0:0:0:0:
320,192,206983,128,0,207069:0:0:0:0:
64,192,207069,128,0,207155:0:0:0:0:
448,192,207155,128,0,207240:0:0:0:0:
192,192,207240,128,0,207326:0:0:0:0:
448,192,207326,128,0,207412:0:0:0:0:
64,192,207412,128,0,207497:0:0:0:0:
192,192,207497,128,0,207583:0:0:0:0:
448,192,207583,128,0,207669:0:0:0:0:
320,192,207669,128,0,207755:0:0:0:0:
192,192,207755,128,0,207840:0:0:0:0:
448,192,207840,128,0,207926:0:0:0:0:
64,192,207926,128,0,208012:0:0:0:0:
320,192,208012,128,0,208097:0:0:0:0:
192,192,208097,128,0,208269:0:0:0:0:
448,192,208269,128,0,208440:0:0:0:0:
64,192,208440,128,0,208612:0:0:0:0:
320,192,208612,128,0,208697:0:0:0:0:
192,192,208697,128,0,208783:0:0:0:0:
448,192,208783,128,0,208955:0:0:0:0:
64,192,208955,128,0,209126:0:0:0:0:
192,192,209126,128,0,209297:0:0:0:0:
320,192,209126,128,0,209212:0:0:0:0:
448,192,209126,128,0,209383:0:0:0:0:
64,192,209212,128,0,209469:0:0:0:0:
320,192,209297,128,0,209469:0:0:0:0:
192,192,209383,128,0,209555:0:0:0:0:
448,192,209469,128,0,209640:0:0:0:0:
320,192,209555,128,0,209640:0:0:0:0:
64,192,209640,128,0,209697:0:0:0:0:
192,192,209640,128,0,209755:0:0:0:0:
320,192,209697,128,0,209812:0:0:0:0:
448,192,209755,128,0,209983:0:0:0:0:
64,192,209812,128,0,209897:0:0:0:0:
320,192,209897,128,0,210069:0:0:0:0:
192,192,209983,128,0,210155:0:0:0:0:
64,192,209983,128,0,210069:0:0:0:0:
448,192,210069,128,0,210155:0:0:0:0:
320,192,210155,128,0,210212:0:0:0:0:
64,192,210155,128,0,210269:0:0:0:0:
192,192,210212,128,0,210326:0:0:0:0:
320,192,210269,128,0,210440:0:0:0:0:
448,192,210326,128,0,210440:0:0:0:0:
192,192,210383,128,0,210497:0:0:0:0:
64,192,210440,128,0,210497:0:0:0:0:
448,192,210497,1,0,0:0:0:0:
320,192,210497,1,0,0:0:0:0:
448,192,210583,1,0,0:0:0:0:
64,192,210669,1,0,0:0:0:0:
64,192,210755,1,0,0:0:0:0:
320,192,210840,128,0,210883:0:0:0:0:
192,192,210883,128,0,210926:0:0:0:0:
448,192,210926,128,0,210969:0:0:0:0:
320,192,210969,128,0,211012:0:0:0:0:
192,192,211012,128,0,211055:0:0:0:0:
64,192,211012,128,0,211055:0:0:0:0:
320,192,211097,128,0,211140:0:0:0:0:
64,192,211183,128,0,211226:0:0:0:0:
448,192,211183,1,0,0:0:0:0:
192,192,211269,1,0,0:0:0:0:
448,192,211269,128,0,211355:0:0:0:0:
64,192,211355,128,0,211440:0:0:0:0:
320,192,211440,128,0,211526:0:0:0:0:
192,192,211526,1,0,0:0:0:0:
192,192,211612,1,0,0:0:0:0:
448,192,211697,128,0,211783:0:0:0:0:
64,192,211783,128,0,211869:0:0:0:0:
320,192,211869,128,0,212040:0:0:0:0:
448,192,211869,128,0,211955:0:0:0:0:
192,192,211869,128,0,212212:0:0:0:0:
64,192,211955,128,0,212126:0:0:0:0:
448,192,212040,128,0,212340:0:0:0:0:
320,192,212126,128,0,212340:0:0:0:0:
64,192,212212,128,0,212383:0:0:0:0:
192,192,212297,128,0,212383:0:0:0:0:
320,192,212383,128,0,212497:0:0:0:0:
448,192,212383,128,0,212497:0:0:0:0:
192,192,212440,128,0,212555:0:0:0:0:
64,192,212497,128,0,212669:0:0:0:0:
448,192,212555,128,0,212726:0:0:0:0:
192,192,212640,128,0,212726:0:0:0:0:
320,192,212726,128,0,212897:0:0:0:0:
64,192,212726,128,0,212812:0:0:0:0:
448,192,212812,128,0,212897:0:0:0:0:
192,192,212897,128,0,212955:0:0:0:0:
64,192,212897,128,0,213012:0:0:0:0:
448,192,212955,128,0,213069:0:0:0:0:
320,192,213012,128,0,213126:0:0:0:0:
192,192,213069,128,0,213183:0:0:0:0:
64,192,213126,128,0,213183:0:0:0:0:
320,192,213183,128,0,213240:0:0:0:0:
192,192,213240,128,0,213326:0:0:0:0:
64,192,213240,128,0,213497:0:0:0:0:
448,192,213240,128,0,213412:0:0:0:0:
320,192,213326,128,0,213583:0:0:0:0:
192,192,213412,128,0,213669:0:0:0:0:
448,192,213497,128,0,213669:0:0:0:0:
64,192,213583,128,0,213755:0:0:0:0:
320,192,213669,128,0,213755:0:0:0:0:
192,192,213755,128,0,213812:0:0:0:0:
448,192,213755,128,0,213869:0:0:0:0:
64,192,213812,128,0,213926:0:0:0:0:
192,192,213869,128,0,213983:0:0:0:0:
320,192,213926,128,0,214040:0:0:0:0:
64,192,214012,128,0,214183:0:0:0:0:
192,192,214097,128,0,214269:0:0:0:0:
448,192,214097,128,0,214183:0:0:0:0:
320,192,214183,128,0,214269:0:0:0:0:
64,192,214269,128,0,214383:0:0:0:0:
448,192,214269,128,0,214383:0:0:0:0:
192,192,214326,128,0,214555:0:0:0:0:
320,192,214383,128,0,214497:0:0:0:0:
64,192,214440,128,0,214555:0:0:0:0:
448,192,214497,128,0,214555:0:0:0:0:
320,192,214555,128,0,214612:0:0:0:0:
192,192,214612,128,0,214697:0:0:0:0:
64,192,214612,128,0,214869:0:0:0:0:
448,192,214612,128,0,214783:0:0:0:0:
320,192,214697,128,0,215040:0:0:0:0:
192,192,214783,128,0,214955:0:0:0:0:
448,192,214869,128,0,215040:0:0:0:0:
64,192,214955,128,0,215040:0:0:0:0:
192,192,215040,128,0,215126:0:0:0:0:
320,192,215126,128,0,215183:0:0:0:0:
64,192,215126,128,0,215240:0:0:0:0:
448,192,215183,128,0,215297:0:0:0:0:
320,192,215240,128,0,215355:0:0:0:0:
192,192,215297,128,0,215412:0:0:0:0:
448,192,215383,128,0,215555:0:0:0:0:
64,192,215469,128,0,215555:0:0:0:0:
192,192,215469,128,0,215640:0:0:0:0:
320,192,215555,128,0,215640:0:0:0:0:
448,192,215640,128,0,215755:0:0:0:0:
64,192,215640,128,0,215755:0:0:0:0:
192,192,215697,128,0,215812:0:0:0:0:
320,192,215755,128,0,215869:0:0:0:0:
448,192,215812,128,0,215926:0:0:0:0:
192,192,215869,128,0,215983:0:0:0:0:
64,192,215926,128,0,215983:0:0:0:0:
320,192,215983,1,0,0:0:0:0:
448,192,215983,128,0,216155:0:0:0:0:
320,192,216069,128,0,216155:0:0:0:0:
192,192,216155,1,0,0:0:0:0:
64,192,216155,128,0,216326:0:0:0:0:
192,192,216240,128,0,216326:0:0:0:0:
448,192,216326,128,0,216412:0:0:0:0:
320,192,216369,128,0,216455:0:0:0:0:
192,192,216412,128,0,216497:0:0:0:0:
64,192,216455,128,0,216497:0:0:0:0:
320,192,216497,128,0,216540:0:0:0:0:
448,192,216497,128,0,216540:0:0:0:0:
448,192,216583,1,0,0:0:0:0:
192,192,216669,128,0,216755:0:0:0:0:
320,192,216755,128,0,216840:0:0:0:0:
64,192,216840,1,0,0:0:0:0:
192,192,216926,128,0,216969:0:0:0:0:
448,192,217012,128,0,217097:0:0:0:0:
192,192,217097,128,0,217183:0:0:0:0:
320,192,217183,128,0,217269:0:0:0:0:
64,192,217269,128,0,217355:0:0:0:0:
448,192,217355,1,0,0:0:0:0:
192,192,217355,128,0,217440:0:0:0:0:
320,192,217355,128,0,217526:0:0:0:0:
448,192,217440,128,0,217783:0:0:0:0:
192,192,217526,128,0,217697:0:0:0:0:
320,192,217612,128,0,217783:0:0:0:0:
64,192,217697,128,0,217869:0:0:0:0:
192,192,217783,128,0,217869:0:0:0:0:
320,192,217869,128,0,217983:0:0:0:0:
448,192,217869,128,0,217983:0:0:0:0:
192,192,217926,128,0,218040:0:0:0:0:
64,192,217983,128,0,218097:0:0:0:0:
448,192,218040,128,0,218155:0:0:0:0:
192,192,218126,128,0,218297:0:0:0:0:
320,192,218212,128,0,218383:0:0:0:0:
448,192,218212,128,0,218297:0:0:0:0:
64,192,218297,128,0,218383:0:0:0:0:
192,192,218383,128,0,218440:0:0:0:0:
448,192,218383,128,0,218497:0:0:0:0:
320,192,218440,128,0,218555:0:0:0:0:
192,192,218497,128,0,218612:0:0:0:0:
64,192,218555,128,0,218669:0:0:0:0:
320,192,218612,128,0,218669:0:0:0:0:
192,192,218669,128,0,218726:0:0:0:0:
320,192,218726,128,0,218812:0:0:0:0:
448,192,218726,128,0,218983:0:0:0:0:
64,192,218726,128,0,218897:0:0:0:0:
192,192,218812,128,0,219155:0:0:0:0:
320,192,218897,128,0,219069:0:0:0:0:
64,192,218983,128,0,219155:0:0:0:0:
448,192,219069,128,0,219240:0:0:0:0:
320,192,219155,128,0,219240:0:0:0:0:
192,192,219240,128,0,219355:0:0:0:0:
64,192,219240,128,0,219355:0:0:0:0:
320,192,219297,128,0,219412:0:0:0:0:
448,192,219355,128,0,219469:0:0:0:0:
64,192,219412,128,0,219526:0:0:0:0:
320,192,219497,128,0,219583:0:0:0:0:
448,192,219583,128,0,219669:0:0:0:0:
192,192,219583,128,0,219755:0:0:0:0:
320,192,219669,128,0,219755:0:0:0:0:
64,192,219755,128,0,219869:0:0:0:0:
448,192,219755,128,0,219869:0:0:0:0:
192,192,219812,128,0,219926:0:0:0:0:
320,192,219869,128,0,219983:0:0:0:0:
448,192,219926,128,0,220040:0:0:0:0:
192,192,219983,128,0,220040:0:0:0:0:
320,192,220040,128,0,220097:0:0:0:0:
192,192,220097,128,0,220155:0:0:0:0:
64,192,220097,128,0,220212:0:0:0:0:
448,192,220097,128,0,220212:0:0:0:0:
320,192,220155,128,0,220269:0:0:0:0:
192,192,220212,128,0,220326:0:0:0:0:
64,192,220269,128,0,220326:0:0:0:0:
320,192,220355,128,0,220526:0:0:0:0:
192,192,220440,128,0,220526:0:0:0:0:
64,192,220440,128,0,220526:0:0:0:0:
448,192,220526,128,0,220612:0:0:0:0:
64,192,220612,128,0,220726:0:0:0:0:
192,192,220669,128,0,220783:0:0:0:0:
320,192,220726,128,0,220840:0:0:0:0:
448,192,220783,128,0,220840:0:0:0:0:
64,192,220869,128,0,221040:0:0:0:0:
320,192,220955,128,0,221126:0:0:0:0:
448,192,220955,128,0,221040:0:0:0:0:
192,192,221040,128,0,221126:0:0:0:0:
448,192,221126,128,0,221240:0:0:0:0:
320,192,221183,128,0,221297:0:0:0:0:
192,192,221240,128,0,221355:0:0:0:0:
64,192,221297,128,0,221355:0:0:0:0:
448,192,221383,1,0,0:0:0:0:
192,192,221469,1,0,0:0:0:0:
320,192,221469,128,0,221640:0:0:0:0:
192,192,221555,128,0,221640:0:0:0:0:
448,192,221640,1,0,0:0:0:0:
64,192,221640,128,0,221812:0:0:0:0:
448,192,221726,128,0,221812:0:0:0:0:
192,192,221812,128,0,221855:0:0:0:0:
320,192,221855,128,0,221897:0:0:0:0:
64,192,221897,128,0,221940:0:0:0:0:
192,192,221940,128,0,221983:0:0:0:0:
448,192,221983,1,0,0:0:0:0:
320,192,221983,128,0,222155:0:0:0:0:
192,192,222069,128,0,222155:0:0:0:0:
64,192,222155,1,0,0:0:0:0:
448,192,222155,1,0,0:0:0:0:
320,192,222240,1,0,0:0:0:0:
448,192,222240,128,0,222412:0:0:0:0:
64,192,222326,1,0,0:0:0:0:
320,192,222326,128,0,222497:0:0:0:0:
192,192,222412,128,0,222497:0:0:0:0:
64,192,222412,128,0,222497:0:0:0:0:
448,192,222497,128,0,222583:0:0:0:0:
192,192,222583,128,0,222669:0:0:0:0:
320,192,222669,128,0,222755:0:0:0:0:
64,192,222755,128,0,222840:0:0:0:0:
192,192,222840,128,0,223012:0:0:0:0:
320,192,222840,128,0,222926:0:0:0:0:
448,192,222840,128,0,223183:0:0:0:0:
64,192,222926,128,0,223269:0:0:0:0:
320,192,223012,128,0,223097:0:0:0:0:
192,192,223097,128,0,223269:0:0:0:0:
320,192,223183,128,0,223269:0:0:0:0:
448,192,223269,128,0,223355:0:0:0:0:
192,192,223355,128,0,223412:0:0:0:0:
64,192,223355,128,0,223469:0:0:0:0:
320,192,223412,128,0,223526:0:0:0:0:
192,192,223469,128,0,223583:0:0:0:0:
64,192,223526,128,0,223640:0:0:0:0:
320,192,223612,128,0,223697:0:0:0:0:
192,192,223697,128,0,223783:0:0:0:0:
448,192,223697,128,0,223869:0:0:0:0:
320,192,223783,128,0,223869:0:0:0:0:
192,192,223869,128,0,223926:0:0:0:0:
64,192,223869,128,0,223983:0:0:0:0:
448,192,223926,128,0,224040:0:0:0:0:
320,192,223983,128,0,224097:0:0:0:0:
192,192,224040,128,0,224155:0:0:0:0:
64,192,224097,128,0,224155:0:0:0:0:
320,192,224155,128,0,224212:0:0:0:0:
64,192,224212,128,0,224297:0:0:0:0:
192,192,224212,128,0,224383:0:0:0:0:
448,192,224212,128,0,224469:0:0:0:0:
320,192,224297,128,0,224640:0:0:0:0:
64,192,224383,128,0,224555:0:0:0:0:
192,192,224469,128,0,224726:0:0:0:0:
448,192,224555,128,0,224640:0:0:0:0:
64,192,224640,128,0,224726:0:0:0:0:
320,192,224726,128,0,224783:0:0:0:0:
448,192,224726,128,0,224840:0:0:0:0:
192,192,224783,128,0,224897:0:0:0:0:
320,192,224840,128,0,224955:0:0:0:0:
448,192,224897,128,0,225012:0:0:0:0:
192,192,224983,128,0,225069:0:0:0:0:
64,192,225069,128,0,225240:0:0:0:0:
320,192,225069,128,0,225155:0:0:0:0:
192,192,225155,128,0,225240:0:0:0:0:
320,192,225240,128,0,225297:0:0:0:0:
448,192,225240,128,0,225355:0:0:0:0:
64,192,225297,128,0,225355:0:0:0:0:
192,192,225355,128,0,225469:0:0:0:0:
64,192,225412,128,0,225526:0:0:0:0:
320,192,225412,128,0,225526:0:0:0:0:
448,192,225469,128,0,225526:0:0:0:0:
192,192,225526,128,0,225583:0:0:0:0:
64,192,225583,128,0,225697:0:0:0:0:
320,192,225583,128,0,225640:0:0:0:0:
448,192,225583,128,0,225697:0:0:0:0:
192,192,225640,128,0,225755:0:0:0:0:
320,192,225697,128,0,225812:0:0:0:0:
448,192,225755,128,0,225869:0:0:0:0:
64,192,225812,128,0,225926:0:0:0:0:
192,192,225869,128,0,225926:0:0:0:0:
320,192,225926,128,0,226040:0:0:0:0:
448,192,225926,128,0,226040:0:0:0:0:
192,192,225983,128,0,226097:0:0:0:0:
64,192,226040,128,0,226155:0:0:0:0:
448,192,226097,128,0,226212:0:0:0:0:
320,192,226155,128,0,226269:0:0:0:0:
192,192,226212,128,0,226326:0:0:0:0:
64,192,226269,128,0,226383:0:0:0:0:
448,192,226269,128,0,226383:0:0:0:0:
320,192,226326,128,0,226383:0:0:0:0:
192,192,226383,128,0,226497:0:0:0:0:
320,192,226440,128,0,226555:0:0:0:0:
448,192,226497,128,0,226555:0:0:0:0:
192,192,226555,128,0,226669:0:0:0:0:
64,192,226612,128,0,226726:0:0:0:0:
448,192,226612,128,0,226726:0:0:0:0:
320,192,226669,128,0,226783:0:0:0:0:
192,192,226726,128,0,226840:0:0:0:0:
64,192,226783,128,0,226897:0:0:0:0:
448,192,226840,128,0,226955:0:0:0:0:
320,192,226897,128,0,226955:0:0:0:0:
192,192,226955,1,0,0:0:0:0:
64,192,226955,128,0,227126:0:0:0:0:
192,192,227040,128,0,227126:0:0:0:0:
320,192,227126,1,0,0:0:0:0:
448,192,227126,1,0,0:0:0:0:
320,192,227212,1,0,0:0:0:0:
448,192,227297,1,0,0:0:0:0:
64,192,227297,128,0,227383:0:0:0:0:
192,192,227340,128,0,227426:0:0:0:0:
320,192,227383,128,0,227469:0:0:0:0:
64,192,227426,128,0,227469:0:0:0:0:
448,192,227469,128,0,227526:0:0:0:0:
320,192,227497,128,0,227555:0:0:0:0:
192,192,227526,128,0,227583:0:0:0:0:
64,192,227555,128,0,227612:0:0:0:0:
448,192,227640,1,0,0:0:0:0:
320,192,227640,128,0,227812:0:0:0:0:
448,192,227726,128,0,227812:0:0:0:0:
192,192,227812,128,0,227897:0:0:0:0:
64,192,227897,128,0,227940:0:0:0:0:
448,192,227897,128,0,227940:0:0:0:0:
320,192,227983,1,0,0:0:0:0:
320,192,228069,1,0,0:0:0:0:
64,192,228155,128,0,228240:0:0:0:0:
448,192,228240,128,0,228326:0:0:0:0:
192,192,228326,128,0,228412:0:0:0:0:
64,192,228326,128,0,228583:0:0:0:0:
320,192,228326,128,0,228497:0:0:0:0:
448,192,228412,128,0,228497:0:0:0:0:
192,192,228497,128,0,228669:0:0:0:0:
320,192,228583,128,0,228755:0:0:0:0:
448,192,228583,128,0,228755:0:0:0:0:
64,192,228669,128,0,228755:0:0:0:0:
192,192,228755,128,0,228840:0:0:0:0:
320,192,228840,128,0,228926:0:0:0:0:
64,192,228840,128,0,228926:0:0:0:0:
192,192,228926,128,0,229012:0:0:0:0:
448,192,228926,128,0,229012:0:0:0:0:
320,192,229012,128,0,229097:0:0:0:0:
64,192,229097,128,0,229269:0:0:0:0:
448,192,229183,128,0,229269:0:0:0:0:
192,192,229183,128,0,229355:0:0:0:0:
320,192,229269,128,0,229440:0:0:0:0:
64,192,229355,128,0,229526:0:0:0:0:
448,192,229355,128,0,229440:0:0:0:0:
192,192,229440,128,0,229526:0:0:0:0:
320,192,229526,128,0,229612:0:0:0:0:
448,192,229526,128,0,229612:0:0:0:0:
192,192,229612,1,0,0:0:0:0:
64,192,229612,1,0,0:0:0:0:
320,192,229697,128,0,229783:0:0:0:0:
448,192,229697,128,0,229955:0:0:0:0:
64,192,229697,128,0,229869:0:0:0:0:
192,192,229783,128,0,230126:0:0:0:0:
320,192,229869,128,0,230040:0:0:0:0:
64,192,229955,128,0,230126:0:0:0:0:
448,192,230040,128,0,230212:0:0:0:0:
320,192,230126,128,0,230212:0:0:0:0:
192,192,230212,128,0,230269:0:0:0:0:
64,192,230212,128,0,230326:0:0:0:0:
448,192,230269,128,0,230383:0:0:0:0:
320,192,230326,128,0,230440:0:0:0:0:
192,192,230383,128,0,230497:0:0:0:0:
448,192,230469,128,0,230555:0:0:0:0:
64,192,230555,128,0,230640:0:0:0:0:
192,192,230555,128,0,230726:0:0:0:0:
320,192,230640,128,0,230726:0:0:0:0:
64,192,230726,128,0,230840:0:0:0:0:
448,192,230726,128,0,230840:0:0:0:0:
192,192,230783,128,0,230897:0:0:0:0:
320,192,230840,128,0,230955:0:0:0:0:
64,192,230897,128,0,231012:0:0:0:0:
448,192,230955,128,0,231069:0:0:0:0:
320,192,231012,128,0,231069:0:0:0:0:
192,192,231069,128,0,231155:0:0:0:0:
64,192,231069,128,0,231240:0:0:0:0:
320,192,231240,1,0,0:0:0:0:
192,192,231326,128,0,231412:0:0:0:0:
448,192,231412,1,0,0:0:0:0:
64,192,231412,1,0,0:0:0:0:
320,192,231497,128,0,231583:0:0:0:0:
192,192,231497,128,0,231583:0:0:0:0:
448,192,231583,1,0,0:0:0:0:
64,192,231669,128,0,231755:0:0:0:0:
192,192,231669,128,0,231712:0:0:0:0:
192,192,231755,1,0,0:0:0:0:
320,192,231755,1,0,0:0:0:0:
448,192,231840,1,0,0:0:0:0:
64,192,231926,128,0,232012:0:0:0:0:
320,192,232012,1,0,0:0:0:0:
192,192,232097,128,0,232183:0:0:0:0:
448,192,232097,128,0,232183:0:0:0:0:
64,192,232269,1,0,0:0:0:0:
448,192,232269,128,0,232355:0:0:0:0:
192,192,232355,1,0,0:0:0:0:
64,192,232355,128,0,232440:0:0:0:0:
192,192,232440,128,0,232526:0:0:0:0:
448,192,232440,128,0,232526:0:0:0:0:
64,192,232612,1,0,0:0:0:0:
320,192,232697,128,0,232783:0:0:0:0:
192,192,232783,1,0,0:0:0:0:
64,192,232783,1,0,0:0:0:0:
448,192,232869,128,0,232955:0:0:0:0:
192,192,232955,1,0,0:0:0:0:
448,192,233040,1,0,0:0:0:0:
64,192,233040,128,0,233126:0:0:0:0:
448,192,233126,1,0,0:0:0:0:
320,192,233126,1,0,0:0:0:0:
192,192,233212,1,0,0:0:0:0:
320,192,233297,128,0,233383:0:0:0:0:
448,192,233297,128,0,233383:0:0:0:0:
192,192,233383,1,0,0:0:0:0:
64,192,233469,128,0,233555:0:0:0:0:
448,192,233469,128,0,233555:0:0:0:0:
192,192,233640,1,0,0:0:0:0:
320,192,233640,1,0,0:0:0:0:
64,192,233726,1,0,0:0:0:0:
320,192,233726,1,0,0:0:0:0:
192,192,233812,128,0,233897:0:0:0:0:
448,192,233812,128,0,233897:0:0:0:0:
320,192,233983,1,0,0:0:0:0:
192,192,234069,128,0,234155:0:0:0:0:
448,192,234155,1,0,0:0:0:0:
320,192,234155,1,0,0:0:0:0:
64,192,234240,128,0,234326:0:0:0:0:
192,192,234326,1,0,0:0:0:0:
64,192,234412,1,0,0:0:0:0:
448,192,234412,128,0,234497:0:0:0:0:
192,192,234497,1,0,0:0:0:0:
64,192,234497,1,0,0:0:0:0:
320,192,234583,1,0,0:0:0:0:
320,192,234669,128,0,234755:0:0:0:0:
64,192,234669,128,0,234755:0:0:0:0:
448,192,234755,1,0,0:0:0:0:
192,192,234840,128,0,234926:0:0:0:0:
64,192,234840,128,0,234926:0:0:0:0:
192,192,235012,128,0,235097:0:0:0:0:
448,192,235012,128,0,235097:0:0:0:0:
64,192,235097,128,0,235183:0:0:0:0:
320,192,235183,128,0,235269:0:0:0:0:
448,192,235183,128,0,235269:0:0:0:0:
192,192,235355,1,0,0:0:0:0:
320,192,235440,128,0,235526:0:0:0:0:
64,192,235526,1,0,0:0:0:0:
448,192,235526,1,0,0:0:0:0:
192,192,235612,128,0,235697:0:0:0:0:
64,192,235612,128,0,235655:0:0:0:0:
320,192,235697,128,0,235783:0:0:0:0:
448,192,235697,128,0,235740:0:0:0:0:
448,192,235783,1,0,0:0:0:0:
64,192,235783,128,0,235869:0:0:0:0:
192,192,235869,1,0,0:0:0:0:
320,192,235955,1,0,0:0:0:0:
64,192,236040,128,0,236126:0:0:0:0:
448,192,236040,128,0,236126:0:0:0:0:
192,192,236212,128,0,236297:0:0:0:0:
64,192,236212,128,0,236255:0:0:0:0:
448,192,236297,128,0,236383:0:0:0:0:
320,192,236383,128,0,236469:0:0:0:0:
64,192,236469,128,0,236555:0:0:0:0:
192,192,236555,1,0,0:0:0:0:
320,192,236555,1,0,0:0:0:0:
448,192,236555,1,0,0:0:0:0:
192,192,236726,1,0,0:0:0:0:
64,192,236726,1,0,0:0:0:0:
448,192,236726,1,0,0:0:0:0:
320,192,236897,1,0,0:0:0:0:
448,192,236897,1,0,0:0:0:0:
64,192,236897,1,0,0:0:0:0:
192,192,237069,1,0,0:0:0:0:
64,192,237069,1,0,0:0:0:0:
448,192,237069,1,0,0:0:0:0:
320,192,237155,1,0,0:0:0:0:
64,192,237240,1,0,0:0:0:0:
448,192,237240,1,0,0:0:0:0:
192,192,237326,1,0,0:0:0:0:
64,192,237412,1,0,0:0:0:0:
320,192,237412,1,0,0:0:0:0:
448,192,237412,1,0,0:0:0:0:
320,192,237583,1,0,0:0:0:0:
192,192,237583,1,0,0:0:0:0:
64,192,237583,1,0,0:0:0:0:
64,192,237755,1,0,0:0:0:0:
320,192,237755,1,0,0:0:0:0:
448,192,237755,1,0,0:0:0:0:
192,192,237840,1,0,0:0:0:0:
64,192,237926,1,0,0:0:0:0:
448,192,237926,1,0,0:0:0:0:
192,192,238097,1,0,0:0:0:0:
320,192,238097,1,0,0:0:0:0:
448,192,238097,1,0,0:0:0:0:
192,192,238269,1,0,0:0:0:0:
64,192,238269,1,0,0:0:0:0:
448,192,238269,1,0,0:0:0:0:
64,192,238440,1,0,0:0:0:0:
448,192,238440,1,0,0:0:0:0:
320,192,238440,1,0,0:0:0:0:
192,192,238526,1,0,0:0:0:0:
448,192,238612,1,0,0:0:0:0:
64,192,238612,1,0,0:0:0:0:
320,192,238697,1,0,0:0:0:0:
448,192,238783,1,0,0:0:0:0:
64,192,238783,1,0,0:0:0:0:
192,192,238783,1,0,0:0:0:0:
320,192,238955,1,0,0:0:0:0:
192,192,238955,1,0,0:0:0:0:
448,192,238955,1,0,0:0:0:0:
64,192,239126,1,0,0:0:0:0:
320,192,239126,1,0,0:0:0:0:
448,192,239126,1,0,0:0:0:0:
192,192,239212,1,0,0:0:0:0:
64,192,239297,128,0,239383:0:0:0:0:
448,192,239297,128,0,239383:0:0:0:0:
320,192,239383,128,0,239469:0:0:0:0:
64,192,239469,128,0,239555:0:0:0:0:
448,192,239469,128,0,239555:0:0:0:0:
192,192,239555,128,0,239640:0:0:0:0:
320,192,239555,128,0,239640:0:0:0:0:
64,192,239640,128,0,239726:0:0:0:0:
320,192,239726,128,0,239812:0:0:0:0:
192,192,239812,128,0,239897:0:0:0:0:
64,192,239812,128,0,239897:0:0:0:0:
320,192,239897,128,0,239983:0:0:0:0:
448,192,239897,128,0,239983:0:0:0:0:
192,192,239983,128,0,240069:0:0:0:0:
64,192,239983,128,0,240069:0:0:0:0:
320,192,240069,128,0,240155:0:0:0:0:
448,192,240155,128,0,240240:0:0:0:0:
64,192,240155,128,0,240240:0:0:0:0:
192,192,240240,128,0,240326:0:0:0:0:
320,192,240326,128,0,240412:0:0:0:0:
64,192,240326,128,0,240412:0:0:0:0:
448,192,240412,128,0,240497:0:0:0:0:
192,192,240497,128,0,240540:0:0:0:0:
64,192,240497,128,0,240540:0:0:0:0:
192,192,240583,128,0,240669:0:0:0:0:
64,192,240669,128,0,240840:0:0:0:0:
448,192,240669,128,0,240726:0:0:0:0:
192,192,240726,128,0,240897:0:0:0:0:
320,192,240783,128,0,240955:0:0:0:0:
448,192,240840,1,0,0:0:0:0:
64,192,240926,1,0,0:0:0:0:
320,192,241012,128,0,241183:0:0:0:0:
448,192,241012,128,0,241069:0:0:0:0:
192,192,241069,128,0,241240:0:0:0:0:
64,192,241126,128,0,241297:0:0:0:0:
448,192,241183,1,0,0:0:0:0:
320,192,241269,1,0,0:0:0:0:
64,192,241355,128,0,241469:0:0:0:0:
448,192,241355,128,0,241412:0:0:0:0:
192,192,241412,128,0,241526:0:0:0:0:
320,192,241469,128,0,241583:0:0:0:0:
448,192,241526,128,0,241640:0:0:0:0:
192,192,241612,128,0,241697:0:0:0:0:
448,192,241697,1,0,0:0:0:0:
320,192,241697,1,0,0:0:0:0:
64,192,241697,1,0,0:0:0:0:
448,192,242040,1,0,0:0:0:0:
64,192,242040,128,0,242126:0:0:0:0:
192,192,242083,128,0,242169:0:0:0:0:
320,192,242126,128,0,242212:0:0:0:0:
448,192,242212,1,0,0:0:0:0:
64,192,242212,128,0,242297:0:0:0:0:
320,192,242297,128,0,242383:0:0:0:0:
448,192,242383,1,0,0:0:0:0:
192,192,242383,1,0,0:0:0:0:
64,192,242383,128,0,242555:0:0:0:0:
192,192,242469,128,0,242555:0:0:0:0:
320,192,242555,1,0,0:0:0:0:
448,192,242555,128,0,242640:0:0:0:0:
64,192,242640,128,0,242726:0:0:0:0:
320,192,242726,128,0,242897:0:0:0:0:
448,192,242726,128,0,242812:0:0:0:0:
192,192,242812,128,0,242983:0:0:0:0:
64,192,242897,128,0,242983:0:0:0:0:
448,192,242897,128,0,242983:0:0:0:0:
320,192,242983,128,0,243069:0:0:0:0:
64,192,243069,1,0,0:0:0:0:
192,192,243069,128,0,243155:0:0:0:0:
448,192,243069,128,0,243240:0:0:0:0:
320,192,243155,128,0,243240:0:0:0:0:
64,192,243155,128,0,243326:0:0:0:0:
192,192,243240,128,0,243412:0:0:0:0:
320,192,243326,128,0,243412:0:0:0:0:
64,192,243412,1,0,0:0:0:0:
448,192,243412,128,0,243497:0:0:0:0:
320,192,243455,128,0,243540:0:0:0:0:
192,192,243497,128,0,243583:0:0:0:0:
448,192,243583,1,0,0:0:0:0:
64,192,243583,128,0,243669:0:0:0:0:
320,192,243669,128,0,243755:0:0:0:0:
64,192,243755,1,0,0:0:0:0:
448,192,243755,128,0,243926:0:0:0:0:
192,192,243755,1,0,0:0:0:0:
64,192,243840,128,0,243926:0:0:0:0:
192,192,243926,1,0,0:0:0:0:
320,192,243926,128,0,244097:0:0:0:0:
448,192,244012,128,0,244097:0:0:0:0:
192,192,244097,128,0,244269:0:0:0:0:
64,192,244097,128,0,244183:0:0:0:0:
320,192,244183,128,0,244355:0:0:0:0:
448,192,244269,128,0,244355:0:0:0:0:
64,192,244269,128,0,244355:0:0:0:0:
192,192,244355,128,0,244440:0:0:0:0:
448,192,244440,1,0,0:0:0:0:
320,192,244440,128,0,244526:0:0:0:0:
64,192,244440,128,0,244612:0:0:0:0:
192,192,244526,128,0,244612:0:0:0:0:
448,192,244526,128,0,244697:0:0:0:0:
320,192,244612,128,0,244783:0:0:0:0:
192,192,244697,128,0,244783:0:0:0:0:
448,192,244783,1,0,0:0:0:0:
64,192,244783,128,0,244869:0:0:0:0:
192,192,244826,128,0,244912:0:0:0:0:
320,192,244869,128,0,244955:0:0:0:0:
64,192,244955,128,0,245040:0:0:0:0:
192,192,244955,128,0,245126:0:0:0:0:
320,192,245040,1,0,0:0:0:0:
448,192,245126,1,0,0:0:0:0:
64,192,245126,1,0,0:0:0:0:
320,192,245126,128,0,245297:0:0:0:0:
64,192,245212,128,0,245297:0:0:0:0:
448,192,245297,1,0,0:0:0:0:
192,192,245297,128,0,245469:0:0:0:0:
320,192,245383,128,0,245469:0:0:0:0:
64,192,245469,128,0,245555:0:0:0:0:
448,192,245469,128,0,245640:0:0:0:0:
320,192,245555,128,0,245640:0:0:0:0:
192,192,245640,128,0,245726:0:0:0:0:
64,192,245640,128,0,245726:0:0:0:0:
320,192,245726,128,0,245812:0:0:0:0:
64,192,245812,1,0,0:0:0:0:
448,192,245812,1,0,0:0:0:0:
192,192,245812,128,0,245983:0:0:0:0:
320,192,245897,128,0,246069:0:0:0:0:
64,192,245897,128,0,245983:0:0:0:0:
448,192,245983,128,0,246069:0:0:0:0:
192,192,246069,128,0,246155:0:0:0:0:
64,192,246069,128,0,246155:0:0:0:0:
320,192,246155,1,0,0:0:0:0:
448,192,246155,128,0,246240:0:0:0:0:
64,192,246197,128,0,246283:0:0:0:0:
192,192,246240,128,0,246326:0:0:0:0:
64,192,246326,1,0,0:0:0:0:
448,192,246326,128,0,246412:0:0:0:0:
320,192,246412,128,0,246497:0:0:0:0:
448,192,246497,1,0,0:0:0:0:
192,192,246497,128,0,246669:0:0:0:0:
64,192,246497,128,0,246583:0:0:0:0:
448,192,246583,128,0,246669:0:0:0:0:
64,192,246669,1,0,0:0:0:0:
320,192,246669,128,0,246755:0:0:0:0:
192,192,246755,1,0,0:0:0:0:
64,192,246755,128,0,246840:0:0:0:0:
320,192,246840,128,0,247012:0:0:0:0:
448,192,246840,128,0,246926:0:0:0:0:
192,192,246926,128,0,247097:0:0:0:0:
64,192,247012,128,0,247097:0:0:0:0:
448,192,247012,128,0,247097:0:0:0:0:
320,192,247097,128,0,247183:0:0:0:0:
448,192,247183,1,0,0:0:0:0:
192,192,247183,128,0,247269:0:0:0:0:
64,192,247183,128,0,247269:0:0:0:0:
320,192,247269,128,0,247355:0:0:0:0:
448,192,247269,128,0,247355:0:0:0:0:
192,192,247355,128,0,247440:0:0:0:0:
64,192,247355,128,0,247440:0:0:0:0:
448,192,247440,128,0,247526:0:0:0:0:
320,192,247526,1,0,0:0:0:0:
64,192,247526,128,0,247612:0:0:0:0:
192,192,247569,128,0,247655:0:0:0:0:
448,192,247612,128,0,247697:0:0:0:0:
64,192,247697,1,0,0:0:0:0:
320,192,247697,128,0,247869:0:0:0:0:
192,192,247783,1,0,0:0:0:0:
448,192,247869,1,0,0:0:0:0:
64,192,247869,128,0,247955:0:0:0:0:
192,192,247869,128,0,248040:0:0:0:0:
448,192,247955,128,0,248126:0:0:0:0:
320,192,248040,1,0,0:0:0:0:
64,192,248040,128,0,248212:0:0:0:0:
192,192,248126,128,0,248212:0:0:0:0:
320,192,248212,128,0,248297:0:0:0:0:
448,192,248212,128,0,248383:0:0:0:0:
64,192,248297,128,0,248383:0:0:0:0:
192,192,248383,128,0,248469:0:0:0:0:
320,192,248383,128,0,248469:0:0:0:0:
448,192,248469,128,0,248555:0:0:0:0:
192,192,248555,1,0,0:0:0:0:
320,192,248555,128,0,248640:0:0:0:0:
64,192,248555,128,0,248640:0:0:0:0:
192,192,248640,128,0,248812:0:0:0:0:
448,192,248640,128,0,248726:0:0:0:0:
320,192,248726,128,0,248812:0:0:0:0:
64,192,248726,128,0,248812:0:0:0:0:
448,192,248812,1,0,0:0:0:0:
64,192,248897,1,0,0:0:0:0:
192,192,248897,128,0,248983:0:0:0:0:
448,192,248940,128,0,249026:0:0:0:0:
320,192,248983,128,0,249069:0:0:0:0:
448,192,249069,1,0,0:0:0:0:
64,192,249069,128,0,249155:0:0:0:0:
192,192,249155,128,0,249240:0:0:0:0:
320,192,249240,1,0,0:0:0:0:
448,192,249240,128,0,249326:0:0:0:0:
64,192,249240,128,0,249326:0:0:0:0:
320,192,249326,128,0,249412:0:0:0:0:
448,192,249412,1,0,0:0:0:0:
64,192,249412,128,0,249497:0:0:0:0:
192,192,249497,128,0,249583:0:0:0:0:
64,192,249583,128,0,249755:0:0:0:0:
448,192,249583,128,0,249669:0:0:0:0:
192,192,249669,128,0,249755:0:0:0:0:
320,192,249755,128,0,249840:0:0:0:0:
448,192,249755,128,0,249840:0:0:0:0:
192,192,249840,128,0,249926:0:0:0:0:
448,192,249926,1,0,0:0:0:0:
320,192,249926,128,0,250012:0:0:0:0:
64,192,249926,128,0,250097:0:0:0:0:
192,192,250012,128,0,250269:0:0:0:0:
448,192,250012,128,0,250097:0:0:0:0:
320,192,250097,128,0,250183:0:0:0:0:
64,192,250183,128,0,250269:0:0:0:0:
448,192,250269,1,0,0:0:0:0:
320,192,250269,128,0,250355:0:0:0:0:
64,192,250312,128,0,250397:0:0:0:0:
192,192,250355,128,0,250440:0:0:0:0:
64,192,250440,128,0,250526:0:0:0:0:
448,192,250440,128,0,250526:0:0:0:0:
192,192,250526,128,0,250612:0:0:0:0:
320,192,250612,1,0,0:0:0:0:
448,192,250612,128,0,250783:0:0:0:0:
64,192,250612,128,0,250697:0:0:0:0:
320,192,250697,128,0,250783:0:0:0:0:
64,192,250783,1,0,0:0:0:0:
192,192,250783,128,0,250955:0:0:0:0:
448,192,250869,128,0,250955:0:0:0:0:
320,192,250955,128,0,251126:0:0:0:0:
64,192,250955,128,0,251040:0:0:0:0:
192,192,251040,128,0,251212:0:0:0:0:
64,192,251126,128,0,251212:0:0:0:0:
448,192,251126,128,0,251212:0:0:0:0:
320,192,251212,128,0,251297:0:0:0:0:
448,192,251297,1,0,0:0:0:0:
192,192,251297,128,0,251555:0:0:0:0:
64,192,251297,128,0,251383:0:0:0:0:
320,192,251383,128,0,251469:0:0:0:0:
448,192,251383,128,0,251469:0:0:0:0:
64,192,251469,128,0,251555:0:0:0:0:
320,192,251555,128,0,251640:0:0:0:0:
448,192,251555,128,0,251640:0:0:0:0:
64,192,251640,1,0,0:0:0:0:
192,192,251640,128,0,251726:0:0:0:0:
320,192,251683,128,0,251769:0:0:0:0:
448,192,251726,128,0,251812:0:0:0:0:
320,192,251812,1,0,0:0:0:0:
64,192,251812,128,0,251897:0:0:0:0:
192,192,251897,128,0,251983:0:0:0:0:
448,192,251983,1,0,0:0:0:0:
320,192,251983,128,0,252155:0:0:0:0:
64,192,251983,128,0,252069:0:0:0:0:
448,192,252069,128,0,252155:0:0:0:0:
64,192,252155,1,0,0:0:0:0:
192,192,252155,128,0,252326:0:0:0:0:
320,192,252240,128,0,252326:0:0:0:0:
448,192,252326,128,0,252412:0:0:0:0:
64,192,252326,128,0,252497:0:0:0:0:
192,192,252412,128,0,252497:0:0:0:0:
320,192,252497,128,0,252583:0:0:0:0:
192,192,252583,128,0,252669:0:0:0:0:
448,192,252669,1,0,0:0:0:0:
320,192,252669,1,0,0:0:0:0:
64,192,252755,128,0,252840:0:0:0:0:
192,192,252797,128,0,252883:0:0:0:0:
320,192,252840,128,0,252926:0:0:0:0:
448,192,252840,128,0,252883:0:0:0:0:
192,192,252926,1,0,0:0:0:0:
448,192,253012,1,0,0:0:0:0:
64,192,253012,1,0,0:0:0:0:
320,192,253012,128,0,253183:0:0:0:0:
192,192,253097,128,0,253269:0:0:0:0:
448,192,253183,1,0,0:0:0:0:
64,192,253183,128,0,253269:0:0:0:0:
320,192,253269,1,0,0:0:0:0:
64,192,253355,1,0,0:0:0:0:
448,192,253355,1,0,0:0:0:0:
192,192,253355,128,0,253526:0:0:0:0:
320,192,253440,128,0,253526:0:0:0:0:
448,192,253526,1,0,0:0:0:0:
64,192,253526,128,0,253612:0:0:0:0:
192,192,253569,128,0,253655:0:0:0:0:
320,192,253612,128,0,253697:0:0:0:0:
448,192,253655,128,0,253697:0:0:0:0:
64,192,253697,128,0,253783:0:0:0:0:
192,192,253697,128,0,253740:0:0:0:0:
448,192,253783,128,0,253869:0:0:0:0:
192,192,253869,128,0,253955:0:0:0:0:
64,192,253869,128,0,253912:0:0:0:0:
320,192,253955,128,0,254040:0:0:0:0:
192,192,254040,1,0,0:0:0:0:
64,192,254040,1,0,0:0:0:0:
448,192,254040,128,0,254126:0:0:0:0:
320,192,254083,128,0,254169:0:0:0:0:
192,192,254126,128,0,254212:0:0:0:0:
64,192,254169,128,0,254212:0:0:0:0:
320,192,254212,128,0,254297:0:0:0:0:
448,192,254212,128,0,254297:0:0:0:0:
192,192,254297,128,0,254383:0:0:0:0:
64,192,254383,1,0,0:0:0:0:
448,192,254383,128,0,254469:0:0:0:0:
320,192,254426,128,0,254555:0:0:0:0:
192,192,254469,128,0,254512:0:0:0:0:
448,192,254512,128,0,254555:0:0:0:0:
64,192,254555,128,0,254640:0:0:0:0:
192,192,254555,128,0,254597:0:0:0:0:
320,192,254640,128,0,254726:0:0:0:0:
448,192,254726,1,0,0:0:0:0:
192,192,254726,128,0,254897:0:0:0:0:
64,192,254726,128,0,254812:0:0:0:0:
320,192,254812,128,0,254983:0:0:0:0:
448,192,254897,128,0,254983:0:0:0:0:
64,192,254897,128,0,255069:0:0:0:0:
192,192,254983,128,0,255069:0:0:0:0:
320,192,255069,128,0,255240:0:0:0:0:
448,192,255069,128,0,255155:0:0:0:0:
192,192,255155,128,0,255326:0:0:0:0:
448,192,255240,128,0,255326:0:0:0:0:
64,192,255240,128,0,255326:0:0:0:0:
320,192,255326,128,0,255412:0:0:0:0:
64,192,255412,1,0,0:0:0:0:
192,192,255412,128,0,255497:0:0:0:0:
448,192,255412,128,0,255497:0:0:0:0:
320,192,255497,128,0,255583:0:0:0:0:
64,192,255497,128,0,255669:0:0:0:0:
192,192,255583,128,0,255669:0:0:0:0:
320,192,255669,128,0,255755:0:0:0:0:
448,192,255755,1,0,0:0:0:0:
64,192,255755,128,0,255840:0:0:0:0:
192,192,255797,128,0,255883:0:0:0:0:
320,192,255840,128,0,255926:0:0:0:0:
192,192,255926,1,0,0:0:0:0:
64,192,255926,128,0,256012:0:0:0:0:
448,192,256012,128,0,256097:0:0:0:0:
320,192,256097,128,0,256269:0:0:0:0:
192,192,256097,128,0,256140:0:0:0:0:
64,192,256097,128,0,256140:0:0:0:0:
448,192,256183,128,0,256269:0:0:0:0:
64,192,256269,1,0,0:0:0:0:
192,192,256269,128,0,256355:0:0:0:0:
320,192,256355,128,0,256440:0:0:0:0:
448,192,256440,128,0,256526:0:0:0:0:
64,192,256440,128,0,256612:0:0:0:0:
192,192,256526,128,0,256612:0:0:0:0:
320,192,256612,128,0,256697:0:0:0:0:
448,192,256612,128,0,256697:0:0:0:0:
64,192,256697,1,0,0:0:0:0:
192,192,256697,128,0,256783:0:0:0:0:
64,192,256783,128,0,256869:0:0:0:0:
320,192,256783,128,0,256955:0:0:0:0:
448,192,256783,128,0,256869:0:0:0:0:
192,192,256869,128,0,256955:0:0:0:0:
64,192,256955,128,0,257040:0:0:0:0:
448,192,256955,128,0,257040:0:0:0:0:
320,192,257040,128,0,257126:0:0:0:0:
192,192,257040,128,0,257126:0:0:0:0:
448,192,257126,1,0,0:0:0:0:
64,192,257126,128,0,257212:0:0:0:0:
192,192,257169,128,0,257255:0:0:0:0:
320,192,257212,128,0,257297:0:0:0:0:
64,192,257297,1,0,0:0:0:0:
448,192,257297,128,0,257383:0:0:0:0:
192,192,257383,128,0,257469:0:0:0:0:
320,192,257469,128,0,257640:0:0:0:0:
448,192,257469,128,0,257555:0:0:0:0:
64,192,257469,128,0,257512:0:0:0:0:
192,192,257555,128,0,257726:0:0:0:0:
64,192,257640,128,0,257726:0:0:0:0:
448,192,257640,128,0,257726:0:0:0:0:
320,192,257726,128,0,257812:0:0:0:0:
192,192,257812,128,0,257983:0:0:0:0:
64,192,257812,128,0,257897:0:0:0:0:
320,192,257897,128,0,258069:0:0:0:0:
64,192,257983,128,0,258069:0:0:0:0:
448,192,257983,128,0,258069:0:0:0:0:
192,192,258069,128,0,258155:0:0:0:0:
320,192,258155,128,0,258326:0:0:0:0:
448,192,258155,128,0,258240:0:0:0:0:
64,192,258155,128,0,258240:0:0:0:0:
192,192,258240,128,0,258497:0:0:0:0:
64,192,258326,128,0,258412:0:0:0:0:
448,192,258326,128,0,258412:0:0:0:0:
320,192,258412,128,0,258497:0:0:0:0:
64,192,258497,128,0,258583:0:0:0:0:
448,192,258497,128,0,258583:0:0:0:0:
192,192,258540,128,0,258626:0:0:0:0:
320,192,258583,128,0,258669:0:0:0:0:
64,192,258626,128,0,258712:0:0:0:0:
448,192,258669,128,0,258755:0:0:0:0:
320,192,258712,128,0,258797:0:0:0:0:
192,192,258755,128,0,258840:0:0:0:0:
64,192,258797,128,0,258840:0:0:0:0:
448,192,258840,1,0,0:0:0:0:
320,192,258840,128,0,258926:0:0:0:0:
64,192,258926,128,0,259012:0:0:0:0:
448,192,258926,128,0,259097:0:0:0:0:
320,192,259012,128,0,259097:0:0:0:0:
192,192,259097,128,0,259183:0:0:0:0:
64,192,259097,128,0,259183:0:0:0:0:
320,192,259183,128,0,259355:0:0:0:0:
448,192,259183,128,0,259269:0:0:0:0:
192,192,259269,128,0,259440:0:0:0:0:
64,192,259355,128,0,259440:0:0:0:0:
448,192,259355,128,0,259440:0:0:0:0:
320,192,259440,128,0,259526:0:0:0:0:
448,192,259526,128,0,259612:0:0:0:0:
64,192,259526,128,0,259569:0:0:0:0:
192,192,259569,128,0,259612:0:0:0:0:
320,192,259612,128,0,259697:0:0:0:0:
64,192,259612,128,0,259783:0:0:0:0:
192,192,259697,128,0,259869:0:0:0:0:
448,192,259697,128,0,259783:0:0:0:0:
320,192,259783,128,0,259869:0:0:0:0:
64,192,259869,1,0,0:0:0:0:
448,192,259869,128,0,259955:0:0:0:0:
320,192,259912,128,0,259997:0:0:0:0:
192,192,259955,128,0,260040:0:0:0:0:
64,192,259997,128,0,260040:0:0:0:0:
448,192,260040,1,0,0:0:0:0:
320,192,260040,128,0,260126:0:0:0:0:
192,192,260126,128,0,260212:0:0:0:0:
448,192,260212,1,0,0:0:0:0:
64,192,260212,1,0,0:0:0:0:
320,192,260212,128,0,260383:0:0:0:0:
192,192,260297,128,0,260383:0:0:0:0:
64,192,260383,128,0,260469:0:0:0:0:
448,192,260383,128,0,260469:0:0:0:0:
320,192,260469,128,0,260555:0:0:0:0:
448,192,260555,1,0,0:0:0:0:
64,192,260555,128,0,260640:0:0:0:0:
192,192,260640,128,0,260726:0:0:0:0:
448,192,260640,128,0,260812:0:0:0:0:
64,192,260726,1,0,0:0:0:0:
320,192,260726,128,0,260812:0:0:0:0:
192,192,260812,128,0,260897:0:0:0:0:
320,192,260897,1,0,0:0:0:0:
448,192,260897,1,0,0:0:0:0:
64,192,260897,128,0,260983:0:0:0:0:
192,192,260940,128,0,261026:0:0:0:0:
320,192,260983,128,0,261069:0:0:0:0:
64,192,261026,128,0,261069:0:0:0:0:
448,192,261069,128,0,261155:0:0:0:0:
192,192,261155,128,0,261240:0:0:0:0:
448,192,261240,1,0,0:0:0:0:
64,192,261240,128,0,261326:0:0:0:0:
192,192,261283,128,0,261369:0:0:0:0:
320,192,261326,128,0,261412:0:0:0:0:
448,192,261369,128,0,261412:0:0:0:0:
192,192,261412,128,0,261497:0:0:0:0:
64,192,261412,128,0,261540:0:0:0:0:
320,192,261497,128,0,261583:0:0:0:0:
64,192,261583,1,0,0:0:0:0:
448,192,261583,1,0,0:0:0:0:
192,192,261583,1,0,0:0:0:0:
64,192,261669,128,0,261755:0:0:0:0:
320,192,261755,128,0,261797:0:0:0:0:
448,192,261755,128,0,261926:0:0:0:0:
320,192,261840,128,0,261926:0:0:0:0:
192,192,261926,128,0,262012:0:0:0:0:
64,192,261926,1,0,0:0:0:0:
64,192,262012,128,0,262183:0:0:0:0:
448,192,262012,128,0,262055:0:0:0:0:
192,192,262097,128,0,262183:0:0:0:0:
448,192,262097,128,0,262183:0:0:0:0:
320,192,262183,128,0,262269:0:0:0:0:
192,192,262269,1,0,0:0:0:0:
64,192,262269,1,0,0:0:0:0:
448,192,262269,128,0,262355:0:0:0:0:
320,192,262312,128,0,262397:0:0:0:0:
192,192,262355,128,0,262440:0:0:0:0:
448,192,262397,128,0,262440:0:0:0:0:
64,192,262440,128,0,262612:0:0:0:0:
192,192,262526,128,0,262612:0:0:0:0:
448,192,262612,1,0,0:0:0:0:
320,192,262612,128,0,262783:0:0:0:0:
192,192,262697,128,0,262783:0:0:0:0:
64,192,262783,128,0,262869:0:0:0:0:
448,192,262783,128,0,262912:0:0:0:0:
320,192,262869,128,0,262955:0:0:0:0:
448,192,262955,1,0,0:0:0:0:
192,192,262955,128,0,263126:0:0:0:0:
64,192,262955,128,0,263083:0:0:0:0:
320,192,263040,128,0,263126:0:0:0:0:
448,192,263126,128,0,263212:0:0:0:0:
64,192,263126,128,0,263297:0:0:0:0:
192,192,263212,1,0,0:0:0:0:
320,192,263297,128,0,263469:0:0:0:0:
448,192,263297,128,0,263426:0:0:0:0:
192,192,263383,128,0,263597:0:0:0:0:
448,192,263469,1,0,0:0:0:0:
64,192,263469,128,0,263597:0:0:0:0:
320,192,263555,128,0,263640:0:0:0:0:
192,192,263640,128,0,263812:0:0:0:0:
64,192,263640,128,0,263812:0:0:0:0:
448,192,263640,128,0,263812:0:0:0:0:
64,192,263983,1,0,0:0:0:0:
320,192,263983,128,0,264155:0:0:0:0:
192,192,264069,128,0,264283:0:0:0:0:
448,192,264155,1,0,0:0:0:0:
64,192,264155,128,0,264283:0:0:0:0:
320,192,264240,128,0,264326:0:0:0:0:
448,192,264326,128,0,264455:0:0:0:0:
192,192,264326,128,0,264497:0:0:0:0:
64,192,264326,128,0,264412:0:0:0:0:
320,192,264412,128,0,264497:0:0:0:0:
448,192,264497,1,0,0:0:0:0:
64,192,264497,128,0,264669:0:0:0:0:
192,192,264583,128,0,264669:0:0:0:0:
320,192,264669,128,0,264840:0:0:0:0:
448,192,264669,128,0,264797:0:0:0:0:
192,192,264755,128,0,264840:0:0:0:0:
64,192,264840,128,0,264969:0:0:0:0:
448,192,264840,128,0,264926:0:0:0:0:
320,192,264926,128,0,265012:0:0:0:0:
64,192,265012,128,0,265097:0:0:0:0:
448,192,265012,128,0,265097:0:0:0:0:
192,192,265012,128,0,265097:0:0:0:0:
320,192,265097,128,0,265355:0:0:0:0:
64,192,265183,128,0,265269:0:0:0:0:
192,192,265183,128,0,265269:0:0:0:0:
448,192,265269,128,0,265355:0:0:0:0:
192,192,265355,128,0,265526:0:0:0:0:
64,192,265355,128,0,265483:0:0:0:0:
320,192,265440,128,0,265526:0:0:0:0:
448,192,265526,128,0,265655:0:0:0:0:
64,192,265526,128,0,265655:0:0:0:0:
192,192,265612,128,0,265697:0:0:0:0:
64,192,265697,1,0,0:0:0:0:
320,192,265697,128,0,265869:0:0:0:0:
448,192,265697,128,0,265826:0:0:0:0:
192,192,265783,128,0,265869:0:0:0:0:
64,192,265869,128,0,265997:0:0:0:0:
448,192,265869,128,0,265955:0:0:0:0:
320,192,265955,128,0,266040:0:0:0:0:
192,192,266040,128,0,266212:0:0:0:0:
64,192,266040,128,0,266126:0:0:0:0:
448,192,266040,128,0,266126:0:0:0:0:
320,192,266126,128,0,266297:0:0:0:0:
64,192,266212,128,0,266297:0:0:0:0:
448,192,266212,128,0,266297:0:0:0:0:
192,192,266297,128,0,266383:0:0:0:0:
448,192,266383,1,0,0:0:0:0:
64,192,266383,128,0,266469:0:0:0:0:
320,192,266383,128,0,266469:0:0:0:0:
192,192,266469,128,0,266555:0:0:0:0:
448,192,266469,128,0,266555:0:0:0:0:
320,192,266555,128,0,266640:0:0:0:0:
64,192,266555,128,0,266640:0:0:0:0:
192,192,266597,128,0,266683:0:0:0:0:
448,192,266640,128,0,266726:0:0:0:0:
320,192,266683,128,0,266726:0:0:0:0:
192,192,266726,128,0,266897:0:0:0:0:
64,192,266726,128,0,266855:0:0:0:0:
320,192,266812,128,0,266897:0:0:0:0:
64,192,266897,128,0,266983:0:0:0:0:
448,192,266897,128,0,267026:0:0:0:0:
192,192,266983,128,0,267069:0:0:0:0:
320,192,267069,128,0,267240:0:0:0:0:
64,192,267069,128,0,267197:0:0:0:0:
448,192,267069,1,0,0:0:0:0:
192,192,267155,128,0,267369:0:0:0:0:
448,192,267240,128,0,267412:0:0:0:0:
64,192,267240,128,0,267369:0:0:0:0:
320,192,267326,128,0,267412:0:0:0:0:
192,192,267412,128,0,267583:0:0:0:0:
64,192,267412,128,0,267540:0:0:0:0:
320,192,267497,128,0,267583:0:0:0:0:
448,192,267583,128,0,267669:0:0:0:0:
64,192,267583,128,0,267669:0:0:0:0:
192,192,267669,128,0,267755:0:0:0:0:
320,192,267755,1,0,0:0:0:0:
448,192,267755,128,0,267840:0:0:0:0:
64,192,267755,128,0,267926:0:0:0:0:
192,192,267840,128,0,267926:0:0:0:0:
448,192,267926,128,0,268012:0:0:0:0:
320,192,267926,128,0,268097:0:0:0:0:
192,192,268012,128,0,268097:0:0:0:0:
64,192,268097,128,0,268269:0:0:0:0:
448,192,268097,128,0,268226:0:0:0:0:
320,192,268183,128,0,268397:0:0:0:0:
448,192,268269,1,0,0:0:0:0:
192,192,268269,128,0,268397:0:0:0:0:
64,192,268355,128,0,268440:0:0:0:0:
192,192,268440,128,0,268612:0:0:0:0:
448,192,268440,128,0,268569:0:0:0:0:
320,192,268440,128,0,268569:0:0:0:0:
64,192,268526,128,0,268612:0:0:0:0:
320,192,268612,128,0,268783:0:0:0:0:
448,192,268612,128,0,268740:0:0:0:0:
192,192,268697,128,0,268783:0:0:0:0:
64,192,268783,128,0,268869:0:0:0:0:
448,192,268783,128,0,268869:0:0:0:0:
192,192,268869,128,0,269040:0:0:0:0:
448,192,268955,128,0,269040:0:0:0:0:
64,192,268955,128,0,269040:0:0:0:0:
320,192,269040,128,0,269126:0:0:0:0:
64,192,269126,1,0,0:0:0:0:
192,192,269126,128,0,269212:0:0:0:0:
448,192,269126,128,0,269212:0:0:0:0:
320,192,269212,128,0,269297:0:0:0:0:
64,192,269212,128,0,269297:0:0:0:0:
448,192,269297,128,0,269383:0:0:0:0:
192,192,269297,128,0,269383:0:0:0:0:
320,192,269340,128,0,269426:0:0:0:0:
64,192,269383,128,0,269469:0:0:0:0:
192,192,269426,128,0,269469:0:0:0:0:
320,192,269469,128,0,269640:0:0:0:0:
448,192,269469,128,0,269555:0:0:0:0:
64,192,269555,128,0,269683:0:0:0:0:
192,192,269640,128,0,269726:0:0:0:0:
448,192,269640,128,0,269726:0:0:0:0:
64,192,269726,1,0,0:0:0:0:
320,192,269726,128,0,269812:0:0:0:0:
448,192,269812,1,0,0:0:0:0:
192,192,269812,128,0,269983:0:0:0:0:
64,192,269812,128,0,269897:0:0:0:0:
320,192,269897,128,0,269983:0:0:0:0:
64,192,269983,1,0,0:0:0:0:
448,192,269983,128,0,270069:0:0:0:0:
64,192,270069,128,0,270155:0:0:0:0:
192,192,270069,128,0,270112:0:0:0:0:
320,192,270155,128,0,270326:0:0:0:0:
448,192,270155,128,0,270240:0:0:0:0:
192,192,270240,128,0,270455:0:0:0:0:
64,192,270326,128,0,270455:0:0:0:0:
448,192,270326,128,0,270412:0:0:0:0:
320,192,270412,128,0,270497:0:0:0:0:
64,192,270497,1,0,0:0:0:0:
192,192,270497,1,0,0:0:0:0:
448,192,270497,128,0,270669:0:0:0:0:
320,192,270583,128,0,270669:0:0:0:0:
64,192,270583,128,0,270755:0:0:0:0:
192,192,270669,128,0,270840:0:0:0:0:
320,192,270755,128,0,270840:0:0:0:0:
64,192,270840,128,0,271055:0:0:0:0:
448,192,270840,128,0,270926:0:0:0:0:
192,192,270926,128,0,271055:0:0:0:0:
320,192,271012,128,0,271097:0:0:0:0:
448,192,271012,128,0,271097:0:0:0:0:
64,192,271097,1,0,0:0:0:0:
192,192,271097,128,0,271183:0:0:0:0:
320,192,271183,128,0,271355:0:0:0:0:
64,192,271183,128,0,271269:0:0:0:0:
448,192,271183,128,0,271269:0:0:0:0:
192,192,271269,128,0,271355:0:0:0:0:
448,192,271355,128,0,271526:0:0:0:0:
64,192,271355,128,0,271483:0:0:0:0:
320,192,271440,128,0,271526:0:0:0:0:
192,192,271526,128,0,271697:0:0:0:0:
64,192,271526,128,0,271612:0:0:0:0:
320,192,271612,128,0,271697:0:0:0:0:
448,192,271697,128,0,271783:0:0:0:0:
64,192,271697,128,0,271783:0:0:0:0:
320,192,271783,1,0,0:0:0:0:
192,192,271783,128,0,271912:0:0:0:0:
320,192,271869,128,0,272040:0:0:0:0:
64,192,271869,128,0,271997:0:0:0:0:
448,192,271869,128,0,271955:0:0:0:0:
192,192,271955,128,0,272040:0:0:0:0:
448,192,272040,1,0,0:0:0:0:
64,192,272040,128,0,272126:0:0:0:0:
320,192,272126,128,0,272212:0:0:0:0:
448,192,272212,128,0,272297:0:0:0:0:
64,192,272212,128,0,272426:0:0:0:0:
192,192,272297,128,0,272426:0:0:0:0:
320,192,272383,128,0,272469:0:0:0:0:
448,192,272383,1,0,0:0:0:0:
192,192,272469,128,0,272555:0:0:0:0:
320,192,272555,128,0,272726:0:0:0:0:
64,192,272555,128,0,272640:0:0:0:0:
448,192,272555,128,0,272640:0:0:0:0:
192,192,272640,128,0,272726:0:0:0:0:
448,192,272726,128,0,272897:0:0:0:0:
64,192,272726,128,0,272855:0:0:0:0:
320,192,272812,128,0,272897:0:0:0:0:
64,192,272897,1,0,0:0:0:0:
192,192,272897,128,0,273069:0:0:0:0:
320,192,272983,128,0,273155:0:0:0:0:
64,192,273069,128,0,273155:0:0:0:0:
448,192,273069,128,0,273155:0:0:0:0:
192,192,273155,128,0,273240:0:0:0:0:
320,192,273240,128,0,273455:0:0:0:0:
64,192,273240,128,0,273326:0:0:0:0:
448,192,273240,128,0,273283:0:0:0:0:
192,192,273326,128,0,273497:0:0:0:0:
448,192,273326,128,0,273412:0:0:0:0:
64,192,273412,128,0,273497:0:0:0:0:
448,192,273497,128,0,273583:0:0:0:0:
320,192,273497,1,0,0:0:0:0:
192,192,273583,128,0,273669:0:0:0:0:
64,192,273583,128,0,273669:0:0:0:0:
320,192,273669,128,0,273797:0:0:0:0:
192,192,273755,128,0,273840:0:0:0:0:
448,192,273755,128,0,273840:0:0:0:0:
64,192,273840,1,0,0:0:0:0:
320,192,273840,128,0,273926:0:0:0:0:
192,192,273926,128,0,274097:0:0:0:0:
64,192,273926,128,0,274012:0:0:0:0:
448,192,273926,128,0,274012:0:0:0:0:
320,192,274012,128,0,274183:0:0:0:0:
64,192,274097,128,0,274269:0:0:0:0:
448,192,274097,128,0,274226:0:0:0:0:
192,192,274183,128,0,274269:0:0:0:0:
448,192,274269,1,0,0:0:0:0:
320,192,274269,1,0,0:0:0:0:
448,192,274355,128,0,274440:0:0:0:0:
192,192,274440,128,0,274526:0:0:0:0:
320,192,274526,128,0,274612:0:0:0:0:
64,192,274612,1,0,0:0:0:0:
448,192,274697,128,0,274783:0:0:0:0:
320,192,274740,128,0,274826:0:0:0:0:
192,192,274783,128,0,274869:0:0:0:0:
448,192,274869,128,0,274955:0:0:0:0:
192,192,274955,128,0,275126:0:0:0:0:
64,192,274955,128,0,275040:0:0:0:0:
320,192,275040,128,0,275126:0:0:0:0:
64,192,275126,128,0,275212:0:0:0:0:
448,192,275126,128,0,275212:0:0:0:0:
192,192,275212,128,0,275297:0:0:0:0:
64,192,275297,1,0,0:0:0:0:
320,192,275297,128,0,275469:0:0:0:0:
448,192,275297,128,0,275383:0:0:0:0:
192,192,275383,128,0,275469:0:0:0:0:
64,192,275469,1,0,0:0:0:0:
448,192,275469,128,0,275555:0:0:0:0:
320,192,275512,128,0,275597:0:0:0:0:
192,192,275555,128,0,275640:0:0:0:0:
64,192,275597,128,0,275640:0:0:0:0:
320,192,275640,128,0,275726:0:0:0:0:
448,192,275640,128,0,275726:0:0:0:0:
64,192,275726,128,0,275812:0:0:0:0:
320,192,275812,128,0,275897:0:0:0:0:
448,192,275812,128,0,275897:0:0:0:0:
192,192,275897,128,0,275983:0:0:0:0:
448,192,275983,1,0,0:0:0:0:
320,192,275983,1,0,0:0:0:0:
64,192,275983,128,0,276069:0:0:0:0:
192,192,276026,128,0,276112:0:0:0:0:
320,192,276069,128,0,276155:0:0:0:0:
448,192,276112,128,0,276155:0:0:0:0:
192,192,276155,128,0,276326:0:0:0:0:
64,192,276155,128,0,276240:0:0:0:0:
320,192,276240,128,0,276326:0:0:0:0:
448,192,276326,1,0,0:0:0:0:
64,192,276326,128,0,276412:0:0:0:0:
192,192,276369,128,0,276455:0:0:0:0:
320,192,276412,128,0,276455:0:0:0:0:
64,192,276455,128,0,276540:0:0:0:0:
320,192,276497,128,0,276583:0:0:0:0:
448,192,276497,128,0,276583:0:0:0:0:
192,192,276583,128,0,276669:0:0:0:0:
320,192,276669,128,0,276840:0:0:0:0:
64,192,276669,128,0,276755:0:0:0:0:
448,192,276669,128,0,276712:0:0:0:0:
192,192,276755,128,0,276840:0:0:0:0:
448,192,276840,128,0,277012:0:0:0:0:
64,192,276840,128,0,276926:0:0:0:0:
320,192,276926,128,0,277012:0:0:0:0:
192,192,277012,128,0,277183:0:0:0:0:
64,192,277012,128,0,277097:0:0:0:0:
320,192,277097,128,0,277183:0:0:0:0:
448,192,277183,128,0,277269:0:0:0:0:
64,192,277183,128,0,277269:0:0:0:0:
192,192,277269,128,0,277355:0:0:0:0:
448,192,277355,1,0,0:0:0:0:
320,192,277355,1,0,0:0:0:0:
64,192,277355,128,0,277526:0:0:0:0:
192,192,277440,128,0,277526:0:0:0:0:
448,192,277440,128,0,277612:0:0:0:0:
320,192,277526,128,0,277612:0:0:0:0:
192,192,277612,128,0,277697:0:0:0:0:
64,192,277697,1,0,0:0:0:0:
448,192,277697,128,0,277783:0:0:0:0:
320,192,277740,128,0,277826:0:0:0:0:
192,192,277783,128,0,277869:0:0:0:0:
448,192,277869,1,0,0:0:0:0:
320,192,277869,128,0,277955:0:0:0:0:
64,192,277955,128,0,278040:0:0:0:0:
192,192,278040,128,0,278212:0:0:0:0:
320,192,278040,128,0,278126:0:0:0:0:
448,192,278040,128,0,278126:0:0:0:0:
64,192,278126,128,0,278212:0:0:0:0:
320,192,278212,128,0,278383:0:0:0:0:
448,192,278212,128,0,278297:0:0:0:0:
192,192,278297,128,0,278383:0:0:0:0:
64,192,278383,128,0,278469:0:0:0:0:
448,192,278383,128,0,278469:0:0:0:0:
320,192,278469,128,0,278555:0:0:0:0:
192,192,278555,128,0,278640:0:0:0:0:
64,192,278555,128,0,278640:0:0:0:0:
448,192,278640,1,0,0:0:0:0:
320,192,278640,128,0,278726:0:0:0:0:
64,192,278726,1,0,0:0:0:0:
448,192,278726,128,0,278812:0:0:0:0:
192,192,278726,128,0,278812:0:0:0:0:
320,192,278769,128,0,278855:0:0:0:0:
64,192,278812,128,0,278897:0:0:0:0:
192,192,278855,128,0,278983:0:0:0:0:
448,192,278897,1,0,0:0:0:0:
320,192,278897,128,0,278983:0:0:0:0:
64,192,278983,128,0,279069:0:0:0:0:
448,192,279069,128,0,279155:0:0:0:0:
192,192,279069,1,0,0:0:0:0:
320,192,279112,128,0,279197:0:0:0:0:
192,192,279155,128,0,279240:0:0:0:0:
448,192,279240,1,0,0:0:0:0:
64,192,279240,128,0,279326:0:0:0:0:
320,192,279326,128,0,279412:0:0:0:0:
64,192,279412,1,0,0:0:0:0:
448,192,279412,1,0,0:0:0:0:
192,192,279412,128,0,279583:0:0:0:0:
320,192,279497,128,0,279583:0:0:0:0:
64,192,279583,128,0,279755:0:0:0:0:
448,192,279583,128,0,279669:0:0:0:0:
192,192,279669,128,0,279755:0:0:0:0:
320,192,279755,128,0,279926:0:0:0:0:
448,192,279755,128,0,279840:0:0:0:0:
192,192,279840,128,0,279926:0:0:0:0:
64,192,279926,128,0,280012:0:0:0:0:
448,192,279926,128,0,280012:0:0:0:0:
320,192,280012,128,0,280097:0:0:0:0:
192,192,280097,128,0,280269:0:0:0:0:
64,192,280097,128,0,280183:0:0:0:0:
448,192,280097,128,0,280183:0:0:0:0:
320,192,280183,128,0,280269:0:0:0:0:
64,192,280269,128,0,280355:0:0:0:0:
448,192,280269,128,0,280355:0:0:0:0:
320,192,280355,1,0,0:0:0:0:
192,192,280355,128,0,280440:0:0:0:0:
64,192,280440,1,0,0:0:0:0:
320,192,280440,128,0,280612:0:0:0:0:
448,192,280440,128,0,280526:0:0:0:0:
64,192,280526,128,0,280740:0:0:0:0:
192,192,280612,128,0,280740:0:0:0:0:
448,192,280612,128,0,280697:0:0:0:0:
320,192,280697,128,0,280955:0:0:0:0:
448,192,280783,1,0,0:0:0:0:
192,192,280783,128,0,280869:0:0:0:0:
64,192,280783,128,0,280869:0:0:0:0:
448,192,280869,128,0,281040:0:0:0:0:
64,192,280955,1,0,0:0:0:0:
192,192,280955,128,0,281040:0:0:0:0:
64,192,281040,128,0,281255:0:0:0:0:
192,192,281126,128,0,281255:0:0:0:0:
448,192,281126,128,0,281297:0:0:0:0:
320,192,281126,128,0,281169:0:0:0:0:
320,192,281212,128,0,281297:0:0:0:0:
192,192,281297,128,0,281383:0:0:0:0:
64,192,281297,128,0,281383:0:0:0:0:
320,192,281383,128,0,281469:0:0:0:0:
192,192,281469,128,0,281640:0:0:0:0:
448,192,281469,128,0,281597:0:0:0:0:
64,192,281469,128,0,281512:0:0:0:0:
64,192,281555,128,0,281640:0:0:0:0:
320,192,281640,128,0,281726:0:0:0:0:
448,192,281640,128,0,281726:0:0:0:0:
64,192,281726,1,0,0:0:0:0:
192,192,281726,128,0,281812:0:0:0:0:
320,192,281812,128,0,281983:0:0:0:0:
448,192,281812,128,0,281897:0:0:0:0:
64,192,281812,128,0,281940:0:0:0:0:
192,192,281897,128,0,282069:0:0:0:0:
448,192,281983,128,0,282112:0:0:0:0:
64,192,281983,128,0,282069:0:0:0:0:
320,192,282069,128,0,282155:0:0:0:0:
64,192,282155,128,0,282240:0:0:0:0:
448,192,282155,128,0,282240:0:0:0:0:
192,192,282155,128,0,282197:0:0:0:0:
192,192,282240,128,0,282412:0:0:0:0:
64,192,282326,128,0,282412:0:0:0:0:
320,192,282326,128,0,282455:0:0:0:0:
448,192,282412,128,0,282497:0:0:0:0:
320,192,282497,128,0,282669:0:0:0:0:
192,192,282497,128,0,282583:0:0:0:0:
64,192,282497,128,0,282583:0:0:0:0:
448,192,282583,128,0,282755:0:0:0:0:
192,192,282669,128,0,282755:0:0:0:0:
64,192,282669,128,0,282755:0:0:0:0:
320,192,282755,128,0,282840:0:0:0:0:
64,192,282840,1,0,0:0:0:0:
192,192,282840,128,0,283012:0:0:0:0:
448,192,282840,128,0,282969:0:0:0:0:
64,192,282926,128,0,283097:0:0:0:0:
320,192,283012,128,0,283140:0:0:0:0:
448,192,283012,128,0,283140:0:0:0:0:
192,192,283097,128,0,283183:0:0:0:0:
320,192,283183,128,0,283312:0:0:0:0:
64,192,283183,128,0,283269:0:0:0:0:
448,192,283183,128,0,283269:0:0:0:0:
192,192,283269,128,0,283355:0:0:0:0:
320,192,283355,1,0,0:0:0:0:
64,192,283355,128,0,283440:0:0:0:0:
448,192,283355,128,0,283483:0:0:0:0:
320,192,283440,128,0,283526:0:0:0:0:
192,192,283440,128,0,283526:0:0:0:0:
64,192,283526,128,0,283655:0:0:0:0:
448,192,283526,128,0,283655:0:0:0:0:
192,192,283612,128,0,283697:0:0:0:0:
320,192,283697,128,0,283826:0:0:0:0:
448,192,283697,128,0,283826:0:0:0:0:
64,192,283697,128,0,283740:0:0:0:0:
64,192,283783,128,0,283869:0:0:0:0:
448,192,283869,1,0,0:0:0:0:
192,192,283869,128,0,283955:0:0:0:0:
320,192,283869,128,0,283955:0:0:0:0:
64,192,283955,128,0,284169:0:0:0:0:
448,192,283955,128,0,284040:0:0:0:0:
320,192,284040,128,0,284169:0:0:0:0:
192,192,284040,128,0,284169:0:0:0:0:
448,192,284126,128,0,284212:0:0:0:0:
320,192,284212,1,0,0:0:0:0:
192,192,284212,128,0,284340:0:0:0:0:
64,192,284212,128,0,284297:0:0:0:0:
320,192,284297,128,0,284469:0:0:0:0:
192,192,284383,1,0,0:0:0:0:
64,192,284383,128,0,284469:0:0:0:0:
448,192,284383,128,0,284469:0:0:0:0:
192,192,284469,128,0,284555:0:0:0:0:
320,192,284555,128,0,284683:0:0:0:0:
64,192,284555,128,0,284683:0:0:0:0:
192,192,284640,128,0,284769:0:0:0:0:
448,192,284640,128,0,284812:0:0:0:0:
64,192,284726,128,0,284812:0:0:0:0:
320,192,284726,128,0,284940:0:0:0:0:
192,192,284812,128,0,284940:0:0:0:0:
448,192,284897,128,0,284983:0:0:0:0:
64,192,284897,128,0,285026:0:0:0:0:
320,192,284983,128,0,285069:0:0:0:0:
192,192,284983,128,0,285197:0:0:0:0:
64,192,285069,128,0,285240:0:0:0:0:
448,192,285069,128,0,285155:0:0:0:0:
320,192,285155,128,0,285240:0:0:0:0:
192,192,285240,128,0,285369:0:0:0:0:
448,192,285240,128,0,285326:0:0:0:0:
320,192,285326,128,0,285455:0:0:0:0:
64,192,285326,128,0,285540:0:0:0:0:
448,192,285412,128,0,285540:0:0:0:0:
192,192,285412,128,0,285497:0:0:0:0:
320,192,285497,128,0,285583:0:0:0:0:
192,192,285583,1,0,0:0:0:0:
64,192,285583,1,0,0:0:0:0:
448,192,285583,1,0,0:0:0:0:
320,192,285669,128,0,285755:0:0:0:0:
192,192,285755,1,0,0:0:0:0:
64,192,285926,128,0,286097:0:0:0:0:
448,192,285926,128,0,286140:0:0:0:0:
192,192,285926,128,0,286012:0:0:0:0:
320,192,286012,128,0,286140:0:0:0:0:
192,192,286097,128,0,286183:0:0:0:0:
320,192,286183,128,0,286355:0:0:0:0:
64,192,286183,128,0,286312:0:0:0:0:
448,192,286183,128,0,286312:0:0:0:0:
192,192,286269,128,0,286355:0:0:0:0:
64,192,286355,128,0,286440:0:0:0:0:
448,192,286355,128,0,286440:0:0:0:0:
192,192,286440,128,0,286526:0:0:0:0:
320,192,286440,128,0,286526:0:0:0:0:
64,192,286526,128,0,286612:0:0:0:0:
448,192,286526,128,0,286612:0:0:0:0:
320,192,286612,1,0,0:0:0:0:
192,192,286640,1,0,0:0:0:0:
64,192,286669,1,0,0:0:0:0:
448,192,286697,1,0,0:0:0:0:
192,192,286783,128,0,286826:0:0:0:0:
320,192,286826,128,0,286869:0:0:0:0:
64,192,286869,128,0,286912:0:0:0:0:
448,192,286912,128,0,286955:0:0:0:0:
192,192,286955,1,0,0:0:0:0:
64,192,286955,1,0,0:0:0:0:
448,192,287040,1,0,0:0:0:0:
320,192,287040,1,0,0:0:0:0:
64,192,287126,1,0,0:0:0:0:
448,192,287126,1,0,0:0:0:0:
192,192,287212,1,0,0:0:0:0:
448,192,287297,128,0,287469:0:0:0:0:
320,192,287297,128,0,287383:0:0:0:0:
64,192,287297,128,0,287512:0:0:0:0:
192,192,287383,128,0,287512:0:0:0:0:
320,192,287469,128,0,287555:0:0:0:0:
192,192,287555,128,0,287726:0:0:0:0:
448,192,287555,128,0,287640:0:0:0:0:
64,192,287555,128,0,287640:0:0:0:0:
320,192,287640,128,0,287726:0:0:0:0:
64,192,287726,128,0,287812:0:0:0:0:
448,192,287726,128,0,287812:0:0:0:0:
192,192,287812,1,0,0:0:0:0:
320,192,287812,128,0,287897:0:0:0:0:
448,192,287897,1,0,0:0:0:0:
192,192,287897,128,0,287983:0:0:0:0:
64,192,287897,128,0,287983:0:0:0:0:
448,192,287983,1,0,0:0:0:0:
320,192,287983,128,0,288155:0:0:0:0:
64,192,288069,128,0,288155:0:0:0:0:
192,192,288155,1,0,0:0:0:0:
448,192,288155,128,0,288326:0:0:0:0:
64,192,288240,1,0,0:0:0:0:
320,192,288240,128,0,288326:0:0:0:0:
192,192,288326,128,0,288412:0:0:0:0:
64,192,288326,128,0,288369:0:0:0:0:
448,192,288412,128,0,288497:0:0:0:0:
64,192,288497,128,0,288583:0:0:0:0:
192,192,288497,128,0,288540:0:0:0:0:
320,192,288583,128,0,288669:0:0:0:0:
64,192,288669,128,0,288840:0:0:0:0:
192,192,288669,128,0,288755:0:0:0:0:
448,192,288669,128,0,288883:0:0:0:0:
320,192,288755,128,0,288883:0:0:0:0:
192,192,288840,128,0,288926:0:0:0:0:
64,192,288926,128,0,289097:0:0:0:0:
320,192,288926,128,0,289055:0:0:0:0:
448,192,288926,128,0,289055:0:0:0:0:
192,192,289012,128,0,289097:0:0:0:0:
448,192,289097,1,0,0:0:0:0:
320,192,289097,128,0,289183:0:0:0:0:
192,192,289183,1,0,0:0:0:0:
64,192,289183,128,0,289269:0:0:0:0:
448,192,289269,128,0,289355:0:0:0:0:
320,192,289269,128,0,289355:0:0:0:0:
64,192,289355,128,0,289397:0:0:0:0:
192,192,289376,128,0,289419:0:0:0:0:
64,192,289440,128,0,289483:0:0:0:0:
192,192,289462,128,0,289505:0:0:0:0:
448,192,289526,128,0,289569:0:0:0:0:
320,192,289547,128,0,289590:0:0:0:0:
448,192,289612,128,0,289655:0:0:0:0:
320,192,289633,128,0,289676:0:0:0:0:
448,192,289697,1,0,0:0:0:0:
192,192,289697,1,0,0:0:0:0:
64,192,289697,128,0,289783:0:0:0:0:
192,192,289783,128,0,289869:0:0:0:0:
320,192,289869,128,0,289955:0:0:0:0:
64,192,289869,128,0,289912:0:0:0:0:
192,192,289912,128,0,289997:0:0:0:0:
448,192,289955,128,0,289997:0:0:0:0:
320,192,289997,128,0,290040:0:0:0:0:
64,192,290040,128,0,290212:0:0:0:0:
192,192,290040,128,0,290126:0:0:0:0:
448,192,290040,128,0,290255:0:0:0:0:
320,192,290126,128,0,290255:0:0:0:0:
192,192,290212,128,0,290297:0:0:0:0:
64,192,290297,128,0,290469:0:0:0:0:
320,192,290297,128,0,290426:0:0:0:0:
448,192,290297,128,0,290426:0:0:0:0:
192,192,290383,128,0,290469:0:0:0:0:
448,192,290469,1,0,0:0:0:0:
320,192,290469,128,0,290640:0:0:0:0:
64,192,290555,1,0,0:0:0:0:
192,192,290555,128,0,290640:0:0:0:0:
64,192,290640,128,0,290726:0:0:0:0:
448,192,290640,128,0,290726:0:0:0:0:
320,192,290726,128,0,290812:0:0:0:0:
192,192,290769,128,0,290855:0:0:0:0:
448,192,290812,128,0,290897:0:0:0:0:
320,192,290855,128,0,290940:0:0:0:0:
64,192,290897,128,0,290983:0:0:0:0:
192,192,290940,128,0,291026:0:0:0:0:
320,192,290983,128,0,291069:0:0:0:0:
448,192,291026,128,0,291069:0:0:0:0:
192,192,291069,1,0,0:0:0:0:
64,192,291069,1,0,0:0:0:0:
64,192,291155,1,0,0:0:0:0:
192,192,291155,1,0,0:0:0:0:
448,192,291240,1,0,0:0:0:0:
320,192,291240,1,0,0:0:0:0:
320,192,291326,1,0,0:0:0:0:
448,192,291326,1,0,0:0:0:0:
448,192,291412,128,0,291497:0:0:0:0:
64,192,291412,128,0,291455:0:0:0:0:
320,192,291455,128,0,291540:0:0:0:0:
192,192,291497,128,0,291583:0:0:0:0:
64,192,291540,128,0,291583:0:0:0:0:
320,192,291583,1,0,0:0:0:0:
448,192,291583,1,0,0:0:0:0:
64,192,291669,128,0,291755:0:0:0:0:
448,192,291669,128,0,291712:0:0:0:0:
192,192,291712,128,0,291797:0:0:0:0:
320,192,291755,128,0,291840:0:0:0:0:
448,192,291797,128,0,291883:0:0:0:0:
192,192,291840,128,0,291883:0:0:0:0:
64,192,291883,128,0,291926:0:0:0:0:
448,192,291926,1,0,0:0:0:0:
320,192,291926,128,0,292055:0:0:0:0:
448,192,292012,128,0,292097:0:0:0:0:
64,192,292097,128,0,292183:0:0:0:0:
320,192,292097,128,0,292140:0:0:0:0:
192,192,292140,128,0,292226:0:0:0:0:
320,192,292183,128,0,292269:0:0:0:0:
448,192,292226,128,0,292269:0:0:0:0:
64,192,292269,1,0,0:0:0:0:
192,192,292269,1,0,0:0:0:0:
448,192,292355,128,0,292440:0:0:0:0:
64,192,292355,128,0,292397:0:0:0:0:
320,192,292397,128,0,292483:0:0:0:0:
192,192,292440,128,0,292526:0:0:0:0:
448,192,292483,128,0,292569:0:0:0:0:
64,192,292526,128,0,292569:0:0:0:0:
192,192,292569,128,0,292612:0:0:0:0:
64,192,292612,1,0,0:0:0:0:
448,192,292612,1,0,0:0:0:0:
320,192,292612,128,0,292697:0:0:0:0:
192,192,292697,128,0,292783:0:0:0:0:
448,192,292783,128,0,292869:0:0:0:0:
64,192,292783,128,0,292826:0:0:0:0:
320,192,292826,128,0,292912:0:0:0:0:
192,192,292869,128,0,292955:0:0:0:0:
64,192,292912,128,0,292955:0:0:0:0:
448,192,292955,1,0,0:0:0:0:
320,192,292955,1,0,0:0:0:0:
64,192,293040,128,0,293126:0:0:0:0:
320,192,293040,128,0,293083:0:0:0:0:
192,192,293083,128,0,293169:0:0:0:0:
448,192,293126,128,0,293212:0:0:0:0:
320,192,293169,128,0,293255:0:0:0:0:
192,192,293212,128,0,293297:0:0:0:0:
64,192,293255,128,0,293297:0:0:0:0:
448,192,293297,1,0,0:0:0:0:
320,192,293297,128,0,293469:0:0:0:0:
448,192,293383,128,0,293469:0:0:0:0:
64,192,293469,128,0,293555:0:0:0:0:
192,192,293512,128,0,293597:0:0:0:0:
320,192,293555,128,0,293597:0:0:0:0:
448,192,293597,1,0,0:0:0:0:
64,192,293726,1,0,0:0:0:0:
320,192,293726,128,0,293812:0:0:0:0:
448,192,293769,128,0,293855:0:0:0:0:
192,192,293812,128,0,293855:0:0:0:0:
64,192,293855,1,0,0:0:0:0:
448,192,293983,1,0,0:0:0:0:
320,192,293983,128,0,294069:0:0:0:0:
64,192,294026,128,0,294112:0:0:0:0:
192,192,294069,128,0,294112:0:0:0:0:
448,192,294112,1,0,0:0:0:0:
320,192,294155,1,0,0:0:0:0:
64,192,294155,1,0,0:0:0:0:
192,192,294240,1,0,0:0:0:0:
448,192,294240,1,0,0:0:0:0:
192,192,294326,1,0,0:0:0:0:
64,192,294326,1,0,0:0:0:0:
320,192,294412,1,0,0:0:0:0:
448,192,294412,1,0,0:0:0:0:
64,192,294497,1,0,0:0:0:0:
448,192,294497,1,0,0:0:0:0:
192,192,294583,1,0,0:0:0:0:
64,192,294583,1,0,0:0:0:0:
448,192,294669,1,0,0:0:0:0:
192,192,294669,1,0,0:0:0:0:
64,192,294755,1,0,0:0:0:0:
320,192,294755,1,0,0:0:0:0:
64,192,294840,1,0,0:0:0:0:
448,192,294840,1,0,0:0:0:0:
320,192,294926,1,0,0:0:0:0:
448,192,294926,1,0,0:0:0:0:
192,192,295012,1,0,0:0:0:0:
64,192,295012,1,0,0:0:0:0:
448,192,295097,1,0,0:0:0:0:
64,192,295097,1,0,0:0:0:0:
192,192,295183,128,0,295269:0:0:0:0:
320,192,295226,128,0,295312:0:0:0:0:
448,192,295269,128,0,295355:0:0:0:0:
64,192,295312,128,0,295355:0:0:0:0:
320,192,295355,128,0,295440:0:0:0:0:
192,192,295397,128,0,295483:0:0:0:0:
64,192,295440,128,0,295526:0:0:0:0:
448,192,295483,128,0,295526:0:0:0:0:
320,192,295526,1,0,0:0:0:0:
192,192,295526,1,0,0:0:0:0:
320,192,295612,1,0,0:0:0:0:
64,192,295869,1,0,0:0:0:0:
320,192,295869,1,0,0:0:0:0:
192,192,295897,1,0,0:0:0:0:
448,192,295926,1,0,0:0:0:0:
320,192,295955,1,0,0:0:0:0:
64,192,295983,128,0,296212:0:0:0:0:
320,192,296212,1,0,0:0:0:0:
448,192,296212,1,0,0:0:0:0:
64,192,296297,1,0,0:0:0:0:
192,192,296383,1,0,0:0:0:0:
320,192,296383,1,0,0:0:0:0:
448,192,296383,1,0,0:0:0:0:
320,192,296469,1,0,0:0:0:0:
64,192,296555,128,0,296640:0:0:0:0:
448,192,296555,128,0,296640:0:0:0:0:
192,192,296640,128,0,296726:0:0:0:0:
448,192,296726,128,0,296812:0:0:0:0:
320,192,296812,128,0,296897:0:0:0:0:
448,192,296897,1,0,0:0:0:0:
64,192,296897,128,0,296983:0:0:0:0:
192,192,296940,128,0,297026:0:0:0:0:
320,192,296983,128,0,297069:0:0:0:0:
64,192,297026,128,0,297112:0:0:0:0:
448,192,297069,128,0,297155:0:0:0:0:
320,192,297112,128,0,297197:0:0:0:0:
192,192,297155,128,0,297240:0:0:0:0:
64,192,297197,128,0,297240:0:0:0:0:
320,192,297240,1,0,0:0:0:0:
448,192,297240,1,0,0:0:0:0:
64,192,297326,1,0,0:0:0:0:
192,192,297347,1,0,0:0:0:0:
448,192,297412,1,0,0:0:0:0:
64,192,297497,1,0,0:0:0:0:
192,192,297497,1,0,0:0:0:0:
448,192,297583,1,0,0:0:0:0:
64,192,297583,1,0,0:0:0:0:
192,192,297669,1,0,0:0:0:0:
320,192,297690,1,0,0:0:0:0:
64,192,297755,1,0,0:0:0:0:
448,192,297776,1,0,0:0:0:0:
320,192,297840,1,0,0:0:0:0:
64,192,297926,1,0,0:0:0:0:
192,192,297926,1,0,0:0:0:0:
448,192,297926,1,0,0:0:0:0:
320,192,298012,1,0,0:0:0:0:
64,192,298033,1,0,0:0:0:0:
192,192,298097,1,0,0:0:0:0:
320,192,298183,1,0,0:0:0:0:
448,192,298269,1,0,0:0:0:0:
64,192,298269,1,0,0:0:0:0:
320,192,298355,1,0,0:0:0:0:
448,192,298376,1,0,0:0:0:0:
192,192,298440,1,0,0:0:0:0:
64,192,298526,1,0,0:0:0:0:
192,192,298547,1,0,0:0:0:0:
320,192,298612,1,0,0:0:0:0:
448,192,298612,1,0,0:0:0:0:
64,192,298612,1,0,0:0:0:0:
192,192,298697,1,0,0:0:0:0:
448,192,298719,1,0,0:0:0:0:
320,192,298783,1,0,0:0:0:0:
192,192,298869,1,0,0:0:0:0:
64,192,298869,1,0,0:0:0:0:
448,192,298955,128,0,299040:0:0:0:0:
320,192,298997,128,0,299083:0:0:0:0:
192,192,299040,128,0,299126:0:0:0:0:
448,192,299126,1,0,0:0:0:0:
64,192,299126,1,0,0:0:0:0:
64,192,299212,1,0,0:0:0:0:
320,192,299297,128,0,299383:0:0:0:0:
448,192,299297,1,0,0:0:0:0:
64,192,299383,128,0,299469:0:0:0:0:
192,192,299469,128,0,299555:0:0:0:0:
320,192,299469,1,0,0:0:0:0:
448,192,299555,128,0,299640:0:0:0:0:
320,192,299640,1,0,0:0:0:0:
64,192,299640,128,0,299726:0:0:0:0:
192,192,299683,128,0,299769:0:0:0:0:
448,192,299726,128,0,299812:0:0:0:0:
320,192,299769,128,0,299855:0:0:0:0:
192,192,299812,128,0,299897:0:0:0:0:
448,192,299855,128,0,299940:0:0:0:0:
64,192,299897,128,0,299983:0:0:0:0:
192,192,299940,128,0,299983:0:0:0:0:
320,192,299983,1,0,0:0:0:0:
448,192,299983,1,0,0:0:0:0:
64,192,300069,1,0,0:0:0:0:
192,192,300155,1,0,0:0:0:0:
448,192,300240,1,0,0:0:0:0:
320,192,300240,128,0,300326:0:0:0:0:
64,192,300326,1,0,0:0:0:0:
448,192,300326,128,0,300497:0:0:0:0:
192,192,300412,128,0,300497:0:0:0:0:
64,192,300497,1,0,0:0:0:0:
320,192,300497,128,0,300669:0:0:0:0:
192,192,300583,128,0,300669:0:0:0:0:
64,192,300669,1,0,0:0:0:0:
448,192,300669,128,0,300755:0:0:0:0:
320,192,300712,128,0,300797:0:0:0:0:
192,192,300755,128,0,300840:0:0:0:0:
64,192,300797,128,0,300883:0:0:0:0:
448,192,300840,128,0,300926:0:0:0:0:
320,192,300883,1,0,0:0:0:0:
192,192,300926,1,0,0:0:0:0:
64,192,300926,1,0,0:0:0:0:
448,192,301012,1,0,0:0:0:0:
320,192,301097,1,0,0:0:0:0:
192,192,301183,1,0,0:0:0:0:
64,192,301183,1,0,0:0:0:0:
320,192,301269,1,0,0:0:0:0:
448,192,301355,1,0,0:0:0:0:
64,192,301355,128,0,301440:0:0:0:0:
192,192,301397,128,0,301483:0:0:0:0:
320,192,301440,128,0,301526:0:0:0:0:
448,192,301483,128,0,301569:0:0:0:0:
64,192,301526,128,0,301612:0:0:0:0:
192,192,301569,1,0,0:0:0:0:
320,192,301612,1,0,0:0:0:0:
448,192,301612,1,0,0:0:0:0:
64,192,301697,1,0,0:0:0:0:
64,192,301783,1,0,0:0:0:0:
320,192,301869,1,0,0:0:0:0:
320,192,301955,1,0,0:0:0:0:
448,192,302040,1,0,0:0:0:0:
192,192,302040,128,0,302126:0:0:0:0:
64,192,302040,128,0,302083:0:0:0:0:
320,192,302126,128,0,302212:0:0:0:0:
448,192,302126,128,0,302169:0:0:0:0:
64,192,302212,128,0,302297:0:0:0:0:
192,192,302212,128,0,302255:0:0:0:0:
320,192,302297,128,0,302383:0:0:0:0:
448,192,302383,1,0,0:0:0:0:
64,192,302383,128,0,302469:0:0:0:0:
192,192,302426,128,0,302512:0:0:0:0:
320,192,302469,128,0,302555:0:0:0:0:
64,192,302512,128,0,302597:0:0:0:0:
448,192,302555,128,0,302640:0:0:0:0:
320,192,302597,128,0,302683:0:0:0:0:
192,192,302640,128,0,302726:0:0:0:0:
64,192,302683,128,0,302726:0:0:0:0:
320,192,302726,1,0,0:0:0:0:
448,192,302747,1,0,0:0:0:0:
192,192,302812,1,0,0:0:0:0:
448,192,302897,1,0,0:0:0:0:
64,192,302919,1,0,0:0:0:0:
192,192,302983,1,0,0:0:0:0:
320,192,302983,1,0,0:0:0:0:
192,192,303069,1,0,0:0:0:0:
448,192,303090,1,0,0:0:0:0:
64,192,303155,1,0,0:0:0:0:
448,192,303240,1,0,0:0:0:0:
192,192,303262,1,0,0:0:0:0:
320,192,303326,1,0,0:0:0:0:
64,192,303412,1,0,0:0:0:0:
192,192,303412,1,0,0:0:0:0:
448,192,303412,1,0,0:0:0:0:
192,192,303497,1,0,0:0:0:0:
64,192,303583,1,0,0:0:0:0:
448,192,303583,128,0,303640:0:0:0:0:
320,192,303612,128,0,303669:0:0:0:0:
192,192,303640,128,0,303697:0:0:0:0:
448,192,303669,128,0,303755:0:0:0:0:
192,192,303755,1,0,0:0:0:0:
64,192,303755,1,0,0:0:0:0:
448,192,303840,1,0,0:0:0:0:
320,192,303862,1,0,0:0:0:0:
64,192,303926,1,0,0:0:0:0:
192,192,303947,1,0,0:0:0:0:
448,192,304012,1,0,0:0:0:0:
64,192,304097,1,0,0:0:0:0:
192,192,304097,1,0,0:0:0:0:
320,192,304097,1,0,0:0:0:0:
448,192,304183,1,0,0:0:0:0:
64,192,304205,1,0,0:0:0:0:
320,192,304269,1,0,0:0:0:0:
448,192,304290,1,0,0:0:0:0:
192,192,304355,1,0,0:0:0:0:
64,192,304355,1,0,0:0:0:0:
448,192,304440,1,0,0:0:0:0:
192,192,304483,1,0,0:0:0:0:
320,192,304526,128,0,304612:0:0:0:0:
64,192,304612,1,0,0:0:0:0:
448,192,304697,1,0,0:0:0:0:
64,192,304783,128,0,304869:0:0:0:0:
192,192,304783,1,0,0:0:0:0:
320,192,304869,1,0,0:0:0:0:
448,192,304912,128,0,305083:0:0:0:0:
64,192,304955,1,0,0:0:0:0:
192,192,304955,128,0,305040:0:0:0:0:
320,192,305040,128,0,305126:0:0:0:0:
64,192,305126,1,0,0:0:0:0:
448,192,305126,1,0,0:0:0:0:
192,192,305169,1,0,0:0:0:0:
320,192,305212,1,0,0:0:0:0:
448,192,305255,1,0,0:0:0:0:
64,192,305297,1,0,0:0:0:0:
192,192,305340,1,0,0:0:0:0:
448,192,305383,1,0,0:0:0:0:
320,192,305426,1,0,0:0:0:0:
192,192,305469,1,0,0:0:0:0:
64,192,305469,1,0,0:0:0:0:
448,192,305512,1,0,0:0:0:0:
320,192,305555,1,0,0:0:0:0:
192,192,305597,1,0,0:0:0:0:
448,192,305640,1,0,0:0:0:0:
64,192,305683,1,0,0:0:0:0:
192,192,305726,1,0,0:0:0:0:
320,192,305726,1,0,0:0:0:0:
64,192,305812,1,0,0:0:0:0:
448,192,305812,1,0,0:0:0:0:
192,192,305855,1,0,0:0:0:0:
320,192,305897,1,0,0:0:0:0:
448,192,305940,1,0,0:0:0:0:
192,192,305983,1,0,0:0:0:0:
64,192,306026,1,0,0:0:0:0:
448,192,306069,1,0,0:0:0:0:
320,192,306112,1,0,0:0:0:0:
64,192,306155,128,0,306197:0:0:0:0:
192,192,306155,128,0,306197:0:0:0:0:
448,192,306197,1,0,0:0:0:0:
64,192,306240,1,0,0:0:0:0:
192,192,306283,1,0,0:0:0:0:
320,192,306326,1,0,0:0:0:0:
448,192,306369,1,0,0:0:0:0:
64,192,306412,1,0,0:0:0:0:
192,192,306412,1,0,0:0:0:0:
64,192,306497,1,0,0:0:0:0:
448,192,306497,1,0,0:0:0:0:
320,192,306540,1,0,0:0:0:0:
192,192,306583,1,0,0:0:0:0:
64,192,306626,1,0,0:0:0:0:
448,192,306669,1,0,0:0:0:0:
320,192,306712,1,0,0:0:0:0:
192,192,306755,1,0,0:0:0:0:
64,192,306797,1,0,0:0:0:0:
320,192,306840,128,0,306883:0:0:0:0:
448,192,306840,128,0,306883:0:0:0:0:
192,192,306883,1,0,0:0:0:0:
64,192,306926,1,0,0:0:0:0:
320,192,306969,1,0,0:0:0:0:
448,192,307012,1,0,0:0:0:0:
192,192,307055,1,0,0:0:0:0:
64,192,307097,1,0,0:0:0:0:
320,192,307097,1,0,0:0:0:0:
448,192,307183,1,0,0:0:0:0:
192,192,307183,1,0,0:0:0:0:
320,192,307226,1,0,0:0:0:0:
64,192,307269,1,0,0:0:0:0:
192,192,307312,1,0,0:0:0:0:
320,192,307355,1,0,0:0:0:0:
64,192,307397,1,0,0:0:0:0:
448,192,307440,1,0,0:0:0:0:
320,192,307483,1,0,0:0:0:0:
192,192,307526,128,0,307569:0:0:0:0:
64,192,307526,128,0,307569:0:0:0:0:
448,192,307569,1,0,0:0:0:0:
320,192,307612,1,0,0:0:0:0:
192,192,307655,1,0,0:0:0:0:
64,192,307697,1,0,0:0:0:0:
320,192,307740,1,0,0:0:0:0:
448,192,307783,1,0,0:0:0:0:
192,192,307826,1,0,0:0:0:0:
64,192,307869,1,0,0:0:0:0:
448,192,307869,128,0,307955:0:0:0:0:
320,192,307912,128,0,307997:0:0:0:0:
192,192,307955,128,0,308040:0:0:0:0:
448,192,307997,128,0,308083:0:0:0:0:
64,192,308040,128,0,308126:0:0:0:0:
192,192,308083,128,0,308169:0:0:0:0:
320,192,308126,128,0,308212:0:0:0:0:
448,192,308169,128,0,308212:0:0:0:0:
64,192,308212,1,0,0:0:0:0:
192,192,308240,1,0,0:0:0:0:
448,192,308326,1,0,0:0:0:0:
320,192,308355,1,0,0:0:0:0:
64,192,308440,1,0,0:0:0:0:
320,192,308469,1,0,0:0:0:0:
192,192,308555,1,0,0:0:0:0:
64,192,308555,1,0,0:0:0:0:
448,192,308555,1,0,0:0:0:0:
448,192,308669,1,0,0:0:0:0:
320,192,308697,1,0,0:0:0:0:
64,192,308783,1,0,0:0:0:0:
192,192,308812,1,0,0:0:0:0:
64,192,308897,1,0,0:0:0:0:
448,192,308897,1,0,0:0:0:0:
320,192,308897,128,0,309012:0:0:0:0:
192,192,309012,128,0,309126:0:0:0:0:
448,192,309012,1,0,0:0:0:0:
64,192,309126,128,0,309240:0:0:0:0:
320,192,309126,1,0,0:0:0:0:
448,192,309240,1,0,0:0:0:0:
320,192,309269,1,0,0:0:0:0:
64,192,309355,1,0,0:0:0:0:
448,192,309383,1,0,0:0:0:0:
320,192,309469,1,0,0:0:0:0:
64,192,309497,1,0,0:0:0:0:
320,192,309583,1,0,0:0:0:0:
448,192,309583,1,0,0:0:0:0:
192,192,309697,1,0,0:0:0:0:
320,192,309726,1,0,0:0:0:0:
192,192,309812,1,0,0:0:0:0:
64,192,309840,1,0,0:0:0:0:
192,192,309926,1,0,0:0:0:0:
320,192,309926,1,0,0:0:0:0:
448,192,309926,1,0,0:0:0:0:
448,192,310040,1,0,0:0:0:0:
64,192,310040,1,0,0:0:0:0:
64,192,310155,1,0,0:0:0:0:
448,192,310269,128,0,310383:0:0:0:0:
320,192,310269,128,0,310326:0:0:0:0:
64,192,310383,128,0,310497:0:0:0:0:
192,192,310383,128,0,310440:0:0:0:0:
320,192,310497,128,0,310612:0:0:0:0:
448,192,310612,1,0,0:0:0:0:
64,192,310612,128,0,310697:0:0:0:0:
192,192,310655,128,0,310740:0:0:0:0:
320,192,310697,128,0,310783:0:0:0:0:
64,192,310740,128,0,310826:0:0:0:0:
448,192,310783,128,0,310869:0:0:0:0:
320,192,310826,128,0,310912:0:0:0:0:
192,192,310869,128,0,310955:0:0:0:0:
64,192,310912,128,0,310955:0:0:0:0:
448,192,310955,128,0,311040:0:0:0:0:
320,192,310997,128,0,311083:0:0:0:0:
64,192,311040,128,0,311126:0:0:0:0:
192,192,311083,128,0,311169:0:0:0:0:
320,192,311126,128,0,311212:0:0:0:0:
448,192,311169,128,0,311255:0:0:0:0:
64,192,311212,128,0,311297:0:0:0:0:
192,192,311255,128,0,311297:0:0:0:0:
320,192,311297,1,0,0:0:0:0:
448,192,311297,1,0,0:0:0:0:
448,192,311412,1,0,0:0:0:0:
64,192,311412,1,0,0:0:0:0:
192,192,311526,1,0,0:0:0:0:
64,192,311526,1,0,0:0:0:0:
64,192,311640,128,0,311755:0:0:0:0:
192,192,311697,128,0,311812:0:0:0:0:
320,192,311755,128,0,311869:0:0:0:0:
448,192,311812,128,0,311869:0:0:0:0:
192,192,311869,1,0,0:0:0:0:
64,192,311869,1,0,0:0:0:0:
448,192,311983,1,0,0:0:0:0:
320,192,311983,1,0,0:0:0:0:
192,192,312097,1,0,0:0:0:0:
192,192,312212,1,0,0:0:0:0:
448,192,312326,128,0,312412:0:0:0:0:
64,192,312326,128,0,312455:0:0:0:0:
320,192,312369,128,0,312455:0:0:0:0:
192,192,312412,128,0,312497:0:0:0:0:
448,192,312455,128,0,312540:0:0:0:0:
64,192,312497,128,0,312583:0:0:0:0:
192,192,312540,128,0,312626:0:0:0:0:
320,192,312583,128,0,312669:0:0:0:0:
448,192,312626,128,0,312669:0:0:0:0:
192,192,312669,128,0,312726:0:0:0:0:
64,192,312669,128,0,312726:0:0:0:0:
320,192,312726,128,0,312783:0:0:0:0:
192,192,312783,128,0,312840:0:0:0:0:
64,192,312840,128,0,312897:0:0:0:0:
448,192,312897,128,0,312955:0:0:0:0:
192,192,312955,128,0,313012:0:0:0:0:
448,192,313012,1,0,0:0:0:0:
320,192,313012,128,0,313355:0:0:0:0:
448,192,313355,1,0,0:0:0:0:
64,192,313355,128,0,313440:0:0:0:0:
192,192,313397,128,0,313483:0:0:0:0:
320,192,313440,128,0,313526:0:0:0:0:
64,192,313483,128,0,313569:0:0:0:0:
448,192,313526,128,0,313612:0:0:0:0:
320,192,313569,128,0,313655:0:0:0:0:
192,192,313612,128,0,313697:0:0:0:0:
64,192,313655,128,0,313697:0:0:0:0:
448,192,313697,1,0,0:0:0:0:
320,192,313697,1,0,0:0:0:0:
64,192,313812,1,0,0:0:0:0:
192,192,313840,1,0,0:0:0:0:
448,192,313926,1,0,0:0:0:0:
320,192,313955,1,0,0:0:0:0:
192,192,314040,1,0,0:0:0:0:
64,192,314040,1,0,0:0:0:0:
448,192,314040,1,0,0:0:0:0:
320,192,314155,1,0,0:0:0:0:
64,192,314183,1,0,0:0:0:0:
448,192,314269,1,0,0:0:0:0:
192,192,314297,1,0,0:0:0:0:
320,192,314383,1,0,0:0:0:0:
448,192,314383,1,0,0:0:0:0:
64,192,314440,1,0,0:0:0:0:
192,192,314469,1,0,0:0:0:0:
320,192,314612,1,0,0:0:0:0:
192,192,314640,1,0,0:0:0:0:
448,192,314726,1,0,0:0:0:0:
320,192,314755,1,0,0:0:0:0:
64,192,314840,1,0,0:0:0:0:
192,192,314955,1,0,0:0:0:0:
448,192,314955,1,0,0:0:0:0:
64,192,314955,1,0,0:0:0:0:
320,192,315069,1,0,0:0:0:0:
192,192,315069,1,0,0:0:0:0:
448,192,315183,1,0,0:0:0:0:
320,192,315212,1,0,0:0:0:0:
64,192,315297,1,0,0:0:0:0:
192,192,315326,1,0,0:0:0:0:
320,192,315412,1,0,0:0:0:0:
448,192,315412,1,0,0:0:0:0:
64,192,315412,1,0,0:0:0:0:
192,192,315526,1,0,0:0:0:0:
448,192,315555,1,0,0:0:0:0:
64,192,315640,1,0,0:0:0:0:
320,192,315755,128,0,315869:0:0:0:0:
448,192,315755,1,0,0:0:0:0:
192,192,315869,128,0,315983:0:0:0:0:
448,192,315983,128,0,316097:0:0:0:0:
320,192,316097,1,0,0:0:0:0:
64,192,316097,128,0,316183:0:0:0:0:
192,192,316140,128,0,316226:0:0:0:0:
320,192,316183,128,0,316269:0:0:0:0:
448,192,316226,128,0,316312:0:0:0:0:
64,192,316269,128,0,316355:0:0:0:0:
320,192,316312,128,0,316397:0:0:0:0:
192,192,316355,128,0,316440:0:0:0:0:
64,192,316397,128,0,316440:0:0:0:0:
448,192,316440,128,0,316526:0:0:0:0:
320,192,316483,128,0,316569:0:0:0:0:
192,192,316526,128,0,316612:0:0:0:0:
64,192,316569,128,0,316655:0:0:0:0:
320,192,316612,128,0,316697:0:0:0:0:
448,192,316655,128,0,316740:0:0:0:0:
64,192,316697,128,0,316740:0:0:0:0:
192,192,316740,128,0,316783:0:0:0:0:
64,192,316783,1,0,0:0:0:0:
320,192,316783,1,0,0:0:0:0:
448,192,316783,1,0,0:0:0:0:
448,192,316897,1,0,0:0:0:0:
192,192,316897,1,0,0:0:0:0:
64,192,317012,1,0,0:0:0:0:
448,192,317126,1,0,0:0:0:0:
192,192,317126,1,0,0:0:0:0:
320,192,317155,1,0,0:0:0:0:
64,192,317183,1,0,0:0:0:0:
192,192,317212,1,0,0:0:0:0:
320,192,317240,1,0,0:0:0:0:
320,192,317355,1,0,0:0:0:0:
192,192,317355,1,0,0:0:0:0:
64,192,317469,128,0,318155:0:0:0:0:
448,192,317469,128,0,317812:0:0:0:0:
192,192,317812,128,0,317869:0:0:0:0:
320,192,317840,128,0,317897:0:0:0:0:
448,192,317869,128,0,317926:0:0:0:0:
320,192,317926,1,0,0:0:0:0:
192,192,318040,1,0,0:0:0:0:
320,192,318155,128,0,318497:0:0:0:0:
448,192,318155,1,0,0:0:0:0:
192,192,318326,1,0,0:0:0:0:
192,192,318497,1,0,0:0:0:0:
64,192,318497,1,0,0:0:0:0:
192,192,318583,1,0,0:0:0:0:
64,192,318583,1,0,0:0:0:0:
320,192,318669,1,0,0:0:0:0:
448,192,318669,1,0,0:0:0:0:
320,192,318755,1,0,0:0:0:0:
448,192,318755,1,0,0:0:0:0:
448,192,318840,128,0,319012:0:0:0:0:
64,192,318840,128,0,318926:0:0:0:0:
192,192,318840,128,0,318883:0:0:0:0:
320,192,318926,128,0,319012:0:0:0:0:
192,192,318926,128,0,319012:0:0:0:0:
64,192,319012,128,0,319097:0:0:0:0:
192,192,319097,128,0,319269:0:0:0:0:
320,192,319097,128,0,319183:0:0:0:0:
448,192,319097,128,0,319140:0:0:0:0:
448,192,319183,128,0,319269:0:0:0:0:
64,192,319183,128,0,319269:0:0:0:0:
320,192,319269,128,0,319355:0:0:0:0:
64,192,319355,128,0,319483:0:0:0:0:
448,192,319355,128,0,319483:0:0:0:0:
192,192,319355,1,0,0:0:0:0:
192,192,319440,128,0,319526:0:0:0:0:
64,192,319526,128,0,319697:0:0:0:0:
448,192,319526,128,0,319612:0:0:0:0:
320,192,319526,128,0,319569:0:0:0:0:
192,192,319612,128,0,319697:0:0:0:0:
320,192,319612,128,0,319697:0:0:0:0:
448,192,319697,128,0,319783:0:0:0:0:
320,192,319783,128,0,319955:0:0:0:0:
192,192,319783,128,0,319869:0:0:0:0:
64,192,319783,128,0,319826:0:0:0:0:
64,192,319869,128,0,319955:0:0:0:0:
448,192,319869,128,0,319955:0:0:0:0:
192,192,319955,128,0,320040:0:0:0:0:
320,192,320040,1,0,0:0:0:0:
448,192,320040,128,0,320169:0:0:0:0:
64,192,320040,128,0,320169:0:0:0:0:
320,192,320126,128,0,320212:0:0:0:0:
448,192,320212,128,0,320383:0:0:0:0:
64,192,320212,128,0,320297:0:0:0:0:
192,192,320212,128,0,320255:0:0:0:0:
192,192,320297,128,0,320383:0:0:0:0:
320,192,320297,128,0,320383:0:0:0:0:
64,192,320383,128,0,320469:0:0:0:0:
192,192,320469,128,0,320640:0:0:0:0:
320,192,320469,128,0,320555:0:0:0:0:
448,192,320469,128,0,320512:0:0:0:0:
448,192,320555,128,0,320640:0:0:0:0:
64,192,320555,128,0,320640:0:0:0:0:
320,192,320640,128,0,320726:0:0:0:0:
192,192,320726,1,0,0:0:0:0:
64,192,320726,128,0,320855:0:0:0:0:
448,192,320726,128,0,320855:0:0:0:0:
192,192,320812,128,0,320897:0:0:0:0:
64,192,320897,128,0,320983:0:0:0:0:
448,192,320897,128,0,320983:0:0:0:0:
192,192,320940,128,0,321026:0:0:0:0:
320,192,320983,128,0,321069:0:0:0:0:
64,192,321069,128,0,321155:0:0:0:0:
448,192,321069,128,0,321155:0:0:0:0:
320,192,321112,128,0,321197:0:0:0:0:
192,192,321155,128,0,321240:0:0:0:0:
64,192,321240,128,0,321326:0:0:0:0:
448,192,321240,128,0,321283:0:0:0:0:
320,192,321269,128,0,321412:0:0:0:0:
192,192,321412,1,0,0:0:0:0:
64,192,321412,1,0,0:0:0:0:
320,192,321497,1,0,0:0:0:0:
448,192,321497,1,0,0:0:0:0:
192,192,321583,128,0,321626:0:0:0:0:
448,192,321583,128,0,321755:0:0:0:0:
64,192,321583,128,0,321626:0:0:0:0:
320,192,321669,128,0,321755:0:0:0:0:
64,192,321669,128,0,321755:0:0:0:0:
192,192,321755,128,0,321840:0:0:0:0:
64,192,321840,128,0,322012:0:0:0:0:
320,192,321840,128,0,321883:0:0:0:0:
448,192,321840,128,0,321883:0:0:0:0:
192,192,321926,128,0,322012:0:0:0:0:
320,192,321926,128,0,322012:0:0:0:0:
448,192,322012,128,0,322097:0:0:0:0:
192,192,322097,128,0,322226:0:0:0:0:
320,192,322097,128,0,322226:0:0:0:0:
64,192,322097,128,0,322226:0:0:0:0:
448,192,322183,128,0,322269:0:0:0:0:
64,192,322269,128,0,322440:0:0:0:0:
320,192,322269,128,0,322312:0:0:0:0:
192,192,322269,128,0,322312:0:0:0:0:
192,192,322355,128,0,322440:0:0:0:0:
448,192,322355,128,0,322440:0:0:0:0:
320,192,322440,128,0,322526:0:0:0:0:
448,192,322526,128,0,322697:0:0:0:0:
192,192,322526,128,0,322569:0:0:0:0:
64,192,322526,128,0,322569:0:0:0:0:
320,192,322612,128,0,322697:0:0:0:0:
192,192,322612,128,0,322697:0:0:0:0:
64,192,322697,128,0,322783:0:0:0:0:
192,192,322783,128,0,322912:0:0:0:0:
448,192,322783,128,0,322912:0:0:0:0:
320,192,322783,128,0,322826:0:0:0:0:
320,192,322869,128,0,322955:0:0:0:0:
448,192,322955,128,0,323126:0:0:0:0:
192,192,322955,128,0,322997:0:0:0:0:
64,192,322955,128,0,322997:0:0:0:0:
320,192,323040,128,0,323126:0:0:0:0:
64,192,323040,128,0,323126:0:0:0:0:
192,192,323126,128,0,323212:0:0:0:0:
64,192,323212,128,0,323383:0:0:0:0:
320,192,323212,128,0,323255:0:0:0:0:
448,192,323212,128,0,323255:0:0:0:0:
192,192,323297,128,0,323383:0:0:0:0:
448,192,323297,128,0,323383:0:0:0:0:
320,192,323383,128,0,323469:0:0:0:0:
64,192,323469,1,0,0:0:0:0:
448,192,323469,128,0,323640:0:0:0:0:
192,192,323469,128,0,323555:0:0:0:0:
320,192,323555,128,0,323640:0:0:0:0:
64,192,323555,128,0,323640:0:0:0:0:
192,192,323640,128,0,323726:0:0:0:0:
320,192,323683,128,0,323769:0:0:0:0:
448,192,323726,128,0,323812:0:0:0:0:
64,192,323769,128,0,323855:0:0:0:0:
192,192,323812,128,0,323897:0:0:0:0:
448,192,323855,128,0,323940:0:0:0:0:
320,192,323897,128,0,323983:0:0:0:0:
192,192,323940,128,0,323983:0:0:0:0:
64,192,323983,128,0,324026:0:0:0:0:
448,192,323983,128,0,324026:0:0:0:0:
192,192,324069,128,0,324112:0:0:0:0:
448,192,324069,128,0,324112:0:0:0:0:
320,192,324155,128,0,324197:0:0:0:0:
64,192,324155,128,0,324197:0:0:0:0:
320,192,324240,128,0,324283:0:0:0:0:
448,192,324240,128,0,324283:0:0:0:0:
448,192,324326,128,0,324540:0:0:0:0:
192,192,324326,128,0,324412:0:0:0:0:
64,192,324326,128,0,324369:0:0:0:0:
320,192,324412,128,0,324540:0:0:0:0:
64,192,324412,128,0,324540:0:0:0:0:
192,192,324497,128,0,324583:0:0:0:0:
64,192,324583,128,0,324797:0:0:0:0:
320,192,324583,128,0,324669:0:0:0:0:
448,192,324583,128,0,324626:0:0:0:0:
192,192,324669,128,0,324797:0:0:0:0:
448,192,324669,128,0,324797:0:0:0:0:
320,192,324755,128,0,324840:0:0:0:0:
192,192,324840,1,0,0:0:0:0:
64,192,324840,128,0,324926:0:0:0:0:
448,192,324840,128,0,324969:0:0:0:0:
192,192,324926,128,0,325012:0:0:0:0:
320,192,324926,128,0,324969:0:0:0:0:
64,192,325012,128,0,325226:0:0:0:0:
320,192,325012,128,0,325097:0:0:0:0:
448,192,325012,128,0,325055:0:0:0:0:
192,192,325097,128,0,325226:0:0:0:0:
448,192,325097,128,0,325226:0:0:0:0:
320,192,325183,128,0,325269:0:0:0:0:
448,192,325269,128,0,325483:0:0:0:0:
192,192,325269,128,0,325355:0:0:0:0:
64,192,325269,128,0,325312:0:0:0:0:
320,192,325355,128,0,325483:0:0:0:0:
64,192,325355,128,0,325483:0:0:0:0:
192,192,325440,128,0,325526:0:0:0:0:
320,192,325526,1,0,0:0:0:0:
448,192,325526,128,0,325612:0:0:0:0:
64,192,325526,128,0,325655:0:0:0:0:
320,192,325612,128,0,325697:0:0:0:0:
192,192,325612,128,0,325655:0:0:0:0:
448,192,325697,1,0,0:0:0:0:
64,192,325697,128,0,325869:0:0:0:0:
192,192,325697,128,0,325783:0:0:0:0:
320,192,325783,128,0,325869:0:0:0:0:
448,192,325783,128,0,325869:0:0:0:0:
192,192,325869,128,0,325955:0:0:0:0:
64,192,325955,1,0,0:0:0:0:
448,192,325955,128,0,326126:0:0:0:0:
320,192,325955,128,0,326040:0:0:0:0:
192,192,326040,128,0,326126:0:0:0:0:
64,192,326040,128,0,326126:0:0:0:0:
320,192,326126,128,0,326212:0:0:0:0:
448,192,326212,1,0,0:0:0:0:
64,192,326212,128,0,326383:0:0:0:0:
192,192,326212,128,0,326297:0:0:0:0:
320,192,326297,128,0,326383:0:0:0:0:
448,192,326297,128,0,326383:0:0:0:0:
192,192,326383,128,0,326469:0:0:0:0:
64,192,326469,1,0,0:0:0:0:
320,192,326469,128,0,326555:0:0:0:0:
448,192,326469,128,0,326640:0:0:0:0:
192,192,326555,128,0,326640:0:0:0:0:
64,192,326555,128,0,326640:0:0:0:0:
320,192,326640,128,0,326726:0:0:0:0:
448,192,326726,128,0,326812:0:0:0:0:
64,192,326726,128,0,326769:0:0:0:0:
320,192,326769,128,0,326855:0:0:0:0:
192,192,326812,128,0,326897:0:0:0:0:
64,192,326855,128,0,326897:0:0:0:0:
320,192,326897,1,0,0:0:0:0:
448,192,326897,1,0,0:0:0:0:
320,192,326983,1,0,0:0:0:0:
64,192,327069,1,0,0:0:0:0:
448,192,327069,1,0,0:0:0:0:
192,192,327069,128,0,327197:0:0:0:0:
64,192,327155,128,0,327240:0:0:0:0:
320,192,327155,128,0,327240:0:0:0:0:
448,192,327240,128,0,327326:0:0:0:0:
192,192,327240,128,0,327326:0:0:0:0:
64,192,327326,128,0,327412:0:0:0:0:
320,192,327326,128,0,327412:0:0:0:0:
192,192,327369,128,0,327455:0:0:0:0:
448,192,327412,128,0,327497:0:0:0:0:
320,192,327455,128,0,327497:0:0:0:0:
64,192,327497,1,0,0:0:0:0:
192,192,327497,128,0,327583:0:0:0:0:
320,192,327583,128,0,327669:0:0:0:0:
64,192,327583,128,0,327712:0:0:0:0:
448,192,327583,128,0,327712:0:0:0:0:
192,192,327669,128,0,327755:0:0:0:0:
448,192,327755,1,0,0:0:0:0:
64,192,327755,1,0,0:0:0:0:
320,192,327755,128,0,327883:0:0:0:0:
192,192,327840,128,0,327926:0:0:0:0:
448,192,327840,128,0,327926:0:0:0:0:
320,192,327926,128,0,328012:0:0:0:0:
64,192,327926,128,0,328012:0:0:0:0:
192,192,328012,128,0,328097:0:0:0:0:
448,192,328012,128,0,328097:0:0:0:0:
320,192,328055,128,0,328140:0:0:0:0:
64,192,328097,128,0,328183:0:0:0:0:
192,192,328140,128,0,328183:0:0:0:0:
448,192,328183,1,0,0:0:0:0:
320,192,328183,128,0,328269:0:0:0:0:
192,192,328269,1,0,0:0:0:0:
64,192,328269,128,0,328440:0:0:0:0:
448,192,328269,128,0,328355:0:0:0:0:
192,192,328355,128,0,328440:0:0:0:0:
320,192,328440,128,0,328569:0:0:0:0:
448,192,328440,128,0,328569:0:0:0:0:
192,192,328526,128,0,328655:0:0:0:0:
64,192,328526,128,0,328655:0:0:0:0:
320,192,328612,128,0,328740:0:0:0:0:
448,192,328612,128,0,328740:0:0:0:0:
192,192,328697,128,0,328826:0:0:0:0:
64,192,328697,128,0,328826:0:0:0:0:
320,192,328783,128,0,328912:0:0:0:0:
448,192,328783,128,0,328912:0:0:0:0:
192,192,328869,128,0,328997:0:0:0:0:
64,192,328869,128,0,328997:0:0:0:0:
320,192,328955,128,0,329083:0:0:0:0:
448,192,328955,128,0,329083:0:0:0:0:
192,192,329040,128,0,329169:0:0:0:0:
64,192,329040,128,0,329169:0:0:0:0:
448,192,329126,128,0,329255:0:0:0:0:
320,192,329147,128,0,329276:0:0:0:0:
64,192,329212,128,0,329340:0:0:0:0:
192,192,329233,128,0,329362:0:0:0:0:
448,192,329297,128,0,329426:0:0:0:0:
320,192,329319,128,0,329447:0:0:0:0:
64,192,329383,128,0,329512:0:0:0:0:
192,192,329405,128,0,329533:0:0:0:0:
448,192,329469,128,0,329597:0:0:0:0:
320,192,329490,128,0,329619:0:0:0:0:
64,192,329555,128,0,329683:0:0:0:0:
192,192,329576,128,0,329705:0:0:0:0:
448,192,329640,128,0,329769:0:0:0:0:
320,192,329662,128,0,329769:0:0:0:0:
64,192,329726,128,0,329812:0:0:0:0:
192,192,329747,128,0,329812:0:0:0:0:
448,192,329812,1,0,0:0:0:0:
320,192,329812,1,0,0:0:0:0:
