osu file format v14

[General]
AudioFilename: audio.ogg
AudioLeadIn: 0
PreviewTime: 203544
Countdown: 0
SampleSet: Soft
StackLeniency: 0.4
Mode: 0
LetterboxInBreaks: 0
WidescreenStoryboard: 1

[Editor]
Bookmarks: 45983,81983,111015,143930,176844,195544,219544,239544,267544
DistanceSpacing: 0.5
BeatDivisor: 8
GridSize: 32
TimelineZoom: 4.699997

[Metadata]
Title:Bismuth
TitleUnicode:Bismuth
Artist:Ludicin
ArtistUnicode:Ludicin
Creator:Ilay
Version:Fursum's Voyage
Source:
Tags:mysty fursum Electronic Instrumental DnB Drum & Bass Speedcore Artcore Orchestral HCU4 HARDCORE UTOPIA IV d&b Marathon
BeatmapID:4440910
BeatmapSetID:2111658

[Difficulty]
HPDrainRate:3.5
CircleSize:4
OverallDifficulty:9.2
ApproachRate:9.5
SliderMultiplier:2
SliderTickRate:1

[Events]
//Background and Video events
0,0,"VG.jpg",0,0
//Break Periods
2,144130,148365
2,177044,181280
2,195744,202494
//Storyboard Layer 0 (Background)
//Storyboard Layer 1 (Fail)
//Storyboard Layer 2 (Pass)
//Storyboard Layer 3 (Foreground)
//Storyboard Layer 4 (Overlay)
//Storyboard Sound Samples

[TimingPoints]
983,250,4,2,1,80,1,0
29983,-100,4,2,31,80,0,0
30233,-200,4,2,1,80,0,0
30733,-100,4,2,31,80,0,0
30983,-100,4,2,1,80,0,0
31483,-200,4,2,1,80,0,0
31983,-133.333333333333,4,2,31,80,0,0
32233,-200,4,2,1,80,0,0
32733,-100,4,2,31,80,0,0
32983,-100,4,2,1,80,0,0
33733,-285.714285714286,4,2,1,80,0,0
33983,-86.9565217391304,4,2,31,80,0,0
34233,-181.818181818182,4,2,1,80,0,0
34733,-100,4,2,31,80,0,0
34983,-100,4,2,1,80,0,0
35483,-250,4,2,1,80,0,0
35983,-133.333333333333,4,2,31,80,0,0
36233,-133.333333333333,4,2,1,80,0,0
36733,-100,4,2,31,80,0,0
36983,-100,4,2,1,80,0,0
37358,-200,4,2,1,80,0,0
37983,-66.6666666666667,4,2,1,90,0,0
38233,-100,4,2,1,90,0,0
38733,-200,4,2,1,90,0,0
38983,-133.333333333333,4,2,1,90,0,0
39233,-100,4,2,1,90,0,0
39733,-80,4,2,1,90,0,0
39983,-66.6666666666667,4,2,1,90,0,0
40233,-100,4,2,1,90,0,0
40733,-133.333333333333,4,2,1,90,0,0
40983,-83.3333333333333,4,2,1,90,0,0
41233,-66.6666666666667,4,2,1,90,0,0
41483,-57.1428571428571,4,2,1,90,0,0
43983,-57.1428571428571,4,2,33,90,0,0
44108,-400,4,2,33,90,0,0
44483,-133.333333333333,4,2,33,90,0,0
44983,-80,4,2,33,90,0,0
45233,-133.333333333333,4,2,1,90,0,0
45483,-100,4,2,1,90,0,0
45733,-66.6666666666667,4,2,34,90,0,0
45983,-66.6666666666667,4,2,30,90,0,0
46108,-66.6666666666667,4,2,2,90,0,0
46483,-100,4,2,2,90,0,0
47483,-57.1428571428571,4,2,2,90,0,0
47983,-66.6666666666667,4,2,2,90,0,0
48733,-133.333333333333,4,2,2,90,0,0
49108,-100,4,2,2,90,0,0
49983,-50,4,2,2,90,0,0
50233,-66.6666666666667,4,2,2,90,0,0
51233,-100,4,2,2,90,0,0
51483,-57.1428571428571,4,2,2,90,0,0
51983,-66.6666666666667,4,2,2,90,0,0
52358,-100,4,2,2,90,0,0
52733,-133.333333333333,4,2,2,90,0,0
53108,-100,4,2,2,90,0,0
54233,-66.6666666666667,4,2,33,90,0,0
54483,-66.6666666666667,4,2,2,90,0,0
54733,-80,4,2,2,90,0,0
54858,-80,4,2,30,90,0,0
54983,-80,4,2,2,90,0,0
55983,-57.1428571428571,4,2,2,90,0,0
56858,-80,4,2,2,90,0,0
56983,-66.6666666666667,4,2,2,90,0,0
57733,-100,4,2,2,90,0,0
58233,-66.6666666666667,4,2,3,90,0,0
58733,-80,4,2,3,90,0,0
59983,-66.6666666666667,4,2,3,90,0,0
60858,-57.1428571428571,4,2,3,90,0,0
61233,-50,4,2,3,90,0,0
61983,-50,4,2,30,90,0,0
62233,-100,4,2,4,90,0,0
62733,-66.6666666666667,4,2,4,90,0,0
63108,-80,4,2,4,90,0,0
63858,-133.333333333333,4,2,4,90,0,0
63983,-66.6666666666667,4,2,4,90,0,0
64233,-66.6666666666667,4,2,2,90,0,0
64483,-100,4,2,2,90,0,0
65983,-50,4,2,4,90,0,0
66483,-100,4,2,4,90,0,0
67108,-80,4,2,4,90,0,0
67483,-50,4,2,4,90,0,0
67608,-66.6666666666667,4,2,4,90,0,0
67858,-133.333333333333,4,2,4,90,0,0
67983,-66.6666666666667,4,2,4,90,0,0
68233,-66.6666666666667,4,2,2,90,0,0
68483,-50,4,2,2,90,0,0
68733,-66.6666666666667,4,2,2,90,0,0
68983,-100,4,2,2,90,0,0
69983,-50,4,2,2,90,0,0
70233,-133.333333333333,4,2,3,90,0,0
70358,-100,4,2,3,90,0,0
71108,-50,4,2,31,90,0,0
71233,-66.6666666666667,4,2,31,90,0,0
71358,-100,4,2,31,90,0,0
71483,-80,4,2,2,90,0,0
71983,-50,4,2,2,90,0,0
72233,-133.333333333333,4,2,2,90,0,0
72483,-66.6666666666667,4,2,32,90,0,0
72670,-80,4,2,32,90,0,0
72858,-100,4,2,32,90,0,0
72983,-133.333333333333,4,2,2,90,0,0
73233,-50,4,2,2,90,0,0
73358,-66.6666666666667,4,2,2,90,0,0
74233,-66.6666666666667,4,2,3,90,0,0
74733,-100,4,2,3,90,0,0
75983,-66.6666666666667,4,2,3,90,0,0
77733,-133.333333333333,4,2,3,90,0,0
78358,-133.333333333333,4,2,2,90,0,0
78733,-200,4,2,2,90,0,0
78983,-133.333333333333,4,2,2,90,0,0
79233,-100,4,2,2,90,0,0
79483,-80,4,2,2,90,0,0
79733,-66.6666666666667,4,2,2,90,0,0
81733,-133.333333333333,4,2,2,90,0,0
81983,-50,4,2,30,90,0,0
82233,-100,4,2,5,90,0,0
82858,-80,4,2,5,90,0,0
83233,-66.6666666666667,4,2,5,90,0,0
83983,-50,4,2,5,90,0,0
84233,-66.6666666666667,4,2,5,90,0,0
84858,-57.1428571428571,4,2,5,90,0,0
85858,-133.333333333333,4,2,5,90,0,0
85983,-57.1428571428571,4,2,2,90,0,0
86483,-57.1428571428571,4,2,5,90,0,0
86983,-100,4,2,5,90,0,0
87733,-40,4,2,5,90,0,0
87983,-80,4,2,33,90,0,0
88983,-80,4,2,5,90,0,0
89483,-66.6666666666667,4,2,5,90,0,0
89733,-133.333333333333,4,2,5,90,0,0
89983,-50,4,2,4,90,0,0
90233,-100,4,2,5,90,0,0
91233,-66.6666666666667,4,2,5,90,0,0
91983,-50,4,2,2,90,0,0
92108,-50,4,2,5,90,0,0
92233,-66.6666666666667,4,2,5,90,0,0
92483,-57.1428571428571,4,2,5,90,0,0
93858,-133.333333333333,4,2,5,90,0,0
93983,-133.333333333333,4,2,4,90,0,0
94233,-133.333333333333,4,2,5,90,0,0
95233,-133.333333333333,4,2,35,90,0,0
95483,-133.333333333333,4,2,5,90,0,0
95983,-100,4,2,33,90,0,0
96983,-100,4,2,5,90,0,0
97733,-133.333333333333,4,2,5,90,0,0
99108,-133.333333333333,4,2,3,90,0,0
99483,-100,4,2,3,90,0,0
99608,-100,4,2,34,90,0,0
99733,-100,4,2,5,90,0,0
100983,-200,4,2,5,90,0,0
101608,-100,4,2,5,90,0,0
105233,-200,4,2,5,90,0,0
105983,272.727272727273,4,2,5,90,1,0
105983,-66.6666666666667,4,2,5,90,0,0
106801,-133.333333333333,4,2,5,90,0,0
107073,300,4,2,5,90,1,0
107373,-66.6666666666667,4,2,5,90,0,0
107673,-100,4,2,5,90,0,0
107973,-66.6666666666667,4,2,5,90,0,0
108273,342.857142857143,4,2,5,90,1,0
109301,-133.333333333333,4,2,5,90,0,0
110158,-100,4,2,5,90,0,0
110673,-66.6666666666667,4,2,5,90,0,0
111015,-50,4,2,6,90,0,1
111358,-50,4,2,6,90,0,0
111444,-100,4,2,6,90,0,0
113758,-50,4,2,6,90,0,0
113930,-66.6666666666667,4,2,6,90,0,0
114444,-50,4,2,6,90,0,0
115301,-100,4,2,6,90,0,0
115473,-50,4,2,6,90,0,0
115644,-100,4,2,6,90,0,0
115815,-40,4,2,6,90,0,0
116501,-40,4,2,6,90,0,1
116844,-66.6666666666667,4,2,6,90,0,0
118044,-100,4,2,6,90,0,0
118387,-50,4,2,6,90,0,0
118901,-66.6666666666667,4,2,6,90,0,0
119244,-50,4,2,6,90,0,0
119415,-66.6666666666667,4,2,6,90,0,0
120615,-50,4,2,6,90,0,0
121987,-40,4,2,6,90,0,1
122330,-40,4,2,6,90,0,0
123015,-100,4,2,6,90,0,0
124387,-66.6666666666667,4,2,6,90,0,0
124558,-100,4,2,6,90,0,0
124730,-57.1428571428571,4,2,6,90,0,0
125244,-100,4,2,6,90,0,0
126101,-66.6666666666667,4,2,35,90,0,0
126615,-66.6666666666667,4,2,6,90,0,0
126787,-50,4,2,6,90,0,0
127473,-40,4,2,6,90,0,1
127644,-40,4,2,36,90,0,1
127815,-40,4,2,6,90,0,0
128244,-40,4,2,37,90,0,0
128501,-66.6666666666667,4,2,6,90,0,0
129530,-66.6666666666667,4,2,34,90,0,0
129701,-66.6666666666667,4,2,6,90,0,0
130215,-57.1428571428571,4,2,6,90,0,0
130730,-57.1428571428571,4,2,38,90,0,0
130901,-80,4,2,6,90,0,0
131587,-57.1428571428571,4,2,6,90,0,0
131758,-100,4,2,37,90,0,0
131930,-50,4,2,6,90,0,0
132101,-100,4,2,6,90,0,0
132273,-40,4,2,6,90,0,0
132958,-200,4,2,7,90,0,1
133044,-200,4,2,7,90,0,0
133644,-100,4,2,7,90,0,0
134330,-133.333333333333,4,2,7,90,0,0
134673,-80,4,2,7,90,0,0
135015,-66.6666666666667,4,2,7,90,0,0
135701,-100,4,2,38,90,0,1
135787,-100,4,2,38,90,0,0
135873,-50,4,2,6,90,0,0
136130,-66.6666666666667,4,2,6,90,0,0
136473,-100,4,2,6,90,0,0
136901,-66.6666666666667,4,2,6,90,0,0
137073,-50,4,2,6,90,0,0
137587,-66.6666666666667,4,2,6,90,0,0
137758,-57.1428571428571,4,2,6,90,0,0
138444,-66.6666666666667,4,2,6,90,0,1
138530,-66.6666666666667,4,2,6,90,0,0
138958,-100,4,2,6,90,0,0
140844,-50,4,2,6,90,0,0
141015,-100,4,2,6,90,0,0
141187,-66.6666666666667,4,2,6,90,0,0
142558,-50,4,2,35,90,0,0
142730,-133.333333333333,4,2,35,90,0,0
142901,-50,4,2,35,90,0,0
143073,-133.333333333333,4,2,35,90,0,0
143244,-133.333333333333,4,2,6,90,0,0
143758,-50,4,2,6,90,0,0
143930,-50,4,2,39,70,0,0
149415,-50,4,2,8,70,0,0
149758,-133.333333333333,4,2,8,70,0,0
150787,-133.333333333333,4,2,8,75,0,0
151301,-100,4,2,8,75,0,0
151815,-133.333333333333,4,2,8,75,0,0
152158,-133.333333333333,4,2,8,80,0,0
153530,-133.333333333333,4,2,8,90,0,0
154215,-100,4,2,8,90,0,0
155330,-50,4,2,8,90,0,0
156101,-80,4,2,8,90,0,0
156273,-66.6666666666667,4,2,8,90,0,0
156873,-50,4,2,8,90,0,0
157644,-66.6666666666667,4,2,8,90,0,0
159358,-50,4,2,8,90,0,0
161073,-66.6666666666667,4,2,8,90,0,0
161415,-100,4,2,8,90,0,0
161758,-66.6666666666667,4,2,8,90,0,0
161930,-50,4,2,8,90,0,0
162101,-66.6666666666667,4,2,8,90,0,0
163130,-50,4,2,8,90,0,0
163473,-57.1428571428571,4,2,8,90,0,0
163815,-66.6666666666667,4,2,8,90,0,0
164158,-100,4,2,8,90,0,0
164501,-66.6666666666667,4,2,8,90,0,0
164673,-44.4444444444445,4,2,8,90,0,0
165187,-66.6666666666667,4,2,8,90,0,0
169301,-100,4,2,8,90,0,0
171358,-50,4,2,8,90,0,0
172044,-66.6666666666667,4,2,8,90,0,0
172387,-100,4,2,8,90,0,0
172730,-66.6666666666667,4,2,8,90,0,0
172901,-50,4,2,8,90,0,0
173073,-66.6666666666667,4,2,8,90,0,0
174101,-50,4,2,8,90,0,0
174444,-57.1428571428571,4,2,8,90,0,0
174787,-66.6666666666667,4,2,8,90,0,0
175130,-100,4,2,8,90,0,0
175473,-50,4,2,8,90,0,0
175644,-66.6666666666667,4,2,8,90,0,0
176844,-66.6666666666667,4,2,40,90,0,0
182330,-505.55,4,2,9,70,0,0
185073,387.096774193548,4,2,9,70,1,0
186621,413.793103448276,4,2,9,70,1,0
188276,428.571428571429,4,2,9,70,1,0
191704,480,4,2,9,70,1,0
195544,500,4,2,9,80,1,0
203544,250,4,2,41,80,1,0
203544,-200,4,2,41,80,0,0
205544,-200,4,2,10,80,0,0
207544,-133.333333333333,4,2,10,80,0,0
208794,-166.666666666667,4,2,10,80,0,0
209169,-133.333333333333,4,2,10,80,0,0
210544,-200,4,2,10,80,0,0
212419,-400,4,2,10,80,0,0
213544,-200,4,2,10,80,0,0
215294,-133.333333333333,4,2,10,80,0,0
215544,-666.666666666667,4,2,42,80,0,0
216294,-666.666666666667,4,2,10,80,0,0
219544,-133.333333333333,4,2,11,80,0,0
221544,-117.647058823529,4,2,11,80,0,0
222544,-100,4,2,11,80,0,0
223544,-83.3333333333333,4,2,11,80,0,0
224794,-76.9230769230769,4,2,11,80,0,0
225544,-71.4285714285714,4,2,11,80,0,0
226044,-66.6666666666667,4,2,11,80,0,0
226544,-60.6060606060606,4,2,11,80,0,0
227294,-200,4,2,11,80,0,0
227419,-200,4,2,43,80,0,0
227544,-200,4,2,11,90,0,0
231294,-80,4,2,11,90,0,0
233544,-133.333333333333,4,2,43,90,0,0
234544,-250,4,2,11,90,0,0
235544,-200,4,2,11,90,0,0
237044,-285.714285714286,4,2,11,90,0,0
237294,-200,4,2,11,90,0,0
239294,-200,4,2,36,90,0,0
239544,-200,4,2,12,90,0,1
243294,-100,4,2,12,90,0,1
243419,-133.333333333333,4,2,12,90,0,1
243544,-100,4,2,12,90,0,1
244544,-80,4,2,12,90,0,1
245544,-66.6666666666667,4,2,12,90,0,1
247294,-133.333333333333,4,2,12,90,0,1
248419,-66.6666666666667,4,2,12,90,0,1
250544,-66.6666666666667,4,2,12,90,0,0
251544,-100,4,2,13,90,0,0
253294,-50,4,2,13,90,0,0
253544,-50,4,2,14,90,0,0
253794,-133.333333333333,4,2,14,90,0,0
255044,-80,4,2,14,90,0,0
255544,-80,4,2,12,90,0,1
259294,-66.6666666666667,4,2,12,90,0,1
261294,-133.333333333333,4,2,12,90,0,1
263294,-66.6666666666667,4,2,12,90,0,1
263544,-80,4,2,12,90,0,1
265544,-50,4,2,12,90,0,1
266294,-66.6666666666667,4,2,12,90,0,1
266544,-111.111111111111,4,2,12,90,0,0
267544,-111.111111111111,4,2,44,80,0,0

[Colours]
Combo1 : 175,216,228
Combo2 : 89,125,193
Combo3 : 103,175,188

[HitObjects]
101,255,29983,6,0,B|72:214|72:214|176:259,1,150,6|0,1:0|2:0,2:0:0:0:
193,328,30233,2,0,B|244:316|217:286|277:278,1,100,8|0,2:1|3:0,2:0:0:0:
16,101,30733,2,0,P|181:170|229:182,2,200,10|0|8,2:1|2:0|2:1,2:0:0:0:
16,100,31483,2,0,P|35:133|39:163,2,50,0|0|8,2:0|3:0|2:1,2:0:0:0:
299,359,31983,6,0,P|355:340|350:282,1,112.5,2|0,2:1|2:0,2:0:0:0:
415,227,32233,2,0,B|410:171|467:143|507:170|489:203|431:198,1,150,8|0,2:1|2:0,2:0:0:0:
444,362,32733,2,0,P|388:249|270:93,1,300,10|0,2:1|2:0,2:0:0:0:
345,29,33233,1,8,2:1:0:0:
345,29,33733,2,0,P|352:54|362:77,1,35,10|0,2:1|2:0,2:0:0:0:
249,180,33983,6,0,B|308:144|385:152|385:152|410:128|431:108,1,172.5,2|0,1:0|2:0,2:0:0:0:
512,115,34233,2,0,P|467:206|459:232,1,110,8|0,2:1|3:0,2:0:0:0:
24,41,34733,2,0,B|50:119|90:100|130:81|159:174,2,200,10|0|8,2:1|2:0|2:1,2:0:0:0:
101,83,35483,2,0,P|89:118|86:134,2,40,0|0|8,3:0|2:0|2:1,2:0:0:0:
459,362,35983,6,0,P|419:303|364:310,1,112.5,10|0,2:0|2:0,2:0:0:0:
312,257,36233,2,0,P|267:265|205:274,1,75.0000000000002,8|0,2:1|2:0,2:0:0:0:
385,219,36483,1,0,3:0:0:0:
111,365,36733,2,0,P|158:236|172:150,2,200,10|0|8,2:1|2:0|2:1,2:0:0:0:
43,294,37358,2,0,P|58:240|82:195,1,100,0|0,2:0|2:0,2:0:0:0:
133,274,37733,1,8,2:1:0:0:
441,76,37983,6,0,B|457:49|492:42|492:42|465:37|465:37|378:51|377:132,1,225,12|0,2:0|2:0,2:0:0:0:
306,169,38233,2,0,P|253:145|246:99,1,100,8|2,2:0|2:0,2:0:0:0:
389,206,38483,1,8,2:0:0:0:
389,206,38733,6,0,B|397:230|397:230|412:235|412:235|409:220|409:220|385:206,1,75,10|0,2:0|2:0,2:0:0:0:
310,254,38983,2,0,B|284:282|284:282|289:306|289:306|307:291|307:291|310:253,1,112.5,10|0,2:0|2:0,2:0:0:0:
388,320,39233,2,0,B|389:353|389:353|407:364|407:364|407:344|407:344|389:320,1,100,10|0,2:0|2:0,2:0:0:0:
311,164,39483,2,0,B|308:129|308:129|290:117|290:117|288:138|288:138|311:164,1,100,10|0,2:0|2:0,2:0:0:0:
345,245,39733,6,0,B|284:241|284:241|277:236|277:236|190:229,1,125,10|2,2:0|2:3,2:0:0:0:
212,225,39920,1,2,2:3:0:0:
203,218,39983,6,0,B|188:163|127:143|81:167|81:167|77:175|77:175|96:239|33:282,1,225,8|0,2:0|2:0,2:0:0:0:
76,339,40233,2,0,P|129:329|150:279,1,100,8|2,2:0|2:0,2:0:0:0:
3,293,40483,1,8,2:0:0:0:
62,14,40733,6,0,B|94:22|101:53|101:53|85:48|85:48|81:29|60:14,1,112.5,10|0,2:0|2:0,2:0:0:0:
93,135,40983,2,0,B|141:157|180:126|180:126|155:117|155:117|132:136|92:132,1,180,10|0,2:0|2:0,2:0:0:0:
240,58,41233,2,0,B|264:75|270:102|270:102|293:110|293:110|283:65|236:53,1,150,10|0,2:0|2:0,2:0:0:0:
335,208,41483,2,0,B|385:211|410:165|410:165|380:165|380:165|366:193|331:206,1,175,10|0,2:0|2:0,2:0:0:0:
506,127,41733,5,10,2:0:0:0:
506,127,41858,1,8,2:0:0:0:
472,348,41983,5,8,2:0:0:0:
411,286,42108,1,8,2:0:0:0:
329,305,42233,1,8,2:0:0:0:
266,358,42358,1,8,2:0:0:0:
188,334,42483,1,8,2:0:0:0:
152,248,42608,1,8,2:0:0:0:
181,159,42733,1,10,2:0:0:0:
60,258,42858,1,8,2:0:0:0:
344,181,42983,5,2,2:0:0:0:
344,181,43108,1,8,2:0:0:0:
433,158,43233,1,2,2:0:0:0:
362,261,43358,1,8,2:0:0:0:
256,220,43483,1,10,2:0:0:0:
254,93,43608,1,8,2:0:0:0:
384,53,43733,1,0,1:0:0:0:
377,62,43795,1,0,1:0:0:0:
371,73,43858,1,2,1:3:0:0:
365,83,43920,1,2,1:3:0:0:
361,95,43983,5,2,1:3:0:0:
189,156,44108,2,0,L|157:167,1,25,2|2,1:3|1:3,2:0:0:0:
344,181,44358,5,2,1:3:0:0:
135,80,44483,2,0,L|58:46,1,75.0000000000002,2|2,1:3|1:3,2:0:0:0:
301,25,44733,5,0,1:0:0:0:
270,124,44858,1,0,1:0:0:0:
270,124,44920,1,0,1:0:0:0:
270,124,44983,6,0,B|240:175|240:175|227:174|227:174|153:308,1,187.5,0|0,1:0|1:0,2:0:0:0:
101,325,45233,2,0,B|82:326|82:326|60:301,3,37.5000000000001,8|8|8|8,2:3|2:3|2:3|2:3,2:0:0:0:
320,307,45483,6,0,P|224:339|170:368,1,150,8|8,2:0|2:3,2:0:0:0:
146,198,45733,2,0,B|127:169|108:154|108:154|196:134|246:196|244:277,1,225,14|0,2:3|2:0,2:0:0:0:
404,308,45983,6,0,B|389:214|330:267|318:136,1,150,6|2,2:0|2:0,2:0:0:0:
410,162,46170,1,2,2:0:0:0:
415,154,46233,2,0,B|423:118|451:139|459:73,1,75,2|0,1:2|2:0,2:0:0:0:
321,38,46358,1,2,2:0:0:0:
325,46,46420,1,0,2:0:0:0:
329,55,46483,2,0,L|353:125,1,50,8|0,2:1|2:0,2:0:0:0:
485,206,46608,1,0,2:0:0:0:
257,116,46733,5,8,3:2:0:0:
248,112,46795,1,0,3:0:0:0:
240,108,46858,1,0,3:0:0:0:
232,104,46920,1,0,3:0:0:0:
223,100,46983,1,0,3:0:0:0:
215,97,47045,1,0,3:0:0:0:
207,93,47108,1,0,3:0:0:0:
199,89,47170,1,0,3:0:0:0:
188,86,47233,6,0,B|123:93|163:121|76:131,1,100,0|8,1:0|2:3,2:0:0:0:
86,122,47420,1,8,2:3:0:0:
76,115,47483,2,0,B|46:103|64:11|170:17|211:107|193:187,1,262.5,6|0,2:0|2:0,2:0:0:0:
112,229,47733,6,0,P|88:240|112:227,1,87.5000000000001,2|2,2:3|2:3,2:0:0:0:
106,230,47858,6,0,P|82:241|106:228,1,87.5000000000001,2|2,2:3|2:3,2:0:0:0:
258,268,47983,6,0,B|267:233|293:213|342:209|342:209|409:10,1,300,2|2,1:2|2:0,2:0:0:0:
407,32,48358,2,0,L|377:124,1,75,2|0,1:2|2:0,2:0:0:0:
277,136,48483,1,8,3:1:0:0:
240,129,48545,1,0,3:0:0:0:
217,100,48608,1,0,3:0:0:0:
218,63,48670,1,0,3:0:0:0:
242,36,48733,2,0,P|280:57|301:66,1,37.5000000000001,2|0,1:2|2:0,2:0:0:0:
352,186,48858,1,2,2:1:0:0:
352,186,49108,6,0,L|325:264,1,50,2|0,1:2|2:0,2:0:0:0:
429,359,49233,2,0,P|389:309|347:327,1,100,2|0,1:2|2:0,2:0:0:0:
355,323,49420,1,0,2:0:0:0:
349,331,49483,2,0,P|285:332|272:288,1,100,10|2,2:0|2:0,2:0:0:0:
272,298,49670,1,2,2:0:0:0:
272,289,49733,2,0,P|234:259|191:278,1,100,2|2,1:2|2:0,2:0:0:0:
64,115,49983,6,0,B|57:90|57:90|154:54|154:54|110:242,1,300,4|0,1:0|2:0,2:0:0:0:
116,348,50233,2,0,B|92:359|92:359|107:285,1,75,2|0,1:2|2:0,2:0:0:0:
42,237,50358,1,2,3:2:0:0:
42,237,50420,1,2,3:2:0:0:
42,237,50483,2,0,L|141:215,1,75,8|0,2:1|2:0,2:0:0:0:
208,180,50608,1,0,2:0:0:0:
272,290,50733,5,8,3:2:0:0:
280,291,50795,1,0,3:0:0:0:
289,293,50858,1,0,3:0:0:0:
298,295,50920,1,0,3:0:0:0:
307,297,50983,1,0,3:0:0:0:
316,298,51045,1,0,3:0:0:0:
325,300,51108,1,0,3:0:0:0:
334,302,51170,1,0,3:0:0:0:
343,305,51233,6,0,B|405:296|374:270|433:262,1,100,0|8,1:0|2:3,2:0:0:0:
441,267,51420,1,8,2:3:0:0:
449,275,51483,2,0,B|406:311|404:361|404:361|392:293|311:203,1,262.5,6|0,2:0|2:0,2:0:0:0:
400,170,51733,6,0,B|422:162|433:141|433:141|423:165|438:203,1,87.5000000000001,2|2,2:3|2:3,2:0:0:0:
401,164,51858,6,0,B|423:156|434:135|434:135|424:159|439:197,1,87.5000000000001,2|2,2:3|2:3,2:0:0:0:
217,234,51983,2,0,B|207:149|269:89|357:86|357:86|387:13,1,300,0|2,1:0|1:2,2:0:0:0:
383,31,52358,2,0,L|353:114,1,50,2|0,2:0|2:0,2:0:0:0:
202,125,52483,1,8,3:1:0:0:
174,88,52545,1,0,3:0:0:0:
183,47,52608,1,0,3:0:0:0:
221,25,52670,1,0,3:0:0:0:
261,40,52733,2,0,L|275:85,1,37.5000000000001,0|0,1:0|2:0,2:0:0:0:
326,220,52858,1,0,2:0:0:0:
326,220,53108,6,0,L|348:289,1,50,2|0,1:2|2:0,2:0:0:0:
373,358,53233,2,0,P|436:356|447:308,1,100,2|2,1:2|1:2,2:0:0:0:
446,320,53420,1,8,2:3:0:0:
443,311,53483,2,0,P|486:265|460:222,1,100,10|2,2:0|2:0,2:0:0:0:
469,232,53670,1,2,2:0:0:0:
461,228,53733,2,0,P|459:164|411:153,1,100,2|2,1:2|2:0,2:0:0:0:
230,216,53983,6,0,B|203:221|203:221|199:224|199:224|149:233,1,50,2|0,1:3|2:0,2:0:0:0:
77,178,54108,2,0,B|59:158|59:158|90:181,1,50,2|0,2:3|2:0,2:0:0:0:
102,269,54233,2,0,B|116:208|116:208|146:195|146:195|178:52,1,225,2|0,2:1|2:0,2:0:0:0:
251,28,54483,2,0,B|276:54|276:54|255:94,1,75,8|0,2:0|2:0,2:0:0:0:
88,85,54608,1,2,2:0:0:0:
337,179,54733,6,0,B|394:168|447:151|447:151|486:177|469:226,1,187.5,0|2,1:0|2:3,2:0:0:0:
424,295,54983,5,0,1:0:0:0:
418,286,55045,1,0,2:0:0:0:
412,291,55108,1,8,3:0:0:0:
408,281,55170,1,8,3:0:0:0:
398,289,55233,1,8,3:0:0:0:
390,275,55295,1,2,3:1:0:0:
377,288,55358,1,2,3:1:0:0:
368,269,55420,1,2,3:1:0:0:
352,288,55483,6,0,L|266:307,1,62.5,8|0,2:1|2:0,2:0:0:0:
198,359,55608,1,0,2:0:0:0:
188,355,55670,1,0,2:0:0:0:
180,348,55733,2,0,B|172:331|172:331|209:282,1,62.5,0|0,1:0|2:0,2:0:0:0:
252,222,55858,1,0,2:0:0:0:
126,81,55983,6,0,B|101:58|76:63|76:63|98:76|108:99,1,87.5000000000001,2|0,1:2|2:0,2:0:0:0:
226,123,56108,2,0,B|233:89|216:70|216:70|216:96|201:116,1,87.5000000000001,2|0,1:2|2:0,2:0:0:0:
117,171,56233,6,0,B|124:189|117:213|117:213|131:190|174:181,1,87.5000000000001,2|0,2:3|2:0,2:0:0:0:
320,122,56358,2,0,B|327:104|320:80|320:80|334:103|377:112,1,87.5000000000001,2|0,2:3|2:0,2:0:0:0:
478,99,56483,6,0,B|465:116|465:116|344:143|249:222,1,262.5,10|0,2:1|2:0,2:0:0:0:
359,259,56733,1,2,1:2:0:0:
372,264,56795,1,2,1:2:0:0:
386,266,56858,2,0,P|413:254|420:198,1,62.5,2|0,1:2|2:0,2:0:0:0:
478,99,56983,6,0,B|485:74|480:32|480:32|499:25|525:-1|525:-1|497:49|476:97,1,225,2|0,1:2|2:0,2:0:0:0:
471,95,57233,6,0,B|478:70|473:28|473:28|492:21|518:-5|518:-5|490:45|469:93,1,225,2|0,1:2|2:0,2:0:0:0:
464,91,57483,6,0,B|471:66|466:24|466:24|485:17|511:-9|511:-9|483:41|462:89,1,225,2|0,1:2|2:0,2:0:0:0:
456,88,57733,6,0,P|461:63|459:38,1,50,2|0,1:2|2:0,2:0:0:0:
371,106,57858,6,0,P|365:81|353:59,1,50,2|0,1:2|2:0,2:0:0:0:
360,51,57983,6,0,P|295:42|277:147,1,150,0|0,1:0|2:0,2:0:0:0:
179,176,58233,2,0,P|159:90|130:9,1,150,2|0,2:0|2:0,2:0:0:0:
423,269,58483,1,8,2:0:0:0:
423,269,58733,2,0,P|356:247|327:243,1,62.5,2|0,2:0|2:0,2:0:0:0:
280,201,58858,1,2,2:0:0:0:
153,272,58983,5,2,2:0:0:0:
153,272,59045,1,2,2:0:0:0:
153,272,59108,2,0,P|123:263|131:207,1,62.5,2|0,2:1|2:0,2:0:0:0:
280,201,59233,2,0,P|251:301|243:351,1,125,0|0,1:0|2:0,2:0:0:0:
19,366,59483,5,10,2:0:0:0:
43,287,59608,1,0,2:0:0:0:
103,345,59733,1,2,2:0:0:0:
179,176,59858,1,2,2:1:0:0:
19,41,59983,6,0,P|37:112|106:111,1,150,0|0,1:0|2:0,2:0:0:0:
112,105,60170,1,0,2:0:0:0:
121,97,60233,2,0,P|247:72|282:70,1,150,2|2,2:0|2:0,2:0:0:0:
457,178,60483,5,8,2:0:0:0:
409,97,60608,1,2,2:0:0:0:
329,150,60733,1,0,2:0:0:0:
82,195,60858,2,0,P|206:230|254:253,1,175,0|0,2:0|2:0,2:0:0:0:
410,87,61108,5,2,2:0:0:0:
25,276,61233,2,0,P|127:331|211:404,1,200,2|2,1:2|2:1,2:0:0:0:
374,243,61483,5,8,2:0:0:0:
374,243,61608,1,0,2:0:0:0:
453,314,61733,1,2,2:3:0:0:
442,315,61795,1,2,2:3:0:0:
433,319,61858,1,2,2:3:0:0:
424,326,61920,1,2,2:3:0:0:
415,333,61983,6,0,B|393:355|382:388|382:388|335:264|448:271|383:128,1,300,6|0,2:0|2:0,2:0:0:0:
304,123,62233,2,0,L|316:178,1,50,2|0,1:3|2:0,2:0:0:0:
223,136,62358,2,0,L|235:191,1,50,2|0,2:3|2:0,2:0:0:0:
475,154,62483,2,0,P|499:57|515:15,1,100,8|2,2:0|2:3,2:0:0:0:
505,49,62670,1,0,2:0:0:0:
512,41,62733,2,0,B|432:22|432:22|400:86,1,150,2|0,2:3|2:0,2:0:0:0:
289,255,62983,5,0,1:0:0:0:
130,268,63108,2,0,B|193:253|193:253|224:330,2,125,2|0|0,2:3|2:0|2:0,2:0:0:0:
348,358,63483,2,0,P|388:224|396:203,1,125,8|2,2:0|2:3,2:0:0:0:
251,37,63733,1,0,2:0:0:0:
251,37,63858,2,0,L|254:64,2,18.75,0|0|0,3:0|3:0|3:0,2:0:0:0:
257,144,63983,6,0,B|206:133|206:133|181:98|181:98|113:83,1,150,0|0,1:0|2:0,2:0:0:0:
47,215,64233,1,0,3:0:0:0:
57,224,64295,1,0,3:0:0:0:
71,231,64358,1,0,3:0:0:0:
85,230,64420,1,0,3:0:0:0:
97,220,64483,6,0,L|120:165,1,50,8|0,2:0|2:0,2:0:0:0:
35,69,64608,2,0,L|51:126,1,50,0|0,2:0|2:0,2:0:0:0:
200,220,64733,2,0,P|231:330|237:354,1,100,2|0,3:0|2:0,2:0:0:0:
443,76,64983,6,0,L|417:166,1,50,2|0,1:2|2:0,2:0:0:0:
436,74,65108,2,0,L|410:164,1,50,2|0,1:2|2:0,2:0:0:0:
328,301,65233,2,0,P|312:256|283:242,2,50,2|0|0,1:2|2:0|2:0,2:0:0:0:
438,209,65483,2,0,P|418:224|407:246,2,50,2|0|0,1:2|2:0|2:0,2:0:0:0:
303,159,65733,2,0,P|326:169|351:168,2,50,2|0|2,1:2|2:0|2:3,2:0:0:0:
413,337,65983,6,0,B|424:304|458:288|458:288|158:330,1,300,4|0,1:0|2:0,2:0:0:0:
146,243,66233,2,0,B|135:231|117:225|117:225|170:227|175:288,1,100,0|0,2:0|2:0,2:0:0:0:
150,344,66358,1,0,2:0:0:0:
213,172,66483,2,0,P|222:127|240:69,1,100,8|0,2:0|2:0,2:0:0:0:
229,68,66670,1,0,2:0:0:0:
220,62,66733,2,0,B|169:70|169:70|165:78|165:78|110:87,2,100,2|0|0,2:0|2:0|1:0,2:0:0:0:
298,295,67108,6,0,B|352:308|352:308|367:325|367:325|426:340,1,125,2|0,2:0|2:0,2:0:0:0:
200,274,67358,1,0,2:0:0:0:
469,148,67483,2,0,B|500:128|500:128|402:154,1,100,8|0,2:0|2:0,2:0:0:0:
443,234,67608,2,0,B|386:222|386:222|356:190|356:190|294:178,1,150,2|0,2:0|1:0,2:0:0:0:
92,278,67858,6,0,L|114:273,2,18.75,0|0|0,3:0|3:0|3:0,2:0:0:0:
116,354,67983,6,0,B|102:321|57:311|57:311|89:149,1,225,0|0,2:0|2:0,2:0:0:0:
66,55,68233,1,0,3:0:0:0:
56,53,68295,1,0,3:0:0:0:
48,57,68358,1,0,3:0:0:0:
43,65,68420,1,0,3:0:0:0:
42,74,68483,6,0,B|65:83|65:83|105:49|155:58,1,100,8|0,2:0|2:0,2:0:0:0:
221,20,68608,2,0,B|281:44|295:110|217:58|242:9,1,100,0|0,1:0|2:0,2:0:0:0:
246,243,68733,2,0,P|171:202|214:135,1,150,2|0,3:0|2:0,2:0:0:0:
483,156,68983,6,0,L|406:136,1,50,2|0,1:2|2:0,2:0:0:0:
481,164,69108,2,0,L|404:144,1,50,2|0,2:0|2:0,2:0:0:0:
407,53,69233,2,0,P|365:66|370:99,2,50,2|0|0,1:0|2:0|2:0,2:0:0:0:
325,188,69483,2,0,P|334:145|303:133,2,50,2|0|0,1:0|2:0|2:0,2:0:0:0:
243,51,69733,2,0,P|274:80|301:59,2,50,2|0|8,1:0|2:0|2:3,2:0:0:0:
446,280,69983,6,0,B|346:268|308:173|308:173|246:167|214:234|268:275,1,300,4|0,1:0|2:0,2:0:0:0:
287,340,70233,2,0,P|311:287|320:279,1,37.5000000000001,2|0,2:3|2:0,2:0:0:0:
152,262,70358,2,0,P|189:309|193:326,1,50,2|0,2:3|2:0,2:0:0:0:
374,355,70483,1,8,2:0:0:0:
214,384,70608,1,0,1:0:0:0:
393,225,70733,1,0,3:0:0:0:
401,214,70795,1,0,3:0:0:0:
410,207,70858,1,0,3:0:0:0:
421,199,70920,1,0,3:0:0:0:
431,194,70983,1,0,1:0:0:0:
281,164,71108,6,0,P|263:85|303:59,1,100,2|0,3:0|3:0,2:0:0:0:
278,74,71233,2,0,P|354:63|369:80,1,75,2|0,1:3|3:0,2:0:0:0:
352,65,71358,2,0,P|378:111|364:142,1,50,2|0,3:0|3:0,2:0:0:0:
431,194,71483,2,0,P|391:265|368:329,1,125,8|0,2:0|2:0,2:0:0:0:
199,217,71733,1,0,1:0:0:0:
168,207,71795,1,0,3:0:0:0:
137,214,71858,1,0,3:0:0:0:
115,235,71920,1,0,3:0:0:0:
108,257,71983,6,0,B|140:276|137:322|137:322|155:265|201:219|206:233|274:240|282:154,1,300,0|0,1:0|2:0,2:0:0:0:
173,34,72233,2,0,L|180:63,2,18.75,2|2|2,3:0|3:0|3:0,2:0:0:0:
198,130,72358,1,2,2:0:0:0:
448,276,72483,6,0,B|427:205|427:205|353:220,1,150,10|0,2:0|1:2,2:0:0:0:
360,118,72670,2,0,B|297:105|297:105|280:164,1,125,2|0,1:2|2:0,2:0:0:0:
198,130,72858,2,0,L|176:205,1,50,2|0,2:0|2:0,2:0:0:0:
256,247,72983,2,0,L|240:311,3,37.5000000000001,0|0|0|0,3:0|3:0|3:0|3:0,2:0:0:0:
101,356,73233,6,0,B|51:342|51:342|65:297,1,100,2|0,1:3|2:0,2:0:0:0:
29,209,73358,2,0,B|56:181|56:181|93:217,1,75,2|0,2:3|2:0,2:0:0:0:
153,266,73483,2,0,B|308:295|308:295|316:313|316:313|387:326,1,225,12|0,2:0|2:0,2:0:0:0:
364,227,73733,6,0,B|376:187|416:181|430:206|435:159|435:159|409:154|409:154|357:169|357:221,1,225,2|2,3:1|3:1,2:0:0:0:
362,321,73983,6,0,P|276:279|283:162,1,225,0|0,1:0|2:0,2:0:0:0:
206,91,74233,2,0,P|330:60|389:37,1,150,2|0,2:0|2:0,2:0:0:0:
63,311,74483,1,10,2:0:0:0:
63,311,74733,2,0,P|83:258|88:229,1,50,2|0,2:0|2:0,2:0:0:0:
11,209,74858,1,2,2:0:0:0:
172,170,74983,5,0,2:0:0:0:
172,170,75045,1,0,2:0:0:0:
172,170,75108,2,0,P|162:215|154:243,1,50,2|0,2:1|2:0,2:0:0:0:
158,319,75233,2,0,P|236:342|286:365,1,100,0|0,2:0|2:0,2:0:0:0:
452,262,75483,5,10,2:0:0:0:
345,297,75608,1,0,2:0:0:0:
358,134,75733,1,2,2:0:0:0:
424,352,75858,1,2,2:1:0:0:
358,134,75983,6,0,P|289:129|266:206,1,150,0|0,2:0|2:0,2:0:0:0:
257,203,76170,1,0,2:0:0:0:
251,211,76233,2,0,P|165:198|173:128,1,150,2|2,2:0|2:0,2:0:0:0:
473,75,76483,5,8,2:0:0:0:
442,185,76608,1,0,2:0:0:0:
287,95,76733,1,2,2:0:0:0:
364,137,76858,2,0,P|327:246|315:307,1,150,2|0,2:1|2:0,2:0:0:0:
213,341,77108,1,0,2:0:0:0:
90,92,77233,2,0,P|129:202|141:265,1,150,2|2,2:0|2:1,2:0:0:0:
213,341,77483,5,8,2:0:0:0:
213,341,77608,1,0,2:0:0:0:
240,217,77733,2,0,L|252:164,3,37.5000000000001,2|0|0|0,2:1|2:0|2:3|2:0,2:0:0:0:
261,66,77983,5,0,1:2:0:0:
277,50,78108,1,0,1:2:0:0:
280,70,78233,1,0,1:2:0:0:
258,49,78358,1,2,1:2:0:0:
273,59,78608,5,0,1:0:0:0:
273,59,78670,1,0,1:0:0:0:
273,59,78733,2,0,B|280:36|280:36|295:26|295:26|293:44|293:44|276:57,1,75,2|0,1:2|2:0,2:0:0:0:
177,86,78983,2,0,B|146:66|146:66|152:43|152:43|174:51|174:51|179:85,1,112.5,2|0,1:2|2:0,2:0:0:0:
135,190,79233,2,0,B|113:202|113:202|88:193|88:193|109:179|109:179|135:187,1,100,2|0,1:2|2:0,2:0:0:0:
221,291,79483,2,0,B|220:322|220:322|194:344|194:344|192:312|192:312|218:289,1,125,2|0,1:2|2:0,2:0:0:0:
357,277,79733,2,0,B|395:294|395:294|396:332|396:332|361:319|361:319|356:278,1,150,2|0,1:2|2:0,2:0:0:0:
29,111,79983,6,0,P|159:89|203:81,1,150,10|0,2:0|2:0,2:0:0:0:
480,171,80233,2,0,P|350:193|306:201,1,150,10|0,2:0|2:0,2:0:0:0:
251,145,80420,1,0,2:0:0:0:
251,145,80483,2,0,L|288:54,1,75,10|0,2:0|2:0,2:0:0:0:
155,183,80608,1,0,2:0:0:0:
155,183,80670,1,0,2:0:0:0:
155,183,80733,2,0,P|179:249|187:277,1,75,10|0,2:0|2:0,2:0:0:0:
262,313,80858,1,0,1:2:0:0:
30,111,80983,5,0,1:2:0:0:
37,118,81358,5,2,2:0:0:0:
37,118,81420,1,2,2:0:0:0:
37,118,81483,1,2,2:0:0:0:
112,91,81608,1,2,2:0:0:0:
185,56,81733,2,0,B|204:44|201:21|201:21|196:40|178:58,1,75.0000000000002,2|0,2:0|2:0,2:0:0:0:
58,231,81983,6,0,B|51:210|19:197|19:197|128:218|128:218|148:254|148:254|263:278,1,300,6|0,2:0|2:0,2:0:0:0:
265,165,82233,2,0,L|184:186,1,50,2|0,2:0|2:0,2:0:0:0:
91,316,82358,2,0,L|170:290,1,50,2|0,2:0|2:0,2:0:0:0:
240,273,82483,1,0,2:0:0:0:
240,273,82733,5,0,1:0:0:0:
351,360,82858,2,0,L|328:287,1,62.5,2|0,2:0|2:0,2:0:0:0:
376,172,82983,2,0,L|397:244,1,62.5,2|0,2:0|2:0,2:0:0:0:
344,358,83108,2,0,L|321:285,1,62.5,2|0,2:0|2:0,2:0:0:0:
380,167,83233,2,0,L|432:338,1,150,2|0,2:0|2:0,2:0:0:0:
253,384,83483,5,8,2:0:0:0:
245,366,83545,1,0,3:0:0:0:
230,356,83608,1,0,3:0:0:0:
212,355,83670,1,0,3:0:0:0:
193,364,83733,2,0,B|96:337|96:337|116:259,1,150,0|0,1:0|2:0,2:0:0:0:
70,89,83983,6,0,B|63:57|63:57|113:38|113:38|61:179,1,200,0|0,1:0|3:0,2:0:0:0:
76,156,84170,1,0,3:0:0:0:
79,167,84233,2,0,B|108:190|108:190|176:157,1,75,2|0,2:0|2:0,2:0:0:0:
350,91,84358,2,0,B|321:68|321:68|253:101,1,75,2|0,2:0|2:0,2:0:0:0:
153,97,84483,2,0,B|209:112|209:112|217:147|217:147|300:173,1,150,8|2,2:0|1:3,2:0:0:0:
273,172,84670,1,2,1:3:0:0:
277,180,84733,1,2,1:3:0:0:
205,305,84858,6,0,B|181:266|181:266|223:209,1,87.5000000000001,2|0,2:0|2:0,2:0:0:0:
379,173,84983,2,0,B|394:215|394:215|344:264,1,87.5000000000001,2|0,2:0|2:0,2:0:0:0:
195,307,85108,2,0,B|171:268|171:268|213:211,1,87.5000000000001,2|0,2:0|2:0,2:0:0:0:
297,87,85233,2,0,B|281:198|281:198|290:222|290:222|270:382,1,262.5,8|0,1:2|2:0,2:0:0:0:
363,384,85483,5,0,1:0:0:0:
372,357,85545,1,0,3:0:0:0:
394,340,85608,1,0,3:0:0:0:
422,336,85670,1,0,3:0:0:0:
448,347,85733,1,0,1:0:0:0:
488,252,85858,2,0,L|438:264,1,37.5000000000001,0|0,2:0|2:0,2:0:0:0:
363,245,85983,6,0,B|280:260|280:260|277:262|277:262|177:281,1,175,4|0,2:0|2:0,2:0:0:0:
16,48,86233,5,0,1:0:0:0:
170,109,86358,1,0,1:0:0:0:
6,147,86483,1,8,2:0:0:0:
179,105,86608,1,0,2:0:0:0:
90,130,86733,1,0,3:0:0:0:
90,140,86795,1,0,3:0:0:0:
92,151,86858,1,0,3:0:0:0:
93,162,86920,1,0,3:0:0:0:
95,176,86983,6,0,L|111:294,1,100,0|0,1:0|2:0,2:0:0:0:
128,33,87233,1,0,1:0:0:0:
128,33,87358,1,0,2:0:0:0:
0,242,87483,1,8,2:0:0:0:
0,242,87733,6,0,B|132:268|132:268|154:273|151:309|176:314|176:314|242:326|242:326|272:311|283:289|283:289|271:293|230:301,1,375,2|0,1:0|2:0,2:0:0:0:
77,351,87983,6,0,P|113:225|227:215,1,250,4|0,2:0|2:0,2:0:0:0:
421,73,88358,2,0,P|392:107|289:58,1,125,4|0,2:0|2:0,2:0:0:0:
250,46,88608,1,0,1:0:0:0:
250,46,88733,2,0,P|172:84|164:131,1,125,2|2,1:3|2:3,2:0:0:0:
330,221,88983,5,2,1:2:0:0:
216,210,89108,2,0,P|258:307|275:375,2,125,0|2|0,2:0|1:2|2:0,2:0:0:0:
383,381,89483,2,0,P|446:176|472:128,1,225,10|0,2:0|2:0,2:0:0:0:
332,135,89733,2,0,P|331:104|329:137,1,112.5,2|0,1:2|2:0,2:0:0:0:
330,221,89983,6,0,B|314:228|301:242|301:242|146:198|146:198|118:85,1,300,4|0,2:1|2:0,2:0:0:0:
222,75,90233,2,0,L|210:123,1,50,2|0,2:0|2:0,2:0:0:0:
56,201,90358,2,0,L|44:152,1,50,2|0,2:0|2:0,2:0:0:0:
121,98,90483,1,8,2:0:0:0:
121,98,90733,5,2,2:0:0:0:
4,26,90858,2,0,L|64:47,1,50,2|0,2:0|2:0,2:0:0:0:
190,203,90983,2,0,L|142:186,1,50,2|0,2:0|2:0,2:0:0:0:
5,19,91108,2,0,L|65:40,1,50,2|0,2:0|2:0,2:0:0:0:
190,210,91233,2,0,L|48:159,1,150,2|0,2:0|2:0,2:0:0:0:
9,289,91483,5,8,2:0:0:0:
9,311,91545,1,0,3:0:0:0:
21,330,91608,1,0,3:0:0:0:
42,338,91670,1,0,3:0:0:0:
62,334,91733,2,0,B|172:309|172:309|230:358,1,150,0|0,1:0|2:0,2:0:0:0:
366,187,91983,6,0,B|407:214|407:214|402:264|402:264|281:301,1,200,4|2,1:0|2:3,2:0:0:0:
296,300,92170,1,2,2:3:0:0:
285,304,92233,2,0,B|258:274|258:274|281:229,1,75,2|0,2:0|2:0,2:0:0:0:
478,289,92358,2,0,B|475:329|475:329|427:344,1,75,2|0,2:0|2:0,2:0:0:0:
361,361,92483,2,0,B|365:274|365:274|362:268|362:268|366:168,1,175,8|0,2:0|3:0,2:0:0:0:
366,176,92670,1,0,3:0:0:0:
367,166,92733,1,0,1:0:0:0:
315,82,92858,6,0,B|274:94|274:94|289:191,1,87.5000000000001,2|0,2:0|2:0,2:0:0:0:
447,193,92983,2,0,B|472:159|472:159|404:89,1,87.5000000000001,2|0,2:0|2:0,2:0:0:0:
308,78,93108,2,0,B|267:90|267:90|282:187,1,87.5000000000001,2|0,2:0|2:0,2:0:0:0:
488,41,93233,2,0,B|389:45|389:45|370:64|370:64|209:70,1,262.5,2|0,2:0|2:0,2:0:0:0:
172,156,93483,5,8,2:0:0:0:
144,161,93545,1,0,3:0:0:0:
117,149,93608,1,0,3:0:0:0:
101,127,93670,1,0,3:0:0:0:
98,98,93733,1,0,1:0:0:0:
142,0,93858,2,0,L|159:53,1,37.5000000000001,0|0,2:0|2:0,2:0:0:0:
204,238,93983,5,4,2:1:0:0:
204,238,94108,1,0,2:0:0:0:
303,259,94233,1,2,1:2:0:0:
406,281,94358,1,2,2:0:0:0:
233,337,94483,5,8,2:0:0:0:
233,337,94608,1,2,2:0:0:0:
142,351,94733,2,0,L|58:366,1,75.0000000000002,2|0,2:0|1:0,2:0:0:0:
7,234,94983,5,0,3:0:0:0:
25,236,95045,1,0,3:0:0:0:
37,250,95108,1,0,3:0:0:0:
100,150,95233,2,0,P|115:198|111:213,3,37.5000000000001,2|2|2|2,3:0|3:0|3:0|3:0,2:0:0:0:
200,248,95483,5,8,2:0:0:0:
253,172,95608,1,2,1:2:0:0:
335,124,95733,1,2,1:2:0:0:
433,119,95858,1,2,1:2:0:0:
345,280,95983,6,0,B|334:209|267:177|254:207|187:168|182:84,1,250,6|0,1:2|2:0,2:0:0:0:
137,25,96358,2,0,P|251:7|260:85,1,200,6|2,1:2|2:0,2:0:0:0:
194,247,96733,2,0,P|103:219|56:211,1,100,2|2,1:2|2:0,2:0:0:0:
0,347,96983,5,0,1:0:0:0:
155,322,97108,1,0,2:0:0:0:
268,202,97233,1,8,2:0:0:0:
266,65,97358,2,0,L|248:7,2,50,0|0|0,1:0|2:0|2:0,2:0:0:0:
339,294,97608,1,8,2:0:0:0:
410,159,97733,2,0,L|457:65,1,75.0000000000002,0|0,1:0|2:0,2:0:0:0:
331,384,97983,5,0,1:0:0:0:
331,384,98108,1,0,2:0:0:0:
98,225,98358,5,6,2:0:0:0:
98,225,98483,1,2,2:0:0:0:
335,110,98733,5,2,1:2:0:0:
335,110,98858,1,2,2:0:0:0:
234,212,98983,6,0,P|211:135|197:112,1,75.0000000000002,0|2,1:2|3:0,2:0:0:0:
204,134,99170,1,2,3:0:0:0:
194,128,99233,2,0,P|183:78|179:41,1,75.0000000000002,2|2,3:0|2:3,2:0:0:0:
215,325,99483,6,0,P|255:357|219:320,1,150,0|0,1:2|2:0,2:0:0:0:
123,348,99733,2,0,B|133:280|133:280|140:280|140:280|154:184,1,150,8|0,2:0|2:0,2:0:0:0:
86,131,99983,5,8,2:0:0:0:
156,213,100108,1,0,1:2:0:0:
488,45,100358,5,0,1:2:0:0:
308,109,100483,1,10,2:0:0:0:
261,31,100608,1,2,1:2:0:0:
443,120,100733,2,0,P|413:230|410:258,1,100,10|2,2:0|2:0,2:0:0:0:
442,384,100983,6,0,B|430:353|408:372|397:334,1,50,2|0,1:2|3:0,2:0:0:0:
338,265,101233,6,0,B|342:277|351:269|355:282,1,25,2|0,2:0|2:0,2:0:0:0:
356,282,101358,1,2,1:2:0:0:
495,258,101608,6,0,B|487:282|469:267|460:292,1,50,2|0,2:0|2:0,2:0:0:0:
461,291,101733,1,2,1:2:0:0:
89,358,101983,6,0,P|150:302|176:315,1,100,0|0,1:2|2:0,2:0:0:0:
214,384,102233,1,2,1:2:0:0:
214,384,102483,1,2,1:2:0:0:
214,384,102733,2,0,P|263:370|349:355,1,100,2|2,1:2|2:0,2:0:0:0:
147,161,102983,6,0,P|211:218|193:243,1,100,0|0,1:2|2:0,2:0:0:0:
245,289,103233,1,2,1:2:0:0:
245,289,103483,2,0,P|312:273|358:260,1,100,2|0,1:2|2:0,2:0:0:0:
214,384,103733,2,0,P|263:370|349:355,1,100,2|2,1:2|2:0,2:0:0:0:
349,117,103983,6,0,P|346:176|301:186,1,100,0|0,1:2|2:0,2:0:0:0:
245,289,104233,1,2,1:2:0:0:
245,289,104483,2,0,P|312:273|358:260,1,100,2|2,1:2|2:0,2:0:0:0:
214,384,104733,2,0,P|263:370|349:355,1,100,2|2,1:2|2:0,2:0:0:0:
500,213,104983,6,0,P|450:257|412:236,1,100,2|2,1:3|2:3,2:0:0:0:
245,289,105233,2,0,P|312:273|358:260,2,100,0|0|0,1:2|1:2|1:2,2:0:0:0:
124,178,105983,6,0,B|96:98|52:154|30:54,1,150,8|0,2:0|1:2,2:0:0:0:
41,58,106187,1,0,2:0:0:0:
49,50,106255,1,8,2:0:0:0:
40,214,106392,1,0,1:2:0:0:
43,205,106460,1,0,1:2:0:0:
45,194,106528,2,0,B|65:112|113:164|127:62,1,150,8|0,2:0|1:2,2:0:0:0:
300,43,106801,2,0,L|290:94,1,37.5000000000001,8|0,2:0|2:0,2:0:0:0:
381,56,106937,2,0,L|371:107,1,37.5000000000001,0|0,1:2|2:0,2:0:0:0:
316,169,107073,6,0,L|303:236,3,50,8|0|0|0,1:2|1:2|1:2|1:2,2:0:0:0:
343,353,107373,2,0,P|281:291|219:319,1,150,8|0,1:2|1:2,2:0:0:0:
221,319,107598,1,0,1:2:0:0:
210,329,107673,2,0,P|169:334|143:298,1,50,8|0,1:2|2:0,2:0:0:0:
75,208,107823,1,0,1:2:0:0:
82,212,107898,1,0,1:2:0:0:
90,216,107973,2,0,L|182:234,1,75,8|0,1:2|2:0,2:0:0:0:
97,123,108123,2,0,L|170:137,1,75,0|0,1:2|2:0,2:0:0:0:
257,209,108273,6,0,L|306:217,3,50,2|2|2|0,3:2|3:2|3:2|3:0,2:0:0:0:
412,232,108615,5,10,2:0:0:0:
449,208,108701,1,0,2:0:0:0:
451,163,108787,1,2,1:2:0:0:
416,137,108873,1,2,1:2:0:0:
374,151,108958,1,10,2:0:0:0:
305,128,109044,1,10,2:0:0:0:
288,58,109130,1,10,2:0:0:0:
338,6,109215,1,10,2:0:0:0:
408,20,109301,6,0,P|364:71|361:93,1,75.0000000000002,10|2,1:2|2:0,2:0:0:0:
101,74,109644,5,2,1:2:0:0:
187,94,109815,2,0,P|216:127|220:146,1,37.5000000000001,2|0,2:0|2:0,2:0:0:0:
350,292,109987,1,0,1:0:0:0:
322,211,110158,2,0,L|299:142,1,50,2|0,2:0|2:0,2:0:0:0:
494,130,110330,5,0,1:0:0:0:
475,143,110415,2,0,P|416:117|405:115,1,50,0|0,2:0|2:0,2:0:0:0:
299,16,110587,1,2,2:3:0:0:
264,81,110673,2,0,P|209:93|177:83,1,75,2|0,2:3|2:0,2:0:0:0:
25,63,110844,1,2,1:3:0:0:
32,72,110930,1,2,2:3:0:0:
37,147,111015,6,0,B|-19:143|-32:80|6:38|87:28|120:112|103:112|104:157|150:176|191:171,1,300,6|0,2:1|2:0,2:0:0:0:
290,269,111358,1,0,2:0:0:0:
295,257,111444,2,0,P|313:188|317:163,1,50,0|0,2:0|2:0,2:0:0:0:
190,87,111615,1,0,2:0:0:0:
195,98,111701,5,0,1:0:0:0:
275,124,111787,1,0,2:0:0:0:
340,72,111873,2,0,P|365:85|378:112,1,50,2|0,2:0|2:0,2:0:0:0:
410,250,112044,2,0,P|390:180|386:165,1,50,10|0,2:0|2:0,2:0:0:0:
459,58,112215,2,0,P|457:119|444:133,1,50,2|0,2:0|2:0,2:0:0:0:
364,344,112387,5,2,1:3:0:0:
355,336,112473,1,2,3:0:0:0:
370,333,112558,1,2,3:0:0:0:
361,325,112644,1,2,3:0:0:0:
286,370,112730,5,8,3:2:0:0:
270,325,112815,1,2,3:2:0:0:
227,309,112901,1,2,3:2:0:0:
188,319,112987,1,2,3:0:0:0:
112,275,113073,5,2,1:2:0:0:
50,289,113158,1,2,2:3:0:0:
8,240,113244,1,2,3:0:0:0:
32,181,113330,1,2,3:0:0:0:
129,121,113415,5,8,3:2:0:0:
126,134,113501,1,2,3:0:0:0:
123,146,113587,2,0,P|113:209|110:226,1,50,2|2,3:0|3:0,2:0:0:0:
113,358,113758,6,0,B|134:305|203:300|203:300|217:264,1,150,2|0,1:3|2:0,2:0:0:0:
227,259,113930,2,0,P|211:196|202:157,1,75,0|0,2:0|2:0,2:0:0:0:
312,55,114101,5,8,2:0:0:0:
364,51,114187,1,0,2:0:0:0:
382,84,114273,1,2,2:0:0:0:
376,103,114358,1,0,2:0:0:0:
306,137,114444,6,0,B|263:125|263:125|258:116|258:116|209:101,1,100,0|2,1:0|2:3,2:0:0:0:
32,174,114615,1,2,3:0:0:0:
45,179,114701,2,0,B|88:167|88:167|93:158|93:158|142:143,1,100,2|8,3:0|3:2,2:0:0:0:
209,187,114873,1,2,3:0:0:0:
198,233,114958,1,2,3:0:0:0:
188,280,115044,1,2,3:0:0:0:
176,327,115130,6,0,P|260:258|315:294,1,150,2|0,1:3|2:0,2:0:0:0:
296,258,115301,2,0,P|322:292|319:318,1,50,2|0,2:0|2:0,2:0:0:0:
472,383,115473,6,0,P|450:292|443:256,1,100,8|0,2:0|2:0,2:0:0:0:
372,175,115644,2,0,L|379:224,1,50,0|0,1:0|2:0,2:0:0:0:
297,380,115815,6,0,B|224:372|265:340|181:328,1,125,10|8,2:0|2:0,2:0:0:0:
49,216,115987,1,0,2:0:0:0:
172,242,116073,2,0,B|93:253|134:285|61:293,2,125,10|8|0,2:0|2:0|2:0,2:0:0:0:
292,48,116330,1,2,1:2:0:0:
270,129,116415,1,2,1:2:0:0:
250,210,116501,6,0,B|277:74|227:8|78:-1|76:144|174:147,1,375,6|0,1:0|2:0,2:0:0:0:
263,306,116844,2,0,P|316:282|323:254,1,75,8|0,2:0|2:0,2:0:0:0:
351,120,117015,2,0,P|404:144|411:172,1,75,0|0,2:0|2:0,2:0:0:0:
423,345,117187,5,0,1:2:0:0:
421,333,117273,1,0,2:0:0:0:
419,323,117358,2,0,B|413:286|413:286|410:281|410:281|403:217,1,75,0|2,3:2|3:2,2:0:0:0:
497,142,117530,2,0,B|493:173|493:173|490:178|490:178|484:215,1,75,10|0,2:0|2:0,2:0:0:0:
338,362,117701,1,2,2:0:0:0:
29,98,117873,5,2,1:2:0:0:
37,101,117958,1,0,2:0:0:0:
111,123,118044,2,0,L|179:145,1,50,2|0,3:2|3:2,2:0:0:0:
40,256,118215,5,8,3:2:0:0:
48,254,118301,1,0,3:2:0:0:
129,235,118387,2,0,P|267:203|305:195,1,100,2|0,3:2|2:0,2:0:0:0:
245,84,118558,5,2,1:3:0:0:
256,91,118644,1,2,3:0:0:0:
304,155,118730,1,2,3:0:0:0:
316,149,118815,1,2,3:0:0:0:
345,69,118901,2,0,P|375:79|395:117,1,75,8|0,3:2|2:0,2:0:0:0:
348,293,119073,1,0,3:0:0:0:
320,236,119158,1,2,3:2:0:0:
381,235,119244,6,0,P|324:342|314:379,1,150,0|0,1:2|2:0,2:0:0:0:
309,376,119415,2,0,P|279:366|259:328,1,75,2|0,2:0|2:0,2:0:0:0:
50,319,119587,1,8,2:0:0:0:
102,340,119673,1,2,3:2:0:0:
156,324,119758,1,2,3:2:0:0:
188,277,119844,1,0,3:2:0:0:
184,221,119930,6,0,L|168:127,1,75,0|0,1:2|2:0,2:0:0:0:
254,8,120101,1,0,2:0:0:0:
229,82,120187,2,0,L|244:-2,1,75,2|8,2:0|2:0,2:0:0:0:
68,45,120358,1,0,3:2:0:0:
74,50,120444,2,0,P|133:66|162:81,1,75,2|0,3:2|3:2,2:0:0:0:
267,223,120615,6,0,B|298:237|298:237|352:204|447:196,1,150,0|0,1:2|2:0,2:0:0:0:
415,195,120787,1,8,2:0:0:0:
484,249,120873,2,0,P|447:296|406:278,1,100,8|0,2:0|2:0,2:0:0:0:
424,189,121044,5,8,2:0:0:0:
407,100,121130,2,0,P|360:97|339:139,1,100,8|0,2:0|2:0,2:0:0:0:
335,307,121301,6,0,P|289:219|181:168,1,200,8|0,2:0|1:2,2:0:0:0:
192,279,121558,1,0,1:0:0:0:
204,162,121644,2,0,B|148:162|148:162|132:203,1,100,10|0,2:0|2:0,2:0:0:0:
58,159,121815,2,0,B|30:207|30:207|57:241,1,100,0|0,1:2|2:0,2:0:0:0:
260,373,121987,6,0,B|251:306|322:269|331:284|338:297|400:262|402:176|402:176|343:204|284:208,1,375,2|0,1:2|2:0,2:0:0:0:
186,63,122330,5,10,2:0:0:0:
246,36,122415,1,2,2:3:0:0:
308,60,122501,1,2,2:3:0:0:
325,122,122587,1,2,2:3:0:0:
232,148,122673,5,2,1:3:0:0:
221,150,122758,1,2,3:0:0:0:
232,158,122844,1,2,3:0:0:0:
222,160,122930,1,2,3:0:0:0:
154,220,123015,6,0,P|98:208|85:206,1,50,8|2,3:0|3:0,2:0:0:0:
225,155,123187,5,2,3:0:0:0:
248,248,123273,1,2,3:0:0:0:
269,340,123358,1,2,1:3:0:0:
473,102,123530,5,0,3:0:0:0:
482,112,123615,1,0,3:0:0:0:
487,127,123701,1,8,3:2:0:0:
430,157,123787,1,2,3:0:0:0:
373,128,123873,2,0,L|389:70,1,50,2|2,3:0|2:3,2:0:0:0:
496,227,124044,5,0,1:2:0:0:
438,233,124130,1,0,2:0:0:0:
427,292,124215,2,0,P|441:331|446:357,1,50,0|0,3:0|3:0,2:0:0:0:
197,245,124387,6,0,B|259:232|254:275|316:255,1,112.5,10|0,3:2|2:0,2:0:0:0:
317,260,124558,2,0,P|342:234|339:201,1,50,0|0,2:0|2:0,2:0:0:0:
106,57,124730,6,0,P|273:110|272:188,1,262.5,0|0,1:2|2:0,2:0:0:0:
125,196,125073,1,8,2:0:0:0:
116,174,125158,1,0,2:0:0:0:
124,156,125244,2,0,P|164:145|183:157,1,50,0|0,2:0|2:0,2:0:0:0:
244,305,125415,2,0,L|229:361,1,50,0|0,1:2|2:0,2:0:0:0:
161,278,125587,2,0,L|146:334,1,50,0|0,2:0|2:0,2:0:0:0:
324,360,125758,5,8,2:0:0:0:
365,369,125844,1,0,2:0:0:0:
403,348,125930,1,0,3:0:0:0:
417,308,126015,1,0,3:0:0:0:
339,276,126101,6,0,P|330:242|319:203,1,75,2|0,1:0|2:0,2:0:0:0:
450,78,126273,1,2,2:1:0:0:
445,84,126358,1,2,2:1:0:0:
425,165,126444,2,0,P|435:119|448:70,1,75,10|0,2:1|2:0,2:0:0:0:
270,20,126615,1,0,2:0:0:0:
274,28,126701,1,0,2:0:0:0:
331,81,126787,6,0,B|312:99|309:122|309:122|286:102|256:105,1,100,0|0,1:2|2:0,2:0:0:0:
101,102,126958,1,8,2:0:0:0:
126,18,127044,2,0,P|177:46|174:95,1,100,10|0,2:0|2:0,2:0:0:0:
180,255,127215,1,8,2:0:0:0:
100,190,127301,2,0,P|179:171|214:159,1,100,10|0,2:0|2:0,2:0:0:0:
362,334,127473,6,0,B|371:304|420:284|420:284|381:235|312:229|261:288|279:301|230:365|159:339,1,375,0|2,1:2|3:0,2:0:0:0:
51,307,127815,1,8,3:2:0:0:
38,292,127901,1,2,3:0:0:0:
51,278,127987,1,2,3:0:0:0:
62,292,128073,1,2,3:0:0:0:
83,324,128158,5,0,1:2:0:0:
51,256,128244,1,2,2:3:0:0:
10,318,128330,1,2,2:3:0:0:
80,71,128501,6,0,P|50:282|45:324,1,225,8|0,2:0|2:0,2:0:0:0:
151,374,128844,5,0,1:2:0:0:
211,381,128930,1,0,3:0:0:0:
252,337,129015,1,2,3:2:0:0:
242,278,129101,1,0,2:0:0:0:
315,221,129187,5,8,3:2:0:0:
318,209,129273,1,2,3:0:0:0:
321,197,129358,1,2,3:0:0:0:
323,184,129444,1,2,3:0:0:0:
394,248,129530,5,2,1:2:0:0:
218,29,129701,1,2,3:0:0:0:
207,36,129787,1,2,3:0:0:0:
197,46,129873,1,8,2:0:0:0:
205,79,129958,1,2,1:3:0:0:
219,130,130044,1,2,1:3:0:0:
232,196,130130,1,2,1:3:0:0:
139,129,130215,6,0,B|129:113|108:98|108:98|156:39|253:37|309:104,1,262.5,0|0,1:2|3:0,2:0:0:0:
453,122,130558,1,8,2:0:0:0:
422,124,130644,1,0,2:0:0:0:
395,138,130730,1,2,3:0:0:0:
376,163,130815,1,0,1:0:0:0:
370,191,130901,2,0,P|384:250|387:265,1,62.5,0|0,1:2|2:0,2:0:0:0:
486,333,131073,5,2,3:0:0:0:
492,336,131158,1,2,3:0:0:0:
493,344,131244,1,8,3:2:0:0:
437,334,131330,1,2,3:0:0:0:
382,325,131415,1,2,3:0:0:0:
328,315,131501,1,2,3:0:0:0:
274,304,131587,6,0,B|195:313|227:353|152:364,1,131.25,0|0,1:2|2:0,2:0:0:0:
150,360,131758,2,0,P|132:301|128:292,1,50,2|0,2:1|2:0,2:0:0:0:
142,142,131930,2,0,P|200:125|212:205,1,150,8|0,2:0|2:0,2:0:0:0:
209,198,132101,2,0,P|194:243|190:261,1,50,0|0,2:0|2:0,2:0:0:0:
283,381,132273,6,0,B|276:320|276:320|283:311|283:311|274:238,1,125,8|8,1:2|2:0,2:0:0:0:
454,161,132444,1,0,2:0:0:0:
367,266,132530,2,0,B|374:205|374:205|367:196|367:196|373:144,2,125,8|8|0,2:0|2:0|2:0,2:0:0:0:
281,25,132787,5,0,1:2:0:0:
236,107,132873,1,0,1:2:0:0:
142,142,132958,2,0,B|97:153|67:113|117:99|129:145,1,100,2|2,1:2|2:0,2:0:0:0:
181,311,133473,5,2,1:2:0:0:
181,311,133644,2,0,P|203:233|219:199,1,100,8|0,2:0|2:0,2:0:0:0:
164,62,133987,1,2,2:0:0:0:
164,62,134330,6,0,P|155:35|149:19,1,37.5000000000001,0|0,3:0|2:0,2:0:0:0:
221,132,134501,1,2,2:1:0:0:
322,120,134673,2,0,P|370:109|387:107,1,62.5,0|0,1:0|2:0,2:0:0:0:
225,138,134844,1,2,2:1:0:0:
294,8,135015,2,0,P|272:43|208:227,1,225,8|0,2:0|2:0,2:0:0:0:
468,362,135358,5,2,1:3:0:0:
442,281,135444,5,2,1:3:0:0:
374,233,135530,5,2,1:3:0:0:
290,237,135615,5,2,1:3:0:0:
226,289,135701,6,0,P|245:344|246:351,1,50,4|0,1:0|2:0,2:0:0:0:
329,357,135873,2,0,P|358:339|364:221,1,150,0|0,2:0|2:0,2:0:0:0:
381,225,136044,1,8,2:0:0:0:
464,189,136130,2,0,P|455:143|410:122,1,75,2|2,2:3|2:3,2:0:0:0:
318,113,136301,1,0,2:0:0:0:
336,103,136387,5,2,1:3:0:0:
315,122,136473,2,0,P|279:108|260:95,1,50,2|2,3:0|3:0,2:0:0:0:
122,126,136644,1,2,3:0:0:0:
115,114,136730,2,0,P|108:77|119:44,1,50,8|0,2:0|2:0,2:0:0:0:
219,0,136901,2,0,P|202:44|185:95,1,75,0|0,3:0|3:0,2:0:0:0:
73,266,137073,6,0,B|75:283|75:283|119:299|152:255,1,100,2|0,1:2|2:0,2:0:0:0:
235,253,137244,1,8,2:0:0:0:
201,155,137330,2,0,B|206:220|253:190|243:285,1,100,10|0,2:0|2:0,2:0:0:0:
163,371,137501,1,8,2:0:0:0:
243,336,137587,2,0,P|297:352|334:366,1,75,10|0,2:0|2:0,2:0:0:0:
450,220,137758,6,0,B|453:206|473:193|473:193|380:186|371:293,1,175,8|0,2:0|1:0,2:0:0:0:
437,358,138015,1,0,1:0:0:0:
368,273,138101,2,0,P|364:220|355:179,1,87.5000000000001,10|0,2:0|2:0,2:0:0:0:
422,73,138273,2,0,P|482:99|482:133,1,87.5000000000001,0|0,2:0|2:0,2:0:0:0:
277,241,138444,6,0,B|185:236|228:179|122:173,1,150,0|0,1:0|3:0,2:0:0:0:
68,201,138701,1,0,3:0:0:0:
230,157,138787,1,8,2:0:0:0:
249,153,138873,1,0,3:0:0:0:
268,150,138958,2,0,L|279:90,1,50,0|0,3:0|3:0,2:0:0:0:
101,32,139130,5,2,1:3:0:0:
118,79,139215,1,2,3:0:0:0:
133,126,139301,1,2,3:0:0:0:
146,175,139387,1,2,3:0:0:0:
194,74,139473,2,0,P|202:37|208:18,1,50,8|2,2:0|3:0,2:0:0:0:
57,208,139644,5,2,3:0:0:0:
99,283,139730,1,2,3:0:0:0:
186,271,139815,1,0,1:0:0:0:
405,72,139987,5,0,2:0:0:0:
414,65,140073,1,0,2:0:0:0:
497,95,140158,1,8,2:0:0:0:
493,143,140244,1,2,3:0:0:0:
455,172,140330,1,2,3:0:0:0:
407,163,140415,1,2,3:0:0:0:
329,120,140501,5,2,1:2:0:0:
311,124,140587,1,2,3:0:0:0:
307,142,140673,1,2,3:0:0:0:
434,301,140844,2,0,P|358:239|303:264,1,150,10|0,2:0|2:0,2:0:0:0:
314,262,141015,2,0,P|329:311|333:330,1,50,0|0,1:0|2:0,2:0:0:0:
236,46,141187,6,0,P|221:158|198:268,1,225,0|2,1:0|2:3,2:0:0:0:
42,255,141530,5,10,2:0:0:0:
86,247,141615,1,0,2:0:0:0:
113,266,141701,1,0,1:0:0:0:
119,288,141787,1,0,2:0:0:0:
110,376,141873,5,10,2:0:0:0:
169,375,141958,1,0,2:0:0:0:
205,337,142044,1,2,1:3:0:0:
208,301,142130,1,0,2:0:0:0:
120,289,142215,6,0,P|48:307|40:311,1,75,10|0,2:0|2:0,2:0:0:0:
0,132,142387,1,2,1:3:0:0:
63,170,142473,1,2,1:3:0:0:
137,171,142558,6,0,B|189:160|189:160|195:161|195:161|271:146,1,100,10|0,2:1|2:0,2:0:0:0:
336,100,142730,2,0,L|323:149,1,37.5000000000001,2|0,1:0|2:0,2:0:0:0:
93,54,142901,2,0,B|145:65|145:65|151:64|151:64|227:79,1,100,10|0,2:1|2:0,2:0:0:0:
342,99,143073,2,0,L|329:148,1,37.5000000000001,0|0,1:0|2:0,2:0:0:0:
214,284,143244,5,8,2:0:0:0:
205,275,143330,1,2,1:2:0:0:
271,232,143415,1,0,2:0:0:0:
348,262,143501,1,10,2:0:0:0:
364,338,143587,1,8,2:0:0:0:
441,360,143673,1,0,1:0:0:0:
499,301,143758,2,0,P|477:235|466:196,1,100,2|2,1:2|1:2,2:0:0:0:
413,16,143930,5,6,1:0:0:0:
96,183,149415,5,2,1:2:0:0:
177,197,149587,1,0,1:0:0:0:
256,216,149758,6,0,B|287:191|287:191|275:150,1,75.0000000000002,10|0,2:0|2:0,2:0:0:0:
283,70,150015,2,0,P|201:92|174:99,1,112.5,0|0,2:0|1:0,2:0:0:0:
166,107,150358,1,0,1:0:0:0:
158,115,150444,1,10,2:0:0:0:
193,11,150615,1,2,1:2:0:0:
364,113,150787,5,0,1:0:0:0:
388,200,150958,1,0,1:0:0:0:
388,200,151301,2,0,B|397:243|397:243|400:232|400:232|413:298,2,100,0|0|2,2:0|1:0|2:0,2:0:0:0:
450,99,151815,2,0,L|456:52,3,37.5000000000001,10|0|0|0,2:0|1:0|1:0|1:0,2:0:0:0:
297,171,152158,5,2,1:2:0:0:
156,136,152330,1,0,1:0:0:0:
303,177,152501,5,8,2:0:0:0:
247,38,152673,1,0,1:0:0:0:
309,184,152844,5,2,1:2:0:0:
101,226,153015,1,0,1:0:0:0:
316,189,153187,5,8,2:0:0:0:
134,41,153358,1,0,1:0:0:0:
321,198,153530,5,2,1:2:0:0:
344,247,153615,1,2,1:2:0:0:
392,271,153701,1,2,1:2:0:0:
431,261,153787,1,2,1:2:0:0:
447,227,153873,5,8,1:0:0:0:
381,231,153958,1,2,1:2:0:0:
334,270,154044,1,2,1:2:0:0:
323,321,154130,1,2,1:2:0:0:
288,361,154215,6,0,P|228:339|204:334,1,50,8|0,1:0|1:0,2:0:0:0:
189,248,154387,1,0,1:0:0:0:
176,241,154473,2,0,P|121:277|119:294,1,50,8|2,1:0|1:2,2:0:0:0:
17,143,154644,1,2,1:2:0:0:
5,148,154730,2,0,P|0:190|30:202,1,50,2|2,1:2|1:2,2:0:0:0:
145,360,154901,5,4,2:0:0:0:
145,360,155073,1,0,2:0:0:0:
101,131,155244,5,10,2:1:0:0:
111,125,155330,2,0,B|38:87|38:87|98:233,1,200,0|0,2:0|1:0,2:0:0:0:
228,176,155587,1,0,2:0:0:0:
252,169,155673,1,2,1:3:0:0:
276,164,155758,1,2,2:3:0:0:
301,159,155844,1,2,2:3:0:0:
325,155,155930,1,10,2:1:0:0:
398,108,156101,2,0,B|420:130|420:130|410:166,1,62.5,0|0,3:0|3:0,2:0:0:0:
329,360,156273,6,0,B|341:298|341:298|352:313|352:313|366:227,1,150,0|0,1:0|1:0,2:0:0:0:
249,334,156530,1,0,2:0:0:0:
246,322,156615,2,0,B|252:295|252:295|253:300|253:300|271:227,1,75,10|0,2:1|2:0,2:0:0:0:
236,53,156787,5,0,3:0:0:0:
253,134,156873,2,0,B|277:134|294:122|294:122|327:158|327:158|192:132|105:221,1,300,0|0,1:0|3:0,2:0:0:0:
27,154,157215,1,0,1:0:0:0:
16,141,157301,1,10,2:1:0:0:
57,111,157387,1,0,2:0:0:0:
45,60,157473,1,0,1:0:0:0:
0,259,157644,6,0,B|101:274|101:274|75:280|75:280|216:303,1,225,0|0,1:0|2:0,2:0:0:0:
231,367,157987,2,0,P|278:305|374:328,1,150,10|0,2:1|2:0,2:0:0:0:
411,249,158244,1,0,1:0:0:0:
404,239,158330,2,0,P|434:135|439:122,1,75,2|2,2:0|2:0,2:0:0:0:
290,144,158501,2,0,P|318:230|324:250,1,75,2|0,2:0|1:0,2:0:0:0:
428,340,158673,1,10,2:1:0:0:
453,325,158758,1,0,2:0:0:0:
464,337,158844,1,0,2:0:0:0:
173,298,159015,6,0,P|281:321|300:329,1,75,0|0,1:0|2:0,2:0:0:0:
327,353,159187,1,0,1:0:0:0:
102,201,159358,2,0,B|78:218|68:238|68:238|167:189|259:202,1,200,10|0,2:1|2:0,2:0:0:0:
313,215,159615,2,0,P|350:128|381:74,1,100,2|0,1:2|2:0,2:0:0:0:
38,384,159873,5,2,2:0:0:0:
21,331,159958,1,0,1:0:0:0:
0,274,160044,1,10,2:1:0:0:
16,277,160130,1,0,2:0:0:0:
32,280,160215,1,2,1:2:0:0:
241,365,160387,6,0,P|177:322|197:272,1,100,0|0,1:0|2:0,2:0:0:0:
17,172,160558,1,2,1:2:0:0:
20,176,160730,2,0,P|52:124|108:129,1,100,10|0,2:1|2:0,2:0:0:0:
190,46,160901,1,0,3:0:0:0:
190,46,160987,1,0,1:0:0:0:
190,46,161073,2,0,P|256:98|243:121,1,75,0|0,2:0|2:0,2:0:0:0:
326,134,161244,1,0,1:0:0:0:
326,134,161330,1,0,2:0:0:0:
326,134,161415,2,0,P|293:182|275:189,1,50,10|0,2:1|2:0,2:0:0:0:
179,205,161587,1,0,3:0:0:0:
179,205,161758,6,0,P|239:241|285:297,1,75,2|0,1:2|2:0,2:0:0:0:
330,384,161930,2,0,P|312:276|312:244,1,100,0|0,1:0|2:0,2:0:0:0:
415,167,162101,2,0,P|362:241|359:252,1,75,10|0,2:1|2:0,2:0:0:0:
312,285,162273,1,2,3:2:0:0:
318,291,162358,1,0,1:0:0:0:
324,295,162444,5,0,2:0:0:0:
184,370,162615,1,0,3:0:0:0:
131,363,162701,1,0,3:0:0:0:
116,315,162787,1,10,2:1:0:0:
123,302,162873,1,0,2:0:0:0:
131,288,162958,1,0,1:0:0:0:
27,26,163130,6,0,P|78:85|138:57,1,100,2|0,1:2|2:0,2:0:0:0:
178,206,163301,1,2,3:2:0:0:
178,206,163473,2,0,P|230:162|278:181,1,87.5000000000001,10|0,2:1|2:0,2:0:0:0:
265,67,163644,1,0,2:0:0:0:
265,67,163730,1,0,1:0:0:0:
265,67,163815,2,0,P|294:92|349:86,1,75,0|0,3:0|2:0,2:0:0:0:
390,170,163987,1,2,2:0:0:0:
390,170,164073,1,0,1:0:0:0:
390,170,164158,2,0,P|419:152|455:156,1,50,10|0,2:1|2:0,2:0:0:0:
500,96,164330,1,0,2:0:0:0:
330,286,164501,6,0,B|299:269|299:269|316:211,1,75,2|0,1:2|2:0,2:0:0:0:
468,14,164673,2,0,B|516:40|516:40|489:130,1,112.5,2|0,1:2|2:0,2:0:0:0:
390,170,164844,1,10,2:1:0:0:
344,139,164930,1,0,2:0:0:0:
293,116,165015,1,2,1:3:0:0:
239,101,165101,1,2,1:3:0:0:
184,92,165187,6,0,L|218:188,1,75,8|2,1:0|1:3,2:0:0:0:
326,34,165358,1,2,1:3:0:0:
317,39,165444,2,0,L|283:153,1,75,8|2,1:0|1:0,2:0:0:0:
390,170,165615,1,2,1:3:0:0:
383,164,165701,2,0,L|296:247,1,75,2|2,1:3|1:3,2:0:0:0:
242,318,165873,5,4,1:2:0:0:
242,318,166044,1,0,2:0:0:0:
67,270,166215,2,0,B|46:283|43:307|43:307|96:280|163:275,1,150,10|0,2:1|2:0,2:0:0:0:
222,223,166473,1,2,1:3:0:0:
216,214,166558,1,0,3:0:0:0:
218,189,166644,1,2,1:3:0:0:
222,165,166730,1,0,3:0:0:0:
228,140,166815,1,0,2:0:0:0:
235,117,166901,1,10,2:1:0:0:
102,52,167073,5,2,2:0:0:0:
49,52,167158,1,2,2:0:0:0:
96,66,167244,1,2,1:2:0:0:
366,128,167415,5,2,1:2:0:0:
397,122,167501,1,2,2:0:0:0:
370,135,167587,1,10,2:1:0:0:
125,160,167758,5,2,2:0:0:0:
104,155,167844,1,2,1:2:0:0:
122,164,167930,1,2,2:0:0:0:
239,126,168101,5,0,3:0:0:0:
228,111,168187,1,0,3:0:0:0:
245,116,168273,1,10,2:1:0:0:
228,122,168358,1,0,2:0:0:0:
239,107,168444,1,0,1:0:0:0:
254,365,168615,6,0,B|271:271|271:271|278:297|278:297|302:160,1,225,0|0,1:0|2:0,2:0:0:0:
371,133,168958,2,0,P|445:155|399:224,1,150,10|0,2:1|2:0,2:0:0:0:
371,312,169215,1,0,1:0:0:0:
358,305,169301,2,0,L|369:216,1,50,2|0,2:3|2:0,2:0:0:0:
460,124,169473,1,2,2:3:0:0:
460,124,169558,1,0,2:0:0:0:
460,124,169644,1,10,2:1:0:0:
185,41,169815,5,2,2:0:0:0:
131,72,169901,1,2,2:0:0:0:
184,105,169987,1,2,1:2:0:0:
251,333,170158,5,2,2:0:0:0:
204,304,170244,1,2,2:0:0:0:
253,277,170330,1,10,2:1:0:0:
309,20,170501,5,2,2:0:0:0:
282,35,170587,1,2,1:2:0:0:
308,52,170673,1,2,2:0:0:0:
392,300,170844,5,2,2:0:0:0:
392,300,170930,1,2,1:2:0:0:
411,340,171015,5,10,2:1:0:0:
343,298,171101,1,0,1:0:0:0:
413,259,171187,1,0,2:0:0:0:
100,74,171358,6,0,P|49:129|92:161,1,100,2|0,1:2|2:0,2:0:0:0:
249,185,171530,1,2,1:2:0:0:
249,185,171701,2,0,P|198:151|154:189,1,100,10|0,2:1|2:0,2:0:0:0:
211,317,171873,1,0,3:0:0:0:
211,317,171958,1,0,1:0:0:0:
211,317,172044,2,0,P|184:248|137:252,1,75,2|0,2:3|2:0,2:0:0:0:
85,338,172215,1,2,2:3:0:0:
85,338,172301,1,0,2:0:0:0:
85,338,172387,2,0,P|122:305|111:270,1,50,10|0,2:1|2:0,2:0:0:0:
51,257,172558,1,2,2:0:0:0:
270,381,172730,6,0,P|363:327|384:326,1,75,0|0,1:0|2:0,2:0:0:0:
404,104,172901,2,0,P|406:201|395:230,1,100,0|0,1:0|2:0,2:0:0:0:
512,377,173073,2,0,P|419:323|407:306,1,75,10|0,2:1|2:0,2:0:0:0:
394,286,173244,1,2,2:0:0:0:
394,286,173330,1,0,1:0:0:0:
394,286,173415,5,0,2:0:0:0:
265,111,173587,1,2,2:0:0:0:
205,104,173673,1,2,2:0:0:0:
165,147,173758,1,10,2:1:0:0:
172,159,173844,1,0,2:0:0:0:
177,171,173930,1,0,1:0:0:0:
13,224,174101,6,0,P|69:176|118:223,1,100,2|0,1:2|2:0,2:0:0:0:
310,260,174273,1,2,1:2:0:0:
310,260,174444,2,0,P|281:220|225:219,1,87.5000000000001,10|0,2:1|2:0,2:0:0:0:
95,293,174615,1,0,2:0:0:0:
95,293,174701,1,2,1:2:0:0:
95,293,174787,2,0,P|147:261|173:284,1,75,2|0,2:0|2:0,2:0:0:0:
272,339,174958,1,2,1:3:0:0:
272,339,175044,1,0,2:0:0:0:
272,339,175130,2,0,P|234:313|200:313,1,50,10|0,2:1|2:0,2:0:0:0:
161,364,175301,1,2,2:0:0:0:
403,284,175473,6,0,P|438:187|460:161,1,100,2|0,1:2|2:0,2:0:0:0:
325,70,175644,2,0,P|327:49|321:71,1,75,2|0,1:2|2:0,2:0:0:0:
451,115,175815,2,0,B|365:99|391:169|305:149,1,150,10|2,2:1|2:0,2:0:0:0:
243,210,176073,1,0,1:0:0:0:
237,204,176158,6,0,P|217:127|209:109,1,75,2|0,2:0|2:0,2:0:0:0:
283,336,176330,1,2,2:3:0:0:
290,326,176415,1,2,1:3:0:0:
296,314,176501,1,10,2:1:0:0:
222,328,176587,1,0,2:0:0:0:
150,346,176673,1,2,1:2:0:0:
494,262,176844,5,6,2:1:0:0:
0,113,182330,6,0,B|91:105|100:205|84:199|70:194|77:272|120:348|192:377|248:379|310:369|370:328|399:263|396:183|364:116|296:79|236:81|212:140|222:179|251:189|251:189|282:201|293:239|265:297|203:303|154:264|102:189|99:114|134:50|177:-6|301:-43|388:10|432:111|434:186|419:181|403:175|412:275|504:267,1,1524.71538123065,4|4,2:0|2:1,2:0:0:0:
97,263,203544,6,0,P|86:203|81:189,1,50,6|0,1:0|2:0,2:0:0:0:
152,157,203794,2,0,P|206:157|221:206,2,100,0|0|0,2:0|2:0|2:0,2:0:0:0:
18,278,204544,6,0,P|7:218|2:204,1,50,0|0,2:0|2:0,2:0:0:0:
80,346,204794,1,0,2:0:0:0:
80,346,205044,1,0,2:0:0:0:
80,346,205294,1,0,2:0:0:0:
281,318,205544,6,0,P|334:325|342:326,1,50,2|0,3:2|2:0,2:0:0:0:
384,228,205794,2,0,P|326:236|269:243,2,100,0|0|0,2:0|2:0|2:0,2:0:0:0:
447,326,206544,1,0,2:0:0:0:
447,326,206794,1,0,2:0:0:0:
447,326,207044,1,0,2:0:0:0:
447,326,207294,1,0,2:0:0:0:
176,113,207544,6,0,B|200:99|202:87|202:87|209:99|242:107,1,75.0000000000002,2|0,3:2|2:0,2:0:0:0:
223,183,207794,2,0,B|239:101|297:148|309:57,2,150,0|0|0,2:0|2:0|2:0,2:0:0:0:
198,281,208544,2,0,B|179:242|161:271|139:218,1,75.0000000000002,0|0,2:0|2:0,2:0:0:0:
168,369,208794,2,0,B|139:351|133:378|91:347,1,59.9999999999999,0|0,2:0|2:0,2:0:0:0:
110,358,209044,1,0,2:0:0:0:
294,237,209169,2,0,P|297:220|305:201,2,37.5000000000001,0|0|0,2:0|2:0|2:0,2:0:0:0:
280,323,209419,1,0,2:0:0:0:
280,323,209544,6,0,P|189:325|169:386,1,150,2|0,3:2|2:0,2:0:0:0:
17,225,210044,2,0,P|94:272|81:335,1,150,0|0,2:0|2:0,2:0:0:0:
259,204,210544,2,0,P|244:224|221:230,3,50,0|0|0|0,2:0|2:0|2:0|2:0,2:0:0:0:
141,138,211044,2,0,P|131:160|139:184,3,50,0|0|0|0,2:0|2:0|2:0|2:0,2:0:0:0:
229,117,211544,6,0,P|312:90|343:87,1,100,2|0,3:2|2:0,2:0:0:0:
167,54,211919,2,0,P|97:39|56:23,1,100,0|0,2:0|2:0,2:0:0:0:
344,176,212419,6,0,B|378:186|417:192|417:192|425:222|409:248,1,125,0|0,2:0|2:0,2:0:0:0:
334,271,213169,1,0,2:0:0:0:
334,271,213294,2,0,P|328:300|329:305,1,25,0|0,2:0|2:0,2:0:0:0:
420,322,213544,6,0,B|405:328|405:328|351:300|313:292,1,100,2|0,3:2|2:0,2:0:0:0:
257,337,213919,1,0,2:0:0:0:
474,379,214169,1,0,2:0:0:0:
257,337,214419,1,0,2:0:0:0:
174,359,214544,2,0,P|142:367|115:374,2,50,0|0|0,2:0|2:0|2:0,2:0:0:0:
188,274,215044,6,0,P|136:265|119:259,1,50,0|0,2:0|2:0,2:0:0:0:
254,186,215294,2,0,P|213:159|187:130,1,75.0000000000002,0|0,2:0|2:0,2:0:0:0:
398,85,215544,6,0,P|384:58|379:42,5,45,2|0|0|0|2|0,1:0|2:0|2:0|2:0|2:0|2:0,2:0:0:0:
476,39,217544,2,0,P|470:23|471:39,2,45,2|2|0,3:2|3:2|2:0,2:0:0:0:
307,106,218544,1,2,3:2:0:0:
307,106,218919,2,0,P|292:93|309:105,1,67.5,2|0,2:0|2:0,2:0:0:0:
304,115,219544,6,0,P|246:102|199:93,1,75.0000000000002,0|0,1:0|2:0,2:0:0:0:
283,191,219794,2,0,P|225:178|178:169,1,75.0000000000002,0|0,1:0|2:0,2:0:0:0:
262,267,220044,2,0,P|204:254|157:245,1,75.0000000000002,0|0,1:0|2:0,2:0:0:0:
241,343,220294,2,0,P|183:330|136:321,1,75.0000000000002,0|0,1:0|2:0,2:0:0:0:
44,256,220544,6,0,P|86:270|123:248,1,75.0000000000002,0|0,1:0|2:0,2:0:0:0:
113,128,220794,2,0,P|79:157|79:200,1,75.0000000000002,0|0,1:0|2:0,2:0:0:0:
188,250,221044,2,0,P|179:206|141:184,1,75.0000000000002,0|0,1:0|2:0,2:0:0:0:
116,212,221294,1,0,1:0:0:0:
116,212,221419,1,0,1:0:0:0:
284,195,221544,6,0,B|318:170|318:170|300:125,1,85.0000000000003,0|0,1:0|2:0,2:0:0:0:
241,67,221794,2,0,B|207:92|207:92|225:137,1,85.0000000000003,0|0,1:0|2:0,2:0:0:0:
292,198,222044,2,0,B|326:173|326:173|308:128,1,85.0000000000003,0|0,1:0|2:0,2:0:0:0:
234,65,222294,2,0,B|200:90|200:90|218:135,1,85.0000000000003,0|0,1:0|2:0,2:0:0:0:
340,264,222544,6,0,P|421:249|452:247,1,100,0|0,1:0|2:0,2:0:0:0:
327,103,222794,2,0,P|311:151|291:197,1,100,0|0,1:0|2:0,2:0:0:0:
472,172,223044,2,0,P|438:135|408:94,1,100,0|0,1:0|2:0,2:0:0:0:
404,333,223294,6,0,L|409:366,6,25,10|0|2|0|2|0|2,2:1|2:0|2:1|2:0|2:1|2:0|2:1,2:0:0:0:
415,368,223544,6,0,P|358:338|304:359,1,120,2|0,1:2|2:0,2:0:0:0:
340,264,223794,2,0,P|275:266|239:311,1,120,2|2,1:2|2:0,2:0:0:0:
197,205,224044,2,0,P|142:239|149:297,1,120,2|0,1:2|2:0,2:0:0:0:
16,247,224294,2,0,P|-3:296|51:337,1,120,2|2,1:2|2:0,2:0:0:0:
136,120,224544,5,2,1:2:0:0:
129,108,224669,1,0,2:0:0:0:
124,96,224794,2,0,P|57:76|-20:50,1,130,2|0,1:2|2:0,2:0:0:0:
197,205,225044,2,0,P|264:225|341:251,1,130,2|0,1:2|2:0,2:0:0:0:
237,77,225294,1,2,1:2:0:0:
237,77,225419,1,2,1:2:0:0:
402,181,225544,6,0,B|451:232|451:232|406:297,1,140,2|0,1:2|2:0,2:0:0:0:
234,372,225794,2,0,B|194:315|194:315|243:264,1,140,10|0,2:0|2:0,2:0:0:0:
408,176,226044,2,0,B|461:231|461:231|412:301,1,150,10|0,2:0|2:0,2:0:0:0:
227,375,226294,2,0,B|185:314|185:314|238:259,1,150,10|0,2:0|2:0,2:0:0:0:
186,48,226544,6,0,P|240:122|300:179,1,165,10|0,2:0|2:0,2:0:0:0:
27,206,226794,2,0,P|60:130|81:51,1,165,10|0,2:0|2:0,2:0:0:0:
243,264,227044,2,0,P|161:272|81:294,1,165,10|0,2:0|2:0,2:0:0:0:
149,132,227294,6,0,L|155:184,1,50,0|2,1:0|2:1,2:0:0:0:
379,351,227544,5,10,2:0:0:0:
391,274,227669,1,8,2:0:0:0:
440,207,227794,1,10,2:0:0:0:
502,148,227919,1,10,2:0:0:0:
495,61,228044,1,8,2:0:0:0:
409,25,228169,1,10,2:0:0:0:
334,83,228294,1,10,2:0:0:0:
350,177,228419,1,8,2:0:0:0:
447,213,228544,5,10,2:0:0:0:
492,308,228669,1,10,2:0:0:0:
417,384,228794,1,10,2:0:0:0:
311,371,228919,1,10,2:0:0:0:
269,273,229044,1,10,2:0:0:0:
181,213,229169,1,8,2:0:0:0:
83,258,229294,2,0,L|76:302,3,25,0|0|0|0,3:0|3:0|3:0|3:0,2:0:0:0:
168,348,229544,5,10,2:0:0:0:
177,203,229669,1,8,2:0:0:0:
172,342,229794,5,10,2:0:0:0:
293,243,229919,1,10,2:0:0:0:
268,365,230044,5,8,2:0:0:0:
184,206,230169,1,10,2:0:0:0:
273,360,230294,5,10,2:0:0:0:
337,172,230419,1,10,2:0:0:0:
395,317,230544,5,10,2:0:0:0:
288,247,230669,1,10,2:0:0:0:
398,311,230794,5,10,2:0:0:0:
457,140,230919,1,10,2:0:0:0:
485,287,231044,5,10,2:0:0:0:
342,176,231169,1,8,2:0:0:0:
382,83,231294,6,0,L|394:13,3,62.5,2|2|2|2,2:3|2:3|2:3|2:3,2:0:0:0:
274,66,231544,5,8,2:0:0:0:
258,69,231606,1,8,2:0:0:0:
243,72,231669,1,8,2:0:0:0:
228,75,231731,1,8,2:0:0:0:
212,78,231794,1,8,2:0:0:0:
197,81,231856,1,8,2:0:0:0:
182,84,231919,1,8,2:0:0:0:
166,87,231981,1,8,2:0:0:0:
151,90,232044,1,8,2:0:0:0:
136,93,232106,1,8,2:0:0:0:
120,96,232169,1,8,2:0:0:0:
105,99,232231,1,8,2:0:0:0:
90,102,232294,1,8,2:0:0:0:
74,105,232356,1,8,2:0:0:0:
59,108,232419,1,8,2:0:0:0:
44,111,232481,1,8,2:0:0:0:
30,114,232544,5,8,2:0:0:0:
49,120,232606,1,8,2:0:0:0:
67,132,232669,1,8,2:0:0:0:
79,148,232731,1,8,2:0:0:0:
86,168,232794,1,8,2:0:0:0:
87,188,232856,1,8,2:0:0:0:
81,209,232919,1,8,2:0:0:0:
70,227,232981,1,8,2:0:0:0:
54,240,233044,1,8,2:0:0:0:
38,253,233106,1,8,2:0:0:0:
27,271,233169,1,8,2:0:0:0:
21,292,233231,1,8,2:0:0:0:
22,312,233294,1,8,2:0:0:0:
29,332,233356,1,8,2:0:0:0:
41,348,233419,1,8,2:0:0:0:
59,360,233481,1,8,2:0:0:0:
81,367,233544,6,0,L|136:351,15,37.5000000000001,0|0|0|0|0|0|0|0|0|0|0|0|0|0|0|0,3:0|3:0|3:0|3:0|3:0|3:0|3:0|3:0|3:0|3:0|3:0|3:0|3:0|3:0|3:0|3:0,2:0:0:0:
95,280,234544,6,0,B|76:217|42:259|22:188,2,120,0|0|0,1:0|2:0|2:0,2:0:0:0:
316,282,235544,6,0,B|348:246|403:254|403:254|465:139|440:37|370:22|296:119|319:243,1,500,4|0,1:0|2:0,2:0:0:0:
380,336,237044,2,0,L|386:365,3,17.5,0|0|0|0,2:0|2:0|2:0|2:0,2:0:0:0:
461,317,237294,2,0,L|466:341,3,25,0|0|0|0,2:0|2:0|2:0|2:0,2:0:0:0:
296,360,237544,6,0,B|242:354|209:317|216:269|232:278|236:209|136:180|100:233|107:275|107:275|139:285|149:301,1,350,0|2,1:0|2:0,2:0:0:0:
308,277,238544,5,0,1:0:0:0:
91,357,238669,1,0,1:0:0:0:
310,268,238794,5,0,1:0:0:0:
82,351,238919,1,0,1:0:0:0:
171,224,239044,6,0,P|188:141|192:130,1,75,0|0,1:0|2:0,2:0:0:0:
178,140,239294,2,0,P|174:111|170:97,3,25,2|2|2|2,1:3|2:3|2:3|2:3,2:0:0:0:
293,157,239544,5,2,1:2:0:0:
60,122,239669,1,0,1:0:0:0:
270,20,239794,5,2,1:2:0:0:
171,224,239919,1,0,1:0:0:0:
128,0,240044,5,2,1:2:0:0:
290,157,240169,1,2,1:2:0:0:
60,122,240294,5,2,1:2:0:0:
277,27,240419,1,0,1:0:0:0:
277,27,240481,1,0,1:0:0:0:
277,27,240544,5,2,1:2:0:0:
458,127,240669,1,2,1:2:0:0:
425,276,240794,1,2,1:2:0:0:
296,336,240919,1,2,1:2:0:0:
218,279,241044,5,2,1:2:0:0:
221,268,241106,1,2,1:2:0:0:
230,260,241169,1,2,1:2:0:0:
241,253,241231,1,2,1:2:0:0:
249,242,241294,2,0,L|255:220,4,12.5,2|0|0|0|0,1:2|1:0|1:0|2:0|1:0,2:0:0:0:
49,120,241544,5,2,1:2:0:0:
49,120,241669,1,0,1:0:0:0:
123,55,241794,5,2,1:2:0:0:
17,221,241919,1,0,1:0:0:0:
198,170,242044,5,2,1:2:0:0:
43,114,242169,1,0,1:0:0:0:
229,40,242294,5,2,1:2:0:0:
110,191,242419,1,2,1:2:0:0:
110,191,242481,1,0,1:0:0:0:
110,191,242544,5,2,1:2:0:0:
321,88,242669,1,2,1:2:0:0:
325,260,242794,1,2,1:2:0:0:
416,202,242919,1,2,1:2:0:0:
458,275,243044,1,2,1:2:0:0:
469,280,243106,1,2,1:2:0:0:
480,285,243169,1,2,1:2:0:0:
491,291,243231,1,2,1:3:0:0:
501,298,243294,6,0,L|480:366,1,50,2|0,1:3|1:0,2:0:0:0:
418,194,243419,2,0,L|415:171,2,18.75,0|0|0,1:0|1:0|1:0,2:0:0:0:
375,345,243544,6,0,P|301:348|246:359,1,100,2|0,1:2|1:0,2:0:0:0:
187,280,243731,1,0,1:0:0:0:
187,280,243794,2,0,P|183:206|172:151,1,100,2|2,1:2|1:2,2:0:0:0:
242,81,243981,1,0,1:0:0:0:
242,81,244044,2,0,P|315:77|370:66,1,100,0|2,1:0|1:2,2:0:0:0:
429,146,244231,1,0,1:0:0:0:
429,146,244294,2,0,P|432:219|443:274,1,100,2|0,1:2|1:0,2:0:0:0:
394,354,244481,1,0,1:0:0:0:
394,354,244544,6,0,P|309:357|248:369,1,125,2|0,1:2|1:0,2:0:0:0:
176,291,244731,1,0,1:0:0:0:
176,291,244794,2,0,P|171:206|158:145,1,125,2|0,1:2|1:0,2:0:0:0:
259,69,244981,1,0,1:0:0:0:
259,69,245044,2,0,P|296:68|359:57,1,62.5,2|0,1:2|2:0,2:0:0:0:
437,161,245169,1,2,1:2:0:0:
437,161,245231,1,0,2:0:0:0:
437,161,245294,6,0,P|439:208|453:256,3,62.5,2|2|2|2,1:3|1:3|1:3|1:3,2:0:0:0:
363,279,245544,6,0,P|301:199|233:217,1,150,2|0,1:2|1:0,2:0:0:0:
101,280,245731,1,0,1:0:0:0:
101,280,245794,2,0,P|180:218|162:150,1,150,2|2,1:2|1:2,2:0:0:0:
100,18,245981,1,0,1:0:0:0:
100,18,246044,2,0,P|161:97|229:79,1,150,0|2,1:0|1:2,2:0:0:0:
362,17,246231,1,0,1:0:0:0:
362,17,246294,2,0,P|282:78|300:146,1,150,2|0,1:2|1:0,2:0:0:0:
363,279,246481,1,0,1:0:0:0:
363,279,246544,6,0,P|352:227|317:201,1,75,2|0,1:2|2:0,2:0:0:0:
261,200,246669,1,0,1:0:0:0:
101,280,246794,1,0,1:0:0:0:
115,278,246856,1,0,1:0:0:0:
129,273,246919,1,2,1:2:0:0:
141,265,246981,1,2,1:2:0:0:
150,253,247044,2,0,P|131:162|104:95,1,150,0|0,1:0|1:0,2:0:0:0:
284,322,247294,2,0,P|272:355|269:387,3,37.5000000000001,2|2|2|2,3:0|3:0|3:0|3:0,2:0:0:0:
124,373,247544,5,2,1:2:0:0:
124,373,247669,1,2,1:2:0:0:
240,244,247794,1,2,1:2:0:0:
240,244,247919,1,2,1:2:0:0:
56,163,248044,1,2,1:2:0:0:
56,163,248169,1,0,1:0:0:0:
201,44,248294,1,2,1:2:0:0:
201,44,248419,2,0,L|213:-1,2,37.5,0|0|0,1:0|1:0|1:0,2:0:0:0:
163,147,248544,5,2,1:2:0:0:
163,147,248669,1,2,1:2:0:0:
14,24,248794,1,2,1:2:0:0:
14,24,248919,1,2,1:2:0:0:
49,271,249044,5,2,1:2:0:0:
113,61,249169,2,0,L|124:14,2,37.5,2|0|0,1:2|1:0|1:0,2:0:0:0:
0,130,249294,1,2,1:2:0:0:
18,133,249356,1,0,1:0:0:0:
36,137,249419,1,2,1:2:0:0:
54,142,249481,1,0,1:0:0:0:
72,147,249544,5,2,1:2:0:0:
30,46,249669,1,2,1:2:0:0:
178,152,249794,5,2,1:2:0:0:
49,271,249919,1,2,1:2:0:0:
120,68,250044,5,2,1:2:0:0:
140,255,250169,1,0,1:0:0:0:
140,255,250231,1,0,1:0:0:0:
140,255,250294,2,0,L|150:308,6,37.5,0|0|0|0|2|0|0,1:0|1:0|1:0|2:0|1:2|1:0|1:0,2:0:0:0:
96,366,250544,5,2,1:2:0:0:
96,366,250794,1,0,1:0:0:0:
96,366,251044,1,0,1:0:0:0:
96,366,251294,5,2,1:2:0:0:
146,291,251419,1,2,1:2:0:0:
241,363,251544,6,0,B|272:335|316:343|316:343|336:320,1,100,4|2,2:0|2:3,2:0:0:0:
340,329,251731,1,2,2:3:0:0:
352,328,251794,2,0,P|338:275|331:216,1,100,10|2,2:0|2:3,2:0:0:0:
322,223,251981,1,2,2:3:0:0:
312,217,252044,6,0,P|266:234|259:246,1,50,2|0,1:2|2:0,2:0:0:0:
221,165,252169,2,0,P|189:202|189:216,1,50,2|0,1:2|2:0,2:0:0:0:
110,166,252294,2,0,P|103:198|105:206,4,25,8|0|0|0|0,2:0|2:0|2:0|2:0|3:0,2:0:0:0:
0,314,252544,6,0,P|44:334|50:347,1,50,2|0,1:2|2:0,2:0:0:0:
95,270,252669,2,0,P|122:310|121:324,1,50,0|0,1:0|2:0,2:0:0:0:
205,280,252794,2,0,P|212:335|183:375,1,100,8|2,2:0|2:3,2:0:0:0:
181,374,252981,1,2,2:3:0:0:
173,378,253044,2,0,P|239:332|291:376,1,150,2|0,1:2|2:0,2:0:0:0:
473,194,253294,6,0,B|481:172|481:172|487:169|487:169|496:136,6,50,8|2|2|2|2|0|0,3:2|3:0|3:0|3:0|3:0|3:0|3:0,2:0:0:0:
450,277,253544,5,0,1:0:0:0:
365,217,253669,1,0,2:0:0:0:
266,229,253794,2,0,B|250:195|234:213|219:166,1,75.0000000000002,8|2,2:0|2:0,2:0:0:0:
214,160,253981,1,2,2:0:0:0:
208,148,254044,2,0,P|216:123|220:106,2,37.5000000000001,2|0|2,2:0|2:0|1:2,2:0:0:0:
191,281,254294,1,10,2:0:0:0:
191,281,254419,1,2,2:0:0:0:
124,168,254544,6,0,P|117:126|105:86,1,75.0000000000002,0|2,2:0|1:2,2:0:0:0:
266,229,254794,2,0,P|285:194|319:158,1,75.0000000000002,8|2,2:0|2:0,2:0:0:0:
118,164,255044,6,0,P|111:122|99:82,1,62.5,2|2,1:2|1:3,2:0:0:0:
274,227,255169,2,0,P|293:192|328:156,1,62.5,2|2,1:3|2:3,2:0:0:0:
211,147,255294,1,2,1:0:0:0:
456,380,255544,5,2,1:2:0:0:
504,138,255669,1,0,1:0:0:0:
271,321,255794,5,2,1:2:0:0:
485,251,255919,1,0,1:0:0:0:
377,107,256044,5,2,1:2:0:0:
377,285,256169,1,0,1:0:0:0:
504,138,256294,5,2,1:2:0:0:
310,174,256419,1,0,1:0:0:0:
443,26,256544,5,2,1:2:0:0:
377,285,256669,1,2,1:2:0:0:
229,79,256794,5,0,1:0:0:0:
504,138,256919,1,0,1:0:0:0:
310,174,257044,5,2,1:2:0:0:
354,27,257169,1,0,1:0:0:0:
354,27,257231,1,0,1:0:0:0:
354,27,257294,2,0,P|340:102|339:114,1,62.5,2|0,1:2|2:0,2:0:0:0:
310,174,257419,1,2,1:2:0:0:
95,132,257544,5,2,1:2:0:0:
336,93,257669,1,0,1:0:0:0:
166,18,257794,5,2,1:2:0:0:
215,207,257919,1,0,1:0:0:0:
264,29,258044,5,2,1:2:0:0:
210,199,258169,1,0,1:0:0:0:
336,93,258294,5,2,1:2:0:0:
205,190,258419,1,2,1:2:0:0:
419,232,258544,5,2,1:2:0:0:
195,104,258669,1,2,1:2:0:0:
267,277,258794,5,2,1:2:0:0:
336,93,258919,1,2,1:2:0:0:
363,302,259044,5,2,1:2:0:0:
205,190,259169,1,2,1:2:0:0:
90,384,259294,6,0,B|103:323|103:323|109:320|109:320|129:225,1,150,0|0,1:0|1:0,2:0:0:0:
75,33,259544,5,2,1:2:0:0:
56,37,259606,1,0,1:0:0:0:
40,46,259669,1,0,1:0:0:0:
27,60,259731,1,0,1:0:0:0:
19,76,259794,1,2,1:2:0:0:
15,95,259856,1,0,1:0:0:0:
17,113,259919,1,0,1:0:0:0:
24,131,259981,1,0,1:0:0:0:
35,145,260044,1,2,1:2:0:0:
50,156,260106,1,0,1:0:0:0:
68,163,260169,1,2,1:2:0:0:
86,164,260231,1,0,1:0:0:0:
105,160,260294,1,0,1:0:0:0:
121,150,260356,1,0,1:0:0:0:
134,137,260419,1,2,1:2:0:0:
143,121,260481,1,0,1:0:0:0:
145,104,260544,1,2,1:2:0:0:
159,80,260606,1,0,1:0:0:0:
181,63,260669,1,2,1:2:0:0:
208,55,260731,1,0,1:0:0:0:
236,59,260794,1,2,1:2:0:0:
260,72,260856,1,0,1:0:0:0:
278,94,260919,1,0,1:0:0:0:
286,120,260981,1,0,1:0:0:0:
284,148,261044,1,2,1:2:0:0:
272,173,261106,1,0,1:0:0:0:
251,192,261169,1,0,1:0:0:0:
224,201,261231,1,0,2:0:0:0:
196,200,261294,6,0,L|187:159,3,37.5000000000001,2|2|2|2,2:3|2:3|2:3|2:3,2:0:0:0:
97,147,261544,5,2,1:2:0:0:
91,166,261606,1,0,1:0:0:0:
90,184,261669,1,0,1:0:0:0:
93,203,261731,1,0,1:0:0:0:
98,221,261794,1,2,1:2:0:0:
106,237,261856,1,0,1:0:0:0:
116,253,261919,1,2,1:2:0:0:
130,266,261981,1,0,1:0:0:0:
145,277,262044,1,0,1:0:0:0:
161,287,262106,1,0,1:0:0:0:
178,291,262169,1,2,1:2:0:0:
196,295,262231,1,0,1:0:0:0:
217,293,262294,1,0,1:0:0:0:
234,290,262356,1,0,1:0:0:0:
253,284,262419,1,2,1:2:0:0:
268,274,262481,1,0,1:0:0:0:
283,262,262544,1,2,1:2:0:0:
302,250,262606,1,0,1:0:0:0:
324,238,262669,1,0,1:0:0:0:
348,234,262731,1,0,1:0:0:0:
373,233,262794,1,2,1:2:0:0:
397,239,262856,1,0,1:0:0:0:
421,249,262919,1,2,1:2:0:0:
440,265,262981,1,0,1:0:0:0:
456,284,263044,1,2,1:2:0:0:
466,305,263106,1,2,1:2:0:0:
473,329,263169,1,2,1:2:0:0:
474,355,263231,1,0,1:0:0:0:
468,377,263294,6,0,B|425:365|425:365|421:368|421:368|391:358,3,75,2|2|2|2,2:3|2:3|2:3|2:3,2:0:0:0:
258,280,263544,6,0,L|219:289,2,31.25,2|0|2,1:2|1:0|1:2,2:0:0:0:
343,268,263669,1,2,1:2:0:0:
348,245,263731,1,0,1:0:0:0:
354,222,263794,1,2,1:2:0:0:
361,200,263856,1,0,1:0:0:0:
369,174,263919,6,0,L|413:165,2,31.25,2|0|0,1:2|1:0|1:0,2:0:0:0:
278,154,264044,1,2,1:2:0:0:
270,124,264106,1,0,1:0:0:0:
259,94,264169,1,2,1:2:0:0:
246,66,264231,1,0,1:0:0:0:
231,39,264294,6,0,L|220:14,12,15.625,0|0|0|0|0|0|0|0|2|0|0|0|0,3:0|3:0|3:0|3:0|3:0|2:0|2:0|2:0|1:2|2:0|1:0|2:0|1:0,2:0:0:0:
340,46,264544,5,2,1:2:0:0:
377,34,264606,1,0,1:0:0:0:
414,48,264669,1,2,3:2:0:0:
434,82,264731,1,0,3:0:0:0:
430,121,264794,1,2,1:2:0:0:
398,148,264856,1,0,1:0:0:0:
369,174,264919,6,0,L|357:212,2,31.25,2|2|2,1:2|1:2|1:2,2:0:0:0:
323,297,265044,1,0,1:0:0:0:
295,260,265106,1,2,1:2:0:0:
255,237,265169,1,2,1:2:0:0:
208,232,265231,1,2,1:2:0:0:
164,246,265294,6,0,L|141:258,12,15.625,0|0|0|0|0|0|0|0|2|0|0|0|0,3:0|2:0|3:0|2:0|3:0|2:0|2:0|2:0|1:2|2:0|1:0|2:0|1:0,2:0:0:0:
49,175,265544,6,0,B|70:133|70:133|139:140,1,100,2|0,1:2|1:0,2:0:0:0:
207,146,265669,2,0,L|244:153,3,33.3333333333333,2|0|0|0,1:2|2:0|2:0|1:0,2:0:0:0:
327,168,265794,6,0,B|380:173|380:173|401:131,1,100,0|0,1:0|3:0,2:0:0:0:
436,49,265919,2,0,L|454:-3,6,50,2|0|0|0|2|0|2,3:2|2:0|2:0|2:0|1:2|2:0|1:2,2:0:0:0:
306,10,266169,5,2,3:2:0:0:
306,10,266231,1,2,1:2:0:0:
306,10,266294,2,0,B|306:58|330:22|333:99,1,75,0|0,1:0|2:0,2:0:0:0:
475,175,266419,2,0,L|525:147,2,37.5,0|0|2,1:0|1:0|1:2,2:0:0:0:
312,256,266544,6,0,B|272:294|212:306|171:303|171:303|170:321|175:339|175:339|156:321|163:302|163:302|139:299|116:291|116:291|112:305|112:305|111:289|111:289|54:273|-28:169|178:100|171:239|298:251,1,675.000000000001,0|0,1:0|2:0,2:0:0:0:
481,371,267544,5,6,1:0:0:0:
