osu file format v14

[General]
AudioFilename: audio.ogg
AudioLeadIn: 0
PreviewTime: 235544
Countdown: 0
SampleSet: Soft
StackLeniency: 0.7
Mode: 3
LetterboxInBreaks: 0
SpecialStyle: 0
WidescreenStoryboard: 1

[Editor]
DistanceSpacing: 0.7
BeatDivisor: 4
GridSize: 32
TimelineZoom: 3.700001

[Metadata]
Title:Bismuth
TitleUnicode:Bismuth
Artist:Ludicin
ArtistUnicode:Ludicin
Creator:7912
Version:208.980401
Source:
Tags:utopia IV 4 techcore breakcore jersey club orchestral dnb drum&bass hardcore hcu4 artcore speedcore electro electronic instrumental jack jackspeed longnote ln jumpstream hybrid
BeatmapID:4221079
BeatmapSetID:2025951

[Difficulty]
HPDrainRate:8.5
CircleSize:4
OverallDifficulty:8
ApproachRate:5
SliderMultiplier:1.4
SliderTickRate:1

[Events]
//Background and Video events
0,0,"Ludicin - Bismuth.jpg",0,0
//Break Periods
//Storyboard Layer 0 (Background)
//Storyboard Layer 1 (Fail)
//Storyboard Layer 2 (Pass)
//Storyboard Layer 3 (Foreground)
//Storyboard Layer 4 (Overlay)
//Storyboard Sound Samples

[TimingPoints]
1983,250,4,2,1,100,1,0
45983,-100,4,2,1,100,0,1
77983,-100,4,2,1,100,0,0
81983,-100,4,2,1,100,0,1
97983,-100,4,2,1,100,0,0
105983,272.727272727273,4,2,1,100,1,0
105983,-91.743119266055,4,2,1,100,0,0
107073,300,4,2,1,100,1,0
107073,-83.3333333333333,4,2,1,100,0,0
108273,342.857142857143,4,2,1,100,1,0
108273,-71.9424460431655,4,2,1,100,0,0
111015,-71.9424460431655,4,2,1,100,0,1
132958,-71.9424460431655,4,2,1,100,0,0
135701,-71.9424460431655,4,2,1,100,0,1
143930,-71.9424460431655,4,2,1,100,0,0
154901,-71.9424460431655,4,2,1,100,0,1
176844,-71.9424460431655,4,2,1,100,0,0
185073,387.096774193548,4,2,1,100,1,0
185073,-71.9424460431655,4,2,1,100,0,0
186621,413.793103448276,4,2,1,100,1,0
186621,-71.9424460431655,4,2,1,100,0,0
188276,428.571428571429,4,2,1,100,1,0
188276,-71.9424460431655,4,2,1,100,0,0
191704,480,4,2,1,100,1,0
191704,-71.9424460431655,4,2,1,100,0,0
195544,500,4,2,1,100,1,0
200544,-111.111111111111,4,2,1,100,0,0
201794,-125,4,2,1,100,0,0
201919,-142.857142857143,4,2,1,100,0,0
202044,-166.666666666667,4,2,1,100,0,0
202169,-200,4,2,1,100,0,0
202294,-250,4,2,1,100,0,0
202419,-333.333333333333,4,2,1,100,0,0
202544,-500,4,2,1,100,0,0
203044,-250,4,2,1,100,0,0
203106,-166.666666666667,4,2,1,100,0,0
203169,-125,4,2,1,100,0,0
203231,-100,4,2,1,100,0,0
203294,-83.3333333333333,4,2,1,100,0,0
203356,-71.4285714285714,4,2,1,100,0,0
203419,-62.5,4,2,1,100,0,0
203481,-55.5555555555556,4,2,1,100,0,0
203544,250,4,2,1,100,1,0
239544,-100,4,2,1,100,0,1
253544,-100,4,2,1,100,0,0
255544,-100,4,2,1,100,0,1
267544,-100,4,2,1,100,0,0

[HitObjects]
64,192,13983,5,0,0:0:0:0:
448,192,13983,1,0,0:0:0:0:
192,192,14108,1,0,0:0:0:0:
320,192,14233,1,0,0:0:0:0:
448,192,14983,1,0,0:0:0:0:
64,192,15983,1,0,0:0:0:0:
320,192,16108,1,0,0:0:0:0:
192,192,16233,1,0,0:0:0:0:
448,192,16983,1,0,0:0:0:0:
320,192,17483,1,0,0:0:0:0:
448,192,17983,1,0,0:0:0:0:
64,192,18108,1,0,0:0:0:0:
192,192,18233,1,0,0:0:0:0:
320,192,18983,1,0,0:0:0:0:
448,192,19483,1,0,0:0:0:0:
64,192,19983,1,0,0:0:0:0:
192,192,20108,1,0,0:0:0:0:
320,192,20358,1,0,0:0:0:0:
448,192,20483,1,0,0:0:0:0:
64,192,20983,1,0,0:0:0:0:
320,192,21108,1,0,0:0:0:0:
192,192,21358,1,0,0:0:0:0:
448,192,21483,1,0,0:0:0:0:
64,192,21983,1,0,0:0:0:0:
448,192,21983,1,0,0:0:0:0:
192,192,22358,1,0,0:0:0:0:
320,192,22420,1,0,0:0:0:0:
448,192,22483,1,0,0:0:0:0:
192,192,22608,1,0,0:0:0:0:
320,192,22733,1,0,0:0:0:0:
64,192,22858,1,0,0:0:0:0:
320,192,23358,1,0,0:0:0:0:
448,192,23420,1,0,0:0:0:0:
192,192,23483,1,0,0:0:0:0:
64,192,23608,1,0,0:0:0:0:
320,192,23733,1,0,0:0:0:0:
192,192,23858,1,0,0:0:0:0:
448,192,23983,1,0,0:0:0:0:
320,192,24108,1,0,0:0:0:0:
192,192,24358,1,0,0:0:0:0:
320,192,24420,1,0,0:0:0:0:
448,192,24483,1,0,0:0:0:0:
64,192,24608,1,0,0:0:0:0:
448,192,24733,1,0,0:0:0:0:
320,192,24858,1,0,0:0:0:0:
192,192,24983,1,0,0:0:0:0:
320,192,25358,1,0,0:0:0:0:
192,192,25420,1,0,0:0:0:0:
64,192,25483,1,0,0:0:0:0:
320,192,25608,1,0,0:0:0:0:
448,192,25733,1,0,0:0:0:0:
192,192,25858,1,0,0:0:0:0:
320,192,26108,1,0,0:0:0:0:
64,192,26358,1,0,0:0:0:0:
448,192,26420,1,0,0:0:0:0:
320,192,26483,1,0,0:0:0:0:
192,192,26608,1,0,0:0:0:0:
448,192,26733,1,0,0:0:0:0:
192,192,26858,1,0,0:0:0:0:
320,192,26983,1,0,0:0:0:0:
64,192,27108,1,0,0:0:0:0:
192,192,27358,1,0,0:0:0:0:
320,192,27420,1,0,0:0:0:0:
448,192,27483,1,0,0:0:0:0:
192,192,27608,1,0,0:0:0:0:
64,192,27733,1,0,0:0:0:0:
320,192,27858,1,0,0:0:0:0:
64,192,27983,1,0,0:0:0:0:
192,192,28108,1,0,0:0:0:0:
320,192,28358,1,0,0:0:0:0:
448,192,28420,1,0,0:0:0:0:
192,192,28483,1,0,0:0:0:0:
64,192,28608,1,0,0:0:0:0:
448,192,28733,1,0,0:0:0:0:
320,192,28858,1,0,0:0:0:0:
64,192,28983,1,0,0:0:0:0:
192,192,29108,1,0,0:0:0:0:
192,192,29358,1,0,0:0:0:0:
320,192,29420,1,0,0:0:0:0:
448,192,29483,1,0,0:0:0:0:
64,192,29608,1,0,0:0:0:0:
320,192,29733,1,0,0:0:0:0:
192,192,29858,1,0,0:0:0:0:
64,192,29983,1,0,0:0:0:0:
448,192,29983,1,0,0:0:0:0:
320,192,29983,128,0,30233:0:0:0:0:
64,192,30233,128,0,30274:0:0:0:0:
448,192,30233,128,0,30274:0:0:0:0:
192,192,30358,128,0,30483:0:0:0:0:
320,192,30420,1,0,0:0:0:0:
64,192,30483,1,0,0:0:0:0:
448,192,30483,1,0,0:0:0:0:
320,192,30733,128,0,30983:0:0:0:0:
64,192,30733,128,0,30774:0:0:0:0:
448,192,30733,128,0,30774:0:0:0:0:
192,192,30858,1,0,0:0:0:0:
64,192,30983,1,0,0:0:0:0:
448,192,30983,1,0,0:0:0:0:
64,192,31233,128,0,31274:0:0:0:0:
448,192,31233,128,0,31274:0:0:0:0:
320,192,31358,1,0,0:0:0:0:
192,192,31420,1,0,0:0:0:0:
64,192,31483,1,0,0:0:0:0:
448,192,31483,1,0,0:0:0:0:
320,192,31608,1,0,0:0:0:0:
64,192,31733,128,0,31774:0:0:0:0:
448,192,31733,128,0,31774:0:0:0:0:
192,192,31858,1,0,0:0:0:0:
448,192,31983,1,0,0:0:0:0:
64,192,31983,1,0,0:0:0:0:
320,192,31983,128,0,32233:0:0:0:0:
192,192,32149,1,0,0:0:0:0:
448,192,32232,128,0,32274:0:0:0:0:
64,192,32232,128,0,32274:0:0:0:0:
192,192,32358,128,0,32483:0:0:0:0:
448,192,32483,1,0,0:0:0:0:
64,192,32483,1,0,0:0:0:0:
448,192,32732,128,0,32774:0:0:0:0:
64,192,32732,128,0,32774:0:0:0:0:
320,192,32733,128,0,32983:0:0:0:0:
192,192,32858,1,0,0:0:0:0:
448,192,32983,1,0,0:0:0:0:
64,192,32983,1,0,0:0:0:0:
448,192,33233,128,0,33274:0:0:0:0:
64,192,33233,128,0,33274:0:0:0:0:
192,192,33420,1,0,0:0:0:0:
448,192,33483,1,0,0:0:0:0:
64,192,33483,1,0,0:0:0:0:
320,192,33608,1,0,0:0:0:0:
64,192,33733,128,0,33774:0:0:0:0:
448,192,33733,128,0,33774:0:0:0:0:
192,192,33883,1,0,0:0:0:0:
64,192,33983,1,0,0:0:0:0:
448,192,33983,1,0,0:0:0:0:
320,192,33983,128,0,34233:0:0:0:0:
192,192,34108,1,0,0:0:0:0:
64,192,34233,128,0,34274:0:0:0:0:
448,192,34233,128,0,34274:0:0:0:0:
192,192,34358,128,0,34483:0:0:0:0:
320,192,34420,1,0,0:0:0:0:
64,192,34483,1,0,0:0:0:0:
448,192,34483,1,0,0:0:0:0:
320,192,34733,128,0,34983:0:0:0:0:
64,192,34733,128,0,34774:0:0:0:0:
448,192,34733,128,0,34774:0:0:0:0:
192,192,34858,1,0,0:0:0:0:
64,192,34983,1,0,0:0:0:0:
448,192,34983,1,0,0:0:0:0:
64,192,35233,128,0,35274:0:0:0:0:
448,192,35233,128,0,35274:0:0:0:0:
320,192,35295,1,0,0:0:0:0:
192,192,35420,1,0,0:0:0:0:
448,192,35483,1,0,0:0:0:0:
64,192,35483,1,0,0:0:0:0:
320,192,35583,1,0,0:0:0:0:
64,192,35733,128,0,35774:0:0:0:0:
448,192,35733,128,0,35774:0:0:0:0:
64,192,35983,1,0,0:0:0:0:
448,192,35983,1,0,0:0:0:0:
320,192,35983,128,0,36233:0:0:0:0:
64,192,36233,128,0,36274:0:0:0:0:
448,192,36233,128,0,36274:0:0:0:0:
192,192,36358,128,0,36483:0:0:0:0:
320,192,36420,1,0,0:0:0:0:
64,192,36483,1,0,0:0:0:0:
448,192,36483,1,0,0:0:0:0:
320,192,36733,128,0,36983:0:0:0:0:
64,192,36733,128,0,36774:0:0:0:0:
448,192,36733,128,0,36774:0:0:0:0:
192,192,36858,1,0,0:0:0:0:
64,192,36983,1,0,0:0:0:0:
448,192,36983,1,0,0:0:0:0:
320,192,37149,1,0,0:0:0:0:
64,192,37233,128,0,37274:0:0:0:0:
448,192,37233,128,0,37274:0:0:0:0:
192,192,37420,1,0,0:0:0:0:
448,192,37483,1,0,0:0:0:0:
64,192,37483,1,0,0:0:0:0:
320,192,37583,1,0,0:0:0:0:
64,192,37733,128,0,37774:0:0:0:0:
448,192,37733,128,0,37774:0:0:0:0:
320,192,37983,128,0,38108:0:0:0:0:
448,192,37983,128,0,38108:0:0:0:0:
64,192,37983,128,0,38108:0:0:0:0:
192,192,38233,1,0,0:0:0:0:
64,192,38233,1,0,0:0:0:0:
320,192,38233,1,0,0:0:0:0:
64,192,38358,128,0,38483:0:0:0:0:
320,192,38483,1,0,0:0:0:0:
192,192,38483,1,0,0:0:0:0:
448,192,38483,128,0,38608:0:0:0:0:
192,192,38608,1,0,0:0:0:0:
320,192,38733,1,0,0:0:0:0:
448,192,38733,1,0,0:0:0:0:
64,192,38733,128,0,38858:0:0:0:0:
320,192,38858,1,0,0:0:0:0:
192,192,38983,1,0,0:0:0:0:
64,192,38983,1,0,0:0:0:0:
448,192,38983,128,0,39108:0:0:0:0:
192,192,39108,1,0,0:0:0:0:
320,192,39233,1,0,0:0:0:0:
448,192,39233,1,0,0:0:0:0:
64,192,39233,128,0,39358:0:0:0:0:
320,192,39358,1,0,0:0:0:0:
192,192,39483,1,0,0:0:0:0:
64,192,39483,1,0,0:0:0:0:
448,192,39483,128,0,39608:0:0:0:0:
192,192,39608,1,0,0:0:0:0:
320,192,39733,1,0,0:0:0:0:
448,192,39733,1,0,0:0:0:0:
64,192,39733,128,0,39858:0:0:0:0:
192,192,39858,1,0,0:0:0:0:
320,192,39920,1,0,0:0:0:0:
448,192,39983,128,0,40108:0:0:0:0:
192,192,39983,128,0,40108:0:0:0:0:
64,192,39983,128,0,40108:0:0:0:0:
448,192,40233,1,0,0:0:0:0:
320,192,40233,1,0,0:0:0:0:
192,192,40233,1,0,0:0:0:0:
448,192,40358,128,0,40483:0:0:0:0:
320,192,40483,1,0,0:0:0:0:
64,192,40483,1,0,0:0:0:0:
192,192,40545,1,0,0:0:0:0:
320,192,40608,1,0,0:0:0:0:
64,192,40733,1,0,0:0:0:0:
192,192,40733,1,0,0:0:0:0:
448,192,40733,1,0,0:0:0:0:
320,192,40795,1,0,0:0:0:0:
192,192,40858,1,0,0:0:0:0:
448,192,40983,1,0,0:0:0:0:
64,192,40983,128,0,41024:0:0:0:0:
320,192,40983,1,0,0:0:0:0:
192,192,41045,128,0,41087:0:0:0:0:
320,192,41108,128,0,41149:0:0:0:0:
64,192,41233,1,0,0:0:0:0:
448,192,41233,128,0,41274:0:0:0:0:
192,192,41233,1,0,0:0:0:0:
320,192,41295,128,0,41337:0:0:0:0:
192,192,41358,128,0,41399:0:0:0:0:
448,192,41483,1,0,0:0:0:0:
64,192,41483,128,0,41545:0:0:0:0:
320,192,41483,1,0,0:0:0:0:
192,192,41545,128,0,41608:0:0:0:0:
320,192,41608,128,0,41670:0:0:0:0:
448,192,41733,128,0,41795:0:0:0:0:
64,192,41733,1,0,0:0:0:0:
192,192,41733,1,0,0:0:0:0:
320,192,41795,128,0,41858:0:0:0:0:
192,192,41858,128,0,41920:0:0:0:0:
64,192,41858,1,0,0:0:0:0:
448,192,41983,1,0,0:0:0:0:
64,192,41983,128,0,42045:0:0:0:0:
192,192,42045,128,0,42108:0:0:0:0:
320,192,42108,128,0,42170:0:0:0:0:
448,192,42108,1,0,0:0:0:0:
320,192,42233,128,0,42295:0:0:0:0:
448,192,42233,1,0,0:0:0:0:
192,192,42295,128,0,42358:0:0:0:0:
64,192,42358,128,0,42420:0:0:0:0:
448,192,42358,1,0,0:0:0:0:
192,192,42483,128,0,42545:0:0:0:0:
64,192,42483,1,0,0:0:0:0:
320,192,42545,128,0,42608:0:0:0:0:
448,192,42608,128,0,42670:0:0:0:0:
64,192,42608,1,0,0:0:0:0:
448,192,42733,128,0,42795:0:0:0:0:
64,192,42733,1,0,0:0:0:0:
320,192,42795,128,0,42858:0:0:0:0:
192,192,42858,128,0,42920:0:0:0:0:
64,192,42858,1,0,0:0:0:0:
64,192,42983,128,0,43045:0:0:0:0:
192,192,43045,128,0,43108:0:0:0:0:
320,192,43108,128,0,43170:0:0:0:0:
448,192,43108,1,0,0:0:0:0:
448,192,43233,128,0,43295:0:0:0:0:
64,192,43233,1,0,0:0:0:0:
320,192,43295,128,0,43358:0:0:0:0:
192,192,43358,128,0,43420:0:0:0:0:
64,192,43358,1,0,0:0:0:0:
64,192,43483,128,0,43545:0:0:0:0:
448,192,43483,1,0,0:0:0:0:
192,192,43545,128,0,43608:0:0:0:0:
320,192,43608,128,0,43670:0:0:0:0:
448,192,43608,1,0,0:0:0:0:
64,192,43733,1,0,0:0:0:0:
448,192,43733,128,0,43795:0:0:0:0:
320,192,43795,128,0,43858:0:0:0:0:
192,192,43858,128,0,43920:0:0:0:0:
64,192,43858,1,0,0:0:0:0:
448,192,43920,1,0,0:0:0:0:
64,192,43983,128,0,44024:0:0:0:0:
192,192,43983,128,0,44024:0:0:0:0:
320,192,43983,128,0,44024:0:0:0:0:
448,192,44108,128,0,44149:0:0:0:0:
64,192,44108,128,0,44149:0:0:0:0:
320,192,44108,128,0,44149:0:0:0:0:
192,192,44233,128,0,44274:0:0:0:0:
448,192,44233,128,0,44274:0:0:0:0:
64,192,44233,128,0,44274:0:0:0:0:
320,192,44295,128,0,44337:0:0:0:0:
192,192,44358,128,0,44399:0:0:0:0:
448,192,44358,128,0,44399:0:0:0:0:
64,192,44483,128,0,44524:0:0:0:0:
192,192,44483,128,0,44524:0:0:0:0:
320,192,44483,128,0,44524:0:0:0:0:
320,192,44608,128,0,44649:0:0:0:0:
64,192,44608,128,0,44649:0:0:0:0:
448,192,44608,128,0,44649:0:0:0:0:
192,192,44670,128,0,44712:0:0:0:0:
64,192,44733,128,0,44774:0:0:0:0:
448,192,44733,128,0,44774:0:0:0:0:
320,192,44858,128,0,44899:0:0:0:0:
192,192,44858,128,0,44899:0:0:0:0:
448,192,44858,128,0,44899:0:0:0:0:
64,192,44920,1,0,0:0:0:0:
320,192,44983,1,0,0:0:0:0:
192,192,45024,1,0,0:0:0:0:
64,192,45066,1,0,0:0:0:0:
448,192,45108,1,0,0:0:0:0:
192,192,45170,1,0,0:0:0:0:
448,192,45233,1,0,0:0:0:0:
192,192,45295,1,0,0:0:0:0:
320,192,45358,1,0,0:0:0:0:
64,192,45420,1,0,0:0:0:0:
192,192,45483,128,0,45545:0:0:0:0:
320,192,45514,128,0,45576:0:0:0:0:
448,192,45545,128,0,45608:0:0:0:0:
64,192,45590,1,0,0:0:0:0:
192,192,45661,1,0,0:0:0:0:
64,192,45733,1,0,0:0:0:0:
448,192,45733,128,0,45816:0:0:0:0:
320,192,45774,128,0,45858:0:0:0:0:
192,192,45816,128,0,45899:0:0:0:0:
64,192,45858,128,0,45941:0:0:0:0:
192,192,45983,128,0,46045:0:0:0:0:
320,192,45983,128,0,46045:0:0:0:0:
448,192,45983,128,0,46045:0:0:0:0:
64,192,46108,1,0,0:0:0:0:
192,192,46170,1,0,0:0:0:0:
64,192,46233,128,0,46295:0:0:0:0:
448,192,46233,128,0,46295:0:0:0:0:
320,192,46233,128,0,46295:0:0:0:0:
192,192,46358,1,0,0:0:0:0:
448,192,46420,1,0,0:0:0:0:
64,192,46483,128,0,46545:0:0:0:0:
192,192,46483,128,0,46545:0:0:0:0:
320,192,46608,1,0,0:0:0:0:
64,192,46670,1,0,0:0:0:0:
448,192,46733,1,0,0:0:0:0:
320,192,46733,1,0,0:0:0:0:
192,192,46795,1,0,0:0:0:0:
448,192,46858,1,0,0:0:0:0:
192,192,46920,1,0,0:0:0:0:
448,192,46983,1,0,0:0:0:0:
192,192,47045,1,0,0:0:0:0:
448,192,47108,1,0,0:0:0:0:
192,192,47170,1,0,0:0:0:0:
320,192,47233,128,0,47295:0:0:0:0:
448,192,47264,128,0,47326:0:0:0:0:
64,192,47358,1,0,0:0:0:0:
64,192,47420,1,0,0:0:0:0:
448,192,47483,128,0,47608:0:0:0:0:
320,192,47514,128,0,47639:0:0:0:0:
192,192,47545,128,0,47670:0:0:0:0:
64,192,47576,128,0,47701:0:0:0:0:
320,192,47733,1,0,0:0:0:0:
448,192,47753,1,0,0:0:0:0:
192,192,47858,1,0,0:0:0:0:
320,192,47878,1,0,0:0:0:0:
64,192,47983,128,0,48108:0:0:0:0:
448,192,47983,128,0,48045:0:0:0:0:
192,192,48045,128,0,48170:0:0:0:0:
320,192,48108,128,0,48170:0:0:0:0:
192,192,48233,128,0,48274:0:0:0:0:
64,192,48253,128,0,48295:0:0:0:0:
320,192,48358,128,0,48399:0:0:0:0:
192,192,48378,128,0,48420:0:0:0:0:
320,192,48483,1,0,0:0:0:0:
448,192,48483,1,0,0:0:0:0:
64,192,48545,1,0,0:0:0:0:
448,192,48608,1,0,0:0:0:0:
64,192,48670,1,0,0:0:0:0:
192,192,48733,128,0,48795:0:0:0:0:
320,192,48764,128,0,48826:0:0:0:0:
448,192,48795,128,0,48858:0:0:0:0:
64,192,48858,1,0,0:0:0:0:
320,192,48983,128,0,49045:0:0:0:0:
448,192,49045,128,0,49108:0:0:0:0:
64,192,49108,1,0,0:0:0:0:
192,192,49108,128,0,49233:0:0:0:0:
320,192,49170,128,0,49295:0:0:0:0:
448,192,49233,128,0,49295:0:0:0:0:
64,192,49233,1,0,0:0:0:0:
192,192,49358,128,0,49483:0:0:0:0:
320,192,49420,128,0,49545:0:0:0:0:
448,192,49483,128,0,49545:0:0:0:0:
64,192,49483,1,0,0:0:0:0:
192,192,49608,128,0,49733:0:0:0:0:
320,192,49670,128,0,49795:0:0:0:0:
448,192,49733,128,0,49795:0:0:0:0:
64,192,49733,1,0,0:0:0:0:
192,192,49858,128,0,49920:0:0:0:0:
320,192,49983,128,0,50045:0:0:0:0:
448,192,49983,128,0,50045:0:0:0:0:
64,192,49983,128,0,50045:0:0:0:0:
192,192,50108,1,0,0:0:0:0:
320,192,50170,1,0,0:0:0:0:
64,192,50233,128,0,50295:0:0:0:0:
192,192,50233,128,0,50295:0:0:0:0:
448,192,50233,128,0,50295:0:0:0:0:
320,192,50358,1,0,0:0:0:0:
64,192,50420,1,0,0:0:0:0:
448,192,50483,128,0,50545:0:0:0:0:
320,192,50483,128,0,50545:0:0:0:0:
192,192,50608,1,0,0:0:0:0:
448,192,50670,1,0,0:0:0:0:
64,192,50733,1,0,0:0:0:0:
192,192,50733,1,0,0:0:0:0:
320,192,50795,1,0,0:0:0:0:
64,192,50858,1,0,0:0:0:0:
320,192,50920,1,0,0:0:0:0:
64,192,50983,1,0,0:0:0:0:
320,192,51045,1,0,0:0:0:0:
64,192,51108,1,0,0:0:0:0:
320,192,51170,1,0,0:0:0:0:
192,192,51233,128,0,51295:0:0:0:0:
64,192,51264,128,0,51326:0:0:0:0:
448,192,51358,1,0,0:0:0:0:
448,192,51420,1,0,0:0:0:0:
64,192,51483,128,0,51608:0:0:0:0:
192,192,51514,128,0,51639:0:0:0:0:
320,192,51545,128,0,51670:0:0:0:0:
448,192,51576,128,0,51701:0:0:0:0:
192,192,51733,1,0,0:0:0:0:
64,192,51753,1,0,0:0:0:0:
320,192,51858,1,0,0:0:0:0:
192,192,51878,1,0,0:0:0:0:
448,192,51983,128,0,52108:0:0:0:0:
64,192,51983,128,0,52045:0:0:0:0:
320,192,52045,128,0,52170:0:0:0:0:
192,192,52108,128,0,52170:0:0:0:0:
320,192,52233,128,0,52274:0:0:0:0:
448,192,52253,128,0,52295:0:0:0:0:
192,192,52358,128,0,52399:0:0:0:0:
320,192,52378,128,0,52420:0:0:0:0:
192,192,52483,1,0,0:0:0:0:
64,192,52483,1,0,0:0:0:0:
448,192,52545,1,0,0:0:0:0:
64,192,52608,1,0,0:0:0:0:
448,192,52670,1,0,0:0:0:0:
192,192,52733,128,0,52795:0:0:0:0:
320,192,52764,128,0,52826:0:0:0:0:
448,192,52795,128,0,52858:0:0:0:0:
64,192,52858,1,0,0:0:0:0:
320,192,52983,128,0,53045:0:0:0:0:
448,192,53045,128,0,53108:0:0:0:0:
192,192,53108,128,0,53233:0:0:0:0:
64,192,53108,128,0,53170:0:0:0:0:
320,192,53170,128,0,53295:0:0:0:0:
448,192,53233,128,0,53295:0:0:0:0:
64,192,53233,128,0,53295:0:0:0:0:
192,192,53358,128,0,53483:0:0:0:0:
320,192,53420,128,0,53545:0:0:0:0:
448,192,53483,128,0,53545:0:0:0:0:
64,192,53483,128,0,53545:0:0:0:0:
192,192,53608,128,0,53733:0:0:0:0:
320,192,53670,128,0,53795:0:0:0:0:
448,192,53733,128,0,53795:0:0:0:0:
64,192,53733,128,0,53795:0:0:0:0:
192,192,53858,128,0,53920:0:0:0:0:
448,192,53983,128,0,54045:0:0:0:0:
320,192,53998,128,0,54061:0:0:0:0:
320,192,54108,128,0,54170:0:0:0:0:
192,192,54123,128,0,54186:0:0:0:0:
448,192,54233,128,0,54358:0:0:0:0:
192,192,54248,128,0,54373:0:0:0:0:
64,192,54264,128,0,54389:0:0:0:0:
320,192,54483,1,0,0:0:0:0:
448,192,54483,1,0,0:0:0:0:
192,192,54608,1,0,0:0:0:0:
320,192,54608,128,0,54670:0:0:0:0:
448,192,54733,1,0,0:0:0:0:
64,192,54733,128,0,54774:0:0:0:0:
192,192,54795,128,0,54837:0:0:0:0:
320,192,54858,128,0,54899:0:0:0:0:
448,192,54920,128,0,54962:0:0:0:0:
192,192,54983,128,0,55024:0:0:0:0:
64,192,54983,1,0,0:0:0:0:
448,192,55045,128,0,55087:0:0:0:0:
64,192,55108,128,0,55149:0:0:0:0:
320,192,55108,1,0,0:0:0:0:
192,192,55170,128,0,55212:0:0:0:0:
320,192,55233,128,0,55274:0:0:0:0:
448,192,55233,1,0,0:0:0:0:
64,192,55295,128,0,55337:0:0:0:0:
320,192,55358,128,0,55399:0:0:0:0:
448,192,55358,1,0,0:0:0:0:
192,192,55420,128,0,55462:0:0:0:0:
64,192,55483,128,0,55524:0:0:0:0:
448,192,55483,128,0,55524:0:0:0:0:
320,192,55545,1,0,0:0:0:0:
192,192,55608,1,0,0:0:0:0:
64,192,55608,1,0,0:0:0:0:
448,192,55670,1,0,0:0:0:0:
320,192,55670,1,0,0:0:0:0:
64,192,55733,128,0,55795:0:0:0:0:
192,192,55733,128,0,55795:0:0:0:0:
192,192,55858,1,0,0:0:0:0:
448,192,55858,1,0,0:0:0:0:
320,192,55983,128,0,56045:0:0:0:0:
448,192,55983,128,0,56045:0:0:0:0:
320,192,56108,128,0,56170:0:0:0:0:
448,192,56108,128,0,56170:0:0:0:0:
64,192,56233,128,0,56295:0:0:0:0:
64,192,56358,128,0,56420:0:0:0:0:
192,192,56373,128,0,56436:0:0:0:0:
64,192,56483,128,0,56623:0:0:0:0:
192,192,56498,128,0,56639:0:0:0:0:
320,192,56514,128,0,56654:0:0:0:0:
64,192,56733,128,0,56795:0:0:0:0:
192,192,56748,128,0,56811:0:0:0:0:
448,192,56795,128,0,56858:0:0:0:0:
320,192,56811,128,0,56873:0:0:0:0:
64,192,56858,128,0,56920:0:0:0:0:
192,192,56873,128,0,56936:0:0:0:0:
448,192,56983,128,0,57170:0:0:0:0:
64,192,56983,128,0,57045:0:0:0:0:
320,192,57108,128,0,57170:0:0:0:0:
192,192,57108,128,0,57170:0:0:0:0:
448,192,57233,128,0,57295:0:0:0:0:
64,192,57233,128,0,57420:0:0:0:0:
320,192,57358,128,0,57420:0:0:0:0:
192,192,57358,128,0,57420:0:0:0:0:
64,192,57483,128,0,57545:0:0:0:0:
448,192,57483,128,0,57670:0:0:0:0:
192,192,57608,128,0,57670:0:0:0:0:
320,192,57608,128,0,57670:0:0:0:0:
448,192,57733,128,0,57795:0:0:0:0:
64,192,57733,128,0,57858:0:0:0:0:
320,192,57858,128,0,57920:0:0:0:0:
192,192,57878,128,0,57941:0:0:0:0:
448,192,57983,128,0,58170:0:0:0:0:
64,192,57983,128,0,58295:0:0:0:0:
192,192,58108,128,0,58420:0:0:0:0:
320,192,58233,128,0,58420:0:0:0:0:
448,192,58233,128,0,58670:0:0:0:0:
64,192,58358,128,0,58545:0:0:0:0:
192,192,58483,128,0,58795:0:0:0:0:
320,192,58483,128,0,58670:0:0:0:0:
64,192,58608,128,0,58983:0:0:0:0:
320,192,58733,128,0,59170:0:0:0:0:
448,192,58733,128,0,58920:0:0:0:0:
192,192,58858,128,0,59045:0:0:0:0:
448,192,58983,128,0,59420:0:0:0:0:
64,192,59045,128,0,59295:0:0:0:0:
192,192,59108,128,0,59545:0:0:0:0:
320,192,59233,128,0,59420:0:0:0:0:
64,192,59358,128,0,59795:0:0:0:0:
320,192,59483,128,0,59608:0:0:0:0:
448,192,59483,128,0,59670:0:0:0:0:
192,192,59608,128,0,59983:0:0:0:0:
320,192,59670,128,0,59920:0:0:0:0:
448,192,59733,128,0,60045:0:0:0:0:
64,192,59858,128,0,60170:0:0:0:0:
320,192,59983,128,0,60108:0:0:0:0:
192,192,60045,128,0,60233:0:0:0:0:
448,192,60108,128,0,60295:0:0:0:0:
320,192,60170,128,0,60420:0:0:0:0:
64,192,60233,128,0,60545:0:0:0:0:
192,192,60295,128,0,60420:0:0:0:0:
448,192,60358,128,0,60670:0:0:0:0:
320,192,60483,128,0,60920:0:0:0:0:
192,192,60483,128,0,60795:0:0:0:0:
64,192,60608,128,0,60983:0:0:0:0:
448,192,60733,128,0,61045:0:0:0:0:
192,192,60858,128,0,61170:0:0:0:0:
320,192,60983,128,0,61108:0:0:0:0:
64,192,61045,128,0,61420:0:0:0:0:
448,192,61108,128,0,61295:0:0:0:0:
320,192,61170,128,0,61420:0:0:0:0:
192,192,61233,128,0,61545:0:0:0:0:
448,192,61358,128,0,61795:0:0:0:0:
320,192,61483,128,0,61670:0:0:0:0:
64,192,61483,128,0,61545:0:0:0:0:
192,192,61608,128,0,61670:0:0:0:0:
320,192,61733,128,0,61795:0:0:0:0:
64,192,61795,1,0,0:0:0:0:
448,192,61858,128,0,61920:0:0:0:0:
192,192,61920,1,0,0:0:0:0:
448,192,61983,128,0,62045:0:0:0:0:
320,192,61983,128,0,62045:0:0:0:0:
64,192,61983,128,0,62045:0:0:0:0:
320,192,62233,1,0,0:0:0:0:
192,192,62233,128,0,62295:0:0:0:0:
448,192,62358,128,0,62420:0:0:0:0:
64,192,62483,1,0,0:0:0:0:
192,192,62483,128,0,62545:0:0:0:0:
320,192,62545,128,0,62608:0:0:0:0:
64,192,62608,128,0,62670:0:0:0:0:
192,192,62670,128,0,62733:0:0:0:0:
448,192,62733,128,0,62795:0:0:0:0:
320,192,62858,128,0,62920:0:0:0:0:
64,192,62983,1,0,0:0:0:0:
192,192,62983,1,0,0:0:0:0:
320,192,63108,128,0,63170:0:0:0:0:
192,192,63233,128,0,63295:0:0:0:0:
64,192,63358,1,0,0:0:0:0:
192,192,63358,1,0,0:0:0:0:
320,192,63483,1,0,0:0:0:0:
448,192,63483,1,0,0:0:0:0:
192,192,63608,128,0,63670:0:0:0:0:
64,192,63733,128,0,63795:0:0:0:0:
320,192,63733,1,0,0:0:0:0:
448,192,63858,1,0,0:0:0:0:
320,192,63878,1,0,0:0:0:0:
192,192,63899,1,0,0:0:0:0:
64,192,63920,1,0,0:0:0:0:
320,192,63983,1,0,0:0:0:0:
448,192,63983,1,0,0:0:0:0:
448,192,64108,1,0,0:0:0:0:
64,192,64108,1,0,0:0:0:0:
192,192,64170,1,0,0:0:0:0:
320,192,64233,1,0,0:0:0:0:
64,192,64295,1,0,0:0:0:0:
320,192,64358,1,0,0:0:0:0:
64,192,64420,1,0,0:0:0:0:
192,192,64483,1,0,0:0:0:0:
320,192,64483,1,0,0:0:0:0:
192,192,64608,1,0,0:0:0:0:
64,192,64608,1,0,0:0:0:0:
448,192,64732,1,0,0:0:0:0:
320,192,64753,1,0,0:0:0:0:
192,192,64774,1,0,0:0:0:0:
64,192,64795,1,0,0:0:0:0:
448,192,64858,1,0,0:0:0:0:
320,192,64858,1,0,0:0:0:0:
192,192,64983,1,0,0:0:0:0:
64,192,65003,1,0,0:0:0:0:
320,192,65108,1,0,0:0:0:0:
192,192,65128,1,0,0:0:0:0:
64,192,65233,128,0,65358:0:0:0:0:
448,192,65233,128,0,65295:0:0:0:0:
192,192,65295,128,0,65420:0:0:0:0:
320,192,65358,128,0,65420:0:0:0:0:
448,192,65483,128,0,65608:0:0:0:0:
64,192,65483,128,0,65545:0:0:0:0:
320,192,65545,128,0,65670:0:0:0:0:
192,192,65608,128,0,65670:0:0:0:0:
64,192,65733,128,0,65858:0:0:0:0:
448,192,65733,128,0,65795:0:0:0:0:
192,192,65795,128,0,65920:0:0:0:0:
320,192,65858,128,0,65920:0:0:0:0:
64,192,65983,128,0,66045:0:0:0:0:
320,192,65983,128,0,66045:0:0:0:0:
448,192,65983,128,0,66045:0:0:0:0:
64,192,66233,128,0,66295:0:0:0:0:
448,192,66233,1,0,0:0:0:0:
192,192,66358,128,0,66420:0:0:0:0:
320,192,66483,1,0,0:0:0:0:
448,192,66483,128,0,66545:0:0:0:0:
64,192,66545,128,0,66608:0:0:0:0:
320,192,66608,128,0,66670:0:0:0:0:
448,192,66670,128,0,66733:0:0:0:0:
192,192,66733,128,0,66795:0:0:0:0:
64,192,66858,128,0,66920:0:0:0:0:
448,192,66983,1,0,0:0:0:0:
320,192,66983,1,0,0:0:0:0:
320,192,67108,128,0,67170:0:0:0:0:
192,192,67233,128,0,67295:0:0:0:0:
64,192,67358,1,0,0:0:0:0:
192,192,67358,1,0,0:0:0:0:
320,192,67483,1,0,0:0:0:0:
448,192,67483,1,0,0:0:0:0:
448,192,67608,128,0,67670:0:0:0:0:
320,192,67733,128,0,67795:0:0:0:0:
192,192,67733,1,0,0:0:0:0:
64,192,67858,1,0,0:0:0:0:
192,192,67878,1,0,0:0:0:0:
320,192,67899,1,0,0:0:0:0:
448,192,67920,1,0,0:0:0:0:
64,192,67983,1,0,0:0:0:0:
192,192,67983,1,0,0:0:0:0:
64,192,68108,1,0,0:0:0:0:
448,192,68108,1,0,0:0:0:0:
320,192,68170,1,0,0:0:0:0:
192,192,68233,1,0,0:0:0:0:
448,192,68295,1,0,0:0:0:0:
192,192,68358,1,0,0:0:0:0:
448,192,68420,1,0,0:0:0:0:
192,192,68483,1,0,0:0:0:0:
320,192,68483,1,0,0:0:0:0:
320,192,68608,1,0,0:0:0:0:
448,192,68608,1,0,0:0:0:0:
64,192,68733,1,0,0:0:0:0:
192,192,68753,1,0,0:0:0:0:
320,192,68774,1,0,0:0:0:0:
448,192,68795,1,0,0:0:0:0:
64,192,68858,1,0,0:0:0:0:
192,192,68858,1,0,0:0:0:0:
320,192,68983,1,0,0:0:0:0:
448,192,69003,1,0,0:0:0:0:
192,192,69108,1,0,0:0:0:0:
320,192,69128,1,0,0:0:0:0:
448,192,69233,128,0,69358:0:0:0:0:
64,192,69233,128,0,69295:0:0:0:0:
320,192,69295,128,0,69420:0:0:0:0:
192,192,69358,128,0,69420:0:0:0:0:
64,192,69483,128,0,69608:0:0:0:0:
448,192,69483,128,0,69545:0:0:0:0:
192,192,69545,128,0,69670:0:0:0:0:
320,192,69608,128,0,69670:0:0:0:0:
448,192,69733,128,0,69858:0:0:0:0:
64,192,69733,128,0,69795:0:0:0:0:
320,192,69795,128,0,69920:0:0:0:0:
192,192,69858,128,0,69920:0:0:0:0:
448,192,69983,128,0,70045:0:0:0:0:
64,192,69983,128,0,70045:0:0:0:0:
192,192,69983,128,0,70045:0:0:0:0:
320,192,70233,128,0,70295:0:0:0:0:
448,192,70233,128,0,70295:0:0:0:0:
192,192,70358,128,0,70420:0:0:0:0:
448,192,70358,128,0,70420:0:0:0:0:
64,192,70483,1,0,0:0:0:0:
448,192,70483,1,0,0:0:0:0:
320,192,70608,128,0,70670:0:0:0:0:
64,192,70608,128,0,70670:0:0:0:0:
64,192,70733,128,0,70795:0:0:0:0:
192,192,70733,128,0,70795:0:0:0:0:
320,192,70795,1,0,0:0:0:0:
64,192,70858,128,0,70920:0:0:0:0:
192,192,70858,128,0,70920:0:0:0:0:
448,192,70920,1,0,0:0:0:0:
192,192,70983,1,0,0:0:0:0:
320,192,70983,1,0,0:0:0:0:
320,192,71108,1,0,0:0:0:0:
448,192,71108,128,0,71170:0:0:0:0:
192,192,71170,1,0,0:0:0:0:
64,192,71233,1,0,0:0:0:0:
320,192,71233,128,0,71295:0:0:0:0:
448,192,71295,1,0,0:0:0:0:
64,192,71358,1,0,0:0:0:0:
192,192,71358,128,0,71420:0:0:0:0:
320,192,71420,1,0,0:0:0:0:
64,192,71483,1,0,0:0:0:0:
448,192,71483,1,0,0:0:0:0:
320,192,71608,128,0,71670:0:0:0:0:
192,192,71608,1,0,0:0:0:0:
448,192,71733,128,0,71795:0:0:0:0:
320,192,71733,1,0,0:0:0:0:
64,192,71795,1,0,0:0:0:0:
320,192,71858,1,0,0:0:0:0:
64,192,71920,1,0,0:0:0:0:
448,192,71983,128,0,72045:0:0:0:0:
192,192,72003,128,0,72066:0:0:0:0:
64,192,72024,128,0,72087:0:0:0:0:
448,192,72108,1,0,0:0:0:0:
64,192,72233,1,0,0:0:0:0:
192,192,72253,1,0,0:0:0:0:
320,192,72274,1,0,0:0:0:0:
448,192,72295,1,0,0:0:0:0:
64,192,72358,1,0,0:0:0:0:
320,192,72483,128,0,72608:0:0:0:0:
448,192,72483,128,0,72608:0:0:0:0:
64,192,72608,1,0,0:0:0:0:
192,192,72670,128,0,72795:0:0:0:0:
320,192,72670,128,0,72795:0:0:0:0:
64,192,72858,128,0,72983:0:0:0:0:
192,192,72858,128,0,72983:0:0:0:0:
320,192,72920,1,0,0:0:0:0:
448,192,72983,1,0,0:0:0:0:
64,192,73045,1,0,0:0:0:0:
448,192,73108,1,0,0:0:0:0:
64,192,73170,1,0,0:0:0:0:
192,192,73233,128,0,73295:0:0:0:0:
320,192,73233,128,0,73295:0:0:0:0:
320,192,73358,128,0,73420:0:0:0:0:
448,192,73358,128,0,73420:0:0:0:0:
64,192,73420,1,0,0:0:0:0:
192,192,73483,1,0,0:0:0:0:
448,192,73483,1,0,0:0:0:0:
192,192,73608,128,0,73670:0:0:0:0:
64,192,73608,128,0,73670:0:0:0:0:
320,192,73733,1,0,0:0:0:0:
448,192,73733,128,0,73920:0:0:0:0:
64,192,73795,128,0,73920:0:0:0:0:
320,192,73858,128,0,73983:0:0:0:0:
192,192,73920,128,0,73983:0:0:0:0:
448,192,73983,128,0,74170:0:0:0:0:
64,192,73983,128,0,74295:0:0:0:0:
192,192,74108,128,0,74420:0:0:0:0:
320,192,74233,128,0,74420:0:0:0:0:
448,192,74233,128,0,74670:0:0:0:0:
64,192,74358,128,0,74545:0:0:0:0:
192,192,74483,128,0,74795:0:0:0:0:
320,192,74483,128,0,74670:0:0:0:0:
64,192,74608,128,0,74983:0:0:0:0:
320,192,74733,128,0,75170:0:0:0:0:
448,192,74733,128,0,74920:0:0:0:0:
192,192,74858,128,0,75045:0:0:0:0:
448,192,74983,128,0,75420:0:0:0:0:
64,192,75045,128,0,75295:0:0:0:0:
192,192,75108,128,0,75545:0:0:0:0:
320,192,75233,128,0,75420:0:0:0:0:
64,192,75358,128,0,75795:0:0:0:0:
320,192,75483,128,0,75608:0:0:0:0:
448,192,75483,128,0,75670:0:0:0:0:
192,192,75608,128,0,75983:0:0:0:0:
320,192,75670,128,0,75920:0:0:0:0:
448,192,75733,128,0,76045:0:0:0:0:
64,192,75858,128,0,76170:0:0:0:0:
320,192,75983,128,0,76108:0:0:0:0:
192,192,76045,128,0,76233:0:0:0:0:
448,192,76108,128,0,76295:0:0:0:0:
320,192,76170,128,0,76420:0:0:0:0:
64,192,76233,128,0,76545:0:0:0:0:
192,192,76295,128,0,76420:0:0:0:0:
448,192,76358,128,0,76670:0:0:0:0:
320,192,76483,128,0,76920:0:0:0:0:
192,192,76483,128,0,76795:0:0:0:0:
64,192,76608,128,0,76983:0:0:0:0:
448,192,76733,128,0,77045:0:0:0:0:
192,192,76858,128,0,77170:0:0:0:0:
320,192,76983,128,0,77108:0:0:0:0:
64,192,77045,128,0,77420:0:0:0:0:
448,192,77108,128,0,77295:0:0:0:0:
320,192,77170,128,0,77420:0:0:0:0:
192,192,77233,128,0,77545:0:0:0:0:
448,192,77358,128,0,77795:0:0:0:0:
320,192,77483,128,0,77670:0:0:0:0:
64,192,77483,128,0,77545:0:0:0:0:
192,192,77608,128,0,77670:0:0:0:0:
320,192,77733,128,0,77795:0:0:0:0:
64,192,77795,1,0,0:0:0:0:
448,192,77858,128,0,77920:0:0:0:0:
192,192,77920,1,0,0:0:0:0:
448,192,77983,1,0,0:0:0:0:
448,192,78108,1,0,0:0:0:0:
320,192,78108,1,0,0:0:0:0:
448,192,78233,1,0,0:0:0:0:
320,192,78233,1,0,0:0:0:0:
192,192,78233,1,0,0:0:0:0:
448,192,78358,128,0,78483:0:0:0:0:
320,192,78358,128,0,78483:0:0:0:0:
192,192,78358,128,0,78483:0:0:0:0:
64,192,78358,128,0,78483:0:0:0:0:
448,192,78608,1,0,0:0:0:0:
320,192,78608,1,0,0:0:0:0:
192,192,78670,1,0,0:0:0:0:
64,192,78733,1,0,0:0:0:0:
448,192,78733,1,0,0:0:0:0:
320,192,78733,1,0,0:0:0:0:
192,192,78795,1,0,0:0:0:0:
320,192,78858,1,0,0:0:0:0:
64,192,78983,1,0,0:0:0:0:
448,192,78983,128,0,79024:0:0:0:0:
192,192,78983,1,0,0:0:0:0:
320,192,79045,128,0,79087:0:0:0:0:
192,192,79108,128,0,79149:0:0:0:0:
448,192,79233,1,0,0:0:0:0:
64,192,79233,128,0,79274:0:0:0:0:
320,192,79233,1,0,0:0:0:0:
192,192,79295,128,0,79337:0:0:0:0:
320,192,79358,128,0,79399:0:0:0:0:
64,192,79483,1,0,0:0:0:0:
448,192,79483,128,0,79545:0:0:0:0:
192,192,79483,1,0,0:0:0:0:
320,192,79545,128,0,79608:0:0:0:0:
192,192,79608,128,0,79670:0:0:0:0:
448,192,79733,1,0,0:0:0:0:
64,192,79733,128,0,79795:0:0:0:0:
320,192,79733,1,0,0:0:0:0:
192,192,79795,128,0,79858:0:0:0:0:
320,192,79858,128,0,79920:0:0:0:0:
192,192,79983,1,0,0:0:0:0:
448,192,79983,128,0,80108:0:0:0:0:
64,192,79983,1,0,0:0:0:0:
320,192,80045,128,0,80170:0:0:0:0:
192,192,80108,128,0,80170:0:0:0:0:
320,192,80233,1,0,0:0:0:0:
64,192,80233,128,0,80358:0:0:0:0:
448,192,80233,1,0,0:0:0:0:
192,192,80295,128,0,80420:0:0:0:0:
320,192,80358,128,0,80420:0:0:0:0:
192,192,80483,1,0,0:0:0:0:
448,192,80483,128,0,80608:0:0:0:0:
64,192,80483,1,0,0:0:0:0:
320,192,80545,128,0,80670:0:0:0:0:
192,192,80608,128,0,80670:0:0:0:0:
64,192,80608,1,0,0:0:0:0:
448,192,80670,1,0,0:0:0:0:
192,192,80733,1,0,0:0:0:0:
320,192,80733,1,0,0:0:0:0:
320,192,80858,1,0,0:0:0:0:
448,192,80858,1,0,0:0:0:0:
64,192,80983,128,0,81170:0:0:0:0:
192,192,80983,128,0,81139:0:0:0:0:
320,192,80983,128,0,81108:0:0:0:0:
448,192,80983,128,0,81076:0:0:0:0:
320,192,81358,128,0,81420:0:0:0:0:
192,192,81420,128,0,81483:0:0:0:0:
448,192,81483,128,0,81608:0:0:0:0:
320,192,81514,128,0,81639:0:0:0:0:
64,192,81608,128,0,81733:0:0:0:0:
320,192,81733,128,0,81795:0:0:0:0:
192,192,81858,128,0,81920:0:0:0:0:
448,192,81983,1,0,0:0:0:0:
320,192,82003,1,0,0:0:0:0:
192,192,82024,1,0,0:0:0:0:
64,192,82045,1,0,0:0:0:0:
64,192,82233,128,0,82295:0:0:0:0:
448,192,82233,1,0,0:0:0:0:
64,192,82358,128,0,82420:0:0:0:0:
192,192,82373,128,0,82436:0:0:0:0:
448,192,82483,1,0,0:0:0:0:
320,192,82483,1,0,0:0:0:0:
64,192,82608,1,0,0:0:0:0:
448,192,82733,1,0,0:0:0:0:
320,192,82733,1,0,0:0:0:0:
64,192,82858,128,0,82920:0:0:0:0:
64,192,82983,128,0,83045:0:0:0:0:
192,192,82998,128,0,83061:0:0:0:0:
64,192,83108,128,0,83170:0:0:0:0:
192,192,83123,128,0,83186:0:0:0:0:
320,192,83139,128,0,83201:0:0:0:0:
64,192,83233,128,0,83358:0:0:0:0:
192,192,83248,128,0,83373:0:0:0:0:
320,192,83264,128,0,83389:0:0:0:0:
448,192,83279,128,0,83404:0:0:0:0:
192,192,83483,1,0,0:0:0:0:
64,192,83483,1,0,0:0:0:0:
320,192,83545,1,0,0:0:0:0:
192,192,83608,1,0,0:0:0:0:
320,192,83670,1,0,0:0:0:0:
448,192,83733,128,0,83795:0:0:0:0:
64,192,83748,128,0,83811:0:0:0:0:
192,192,83858,128,0,83920:0:0:0:0:
320,192,83873,128,0,83936:0:0:0:0:
64,192,83983,1,0,0:0:0:0:
192,192,84003,1,0,0:0:0:0:
320,192,84024,1,0,0:0:0:0:
448,192,84045,1,0,0:0:0:0:
64,192,84108,1,0,0:0:0:0:
192,192,84170,1,0,0:0:0:0:
448,192,84233,128,0,84295:0:0:0:0:
448,192,84358,128,0,84420:0:0:0:0:
320,192,84373,128,0,84436:0:0:0:0:
192,192,84483,1,0,0:0:0:0:
64,192,84483,1,0,0:0:0:0:
64,192,84608,1,0,0:0:0:0:
448,192,84670,1,0,0:0:0:0:
64,192,84733,1,0,0:0:0:0:
192,192,84733,1,0,0:0:0:0:
448,192,84858,128,0,84920:0:0:0:0:
448,192,84983,128,0,85045:0:0:0:0:
320,192,84998,128,0,85061:0:0:0:0:
448,192,85108,128,0,85170:0:0:0:0:
320,192,85123,128,0,85186:0:0:0:0:
192,192,85139,128,0,85201:0:0:0:0:
448,192,85233,128,0,85358:0:0:0:0:
320,192,85248,128,0,85373:0:0:0:0:
192,192,85264,128,0,85389:0:0:0:0:
64,192,85279,128,0,85404:0:0:0:0:
320,192,85483,1,0,0:0:0:0:
448,192,85483,1,0,0:0:0:0:
192,192,85545,1,0,0:0:0:0:
320,192,85608,1,0,0:0:0:0:
192,192,85670,1,0,0:0:0:0:
448,192,85733,128,0,85795:0:0:0:0:
64,192,85733,128,0,85795:0:0:0:0:
320,192,85858,1,0,0:0:0:0:
448,192,85858,1,0,0:0:0:0:
192,192,85983,128,0,86045:0:0:0:0:
64,192,85983,1,0,0:0:0:0:
320,192,86045,128,0,86108:0:0:0:0:
448,192,86108,128,0,86170:0:0:0:0:
192,192,86233,128,0,86295:0:0:0:0:
64,192,86233,1,0,0:0:0:0:
320,192,86358,128,0,86420:0:0:0:0:
64,192,86358,1,0,0:0:0:0:
192,192,86483,1,0,0:0:0:0:
448,192,86483,1,0,0:0:0:0:
448,192,86608,1,0,0:0:0:0:
320,192,86608,128,0,86670:0:0:0:0:
448,192,86733,1,0,0:0:0:0:
64,192,86733,128,0,86795:0:0:0:0:
320,192,86795,1,0,0:0:0:0:
192,192,86858,1,0,0:0:0:0:
320,192,86920,1,0,0:0:0:0:
64,192,86983,1,0,0:0:0:0:
192,192,86983,1,0,0:0:0:0:
64,192,87108,1,0,0:0:0:0:
448,192,87233,128,0,87295:0:0:0:0:
64,192,87248,128,0,87311:0:0:0:0:
192,192,87358,128,0,87420:0:0:0:0:
320,192,87373,128,0,87436:0:0:0:0:
448,192,87483,1,0,0:0:0:0:
64,192,87483,1,0,0:0:0:0:
320,192,87608,1,0,0:0:0:0:
448,192,87733,128,0,87795:0:0:0:0:
320,192,87753,128,0,87816:0:0:0:0:
192,192,87774,128,0,87837:0:0:0:0:
64,192,87795,128,0,87858:0:0:0:0:
64,192,87983,128,0,88295:0:0:0:0:
448,192,87983,128,0,88295:0:0:0:0:
192,192,88045,128,0,88108:0:0:0:0:
320,192,88108,128,0,88170:0:0:0:0:
192,192,88170,128,0,88295:0:0:0:0:
320,192,88233,128,0,88295:0:0:0:0:
64,192,88358,128,0,88545:0:0:0:0:
448,192,88358,128,0,88670:0:0:0:0:
320,192,88420,128,0,88483:0:0:0:0:
192,192,88483,128,0,88545:0:0:0:0:
320,192,88545,128,0,88670:0:0:0:0:
192,192,88608,128,0,88670:0:0:0:0:
64,192,88608,128,0,88670:0:0:0:0:
64,192,88733,128,0,88920:0:0:0:0:
448,192,88733,128,0,89045:0:0:0:0:
192,192,88795,128,0,88920:0:0:0:0:
320,192,88858,128,0,89045:0:0:0:0:
192,192,88983,128,0,89045:0:0:0:0:
64,192,88983,128,0,89045:0:0:0:0:
448,192,89108,128,0,89295:0:0:0:0:
320,192,89108,128,0,89233:0:0:0:0:
64,192,89233,128,0,89358:0:0:0:0:
192,192,89233,128,0,89670:0:0:0:0:
448,192,89358,128,0,89420:0:0:0:0:
320,192,89358,128,0,89545:0:0:0:0:
448,192,89483,128,0,89545:0:0:0:0:
64,192,89483,128,0,89795:0:0:0:0:
320,192,89608,128,0,89670:0:0:0:0:
192,192,89733,128,0,89795:0:0:0:0:
448,192,89733,1,0,0:0:0:0:
64,192,89858,128,0,89920:0:0:0:0:
448,192,89983,1,0,0:0:0:0:
320,192,90003,1,0,0:0:0:0:
192,192,90024,1,0,0:0:0:0:
64,192,90045,1,0,0:0:0:0:
448,192,90108,1,0,0:0:0:0:
64,192,90233,128,0,90295:0:0:0:0:
320,192,90248,128,0,90311:0:0:0:0:
448,192,90264,128,0,90326:0:0:0:0:
64,192,90358,128,0,90420:0:0:0:0:
192,192,90373,128,0,90436:0:0:0:0:
448,192,90389,128,0,90451:0:0:0:0:
64,192,90483,1,0,0:0:0:0:
320,192,90483,1,0,0:0:0:0:
448,192,90608,1,0,0:0:0:0:
64,192,90733,1,0,0:0:0:0:
192,192,90733,1,0,0:0:0:0:
192,192,90858,128,0,90920:0:0:0:0:
320,192,90873,128,0,90936:0:0:0:0:
448,192,90889,128,0,90951:0:0:0:0:
64,192,90983,128,0,91045:0:0:0:0:
320,192,90998,128,0,91061:0:0:0:0:
448,192,91014,128,0,91076:0:0:0:0:
64,192,91108,128,0,91170:0:0:0:0:
192,192,91123,128,0,91186:0:0:0:0:
448,192,91139,128,0,91201:0:0:0:0:
64,192,91233,128,0,91358:0:0:0:0:
192,192,91248,128,0,91373:0:0:0:0:
320,192,91264,128,0,91389:0:0:0:0:
448,192,91483,1,0,0:0:0:0:
64,192,91483,1,0,0:0:0:0:
192,192,91545,1,0,0:0:0:0:
320,192,91608,1,0,0:0:0:0:
192,192,91670,1,0,0:0:0:0:
448,192,91733,1,0,0:0:0:0:
320,192,91733,1,0,0:0:0:0:
448,192,91858,128,0,91920:0:0:0:0:
192,192,91858,128,0,91920:0:0:0:0:
64,192,91983,1,0,0:0:0:0:
192,192,92003,1,0,0:0:0:0:
320,192,92024,1,0,0:0:0:0:
448,192,92045,1,0,0:0:0:0:
64,192,92108,1,0,0:0:0:0:
320,192,92170,1,0,0:0:0:0:
448,192,92233,128,0,92295:0:0:0:0:
192,192,92248,128,0,92311:0:0:0:0:
64,192,92264,128,0,92326:0:0:0:0:
448,192,92358,128,0,92420:0:0:0:0:
320,192,92373,128,0,92436:0:0:0:0:
64,192,92389,128,0,92451:0:0:0:0:
192,192,92483,1,0,0:0:0:0:
448,192,92483,1,0,0:0:0:0:
64,192,92608,1,0,0:0:0:0:
448,192,92670,1,0,0:0:0:0:
64,192,92733,1,0,0:0:0:0:
192,192,92733,1,0,0:0:0:0:
320,192,92858,128,0,92920:0:0:0:0:
192,192,92873,128,0,92936:0:0:0:0:
64,192,92889,128,0,92951:0:0:0:0:
448,192,92983,128,0,93045:0:0:0:0:
192,192,92998,128,0,93061:0:0:0:0:
64,192,93014,128,0,93076:0:0:0:0:
448,192,93108,128,0,93170:0:0:0:0:
320,192,93123,128,0,93186:0:0:0:0:
64,192,93139,128,0,93201:0:0:0:0:
448,192,93233,128,0,93358:0:0:0:0:
320,192,93248,128,0,93373:0:0:0:0:
192,192,93264,128,0,93389:0:0:0:0:
64,192,93483,1,0,0:0:0:0:
448,192,93483,1,0,0:0:0:0:
320,192,93545,1,0,0:0:0:0:
192,192,93608,1,0,0:0:0:0:
320,192,93670,1,0,0:0:0:0:
64,192,93733,128,0,93795:0:0:0:0:
192,192,93733,128,0,93795:0:0:0:0:
448,192,93858,1,0,0:0:0:0:
64,192,93858,1,0,0:0:0:0:
320,192,93983,128,0,94045:0:0:0:0:
448,192,93983,1,0,0:0:0:0:
192,192,94045,128,0,94108:0:0:0:0:
64,192,94108,128,0,94170:0:0:0:0:
448,192,94108,1,0,0:0:0:0:
64,192,94233,1,0,0:0:0:0:
320,192,94233,128,0,94295:0:0:0:0:
448,192,94358,128,0,94420:0:0:0:0:
64,192,94483,1,0,0:0:0:0:
192,192,94483,1,0,0:0:0:0:
320,192,94608,1,0,0:0:0:0:
64,192,94608,1,0,0:0:0:0:
448,192,94733,128,0,94795:0:0:0:0:
64,192,94858,1,0,0:0:0:0:
192,192,94858,1,0,0:0:0:0:
320,192,94983,128,0,95045:0:0:0:0:
192,192,95045,1,0,0:0:0:0:
320,192,95108,1,0,0:0:0:0:
448,192,95233,1,0,0:0:0:0:
64,192,95233,1,0,0:0:0:0:
320,192,95295,1,0,0:0:0:0:
192,192,95358,1,0,0:0:0:0:
320,192,95420,1,0,0:0:0:0:
64,192,95483,1,0,0:0:0:0:
192,192,95483,1,0,0:0:0:0:
320,192,95608,128,0,95649:0:0:0:0:
448,192,95608,128,0,95649:0:0:0:0:
320,192,95733,128,0,95774:0:0:0:0:
448,192,95733,128,0,95774:0:0:0:0:
320,192,95858,128,0,95899:0:0:0:0:
448,192,95858,128,0,95899:0:0:0:0:
64,192,95983,128,0,96233:0:0:0:0:
448,192,95983,128,0,96233:0:0:0:0:
192,192,96108,128,0,96358:0:0:0:0:
320,192,96108,128,0,96233:0:0:0:0:
64,192,96358,128,0,96420:0:0:0:0:
448,192,96358,128,0,96483:0:0:0:0:
320,192,96420,128,0,96608:0:0:0:0:
64,192,96483,128,0,96608:0:0:0:0:
448,192,96545,128,0,96608:0:0:0:0:
192,192,96608,128,0,96733:0:0:0:0:
320,192,96670,128,0,96733:0:0:0:0:
64,192,96733,128,0,96920:0:0:0:0:
448,192,96733,128,0,97045:0:0:0:0:
320,192,96858,128,0,97045:0:0:0:0:
192,192,96983,128,0,97170:0:0:0:0:
64,192,96983,128,0,97108:0:0:0:0:
448,192,97108,128,0,97233:0:0:0:0:
320,192,97108,128,0,97233:0:0:0:0:
64,192,97233,128,0,97545:0:0:0:0:
192,192,97233,128,0,97358:0:0:0:0:
320,192,97358,128,0,97545:0:0:0:0:
448,192,97358,128,0,97420:0:0:0:0:
192,192,97420,128,0,97670:0:0:0:0:
448,192,97483,128,0,97545:0:0:0:0:
320,192,97608,128,0,97670:0:0:0:0:
64,192,97608,128,0,97795:0:0:0:0:
192,192,97733,128,0,97795:0:0:0:0:
448,192,97733,1,0,0:0:0:0:
64,192,97858,128,0,97920:0:0:0:0:
448,192,97983,128,0,98233:0:0:0:0:
320,192,97983,128,0,98170:0:0:0:0:
192,192,98108,128,0,98233:0:0:0:0:
320,192,98274,1,0,0:0:0:0:
192,192,98316,1,0,0:0:0:0:
64,192,98358,128,0,98545:0:0:0:0:
448,192,98358,128,0,98733:0:0:0:0:
192,192,98483,128,0,98608:0:0:0:0:
64,192,98608,128,0,98670:0:0:0:0:
320,192,98670,128,0,98733:0:0:0:0:
192,192,98733,128,0,98920:0:0:0:0:
64,192,98733,128,0,98920:0:0:0:0:
448,192,98858,128,0,98983:0:0:0:0:
320,192,98983,1,0,0:0:0:0:
64,192,98983,128,0,99358:0:0:0:0:
320,192,99108,128,0,99170:0:0:0:0:
448,192,99170,128,0,99233:0:0:0:0:
192,192,99233,128,0,99295:0:0:0:0:
320,192,99358,128,0,99420:0:0:0:0:
192,192,99420,128,0,99483:0:0:0:0:
448,192,99483,128,0,99733:0:0:0:0:
64,192,99483,128,0,99608:0:0:0:0:
320,192,99608,128,0,99670:0:0:0:0:
320,192,99733,128,0,99920:0:0:0:0:
64,192,99733,128,0,99837:0:0:0:0:
192,192,99795,128,0,99878:0:0:0:0:
448,192,99858,128,0,99920:0:0:0:0:
448,192,99983,128,0,100170:0:0:0:0:
64,192,99983,128,0,100233:0:0:0:0:
192,192,100108,128,0,100233:0:0:0:0:
320,192,100108,128,0,100233:0:0:0:0:
448,192,100233,128,0,100295:0:0:0:0:
320,192,100295,1,0,0:0:0:0:
192,192,100358,128,0,100483:0:0:0:0:
64,192,100358,128,0,100608:0:0:0:0:
320,192,100483,128,0,100608:0:0:0:0:
448,192,100483,128,0,100545:0:0:0:0:
192,192,100608,128,0,100670:0:0:0:0:
448,192,100608,128,0,100733:0:0:0:0:
64,192,100670,128,0,100733:0:0:0:0:
320,192,100733,128,0,100983:0:0:0:0:
192,192,100733,128,0,100858:0:0:0:0:
448,192,100858,128,0,100983:0:0:0:0:
64,192,100858,128,0,100920:0:0:0:0:
64,192,100983,128,0,101295:0:0:0:0:
192,192,100983,128,0,101045:0:0:0:0:
320,192,101045,128,0,101108:0:0:0:0:
448,192,101108,128,0,101170:0:0:0:0:
192,192,101170,128,0,101233:0:0:0:0:
320,192,101233,128,0,101295:0:0:0:0:
448,192,101358,128,0,101483:0:0:0:0:
192,192,101358,128,0,101420:0:0:0:0:
448,192,101608,128,0,101670:0:0:0:0:
320,192,101733,128,0,101795:0:0:0:0:
64,192,101733,128,0,101858:0:0:0:0:
64,192,101983,1,0,0:0:0:0:
448,192,101983,1,0,0:0:0:0:
320,192,102108,1,0,0:0:0:0:
64,192,102233,1,0,0:0:0:0:
448,192,102233,1,0,0:0:0:0:
320,192,102358,1,0,0:0:0:0:
64,192,102483,1,0,0:0:0:0:
448,192,102483,1,0,0:0:0:0:
192,192,102608,1,0,0:0:0:0:
448,192,102733,1,0,0:0:0:0:
64,192,102733,1,0,0:0:0:0:
320,192,102858,1,0,0:0:0:0:
64,192,102983,1,0,0:0:0:0:
448,192,102983,1,0,0:0:0:0:
192,192,103108,1,0,0:0:0:0:
320,192,103170,1,0,0:0:0:0:
64,192,103233,1,0,0:0:0:0:
448,192,103233,1,0,0:0:0:0:
320,192,103358,1,0,0:0:0:0:
192,192,103420,1,0,0:0:0:0:
448,192,103483,1,0,0:0:0:0:
64,192,103483,1,0,0:0:0:0:
320,192,103608,1,0,0:0:0:0:
64,192,103733,1,0,0:0:0:0:
448,192,103733,1,0,0:0:0:0:
192,192,103858,1,0,0:0:0:0:
64,192,103983,1,0,0:0:0:0:
448,192,103983,1,0,0:0:0:0:
320,192,104108,1,0,0:0:0:0:
64,192,104233,1,0,0:0:0:0:
448,192,104233,1,0,0:0:0:0:
320,192,104358,1,0,0:0:0:0:
64,192,104483,1,0,0:0:0:0:
448,192,104483,1,0,0:0:0:0:
192,192,104608,1,0,0:0:0:0:
64,192,104733,1,0,0:0:0:0:
448,192,104733,1,0,0:0:0:0:
320,192,104858,1,0,0:0:0:0:
64,192,104983,1,0,0:0:0:0:
448,192,104983,1,0,0:0:0:0:
192,192,105108,1,0,0:0:0:0:
320,192,105170,1,0,0:0:0:0:
64,192,105233,1,0,0:0:0:0:
448,192,105233,1,0,0:0:0:0:
320,192,105358,1,0,0:0:0:0:
192,192,105420,1,0,0:0:0:0:
448,192,105483,1,0,0:0:0:0:
64,192,105483,1,0,0:0:0:0:
320,192,105608,1,0,0:0:0:0:
64,192,105733,128,0,105774:0:0:0:0:
448,192,105733,128,0,105774:0:0:0:0:
64,192,105983,128,0,106028:0:0:0:0:
320,192,105983,128,0,106028:0:0:0:0:
448,192,105983,1,0,0:0:0:0:
192,192,106119,1,0,0:0:0:0:
448,192,106119,1,0,0:0:0:0:
64,192,106255,1,0,0:0:0:0:
320,192,106255,1,0,0:0:0:0:
448,192,106255,1,0,0:0:0:0:
64,192,106392,1,0,0:0:0:0:
192,192,106392,1,0,0:0:0:0:
320,192,106460,1,0,0:0:0:0:
64,192,106528,1,0,0:0:0:0:
448,192,106528,1,0,0:0:0:0:
192,192,106528,1,0,0:0:0:0:
448,192,106664,1,0,0:0:0:0:
192,192,106664,1,0,0:0:0:0:
64,192,106801,1,0,0:0:0:0:
320,192,106801,1,0,0:0:0:0:
448,192,106801,1,0,0:0:0:0:
320,192,106937,128,0,106983:0:0:0:0:
192,192,106937,128,0,106983:0:0:0:0:
64,192,107073,128,0,107123:0:0:0:0:
448,192,107073,128,0,107123:0:0:0:0:
192,192,107073,1,0,0:0:0:0:
320,192,107148,1,0,0:0:0:0:
64,192,107223,1,0,0:0:0:0:
448,192,107223,1,0,0:0:0:0:
192,192,107298,1,0,0:0:0:0:
64,192,107373,1,0,0:0:0:0:
448,192,107373,1,0,0:0:0:0:
320,192,107373,1,0,0:0:0:0:
192,192,107523,1,0,0:0:0:0:
320,192,107523,1,0,0:0:0:0:
320,192,107598,1,0,0:0:0:0:
64,192,107673,1,0,0:0:0:0:
192,192,107673,1,0,0:0:0:0:
448,192,107673,1,0,0:0:0:0:
64,192,107823,1,0,0:0:0:0:
320,192,107823,1,0,0:0:0:0:
192,192,107898,1,0,0:0:0:0:
320,192,107973,1,0,0:0:0:0:
448,192,107973,1,0,0:0:0:0:
64,192,107973,1,0,0:0:0:0:
192,192,108123,1,0,0:0:0:0:
320,192,108123,1,0,0:0:0:0:
192,192,108198,1,0,0:0:0:0:
64,192,108198,1,0,0:0:0:0:
320,192,108273,1,0,0:0:0:0:
448,192,108273,1,0,0:0:0:0:
448,192,108358,1,0,0:0:0:0:
320,192,108358,128,0,108401:0:0:0:0:
64,192,108444,1,0,0:0:0:0:
192,192,108444,1,0,0:0:0:0:
64,192,108530,1,0,0:0:0:0:
192,192,108530,128,0,108615:0:0:0:0:
448,192,108615,1,0,0:0:0:0:
320,192,108615,128,0,108701:0:0:0:0:
64,192,108701,128,0,108787:0:0:0:0:
192,192,108787,1,0,0:0:0:0:
448,192,108787,128,0,108873:0:0:0:0:
64,192,108873,1,0,0:0:0:0:
448,192,108958,1,0,0:0:0:0:
320,192,108958,128,0,109044:0:0:0:0:
64,192,109044,1,0,0:0:0:0:
192,192,109044,128,0,109130:0:0:0:0:
64,192,109130,1,0,0:0:0:0:
448,192,109130,1,0,0:0:0:0:
192,192,109215,128,0,109301:0:0:0:0:
320,192,109215,1,0,0:0:0:0:
64,192,109301,1,0,0:0:0:0:
320,192,109301,128,0,109473:0:0:0:0:
448,192,109387,128,0,109473:0:0:0:0:
64,192,109473,128,0,109644:0:0:0:0:
192,192,109558,128,0,109644:0:0:0:0:
448,192,109644,1,0,0:0:0:0:
320,192,109644,1,0,0:0:0:0:
192,192,109815,128,0,109987:0:0:0:0:
64,192,109987,1,0,0:0:0:0:
448,192,109987,1,0,0:0:0:0:
320,192,110158,128,0,110330:0:0:0:0:
64,192,110330,1,0,0:0:0:0:
448,192,110330,1,0,0:0:0:0:
192,192,110415,1,0,0:0:0:0:
320,192,110415,128,0,110458:0:0:0:0:
192,192,110501,1,0,0:0:0:0:
320,192,110587,1,0,0:0:0:0:
448,192,110587,1,0,0:0:0:0:
64,192,110673,1,0,0:0:0:0:
192,192,110673,128,0,110715:0:0:0:0:
448,192,110758,1,0,0:0:0:0:
320,192,110844,1,0,0:0:0:0:
64,192,110844,128,0,110887:0:0:0:0:
192,192,110930,1,0,0:0:0:0:
320,192,110930,128,0,110973:0:0:0:0:
64,192,111015,128,0,111058:0:0:0:0:
448,192,111015,1,0,0:0:0:0:
192,192,111058,128,0,111101:0:0:0:0:
320,192,111101,128,0,111144:0:0:0:0:
448,192,111144,128,0,111187:0:0:0:0:
192,192,111187,128,0,111230:0:0:0:0:
320,192,111230,128,0,111273:0:0:0:0:
448,192,111273,128,0,111315:0:0:0:0:
64,192,111315,128,0,111358:0:0:0:0:
192,192,111358,1,0,0:0:0:0:
192,192,111444,128,0,111530:0:0:0:0:
448,192,111530,1,0,0:0:0:0:
64,192,111530,1,0,0:0:0:0:
448,192,111615,128,0,111787:0:0:0:0:
320,192,111701,1,0,0:0:0:0:
192,192,111701,1,0,0:0:0:0:
64,192,111787,1,0,0:0:0:0:
192,192,111787,1,0,0:0:0:0:
448,192,111873,1,0,0:0:0:0:
320,192,111873,128,0,111915:0:0:0:0:
192,192,111958,1,0,0:0:0:0:
64,192,111958,1,0,0:0:0:0:
448,192,112044,1,0,0:0:0:0:
64,192,112044,128,0,112215:0:0:0:0:
320,192,112130,1,0,0:0:0:0:
192,192,112130,1,0,0:0:0:0:
448,192,112215,1,0,0:0:0:0:
320,192,112215,128,0,112301:0:0:0:0:
192,192,112301,1,0,0:0:0:0:
64,192,112387,1,0,0:0:0:0:
448,192,112387,128,0,112430:0:0:0:0:
192,192,112473,1,0,0:0:0:0:
320,192,112473,1,0,0:0:0:0:
64,192,112558,1,0,0:0:0:0:
192,192,112558,128,0,112601:0:0:0:0:
448,192,112644,1,0,0:0:0:0:
320,192,112644,1,0,0:0:0:0:
448,192,112730,1,0,0:0:0:0:
64,192,112730,128,0,112773:0:0:0:0:
192,192,112815,1,0,0:0:0:0:
320,192,112815,1,0,0:0:0:0:
192,192,112901,1,0,0:0:0:0:
64,192,112901,1,0,0:0:0:0:
448,192,112987,1,0,0:0:0:0:
320,192,112987,1,0,0:0:0:0:
64,192,113073,1,0,0:0:0:0:
192,192,113073,128,0,113115:0:0:0:0:
320,192,113158,1,0,0:0:0:0:
448,192,113158,1,0,0:0:0:0:
64,192,113244,1,0,0:0:0:0:
448,192,113244,128,0,113287:0:0:0:0:
320,192,113330,1,0,0:0:0:0:
192,192,113330,1,0,0:0:0:0:
448,192,113415,1,0,0:0:0:0:
64,192,113415,128,0,113458:0:0:0:0:
320,192,113501,1,0,0:0:0:0:
192,192,113501,1,0,0:0:0:0:
448,192,113587,1,0,0:0:0:0:
320,192,113587,1,0,0:0:0:0:
64,192,113673,1,0,0:0:0:0:
192,192,113673,1,0,0:0:0:0:
320,192,113758,128,0,113844:0:0:0:0:
448,192,113758,128,0,113844:0:0:0:0:
64,192,113844,1,0,0:0:0:0:
448,192,113930,128,0,114015:0:0:0:0:
192,192,113930,128,0,114015:0:0:0:0:
320,192,114015,1,0,0:0:0:0:
192,192,114101,128,0,114187:0:0:0:0:
64,192,114101,128,0,114187:0:0:0:0:
448,192,114187,1,0,0:0:0:0:
320,192,114273,1,0,0:0:0:0:
320,192,114358,1,0,0:0:0:0:
448,192,114444,128,0,114530:0:0:0:0:
64,192,114444,128,0,114573:0:0:0:0:
192,192,114530,1,0,0:0:0:0:
192,192,114615,1,0,0:0:0:0:
64,192,114701,128,0,114787:0:0:0:0:
448,192,114701,128,0,114830:0:0:0:0:
320,192,114787,1,0,0:0:0:0:
192,192,114787,1,0,0:0:0:0:
320,192,114873,1,0,0:0:0:0:
448,192,114958,128,0,115130:0:0:0:0:
64,192,114958,128,0,115044:0:0:0:0:
320,192,115044,128,0,115130:0:0:0:0:
192,192,115130,1,0,0:0:0:0:
64,192,115130,1,0,0:0:0:0:
192,192,115215,128,0,115301:0:0:0:0:
448,192,115301,128,0,115473:0:0:0:0:
64,192,115301,128,0,115387:0:0:0:0:
320,192,115387,128,0,115473:0:0:0:0:
64,192,115473,1,0,0:0:0:0:
192,192,115473,1,0,0:0:0:0:
448,192,115558,1,0,0:0:0:0:
64,192,115644,1,0,0:0:0:0:
192,192,115644,128,0,115730:0:0:0:0:
320,192,115730,1,0,0:0:0:0:
448,192,115815,128,0,115944:0:0:0:0:
64,192,115815,1,0,0:0:0:0:
192,192,115901,1,0,0:0:0:0:
320,192,115901,1,0,0:0:0:0:
64,192,115944,128,0,116073:0:0:0:0:
192,192,116073,128,0,116244:0:0:0:0:
448,192,116073,1,0,0:0:0:0:
320,192,116158,1,0,0:0:0:0:
64,192,116158,1,0,0:0:0:0:
448,192,116244,128,0,116330:0:0:0:0:
320,192,116330,128,0,116415:0:0:0:0:
64,192,116330,1,0,0:0:0:0:
448,192,116415,128,0,116501:0:0:0:0:
192,192,116415,1,0,0:0:0:0:
64,192,116501,128,0,116544:0:0:0:0:
192,192,116544,128,0,116587:0:0:0:0:
320,192,116587,128,0,116630:0:0:0:0:
448,192,116630,128,0,116673:0:0:0:0:
192,192,116673,128,0,116715:0:0:0:0:
320,192,116715,128,0,116758:0:0:0:0:
448,192,116758,128,0,116801:0:0:0:0:
64,192,116801,128,0,116844:0:0:0:0:
192,192,116844,1,0,0:0:0:0:
448,192,116930,128,0,117101:0:0:0:0:
192,192,117015,1,0,0:0:0:0:
64,192,117015,1,0,0:0:0:0:
192,192,117101,128,0,117187:0:0:0:0:
64,192,117187,1,0,0:0:0:0:
448,192,117187,1,0,0:0:0:0:
448,192,117273,1,0,0:0:0:0:
320,192,117273,1,0,0:0:0:0:
64,192,117358,1,0,0:0:0:0:
192,192,117358,1,0,0:0:0:0:
64,192,117444,1,0,0:0:0:0:
448,192,117444,128,0,117530:0:0:0:0:
192,192,117530,1,0,0:0:0:0:
320,192,117530,1,0,0:0:0:0:
64,192,117615,128,0,117787:0:0:0:0:
448,192,117701,128,0,117787:0:0:0:0:
192,192,117701,1,0,0:0:0:0:
320,192,117787,128,0,117873:0:0:0:0:
64,192,117873,1,0,0:0:0:0:
192,192,117873,1,0,0:0:0:0:
320,192,117958,1,0,0:0:0:0:
192,192,118044,128,0,118130:0:0:0:0:
448,192,118044,128,0,118215:0:0:0:0:
320,192,118130,128,0,118215:0:0:0:0:
64,192,118215,1,0,0:0:0:0:
192,192,118215,1,0,0:0:0:0:
448,192,118301,1,0,0:0:0:0:
64,192,118387,128,0,118558:0:0:0:0:
320,192,118387,128,0,118473:0:0:0:0:
448,192,118473,128,0,118558:0:0:0:0:
192,192,118558,1,0,0:0:0:0:
320,192,118558,1,0,0:0:0:0:
64,192,118644,1,0,0:0:0:0:
192,192,118644,1,0,0:0:0:0:
320,192,118730,1,0,0:0:0:0:
448,192,118730,1,0,0:0:0:0:
192,192,118815,1,0,0:0:0:0:
64,192,118815,1,0,0:0:0:0:
320,192,118901,1,0,0:0:0:0:
448,192,118901,1,0,0:0:0:0:
192,192,118987,1,0,0:0:0:0:
320,192,118987,1,0,0:0:0:0:
448,192,119073,1,0,0:0:0:0:
64,192,119073,1,0,0:0:0:0:
320,192,119158,1,0,0:0:0:0:
192,192,119158,1,0,0:0:0:0:
448,192,119244,128,0,119330:0:0:0:0:
64,192,119244,128,0,119330:0:0:0:0:
320,192,119330,1,0,0:0:0:0:
192,192,119415,128,0,119501:0:0:0:0:
448,192,119415,128,0,119501:0:0:0:0:
64,192,119501,1,0,0:0:0:0:
192,192,119587,128,0,119673:0:0:0:0:
320,192,119587,128,0,119673:0:0:0:0:
448,192,119673,1,0,0:0:0:0:
64,192,119758,1,0,0:0:0:0:
192,192,119844,1,0,0:0:0:0:
448,192,119930,128,0,120101:0:0:0:0:
192,192,119930,128,0,120015:0:0:0:0:
64,192,120015,1,0,0:0:0:0:
320,192,120101,1,0,0:0:0:0:
64,192,120187,128,0,120358:0:0:0:0:
320,192,120187,128,0,120273:0:0:0:0:
192,192,120273,1,0,0:0:0:0:
448,192,120273,1,0,0:0:0:0:
320,192,120358,1,0,0:0:0:0:
448,192,120444,128,0,120615:0:0:0:0:
192,192,120444,1,0,0:0:0:0:
64,192,120530,128,0,120615:0:0:0:0:
320,192,120615,128,0,120701:0:0:0:0:
192,192,120615,128,0,120787:0:0:0:0:
64,192,120701,1,0,0:0:0:0:
448,192,120787,1,0,0:0:0:0:
320,192,120787,1,0,0:0:0:0:
64,192,120873,128,0,120958:0:0:0:0:
448,192,120873,128,0,121044:0:0:0:0:
320,192,120958,1,0,0:0:0:0:
64,192,121044,1,0,0:0:0:0:
192,192,121044,1,0,0:0:0:0:
192,192,121130,128,0,121215:0:0:0:0:
320,192,121130,128,0,121301:0:0:0:0:
448,192,121215,1,0,0:0:0:0:
64,192,121301,128,0,121387:0:0:0:0:
448,192,121301,128,0,121473:0:0:0:0:
320,192,121387,1,0,0:0:0:0:
64,192,121473,1,0,0:0:0:0:
192,192,121473,1,0,0:0:0:0:
192,192,121558,1,0,0:0:0:0:
448,192,121558,128,0,121730:0:0:0:0:
64,192,121644,1,0,0:0:0:0:
320,192,121644,128,0,121815:0:0:0:0:
192,192,121730,128,0,121901:0:0:0:0:
64,192,121815,128,0,121901:0:0:0:0:
448,192,121901,128,0,121987:0:0:0:0:
192,192,121987,1,0,0:0:0:0:
320,192,121987,1,0,0:0:0:0:
64,192,122073,1,0,0:0:0:0:
448,192,122158,1,0,0:0:0:0:
448,192,122244,1,0,0:0:0:0:
320,192,122244,128,0,122287:0:0:0:0:
64,192,122330,1,0,0:0:0:0:
448,192,122415,1,0,0:0:0:0:
192,192,122415,128,0,122458:0:0:0:0:
64,192,122501,1,0,0:0:0:0:
448,192,122587,128,0,122630:0:0:0:0:
320,192,122587,1,0,0:0:0:0:
64,192,122673,1,0,0:0:0:0:
192,192,122673,1,0,0:0:0:0:
320,192,122758,1,0,0:0:0:0:
448,192,122758,1,0,0:0:0:0:
192,192,122844,1,0,0:0:0:0:
320,192,122844,1,0,0:0:0:0:
64,192,122930,1,0,0:0:0:0:
192,192,122930,1,0,0:0:0:0:
320,192,123015,1,0,0:0:0:0:
448,192,123015,1,0,0:0:0:0:
192,192,123101,1,0,0:0:0:0:
320,192,123101,1,0,0:0:0:0:
192,192,123187,1,0,0:0:0:0:
64,192,123187,1,0,0:0:0:0:
448,192,123273,1,0,0:0:0:0:
320,192,123273,1,0,0:0:0:0:
320,192,123358,1,0,0:0:0:0:
192,192,123358,1,0,0:0:0:0:
64,192,123444,1,0,0:0:0:0:
448,192,123530,1,0,0:0:0:0:
320,192,123530,1,0,0:0:0:0:
192,192,123615,1,0,0:0:0:0:
64,192,123615,1,0,0:0:0:0:
320,192,123701,1,0,0:0:0:0:
448,192,123701,128,0,123787:0:0:0:0:
192,192,123787,1,0,0:0:0:0:
64,192,123787,128,0,123830:0:0:0:0:
320,192,123873,1,0,0:0:0:0:
192,192,123873,1,0,0:0:0:0:
320,192,123958,1,0,0:0:0:0:
448,192,123958,1,0,0:0:0:0:
192,192,124044,1,0,0:0:0:0:
64,192,124044,128,0,124087:0:0:0:0:
320,192,124130,1,0,0:0:0:0:
192,192,124130,1,0,0:0:0:0:
448,192,124215,1,0,0:0:0:0:
320,192,124215,128,0,124301:0:0:0:0:
192,192,124301,1,0,0:0:0:0:
64,192,124301,1,0,0:0:0:0:
448,192,124387,128,0,124644:0:0:0:0:
320,192,124387,1,0,0:0:0:0:
64,192,124473,1,0,0:0:0:0:
320,192,124558,1,0,0:0:0:0:
192,192,124558,128,0,124644:0:0:0:0:
64,192,124644,1,0,0:0:0:0:
320,192,124730,128,0,124815:0:0:0:0:
448,192,124730,128,0,124901:0:0:0:0:
192,192,124815,1,0,0:0:0:0:
64,192,124901,1,0,0:0:0:0:
320,192,124901,1,0,0:0:0:0:
192,192,124987,1,0,0:0:0:0:
448,192,124987,1,0,0:0:0:0:
64,192,125073,128,0,125244:0:0:0:0:
320,192,125073,128,0,125158:0:0:0:0:
448,192,125158,1,0,0:0:0:0:
320,192,125244,1,0,0:0:0:0:
192,192,125244,1,0,0:0:0:0:
192,192,125330,1,0,0:0:0:0:
448,192,125415,128,0,125501:0:0:0:0:
64,192,125415,1,0,0:0:0:0:
320,192,125501,1,0,0:0:0:0:
64,192,125587,128,0,125673:0:0:0:0:
192,192,125587,1,0,0:0:0:0:
448,192,125673,1,0,0:0:0:0:
448,192,125758,1,0,0:0:0:0:
320,192,125758,128,0,125844:0:0:0:0:
64,192,125844,1,0,0:0:0:0:
192,192,125844,1,0,0:0:0:0:
448,192,125930,128,0,126015:0:0:0:0:
320,192,125930,1,0,0:0:0:0:
64,192,126015,1,0,0:0:0:0:
192,192,126015,1,0,0:0:0:0:
64,192,126101,128,0,126273:0:0:0:0:
320,192,126101,128,0,126187:0:0:0:0:
448,192,126187,1,0,0:0:0:0:
192,192,126273,1,0,0:0:0:0:
320,192,126358,1,0,0:0:0:0:
448,192,126444,128,0,126615:0:0:0:0:
192,192,126444,128,0,126530:0:0:0:0:
320,192,126530,1,0,0:0:0:0:
64,192,126615,1,0,0:0:0:0:
192,192,126615,1,0,0:0:0:0:
448,192,126701,1,0,0:0:0:0:
320,192,126701,1,0,0:0:0:0:
192,192,126787,128,0,126958:0:0:0:0:
64,192,126787,1,0,0:0:0:0:
448,192,126873,1,0,0:0:0:0:
64,192,126958,128,0,127044:0:0:0:0:
320,192,126958,1,0,0:0:0:0:
448,192,127044,128,0,127215:0:0:0:0:
192,192,127044,1,0,0:0:0:0:
320,192,127130,1,0,0:0:0:0:
64,192,127215,1,0,0:0:0:0:
192,192,127215,128,0,127301:0:0:0:0:
320,192,127301,128,0,127473:0:0:0:0:
448,192,127301,1,0,0:0:0:0:
192,192,127387,1,0,0:0:0:0:
448,192,127473,1,0,0:0:0:0:
64,192,127473,1,0,0:0:0:0:
192,192,127558,1,0,0:0:0:0:
320,192,127601,1,0,0:0:0:0:
448,192,127644,1,0,0:0:0:0:
320,192,127701,1,0,0:0:0:0:
192,192,127758,1,0,0:0:0:0:
64,192,127815,1,0,0:0:0:0:
448,192,127815,1,0,0:0:0:0:
192,192,127901,1,0,0:0:0:0:
320,192,127901,1,0,0:0:0:0:
320,192,127987,1,0,0:0:0:0:
448,192,127987,1,0,0:0:0:0:
64,192,128073,1,0,0:0:0:0:
192,192,128073,1,0,0:0:0:0:
448,192,128158,128,0,128201:0:0:0:0:
64,192,128158,1,0,0:0:0:0:
448,192,128244,128,0,128287:0:0:0:0:
320,192,128255,128,0,128298:0:0:0:0:
448,192,128330,128,0,128415:0:0:0:0:
320,192,128340,128,0,128426:0:0:0:0:
192,192,128351,128,0,128437:0:0:0:0:
448,192,128501,128,0,128673:0:0:0:0:
320,192,128512,128,0,128683:0:0:0:0:
192,192,128523,128,0,128694:0:0:0:0:
64,192,128533,128,0,128705:0:0:0:0:
448,192,128844,1,0,0:0:0:0:
320,192,128844,128,0,128887:0:0:0:0:
448,192,128930,1,0,0:0:0:0:
64,192,128930,128,0,128973:0:0:0:0:
320,192,129015,128,0,129058:0:0:0:0:
192,192,129015,1,0,0:0:0:0:
192,192,129101,1,0,0:0:0:0:
64,192,129101,128,0,129144:0:0:0:0:
320,192,129187,128,0,129230:0:0:0:0:
448,192,129187,128,0,129230:0:0:0:0:
448,192,129273,128,0,129315:0:0:0:0:
320,192,129273,128,0,129315:0:0:0:0:
64,192,129358,128,0,129401:0:0:0:0:
192,192,129358,128,0,129401:0:0:0:0:
64,192,129444,128,0,129487:0:0:0:0:
192,192,129444,128,0,129487:0:0:0:0:
448,192,129530,128,0,129573:0:0:0:0:
320,192,129551,128,0,129594:0:0:0:0:
192,192,129573,128,0,129615:0:0:0:0:
64,192,129701,1,0,0:0:0:0:
448,192,129701,128,0,129744:0:0:0:0:
192,192,129787,1,0,0:0:0:0:
320,192,129787,128,0,129830:0:0:0:0:
192,192,129873,1,0,0:0:0:0:
64,192,129873,128,0,129915:0:0:0:0:
448,192,129958,1,0,0:0:0:0:
320,192,129958,128,0,130001:0:0:0:0:
64,192,130044,1,0,0:0:0:0:
448,192,130044,128,0,130087:0:0:0:0:
320,192,130130,1,0,0:0:0:0:
192,192,130130,128,0,130173:0:0:0:0:
448,192,130215,128,0,130301:0:0:0:0:
64,192,130215,128,0,130387:0:0:0:0:
192,192,130301,1,0,0:0:0:0:
448,192,130387,1,0,0:0:0:0:
320,192,130387,1,0,0:0:0:0:
64,192,130473,1,0,0:0:0:0:
192,192,130473,1,0,0:0:0:0:
192,192,130558,128,0,130644:0:0:0:0:
448,192,130558,128,0,130644:0:0:0:0:
64,192,130644,128,0,130730:0:0:0:0:
320,192,130730,128,0,130815:0:0:0:0:
192,192,130815,128,0,130901:0:0:0:0:
64,192,130901,1,0,0:0:0:0:
448,192,130901,1,0,0:0:0:0:
320,192,130987,1,0,0:0:0:0:
448,192,130987,1,0,0:0:0:0:
192,192,131073,1,0,0:0:0:0:
64,192,131073,1,0,0:0:0:0:
64,192,131158,1,0,0:0:0:0:
448,192,131158,1,0,0:0:0:0:
192,192,131244,1,0,0:0:0:0:
320,192,131244,1,0,0:0:0:0:
448,192,131330,1,0,0:0:0:0:
320,192,131330,1,0,0:0:0:0:
64,192,131415,1,0,0:0:0:0:
192,192,131415,1,0,0:0:0:0:
192,192,131501,1,0,0:0:0:0:
448,192,131501,1,0,0:0:0:0:
320,192,131587,1,0,0:0:0:0:
64,192,131587,1,0,0:0:0:0:
192,192,131673,128,0,131758:0:0:0:0:
448,192,131758,128,0,131930:0:0:0:0:
64,192,131758,128,0,131844:0:0:0:0:
320,192,131844,128,0,131930:0:0:0:0:
64,192,131930,1,0,0:0:0:0:
192,192,131930,1,0,0:0:0:0:
448,192,132015,1,0,0:0:0:0:
192,192,132101,128,0,132187:0:0:0:0:
320,192,132101,1,0,0:0:0:0:
64,192,132187,1,0,0:0:0:0:
448,192,132273,128,0,132401:0:0:0:0:
320,192,132273,1,0,0:0:0:0:
192,192,132358,1,0,0:0:0:0:
64,192,132358,1,0,0:0:0:0:
320,192,132401,128,0,132530:0:0:0:0:
192,192,132530,1,0,0:0:0:0:
448,192,132530,128,0,132701:0:0:0:0:
64,192,132615,1,0,0:0:0:0:
320,192,132615,1,0,0:0:0:0:
192,192,132701,128,0,132787:0:0:0:0:
64,192,132787,128,0,132873:0:0:0:0:
448,192,132787,1,0,0:0:0:0:
320,192,132873,128,0,132958:0:0:0:0:
192,192,132873,1,0,0:0:0:0:
64,192,132958,1,0,0:0:0:0:
448,192,132958,1,0,0:0:0:0:
192,192,133044,1,0,0:0:0:0:
320,192,133130,1,0,0:0:0:0:
64,192,133215,1,0,0:0:0:0:
320,192,133301,1,0,0:0:0:0:
448,192,133301,1,0,0:0:0:0:
192,192,133387,1,0,0:0:0:0:
64,192,133473,1,0,0:0:0:0:
448,192,133473,1,0,0:0:0:0:
320,192,133558,1,0,0:0:0:0:
192,192,133644,1,0,0:0:0:0:
64,192,133644,1,0,0:0:0:0:
192,192,133815,1,0,0:0:0:0:
448,192,133987,1,0,0:0:0:0:
320,192,133987,1,0,0:0:0:0:
64,192,134158,1,0,0:0:0:0:
448,192,134330,1,0,0:0:0:0:
64,192,134330,1,0,0:0:0:0:
192,192,134415,1,0,0:0:0:0:
320,192,134501,128,0,134673:0:0:0:0:
192,192,134587,1,0,0:0:0:0:
448,192,134673,1,0,0:0:0:0:
64,192,134673,1,0,0:0:0:0:
320,192,134758,1,0,0:0:0:0:
192,192,134844,128,0,135015:0:0:0:0:
320,192,134930,1,0,0:0:0:0:
64,192,135015,1,0,0:0:0:0:
448,192,135015,1,0,0:0:0:0:
320,192,135101,1,0,0:0:0:0:
192,192,135187,1,0,0:0:0:0:
64,192,135273,1,0,0:0:0:0:
320,192,135358,128,0,135401:0:0:0:0:
448,192,135358,128,0,135401:0:0:0:0:
320,192,135444,128,0,135487:0:0:0:0:
448,192,135444,128,0,135487:0:0:0:0:
64,192,135530,128,0,135573:0:0:0:0:
192,192,135530,128,0,135573:0:0:0:0:
64,192,135615,128,0,135658:0:0:0:0:
192,192,135615,128,0,135658:0:0:0:0:
448,192,135701,1,0,0:0:0:0:
320,192,135701,1,0,0:0:0:0:
64,192,135787,1,0,0:0:0:0:
448,192,135873,128,0,136044:0:0:0:0:
192,192,135873,1,0,0:0:0:0:
192,192,135958,128,0,136044:0:0:0:0:
64,192,136044,1,0,0:0:0:0:
320,192,136044,1,0,0:0:0:0:
192,192,136130,1,0,0:0:0:0:
448,192,136215,1,0,0:0:0:0:
64,192,136215,1,0,0:0:0:0:
320,192,136301,1,0,0:0:0:0:
192,192,136301,1,0,0:0:0:0:
448,192,136387,1,0,0:0:0:0:
64,192,136387,128,0,136473:0:0:0:0:
320,192,136473,1,0,0:0:0:0:
448,192,136473,1,0,0:0:0:0:
192,192,136558,128,0,136644:0:0:0:0:
448,192,136644,1,0,0:0:0:0:
320,192,136644,128,0,136730:0:0:0:0:
192,192,136730,1,0,0:0:0:0:
64,192,136730,128,0,136815:0:0:0:0:
448,192,136815,1,0,0:0:0:0:
192,192,136901,128,0,136987:0:0:0:0:
320,192,136901,1,0,0:0:0:0:
448,192,136987,128,0,137073:0:0:0:0:
64,192,136987,1,0,0:0:0:0:
320,192,137073,128,0,137244:0:0:0:0:
192,192,137073,128,0,137158:0:0:0:0:
448,192,137158,1,0,0:0:0:0:
64,192,137244,1,0,0:0:0:0:
192,192,137244,1,0,0:0:0:0:
64,192,137330,128,0,137501:0:0:0:0:
448,192,137330,128,0,137415:0:0:0:0:
192,192,137415,1,0,0:0:0:0:
448,192,137501,1,0,0:0:0:0:
320,192,137501,1,0,0:0:0:0:
192,192,137587,128,0,137758:0:0:0:0:
320,192,137587,128,0,137673:0:0:0:0:
64,192,137673,1,0,0:0:0:0:
448,192,137758,128,0,137930:0:0:0:0:
64,192,137758,128,0,137844:0:0:0:0:
320,192,137844,1,0,0:0:0:0:
192,192,137930,1,0,0:0:0:0:
64,192,137930,1,0,0:0:0:0:
320,192,138015,1,0,0:0:0:0:
64,192,138015,128,0,138187:0:0:0:0:
448,192,138101,1,0,0:0:0:0:
192,192,138101,128,0,138273:0:0:0:0:
320,192,138187,128,0,138358:0:0:0:0:
448,192,138273,128,0,138444:0:0:0:0:
64,192,138358,128,0,138444:0:0:0:0:
192,192,138444,1,0,0:0:0:0:
320,192,138444,1,0,0:0:0:0:
448,192,138530,1,0,0:0:0:0:
192,192,138615,1,0,0:0:0:0:
64,192,138615,1,0,0:0:0:0:
448,192,138701,1,0,0:0:0:0:
320,192,138701,1,0,0:0:0:0:
192,192,138787,1,0,0:0:0:0:
64,192,138787,1,0,0:0:0:0:
64,192,138873,1,0,0:0:0:0:
448,192,138873,1,0,0:0:0:0:
320,192,138958,1,0,0:0:0:0:
192,192,138958,1,0,0:0:0:0:
64,192,139044,1,0,0:0:0:0:
448,192,139044,1,0,0:0:0:0:
448,192,139130,1,0,0:0:0:0:
320,192,139130,1,0,0:0:0:0:
192,192,139215,1,0,0:0:0:0:
64,192,139215,1,0,0:0:0:0:
320,192,139301,1,0,0:0:0:0:
192,192,139301,1,0,0:0:0:0:
448,192,139387,1,0,0:0:0:0:
320,192,139387,1,0,0:0:0:0:
192,192,139473,1,0,0:0:0:0:
64,192,139473,1,0,0:0:0:0:
320,192,139558,1,0,0:0:0:0:
192,192,139558,1,0,0:0:0:0:
320,192,139644,1,0,0:0:0:0:
448,192,139644,1,0,0:0:0:0:
64,192,139730,1,0,0:0:0:0:
192,192,139730,1,0,0:0:0:0:
320,192,139815,1,0,0:0:0:0:
192,192,139815,1,0,0:0:0:0:
64,192,139901,1,0,0:0:0:0:
448,192,139987,1,0,0:0:0:0:
192,192,139987,1,0,0:0:0:0:
448,192,140073,1,0,0:0:0:0:
320,192,140073,1,0,0:0:0:0:
64,192,140158,1,0,0:0:0:0:
192,192,140158,1,0,0:0:0:0:
320,192,140244,1,0,0:0:0:0:
448,192,140244,1,0,0:0:0:0:
320,192,140330,1,0,0:0:0:0:
192,192,140330,1,0,0:0:0:0:
192,192,140415,1,0,0:0:0:0:
64,192,140415,1,0,0:0:0:0:
320,192,140501,1,0,0:0:0:0:
448,192,140501,128,0,140544:0:0:0:0:
192,192,140587,1,0,0:0:0:0:
320,192,140587,1,0,0:0:0:0:
64,192,140673,1,0,0:0:0:0:
192,192,140673,128,0,140758:0:0:0:0:
320,192,140758,1,0,0:0:0:0:
448,192,140758,1,0,0:0:0:0:
448,192,140844,1,0,0:0:0:0:
64,192,140844,128,0,141101:0:0:0:0:
192,192,140930,1,0,0:0:0:0:
448,192,141015,1,0,0:0:0:0:
320,192,141015,128,0,141101:0:0:0:0:
192,192,141101,1,0,0:0:0:0:
192,192,141187,128,0,141358:0:0:0:0:
448,192,141187,128,0,141273:0:0:0:0:
64,192,141273,1,0,0:0:0:0:
320,192,141358,1,0,0:0:0:0:
448,192,141358,1,0,0:0:0:0:
192,192,141444,1,0,0:0:0:0:
64,192,141444,1,0,0:0:0:0:
448,192,141530,128,0,141701:0:0:0:0:
320,192,141530,128,0,141615:0:0:0:0:
64,192,141615,1,0,0:0:0:0:
192,192,141701,1,0,0:0:0:0:
320,192,141701,1,0,0:0:0:0:
320,192,141787,1,0,0:0:0:0:
64,192,141873,128,0,141958:0:0:0:0:
448,192,141873,1,0,0:0:0:0:
192,192,141958,1,0,0:0:0:0:
448,192,142044,1,0,0:0:0:0:
320,192,142044,128,0,142130:0:0:0:0:
64,192,142130,1,0,0:0:0:0:
192,192,142130,1,0,0:0:0:0:
448,192,142215,128,0,142301:0:0:0:0:
64,192,142215,1,0,0:0:0:0:
320,192,142301,1,0,0:0:0:0:
64,192,142387,1,0,0:0:0:0:
192,192,142387,128,0,142473:0:0:0:0:
448,192,142473,1,0,0:0:0:0:
320,192,142473,1,0,0:0:0:0:
320,192,142558,128,0,142644:0:0:0:0:
448,192,142558,128,0,142730:0:0:0:0:
64,192,142558,1,0,0:0:0:0:
192,192,142644,1,0,0:0:0:0:
64,192,142730,1,0,0:0:0:0:
320,192,142730,1,0,0:0:0:0:
192,192,142815,1,0,0:0:0:0:
64,192,142901,128,0,143073:0:0:0:0:
320,192,142901,128,0,142987:0:0:0:0:
448,192,142901,1,0,0:0:0:0:
192,192,142987,1,0,0:0:0:0:
320,192,143073,128,0,143158:0:0:0:0:
448,192,143073,1,0,0:0:0:0:
192,192,143158,128,0,143244:0:0:0:0:
320,192,143244,128,0,143330:0:0:0:0:
448,192,143244,128,0,143415:0:0:0:0:
64,192,143244,1,0,0:0:0:0:
64,192,143330,128,8,143415:0:0:0:0:
320,192,143415,1,0,0:0:0:0:
192,192,143415,128,0,143501:0:0:0:0:
64,192,143501,128,0,143673:0:0:0:0:
448,192,143501,128,0,143587:0:0:0:0:
320,192,143587,128,0,143673:0:0:0:0:
192,192,143673,128,0,143758:0:0:0:0:
448,192,143673,128,0,143844:0:0:0:0:
64,192,143758,1,0,0:0:0:0:
320,192,143758,128,0,143844:0:0:0:0:
192,192,143844,128,0,143930:0:0:0:0:
64,192,143930,1,0,0:0:0:0:
448,192,143930,1,0,0:0:0:0:
320,192,144058,1,0,0:0:0:0:
192,192,144187,1,0,0:0:0:0:
320,192,144273,1,0,0:0:0:0:
448,192,144273,1,0,0:0:0:0:
64,192,144315,1,0,0:0:0:0:
448,192,144444,1,0,0:0:0:0:
192,192,144573,1,0,0:0:0:0:
320,192,144701,1,0,0:0:0:0:
192,192,144787,1,0,0:0:0:0:
448,192,144830,1,0,0:0:0:0:
64,192,144958,1,0,0:0:0:0:
320,192,144958,1,0,0:0:0:0:
320,192,145301,1,0,0:0:0:0:
192,192,145558,1,0,0:0:0:0:
64,192,145644,1,0,0:0:0:0:
448,192,145644,1,0,0:0:0:0:
320,192,145815,1,0,0:0:0:0:
192,192,146158,1,0,0:0:0:0:
320,192,146330,1,0,0:0:0:0:
448,192,146330,1,0,0:0:0:0:
64,192,146501,1,0,0:0:0:0:
448,192,146673,1,0,0:0:0:0:
320,192,146844,1,0,0:0:0:0:
448,192,146930,1,0,0:0:0:0:
320,192,147015,1,0,0:0:0:0:
64,192,147015,1,0,0:0:0:0:
192,192,147187,1,0,0:0:0:0:
448,192,147273,1,0,0:0:0:0:
192,192,147358,1,0,0:0:0:0:
64,192,147530,1,0,0:0:0:0:
320,192,147615,1,0,0:0:0:0:
64,192,147701,1,0,0:0:0:0:
192,192,147701,1,0,0:0:0:0:
448,192,147770,1,0,0:0:0:0:
320,192,147838,1,0,0:0:0:0:
192,192,147873,1,0,0:0:0:0:
448,192,147907,1,0,0:0:0:0:
320,192,147975,1,0,0:0:0:0:
448,192,148044,1,0,0:0:0:0:
64,192,148044,1,0,0:0:0:0:
320,192,148130,1,0,0:0:0:0:
448,192,148215,1,0,0:0:0:0:
320,192,148301,1,0,0:0:0:0:
64,192,148387,1,0,0:0:0:0:
192,192,148387,1,0,0:0:0:0:
448,192,148558,1,0,0:0:0:0:
192,192,148901,1,0,0:0:0:0:
448,192,149073,1,0,0:0:0:0:
64,192,149073,1,0,0:0:0:0:
320,192,149158,1,0,0:0:0:0:
192,192,149244,1,0,0:0:0:0:
448,192,149415,1,0,0:0:0:0:
320,192,149415,1,0,0:0:0:0:
64,192,149501,1,0,0:0:0:0:
192,192,149587,1,0,0:0:0:0:
448,192,149587,1,0,0:0:0:0:
192,192,149758,1,0,0:0:0:0:
448,192,149930,1,0,0:0:0:0:
64,192,150015,1,0,0:0:0:0:
320,192,150015,1,0,0:0:0:0:
192,192,150101,1,0,0:0:0:0:
448,192,150187,1,0,0:0:0:0:
192,192,150273,1,0,0:0:0:0:
64,192,150273,1,0,0:0:0:0:
320,192,150358,1,0,0:0:0:0:
448,192,150358,1,0,0:0:0:0:
64,192,150444,1,0,0:0:0:0:
320,192,150615,1,0,0:0:0:0:
448,192,150615,1,0,0:0:0:0:
64,192,150701,1,0,0:0:0:0:
192,192,150787,1,0,0:0:0:0:
448,192,150787,1,0,0:0:0:0:
320,192,150873,1,0,0:0:0:0:
192,192,150958,1,0,0:0:0:0:
448,192,150958,1,0,0:0:0:0:
64,192,151130,1,0,0:0:0:0:
320,192,151215,1,0,0:0:0:0:
448,192,151301,1,0,0:0:0:0:
64,192,151301,1,0,0:0:0:0:
320,192,151387,1,0,0:0:0:0:
192,192,151473,1,0,0:0:0:0:
64,192,151558,1,0,0:0:0:0:
448,192,151644,1,0,0:0:0:0:
320,192,151644,1,0,0:0:0:0:
320,192,151815,1,0,0:0:0:0:
192,192,151901,1,0,0:0:0:0:
64,192,151901,1,0,0:0:0:0:
448,192,151987,1,0,0:0:0:0:
320,192,151987,1,0,0:0:0:0:
192,192,152073,1,0,0:0:0:0:
64,192,152073,1,0,0:0:0:0:
320,192,152158,1,0,0:0:0:0:
448,192,152158,1,0,0:0:0:0:
64,192,152244,1,0,0:0:0:0:
192,192,152330,1,0,0:0:0:0:
448,192,152330,1,0,0:0:0:0:
64,192,152501,1,0,0:0:0:0:
320,192,152501,1,0,0:0:0:0:
64,192,152673,1,0,0:0:0:0:
192,192,152673,1,0,0:0:0:0:
64,192,152844,1,0,0:0:0:0:
192,192,152844,1,0,0:0:0:0:
448,192,152930,1,0,0:0:0:0:
320,192,153015,1,0,0:0:0:0:
64,192,153015,1,0,0:0:0:0:
192,192,153187,1,0,0:0:0:0:
448,192,153187,1,0,0:0:0:0:
320,192,153358,1,0,0:0:0:0:
448,192,153358,1,0,0:0:0:0:
192,192,153530,1,0,0:0:0:0:
64,192,153530,1,0,0:0:0:0:
320,192,153615,1,0,0:0:0:0:
448,192,153615,1,0,0:0:0:0:
64,192,153701,1,0,0:0:0:0:
192,192,153701,1,0,0:0:0:0:
448,192,153787,1,0,0:0:0:0:
192,192,153787,1,0,0:0:0:0:
64,192,153873,1,0,0:0:0:0:
320,192,153873,1,0,0:0:0:0:
320,192,153958,1,0,0:0:0:0:
448,192,153958,1,0,0:0:0:0:
64,192,154044,1,0,0:0:0:0:
192,192,154044,1,0,0:0:0:0:
448,192,154130,1,0,0:0:0:0:
320,192,154130,1,0,0:0:0:0:
448,192,154215,1,0,0:0:0:0:
64,192,154215,1,0,0:0:0:0:
192,192,154301,1,0,0:0:0:0:
320,192,154301,1,0,0:0:0:0:
192,192,154387,1,0,0:0:0:0:
64,192,154387,1,0,0:0:0:0:
320,192,154473,1,0,0:0:0:0:
448,192,154473,1,0,0:0:0:0:
192,192,154558,1,0,0:0:0:0:
64,192,154558,1,0,0:0:0:0:
448,192,154644,1,0,0:0:0:0:
64,192,154644,1,0,0:0:0:0:
320,192,154730,1,0,0:0:0:0:
192,192,154730,1,0,0:0:0:0:
448,192,154815,1,0,0:0:0:0:
320,192,154815,1,0,0:0:0:0:
192,192,154901,1,0,0:0:0:0:
64,192,154901,1,0,0:0:0:0:
320,192,154950,1,0,0:0:0:0:
448,192,154999,1,0,0:0:0:0:
64,192,155048,1,0,0:0:0:0:
320,192,155097,1,0,0:0:0:0:
192,192,155146,1,0,0:0:0:0:
64,192,155195,1,0,0:0:0:0:
448,192,155244,1,0,0:0:0:0:
320,192,155244,1,0,0:0:0:0:
192,192,155415,1,0,0:0:0:0:
64,192,155501,1,0,0:0:0:0:
448,192,155501,1,0,0:0:0:0:
448,192,155587,1,0,0:0:0:0:
320,192,155587,1,0,0:0:0:0:
192,192,155673,1,0,0:0:0:0:
64,192,155673,1,0,0:0:0:0:
64,192,155758,1,0,0:0:0:0:
448,192,155758,1,0,0:0:0:0:
192,192,155844,1,0,0:0:0:0:
320,192,155844,1,0,0:0:0:0:
64,192,155930,1,0,0:0:0:0:
448,192,155930,1,0,0:0:0:0:
320,192,155987,1,0,0:0:0:0:
192,192,156101,1,0,0:0:0:0:
320,192,156187,1,0,0:0:0:0:
192,192,156273,1,0,0:0:0:0:
64,192,156273,1,0,0:0:0:0:
448,192,156330,1,0,0:0:0:0:
320,192,156387,1,0,0:0:0:0:
448,192,156444,1,0,0:0:0:0:
64,192,156468,1,0,0:0:0:0:
192,192,156517,1,0,0:0:0:0:
320,192,156566,1,0,0:0:0:0:
448,192,156615,1,0,0:0:0:0:
64,192,156615,1,0,0:0:0:0:
320,192,156787,1,0,0:0:0:0:
448,192,156787,1,0,0:0:0:0:
192,192,156836,1,0,0:0:0:0:
64,192,156885,1,0,0:0:0:0:
320,192,156934,1,0,0:0:0:0:
192,192,156983,1,0,0:0:0:0:
448,192,157032,1,0,0:0:0:0:
320,192,157081,1,0,0:0:0:0:
64,192,157130,1,0,0:0:0:0:
448,192,157215,1,0,0:0:0:0:
192,192,157215,1,0,0:0:0:0:
192,192,157301,1,0,0:0:0:0:
64,192,157301,1,0,0:0:0:0:
320,192,157387,1,0,0:0:0:0:
448,192,157387,1,0,0:0:0:0:
64,192,157473,1,0,0:0:0:0:
448,192,157473,1,0,0:0:0:0:
320,192,157530,1,0,0:0:0:0:
192,192,157644,1,0,0:0:0:0:
64,192,157644,1,0,0:0:0:0:
448,192,157693,1,0,0:0:0:0:
320,192,157742,1,0,0:0:0:0:
192,192,157791,1,0,0:0:0:0:
448,192,157840,1,0,0:0:0:0:
64,192,157889,1,0,0:0:0:0:
192,192,157938,1,0,0:0:0:0:
320,192,157987,1,0,0:0:0:0:
448,192,157987,1,0,0:0:0:0:
64,192,158025,1,0,0:0:0:0:
448,192,158085,1,0,0:0:0:0:
320,192,158109,1,0,0:0:0:0:
192,192,158134,1,0,0:0:0:0:
64,192,158244,1,0,0:0:0:0:
448,192,158244,1,0,0:0:0:0:
320,192,158330,1,0,0:0:0:0:
192,192,158415,1,0,0:0:0:0:
64,192,158458,1,0,0:0:0:0:
320,192,158501,1,0,0:0:0:0:
448,192,158523,1,0,0:0:0:0:
192,192,158587,1,0,0:0:0:0:
448,192,158673,1,0,0:0:0:0:
64,192,158673,1,0,0:0:0:0:
192,192,158730,1,0,0:0:0:0:
320,192,158844,1,0,0:0:0:0:
192,192,158887,1,0,0:0:0:0:
64,192,158930,1,0,0:0:0:0:
320,192,159015,1,0,0:0:0:0:
448,192,159015,1,0,0:0:0:0:
192,192,159064,1,0,0:0:0:0:
64,192,159113,1,0,0:0:0:0:
448,192,159162,1,0,0:0:0:0:
192,192,159211,1,0,0:0:0:0:
320,192,159260,1,0,0:0:0:0:
448,192,159309,1,0,0:0:0:0:
64,192,159358,1,0,0:0:0:0:
192,192,159358,1,0,0:0:0:0:
320,192,159415,1,0,0:0:0:0:
64,192,159473,1,0,0:0:0:0:
448,192,159530,1,0,0:0:0:0:
320,192,159573,1,0,0:0:0:0:
64,192,159615,1,0,0:0:0:0:
192,192,159615,1,0,0:0:0:0:
448,192,159787,1,0,0:0:0:0:
192,192,159873,1,0,0:0:0:0:
448,192,159958,1,0,0:0:0:0:
320,192,159958,1,0,0:0:0:0:
64,192,160044,1,0,0:0:0:0:
192,192,160044,1,0,0:0:0:0:
64,192,160130,1,0,0:0:0:0:
448,192,160130,1,0,0:0:0:0:
320,192,160215,1,0,0:0:0:0:
192,192,160215,1,0,0:0:0:0:
448,192,160273,1,0,0:0:0:0:
192,192,160330,1,0,0:0:0:0:
448,192,160387,1,0,0:0:0:0:
64,192,160387,1,0,0:0:0:0:
320,192,160444,1,0,0:0:0:0:
64,192,160558,1,0,0:0:0:0:
192,192,160558,1,0,0:0:0:0:
192,192,160730,1,0,0:0:0:0:
448,192,160730,1,0,0:0:0:0:
64,192,160787,1,0,0:0:0:0:
320,192,160901,1,0,0:0:0:0:
64,192,160987,1,0,0:0:0:0:
320,192,160987,1,0,0:0:0:0:
192,192,161073,1,0,0:0:0:0:
448,192,161158,1,0,0:0:0:0:
320,192,161158,1,0,0:0:0:0:
448,192,161244,1,0,0:0:0:0:
64,192,161244,1,0,0:0:0:0:
192,192,161330,1,0,0:0:0:0:
64,192,161415,1,0,0:0:0:0:
320,192,161415,1,0,0:0:0:0:
448,192,161473,1,0,0:0:0:0:
192,192,161587,1,0,0:0:0:0:
64,192,161673,1,0,0:0:0:0:
320,192,161758,1,0,0:0:0:0:
448,192,161758,1,0,0:0:0:0:
192,192,161807,1,0,0:0:0:0:
448,192,161844,1,0,0:0:0:0:
64,192,161930,1,0,0:0:0:0:
320,192,161930,1,0,0:0:0:0:
192,192,162003,1,0,0:0:0:0:
448,192,162101,1,0,0:0:0:0:
64,192,162101,1,0,0:0:0:0:
192,192,162150,1,0,0:0:0:0:
320,192,162199,1,0,0:0:0:0:
448,192,162248,1,0,0:0:0:0:
192,192,162297,1,0,0:0:0:0:
64,192,162358,1,0,0:0:0:0:
448,192,162358,1,0,0:0:0:0:
320,192,162407,1,0,0:0:0:0:
192,192,162456,1,0,0:0:0:0:
320,192,162508,1,0,0:0:0:0:
64,192,162551,1,0,0:0:0:0:
192,192,162608,1,0,0:0:0:0:
320,192,162666,1,0,0:0:0:0:
448,192,162723,1,0,0:0:0:0:
64,192,162787,1,0,0:0:0:0:
192,192,162787,1,0,0:0:0:0:
64,192,162873,1,0,0:0:0:0:
448,192,162873,1,0,0:0:0:0:
448,192,162958,1,0,0:0:0:0:
320,192,162958,1,0,0:0:0:0:
192,192,163015,1,0,0:0:0:0:
448,192,163130,1,0,0:0:0:0:
192,192,163130,1,0,0:0:0:0:
320,192,163187,1,0,0:0:0:0:
64,192,163301,1,0,0:0:0:0:
192,192,163301,1,0,0:0:0:0:
448,192,163473,1,0,0:0:0:0:
320,192,163473,1,0,0:0:0:0:
192,192,163530,1,0,0:0:0:0:
64,192,163644,1,0,0:0:0:0:
320,192,163730,1,0,0:0:0:0:
64,192,163730,1,0,0:0:0:0:
448,192,163773,1,0,0:0:0:0:
192,192,163815,1,0,0:0:0:0:
64,192,163901,1,0,0:0:0:0:
320,192,163987,1,0,0:0:0:0:
64,192,164073,1,0,0:0:0:0:
320,192,164073,1,0,0:0:0:0:
192,192,164158,1,0,0:0:0:0:
448,192,164158,1,0,0:0:0:0:
64,192,164215,1,0,0:0:0:0:
320,192,164330,1,0,0:0:0:0:
448,192,164415,1,0,0:0:0:0:
64,192,164501,1,0,0:0:0:0:
192,192,164501,1,0,0:0:0:0:
448,192,164587,1,0,0:0:0:0:
64,192,164673,1,0,0:0:0:0:
192,192,164673,1,0,0:0:0:0:
448,192,164758,1,0,0:0:0:0:
64,192,164844,1,0,0:0:0:0:
320,192,164844,1,0,0:0:0:0:
64,192,164930,1,0,0:0:0:0:
192,192,164930,1,0,0:0:0:0:
448,192,165015,1,0,0:0:0:0:
320,192,165015,1,0,0:0:0:0:
192,192,165101,1,0,0:0:0:0:
64,192,165101,1,0,0:0:0:0:
192,192,165187,1,0,0:0:0:0:
448,192,165187,1,0,0:0:0:0:
320,192,165273,1,0,0:0:0:0:
64,192,165273,1,0,0:0:0:0:
320,192,165358,1,0,0:0:0:0:
448,192,165358,1,0,0:0:0:0:
192,192,165444,1,0,0:0:0:0:
64,192,165444,1,0,0:0:0:0:
192,192,165530,1,0,0:0:0:0:
320,192,165530,1,0,0:0:0:0:
448,192,165615,1,0,0:0:0:0:
64,192,165615,1,0,0:0:0:0:
320,192,165701,1,0,0:0:0:0:
448,192,165701,1,0,0:0:0:0:
64,192,165787,1,0,0:0:0:0:
192,192,165787,1,0,0:0:0:0:
320,192,165873,1,0,0:0:0:0:
64,192,165873,1,0,0:0:0:0:
448,192,165921,1,0,0:0:0:0:
192,192,165970,1,0,0:0:0:0:
320,192,166019,1,0,0:0:0:0:
448,192,166068,1,0,0:0:0:0:
192,192,166117,1,0,0:0:0:0:
64,192,166166,1,0,0:0:0:0:
448,192,166215,1,0,0:0:0:0:
320,192,166215,1,0,0:0:0:0:
192,192,166387,1,0,0:0:0:0:
448,192,166473,1,0,0:0:0:0:
64,192,166558,1,0,0:0:0:0:
192,192,166558,1,0,0:0:0:0:
320,192,166644,1,0,0:0:0:0:
448,192,166644,1,0,0:0:0:0:
64,192,166730,1,0,0:0:0:0:
448,192,166730,1,0,0:0:0:0:
192,192,166815,1,0,0:0:0:0:
320,192,166815,1,0,0:0:0:0:
64,192,166901,1,0,0:0:0:0:
448,192,166901,1,0,0:0:0:0:
192,192,166958,1,0,0:0:0:0:
320,192,167073,1,0,0:0:0:0:
192,192,167158,1,0,0:0:0:0:
320,192,167244,1,0,0:0:0:0:
448,192,167244,1,0,0:0:0:0:
64,192,167301,1,0,0:0:0:0:
192,192,167358,1,0,0:0:0:0:
64,192,167415,1,0,0:0:0:0:
448,192,167440,1,0,0:0:0:0:
320,192,167489,1,0,0:0:0:0:
192,192,167538,1,0,0:0:0:0:
64,192,167587,1,0,0:0:0:0:
448,192,167587,1,0,0:0:0:0:
192,192,167758,1,0,0:0:0:0:
64,192,167758,1,0,0:0:0:0:
320,192,167807,1,0,0:0:0:0:
448,192,167856,1,0,0:0:0:0:
192,192,167905,1,0,0:0:0:0:
320,192,167954,1,0,0:0:0:0:
64,192,168003,1,0,0:0:0:0:
192,192,168052,1,0,0:0:0:0:
448,192,168101,1,0,0:0:0:0:
320,192,168158,1,0,0:0:0:0:
192,192,168215,1,0,0:0:0:0:
64,192,168273,1,0,0:0:0:0:
448,192,168273,1,0,0:0:0:0:
192,192,168358,1,0,0:0:0:0:
320,192,168358,1,0,0:0:0:0:
192,192,168444,1,0,0:0:0:0:
64,192,168444,1,0,0:0:0:0:
320,192,168501,1,0,0:0:0:0:
448,192,168615,1,0,0:0:0:0:
64,192,168615,1,0,0:0:0:0:
320,192,168664,1,0,0:0:0:0:
192,192,168713,1,0,0:0:0:0:
448,192,168762,1,0,0:0:0:0:
64,192,168811,1,0,0:0:0:0:
192,192,168860,1,0,0:0:0:0:
320,192,168909,1,0,0:0:0:0:
64,192,168958,1,0,0:0:0:0:
448,192,168958,1,0,0:0:0:0:
192,192,169130,1,0,0:0:0:0:
448,192,169215,1,0,0:0:0:0:
320,192,169215,1,0,0:0:0:0:
64,192,169301,1,0,0:0:0:0:
320,192,169301,1,0,0:0:0:0:
192,192,169358,1,0,0:0:0:0:
320,192,169473,1,0,0:0:0:0:
448,192,169473,1,0,0:0:0:0:
64,192,169558,1,0,0:0:0:0:
192,192,169558,1,0,0:0:0:0:
192,192,169644,1,0,0:0:0:0:
320,192,169644,1,0,0:0:0:0:
448,192,169693,1,0,0:0:0:0:
64,192,169742,1,0,0:0:0:0:
320,192,169815,1,0,0:0:0:0:
448,192,169901,1,0,0:0:0:0:
320,192,169987,1,0,0:0:0:0:
192,192,170044,1,0,0:0:0:0:
64,192,170101,1,0,0:0:0:0:
320,192,170134,1,0,0:0:0:0:
192,192,170183,1,0,0:0:0:0:
448,192,170215,1,0,0:0:0:0:
64,192,170273,1,0,0:0:0:0:
192,192,170330,1,0,0:0:0:0:
320,192,170373,1,0,0:0:0:0:
448,192,170415,1,0,0:0:0:0:
64,192,170458,1,0,0:0:0:0:
448,192,170523,1,0,0:0:0:0:
320,192,170565,1,0,0:0:0:0:
192,192,170630,1,0,0:0:0:0:
448,192,170673,1,0,0:0:0:0:
320,192,170730,1,0,0:0:0:0:
64,192,170787,1,0,0:0:0:0:
448,192,170801,1,0,0:0:0:0:
192,192,170844,1,0,0:0:0:0:
320,192,170901,1,0,0:0:0:0:
448,192,170958,1,0,0:0:0:0:
320,192,171015,1,0,0:0:0:0:
192,192,171073,1,0,0:0:0:0:
64,192,171130,1,0,0:0:0:0:
192,192,171187,1,0,0:0:0:0:
448,192,171244,1,0,0:0:0:0:
320,192,171244,1,0,0:0:0:0:
448,192,171358,1,0,0:0:0:0:
64,192,171358,1,0,0:0:0:0:
320,192,171415,1,0,0:0:0:0:
64,192,171530,1,0,0:0:0:0:
192,192,171530,1,0,0:0:0:0:
320,192,171701,1,0,0:0:0:0:
448,192,171701,1,0,0:0:0:0:
192,192,171758,1,0,0:0:0:0:
448,192,171873,1,0,0:0:0:0:
64,192,171958,1,0,0:0:0:0:
448,192,171958,1,0,0:0:0:0:
320,192,172044,1,0,0:0:0:0:
192,192,172130,1,0,0:0:0:0:
64,192,172130,1,0,0:0:0:0:
448,192,172215,1,0,0:0:0:0:
64,192,172215,1,0,0:0:0:0:
320,192,172301,1,0,0:0:0:0:
448,192,172387,1,0,0:0:0:0:
192,192,172387,1,0,0:0:0:0:
192,192,172558,1,0,0:0:0:0:
64,192,172644,1,0,0:0:0:0:
320,192,172730,1,0,0:0:0:0:
448,192,172730,1,0,0:0:0:0:
192,192,172779,1,0,0:0:0:0:
448,192,172828,1,0,0:0:0:0:
64,192,172901,1,0,0:0:0:0:
320,192,172901,1,0,0:0:0:0:
192,192,172975,1,0,0:0:0:0:
448,192,173073,1,0,0:0:0:0:
64,192,173073,1,0,0:0:0:0:
320,192,173244,1,0,0:0:0:0:
320,192,173330,1,0,0:0:0:0:
448,192,173330,1,0,0:0:0:0:
64,192,173415,1,0,0:0:0:0:
192,192,173501,1,0,0:0:0:0:
64,192,173587,1,0,0:0:0:0:
192,192,173587,1,0,0:0:0:0:
320,192,173673,1,0,0:0:0:0:
448,192,173758,1,0,0:0:0:0:
64,192,173758,1,0,0:0:0:0:
320,192,173844,1,0,0:0:0:0:
192,192,173844,1,0,0:0:0:0:
320,192,173930,1,0,0:0:0:0:
448,192,173930,1,0,0:0:0:0:
64,192,173973,1,0,0:0:0:0:
192,192,174025,1,0,0:0:0:0:
448,192,174101,1,0,0:0:0:0:
64,192,174101,1,0,0:0:0:0:
320,192,174158,1,0,0:0:0:0:
64,192,174273,1,0,0:0:0:0:
192,192,174273,1,0,0:0:0:0:
448,192,174444,1,0,0:0:0:0:
320,192,174444,1,0,0:0:0:0:
320,192,174615,1,0,0:0:0:0:
64,192,174701,1,0,0:0:0:0:
320,192,174701,1,0,0:0:0:0:
448,192,174787,1,0,0:0:0:0:
192,192,174873,1,0,0:0:0:0:
448,192,174958,1,0,0:0:0:0:
320,192,174958,1,0,0:0:0:0:
64,192,175044,1,0,0:0:0:0:
64,192,175130,1,0,0:0:0:0:
448,192,175130,1,0,0:0:0:0:
320,192,175187,1,0,0:0:0:0:
192,192,175301,1,0,0:0:0:0:
448,192,175387,1,0,0:0:0:0:
64,192,175473,1,0,0:0:0:0:
320,192,175473,1,0,0:0:0:0:
448,192,175530,1,0,0:0:0:0:
64,192,175644,1,0,0:0:0:0:
192,192,175644,1,0,0:0:0:0:
192,192,175815,1,0,0:0:0:0:
320,192,175815,1,0,0:0:0:0:
64,192,175873,1,0,0:0:0:0:
448,192,175930,1,0,0:0:0:0:
320,192,175987,1,0,0:0:0:0:
192,192,176073,1,0,0:0:0:0:
320,192,176073,1,0,0:0:0:0:
448,192,176158,1,0,0:0:0:0:
64,192,176215,1,0,0:0:0:0:
192,192,176256,1,0,0:0:0:0:
320,192,176330,1,0,0:0:0:0:
448,192,176330,1,0,0:0:0:0:
192,192,176415,1,0,0:0:0:0:
448,192,176415,1,0,0:0:0:0:
64,192,176501,1,0,0:0:0:0:
320,192,176587,1,0,0:0:0:0:
448,192,176587,1,0,0:0:0:0:
320,192,176673,1,0,0:0:0:0:
448,192,176673,1,0,0:0:0:0:
64,192,176844,5,0,0:0:0:0:
192,192,176844,1,0,0:0:0:0:
448,192,177530,1,0,0:0:0:0:
320,192,178215,1,0,0:0:0:0:
64,192,179244,1,0,0:0:0:0:
192,192,179330,1,0,0:0:0:0:
64,192,179415,1,0,0:0:0:0:
192,192,179501,1,0,0:0:0:0:
320,192,179587,1,0,0:0:0:0:
192,192,180958,1,0,0:0:0:0:
448,192,181301,1,0,0:0:0:0:
320,192,181358,1,0,0:0:0:0:
192,192,181415,1,0,0:0:0:0:
448,192,181473,1,0,0:0:0:0:
320,192,181530,1,0,0:0:0:0:
64,192,181587,1,0,0:0:0:0:
192,192,181644,1,0,0:0:0:0:
320,192,181701,1,0,0:0:0:0:
448,192,181758,1,0,0:0:0:0:
320,192,181815,1,0,0:0:0:0:
192,192,181873,1,0,0:0:0:0:
64,192,181930,1,0,0:0:0:0:
448,192,181987,1,0,0:0:0:0:
320,192,182044,1,0,0:0:0:0:
64,192,182101,1,0,0:0:0:0:
192,192,182158,1,0,0:0:0:0:
320,192,182215,1,0,0:0:0:0:
448,192,182273,1,0,0:0:0:0:
64,192,182330,1,0,0:0:0:0:
192,192,182330,1,0,0:0:0:0:
448,192,183015,128,0,183101:0:0:0:0:
64,192,183701,1,0,0:0:0:0:
448,192,184387,128,0,184473:0:0:0:0:
64,192,185073,1,0,0:0:0:0:
448,192,185847,128,0,185943:0:0:0:0:
64,192,186621,1,0,0:0:0:0:
448,192,187448,128,0,187552:0:0:0:0:
64,192,188276,1,0,0:0:0:0:
448,192,189133,1,0,0:0:0:0:
448,192,189240,1,0,0:0:0:0:
448,192,189347,1,0,0:0:0:0:
448,192,189454,1,0,0:0:0:0:
64,192,189990,1,0,0:0:0:0:
448,192,190847,128,0,190954:0:0:0:0:
64,192,191704,1,0,0:0:0:0:
448,192,192664,128,0,192784:0:0:0:0:
64,192,193624,1,0,0:0:0:0:
448,192,194584,128,0,194704:0:0:0:0:
64,192,195544,1,0,0:0:0:0:
192,192,195544,1,0,0:0:0:0:
320,192,199544,128,0,199794:0:0:0:0:
64,192,203544,128,0,203669:0:0:0:0:
448,192,203544,128,0,203669:0:0:0:0:
192,192,203669,128,0,203794:0:0:0:0:
448,192,203794,128,0,203919:0:0:0:0:
64,192,203919,128,0,203981:0:0:0:0:
320,192,204044,128,0,204169:0:0:0:0:
192,192,204169,128,0,204231:0:0:0:0:
320,192,204294,128,0,204419:0:0:0:0:
64,192,204419,128,0,204481:0:0:0:0:
320,192,204544,128,0,204606:0:0:0:0:
448,192,204606,128,0,204669:0:0:0:0:
192,192,204669,128,0,204731:0:0:0:0:
64,192,204794,128,0,204919:0:0:0:0:
320,192,205044,128,0,205231:0:0:0:0:
192,192,205294,128,0,205419:0:0:0:0:
448,192,205544,128,0,205669:0:0:0:0:
192,192,205669,128,0,205731:0:0:0:0:
320,192,205731,128,0,205794:0:0:0:0:
448,192,205794,128,0,205919:0:0:0:0:
64,192,205919,128,0,206044:0:0:0:0:
320,192,206044,128,0,206169:0:0:0:0:
192,192,206169,128,0,206294:0:0:0:0:
320,192,206294,128,0,206419:0:0:0:0:
64,192,206419,128,0,206544:0:0:0:0:
192,192,206544,128,0,206669:0:0:0:0:
448,192,206669,128,0,206794:0:0:0:0:
320,192,206794,128,0,206919:0:0:0:0:
448,192,206919,128,0,207044:0:0:0:0:
192,192,207044,128,0,207106:0:0:0:0:
320,192,207106,128,0,207169:0:0:0:0:
64,192,207169,128,0,207231:0:0:0:0:
448,192,207294,128,0,207419:0:0:0:0:
320,192,207544,128,0,207731:0:0:0:0:
64,192,207669,128,0,207794:0:0:0:0:
320,192,207794,128,0,207981:0:0:0:0:
192,192,207919,128,0,208044:0:0:0:0:
448,192,208044,128,0,208231:0:0:0:0:
320,192,208169,128,0,208294:0:0:0:0:
64,192,208294,128,0,208481:0:0:0:0:
448,192,208419,128,0,208544:0:0:0:0:
192,192,208544,128,0,208794:0:0:0:0:
320,192,208669,128,0,208919:0:0:0:0:
448,192,208794,128,0,208919:0:0:0:0:
192,192,208919,128,0,209106:0:0:0:0:
64,192,209044,128,0,209169:0:0:0:0:
320,192,209169,128,0,209231:0:0:0:0:
448,192,209231,128,0,209294:0:0:0:0:
192,192,209294,128,0,209544:0:0:0:0:
64,192,209419,128,0,209544:0:0:0:0:
448,192,209544,128,0,209731:0:0:0:0:
64,192,209669,128,0,209919:0:0:0:0:
448,192,209794,128,0,210044:0:0:0:0:
192,192,209919,128,0,210169:0:0:0:0:
320,192,210044,128,0,210169:0:0:0:0:
64,192,210169,128,0,210419:0:0:0:0:
320,192,210294,128,0,210419:0:0:0:0:
192,192,210419,128,0,210669:0:0:0:0:
320,192,210544,128,0,210919:0:0:0:0:
448,192,210669,128,0,210919:0:0:0:0:
192,192,210794,128,0,211169:0:0:0:0:
64,192,210919,128,0,211169:0:0:0:0:
320,192,211044,128,0,211169:0:0:0:0:
448,192,211169,128,0,211419:0:0:0:0:
320,192,211294,128,0,211544:0:0:0:0:
192,192,211419,128,0,211544:0:0:0:0:
448,192,211544,128,0,211731:0:0:0:0:
64,192,211669,128,0,211919:0:0:0:0:
192,192,211731,128,0,211919:0:0:0:0:
448,192,211794,128,0,212106:0:0:0:0:
320,192,211919,128,0,212169:0:0:0:0:
64,192,212044,128,0,212294:0:0:0:0:
448,192,212169,128,0,212669:0:0:0:0:
192,192,212294,128,0,212419:0:0:0:0:
64,192,212356,128,0,212544:0:0:0:0:
320,192,212419,128,0,212669:0:0:0:0:
192,192,212544,128,0,212794:0:0:0:0:
64,192,212669,128,0,212981:0:0:0:0:
448,192,212794,128,0,212919:0:0:0:0:
320,192,212856,128,0,212981:0:0:0:0:
192,192,212919,128,0,213044:0:0:0:0:
448,192,212981,128,0,213294:0:0:0:0:
320,192,213044,128,0,213294:0:0:0:0:
192,192,213169,128,0,213419:0:0:0:0:
64,192,213294,128,0,213544:0:0:0:0:
320,192,213356,128,0,213481:0:0:0:0:
448,192,213419,128,0,214106:0:0:0:0:
192,192,213481,128,0,213856:0:0:0:0:
320,192,213544,128,0,213731:0:0:0:0:
64,192,213669,128,0,213981:0:0:0:0:
320,192,213794,128,0,214356:0:0:0:0:
192,192,213919,128,0,214481:0:0:0:0:
64,192,214044,128,0,214231:0:0:0:0:
448,192,214169,128,0,215044:0:0:0:0:
64,192,214294,128,0,214606:0:0:0:0:
320,192,214419,128,0,214731:0:0:0:0:
192,192,214544,128,0,214856:0:0:0:0:
64,192,214669,128,0,215106:0:0:0:0:
320,192,214794,128,0,214981:0:0:0:0:
192,192,214919,128,0,215606:0:0:0:0:
320,192,215044,128,0,215356:0:0:0:0:
448,192,215106,128,0,215231:0:0:0:0:
64,192,215169,128,0,215481:0:0:0:0:
448,192,215294,128,0,215856:0:0:0:0:
320,192,215419,128,0,215731:0:0:0:0:
64,192,215544,128,0,215606:0:0:0:0:
192,192,215669,128,0,215731:0:0:0:0:
320,192,215794,128,0,215856:0:0:0:0:
448,192,215919,128,0,215981:0:0:0:0:
448,192,216294,1,0,0:0:0:0:
192,192,216544,128,0,216606:0:0:0:0:
448,192,216669,1,0,0:0:0:0:
448,192,217044,1,0,0:0:0:0:
320,192,217044,128,0,217106:0:0:0:0:
448,192,217419,1,0,0:0:0:0:
64,192,217544,128,0,217669:0:0:0:0:
192,192,217669,1,0,0:0:0:0:
320,192,217919,128,0,217981:0:0:0:0:
448,192,218044,1,0,0:0:0:0:
64,192,218544,1,0,0:0:0:0:
320,192,218669,1,0,0:0:0:0:
192,192,218919,1,0,0:0:0:0:
448,192,219044,1,0,0:0:0:0:
320,192,219294,128,0,219544:0:0:0:0:
64,192,219544,1,0,0:0:0:0:
448,192,219544,1,0,0:0:0:0:
192,192,219669,1,0,0:0:0:0:
192,192,219794,1,0,0:0:0:0:
448,192,219794,1,0,0:0:0:0:
320,192,219919,1,0,0:0:0:0:
320,192,220044,1,0,0:0:0:0:
192,192,220044,1,0,0:0:0:0:
64,192,220169,1,0,0:0:0:0:
64,192,220294,1,0,0:0:0:0:
320,192,220294,1,0,0:0:0:0:
448,192,220419,1,0,0:0:0:0:
64,192,220544,1,0,0:0:0:0:
448,192,220544,1,0,0:0:0:0:
192,192,220669,1,0,0:0:0:0:
192,192,220794,1,0,0:0:0:0:
448,192,220794,1,0,0:0:0:0:
320,192,220919,1,0,0:0:0:0:
320,192,221044,1,0,0:0:0:0:
192,192,221044,1,0,0:0:0:0:
64,192,221169,1,0,0:0:0:0:
448,192,221294,1,0,0:0:0:0:
64,192,221294,1,0,0:0:0:0:
192,192,221419,1,0,0:0:0:0:
448,192,221419,1,0,0:0:0:0:
448,192,221544,1,0,0:0:0:0:
320,192,221544,1,0,0:0:0:0:
64,192,221669,1,0,0:0:0:0:
64,192,221794,1,0,0:0:0:0:
320,192,221794,1,0,0:0:0:0:
448,192,221919,1,0,0:0:0:0:
64,192,222044,1,0,0:0:0:0:
448,192,222044,1,0,0:0:0:0:
192,192,222169,1,0,0:0:0:0:
192,192,222294,1,0,0:0:0:0:
448,192,222294,1,0,0:0:0:0:
320,192,222419,1,0,0:0:0:0:
192,192,222544,1,0,0:0:0:0:
320,192,222544,1,0,0:0:0:0:
64,192,222669,1,0,0:0:0:0:
64,192,222794,1,0,0:0:0:0:
320,192,222794,1,0,0:0:0:0:
448,192,222919,1,0,0:0:0:0:
448,192,223044,1,0,0:0:0:0:
192,192,223044,1,0,0:0:0:0:
192,192,223169,1,0,0:0:0:0:
320,192,223294,128,0,223356:0:0:0:0:
448,192,223309,1,0,0:0:0:0:
192,192,223356,128,0,223419:0:0:0:0:
64,192,223372,1,0,0:0:0:0:
320,192,223419,128,0,223481:0:0:0:0:
448,192,223434,1,0,0:0:0:0:
192,192,223481,128,0,223544:0:0:0:0:
64,192,223497,1,0,0:0:0:0:
448,192,223544,1,0,0:0:0:0:
320,192,223544,128,0,223606:0:0:0:0:
448,192,223669,128,0,223731:0:0:0:0:
64,192,223794,1,0,0:0:0:0:
320,192,223794,128,0,223856:0:0:0:0:
64,192,223919,128,0,223981:0:0:0:0:
320,192,224044,1,0,0:0:0:0:
192,192,224044,128,0,224106:0:0:0:0:
320,192,224169,128,0,224231:0:0:0:0:
192,192,224294,1,0,0:0:0:0:
448,192,224294,128,0,224356:0:0:0:0:
192,192,224419,128,0,224481:0:0:0:0:
320,192,224544,1,0,0:0:0:0:
64,192,224544,128,0,224669:0:0:0:0:
320,192,224669,128,0,224731:0:0:0:0:
64,192,224794,1,0,0:0:0:0:
448,192,224794,128,0,224919:0:0:0:0:
64,192,224919,128,0,224981:0:0:0:0:
448,192,225044,1,0,0:0:0:0:
192,192,225044,128,0,225231:0:0:0:0:
448,192,225169,128,0,225231:0:0:0:0:
320,192,225231,128,0,225294:0:0:0:0:
64,192,225294,1,0,0:0:0:0:
192,192,225294,128,0,225481:0:0:0:0:
64,192,225419,1,0,0:0:0:0:
320,192,225419,128,0,225481:0:0:0:0:
64,192,225544,128,0,225669:0:0:0:0:
448,192,225544,128,0,225606:0:0:0:0:
320,192,225669,128,0,225731:0:0:0:0:
448,192,225669,128,0,225731:0:0:0:0:
64,192,225794,128,0,225919:0:0:0:0:
192,192,225794,128,0,225856:0:0:0:0:
448,192,225919,128,0,225981:0:0:0:0:
192,192,225919,128,0,225981:0:0:0:0:
64,192,226044,128,0,226169:0:0:0:0:
320,192,226044,128,0,226106:0:0:0:0:
192,192,226169,128,0,226231:0:0:0:0:
320,192,226169,128,0,226231:0:0:0:0:
448,192,226294,128,0,226419:0:0:0:0:
64,192,226294,128,0,226356:0:0:0:0:
192,192,226419,128,0,226481:0:0:0:0:
64,192,226419,128,0,226481:0:0:0:0:
448,192,226544,128,0,226731:0:0:0:0:
320,192,226544,128,0,226606:0:0:0:0:
320,192,226669,128,0,226731:0:0:0:0:
64,192,226669,128,0,226731:0:0:0:0:
448,192,226794,128,0,226981:0:0:0:0:
192,192,226794,128,0,226856:0:0:0:0:
192,192,226919,128,0,226981:0:0:0:0:
320,192,226919,128,0,226981:0:0:0:0:
64,192,227044,128,0,227231:0:0:0:0:
448,192,227044,128,0,227106:0:0:0:0:
192,192,227169,128,0,227231:0:0:0:0:
448,192,227169,128,0,227231:0:0:0:0:
320,192,227294,128,0,227356:0:0:0:0:
448,192,227309,128,0,227372:0:0:0:0:
192,192,227419,1,0,0:0:0:0:
320,192,227481,1,0,0:0:0:0:
64,192,227544,1,0,0:0:0:0:
192,192,227544,1,0,0:0:0:0:
448,192,227544,1,0,0:0:0:0:
192,192,227669,1,0,0:0:0:0:
320,192,227669,1,0,0:0:0:0:
448,192,227669,1,0,0:0:0:0:
64,192,227794,1,0,0:0:0:0:
192,192,227794,1,0,0:0:0:0:
320,192,227794,1,0,0:0:0:0:
64,192,227919,1,0,0:0:0:0:
448,192,227919,1,0,0:0:0:0:
320,192,227919,1,0,0:0:0:0:
192,192,228044,1,0,0:0:0:0:
320,192,228044,1,0,0:0:0:0:
448,192,228044,1,0,0:0:0:0:
64,192,228169,1,0,0:0:0:0:
192,192,228169,1,0,0:0:0:0:
448,192,228169,1,0,0:0:0:0:
64,192,228294,1,0,0:0:0:0:
192,192,228294,1,0,0:0:0:0:
320,192,228294,1,0,0:0:0:0:
64,192,228419,1,0,0:0:0:0:
320,192,228419,1,0,0:0:0:0:
448,192,228419,1,0,0:0:0:0:
192,192,228544,1,0,0:0:0:0:
64,192,228544,1,0,0:0:0:0:
448,192,228544,1,0,0:0:0:0:
320,192,228669,1,0,0:0:0:0:
64,192,228669,1,0,0:0:0:0:
448,192,228669,1,0,0:0:0:0:
320,192,228794,1,0,0:0:0:0:
192,192,228794,1,0,0:0:0:0:
448,192,228794,1,0,0:0:0:0:
64,192,228919,1,0,0:0:0:0:
320,192,228919,1,0,0:0:0:0:
192,192,228919,1,0,0:0:0:0:
448,192,229044,1,0,0:0:0:0:
64,192,229044,1,0,0:0:0:0:
320,192,229044,1,0,0:0:0:0:
64,192,229169,1,0,0:0:0:0:
192,192,229169,1,0,0:0:0:0:
448,192,229169,1,0,0:0:0:0:
320,192,229294,1,0,0:0:0:0:
192,192,229356,1,0,0:0:0:0:
320,192,229419,1,0,0:0:0:0:
192,192,229481,1,0,0:0:0:0:
64,192,229544,128,0,229585:0:0:0:0:
320,192,229544,128,0,229585:0:0:0:0:
448,192,229544,128,0,229585:0:0:0:0:
192,192,229669,128,0,229710:0:0:0:0:
64,192,229669,128,0,229710:0:0:0:0:
320,192,229669,128,0,229710:0:0:0:0:
192,192,229794,128,0,229835:0:0:0:0:
320,192,229794,128,0,229835:0:0:0:0:
448,192,229794,128,0,229835:0:0:0:0:
64,192,229919,128,0,229960:0:0:0:0:
192,192,229919,128,0,229960:0:0:0:0:
448,192,229919,128,0,229960:0:0:0:0:
320,192,230044,128,0,230085:0:0:0:0:
448,192,230044,128,0,230085:0:0:0:0:
64,192,230044,128,0,230085:0:0:0:0:
192,192,230169,128,0,230210:0:0:0:0:
448,192,230169,128,0,230210:0:0:0:0:
64,192,230169,128,0,230210:0:0:0:0:
192,192,230294,128,0,230335:0:0:0:0:
320,192,230294,128,0,230335:0:0:0:0:
448,192,230294,128,0,230335:0:0:0:0:
192,192,230419,128,0,230460:0:0:0:0:
64,192,230419,128,0,230460:0:0:0:0:
320,192,230419,128,0,230460:0:0:0:0:
320,192,230544,128,0,230585:0:0:0:0:
448,192,230544,128,0,230585:0:0:0:0:
64,192,230544,128,0,230585:0:0:0:0:
192,192,230669,128,0,230710:0:0:0:0:
448,192,230669,128,0,230710:0:0:0:0:
64,192,230669,128,0,230710:0:0:0:0:
320,192,230794,128,0,230835:0:0:0:0:
192,192,230794,128,0,230835:0:0:0:0:
64,192,230794,128,0,230835:0:0:0:0:
192,192,230919,128,0,230960:0:0:0:0:
320,192,230919,128,0,230960:0:0:0:0:
448,192,230919,128,0,230960:0:0:0:0:
64,192,231044,128,0,231085:0:0:0:0:
320,192,231044,128,0,231085:0:0:0:0:
448,192,231044,128,0,231085:0:0:0:0:
192,192,231169,128,0,231210:0:0:0:0:
448,192,231169,128,0,231210:0:0:0:0:
64,192,231169,128,0,231210:0:0:0:0:
320,192,231294,128,0,231335:0:0:0:0:
448,192,231314,128,0,231356:0:0:0:0:
192,192,231356,128,0,231398:0:0:0:0:
320,192,231419,128,0,231460:0:0:0:0:
64,192,231481,128,0,231523:0:0:0:0:
320,192,231544,1,0,0:0:0:0:
448,192,231544,1,0,0:0:0:0:
64,192,231606,1,0,0:0:0:0:
192,192,231606,1,0,0:0:0:0:
320,192,231669,1,0,0:0:0:0:
448,192,231669,1,0,0:0:0:0:
192,192,231731,1,0,0:0:0:0:
64,192,231731,1,0,0:0:0:0:
320,192,231794,1,0,0:0:0:0:
448,192,231794,1,0,0:0:0:0:
64,192,231856,1,0,0:0:0:0:
192,192,231856,1,0,0:0:0:0:
320,192,231919,1,0,0:0:0:0:
448,192,231919,1,0,0:0:0:0:
192,192,231981,1,0,0:0:0:0:
64,192,231981,1,0,0:0:0:0:
320,192,232044,1,0,0:0:0:0:
448,192,232044,1,0,0:0:0:0:
64,192,232106,1,0,0:0:0:0:
192,192,232106,1,0,0:0:0:0:
320,192,232169,1,0,0:0:0:0:
448,192,232169,1,0,0:0:0:0:
64,192,232231,1,0,0:0:0:0:
192,192,232231,1,0,0:0:0:0:
320,192,232294,1,0,0:0:0:0:
448,192,232294,1,0,0:0:0:0:
64,192,232356,1,0,0:0:0:0:
192,192,232356,1,0,0:0:0:0:
320,192,232419,1,0,0:0:0:0:
448,192,232419,1,0,0:0:0:0:
64,192,232481,1,0,0:0:0:0:
192,192,232481,1,0,0:0:0:0:
320,192,232544,1,0,0:0:0:0:
448,192,232544,1,0,0:0:0:0:
64,192,232606,1,0,0:0:0:0:
192,192,232606,1,0,0:0:0:0:
320,192,232669,1,0,0:0:0:0:
448,192,232669,1,0,0:0:0:0:
64,192,232731,1,0,0:0:0:0:
192,192,232731,1,0,0:0:0:0:
320,192,232794,1,0,0:0:0:0:
448,192,232794,1,0,0:0:0:0:
64,192,232856,1,0,0:0:0:0:
192,192,232856,1,0,0:0:0:0:
320,192,232919,1,0,0:0:0:0:
448,192,232919,1,0,0:0:0:0:
64,192,232981,1,0,0:0:0:0:
192,192,232981,1,0,0:0:0:0:
320,192,233044,1,0,0:0:0:0:
448,192,233044,1,0,0:0:0:0:
64,192,233106,1,0,0:0:0:0:
192,192,233106,1,0,0:0:0:0:
320,192,233169,1,0,0:0:0:0:
448,192,233169,1,0,0:0:0:0:
64,192,233231,1,0,0:0:0:0:
192,192,233231,1,0,0:0:0:0:
320,192,233294,1,0,0:0:0:0:
448,192,233294,1,0,0:0:0:0:
192,192,233356,1,0,0:0:0:0:
64,192,233356,1,0,0:0:0:0:
320,192,233419,1,0,0:0:0:0:
448,192,233419,1,0,0:0:0:0:
64,192,233481,1,0,0:0:0:0:
192,192,233481,1,0,0:0:0:0:
448,192,233544,1,0,0:0:0:0:
320,192,233606,1,0,0:0:0:0:
192,192,233669,1,0,0:0:0:0:
64,192,233731,1,0,0:0:0:0:
320,192,233794,1,0,0:0:0:0:
448,192,233856,1,0,0:0:0:0:
192,192,233919,1,0,0:0:0:0:
320,192,233981,1,0,0:0:0:0:
448,192,234044,1,0,0:0:0:0:
320,192,234106,1,0,0:0:0:0:
192,192,234169,1,0,0:0:0:0:
64,192,234231,1,0,0:0:0:0:
320,192,234294,1,0,0:0:0:0:
448,192,234356,1,0,0:0:0:0:
64,192,234419,1,0,0:0:0:0:
192,192,234481,1,0,0:0:0:0:
320,192,234544,128,0,235044:0:0:0:0:
448,192,234544,1,0,0:0:0:0:
192,192,234669,1,0,0:0:0:0:
64,192,234794,1,0,0:0:0:0:
192,192,234919,128,0,235169:0:0:0:0:
448,192,235044,128,0,235481:0:0:0:0:
320,192,235169,128,0,235481:0:0:0:0:
192,192,235294,128,0,235481:0:0:0:0:
64,192,235419,128,0,235481:0:0:0:0:
64,192,235544,1,0,0:0:0:0:
192,192,235544,1,0,0:0:0:0:
448,192,235544,1,0,0:0:0:0:
320,192,235669,128,0,235731:0:0:0:0:
448,192,235731,128,0,235794:0:0:0:0:
320,192,235794,128,0,235856:0:0:0:0:
192,192,235919,128,0,236044:0:0:0:0:
448,192,236169,128,0,236231:0:0:0:0:
192,192,236231,128,0,236294:0:0:0:0:
448,192,236294,128,0,236356:0:0:0:0:
320,192,236419,128,0,236544:0:0:0:0:
64,192,236544,128,0,236606:0:0:0:0:
448,192,236669,128,0,236731:0:0:0:0:
320,192,236794,128,0,236856:0:0:0:0:
192,192,236919,128,0,236981:0:0:0:0:
64,192,237044,128,0,237106:0:0:0:0:
320,192,237106,128,0,237169:0:0:0:0:
192,192,237169,128,0,237231:0:0:0:0:
448,192,237231,128,0,237294:0:0:0:0:
320,192,237294,128,0,237356:0:0:0:0:
64,192,237356,1,0,0:0:0:0:
448,192,237419,128,0,237481:0:0:0:0:
192,192,237481,1,0,0:0:0:0:
64,192,237544,1,0,0:0:0:0:
320,192,237544,1,0,0:0:0:0:
448,192,237544,1,0,0:0:0:0:
192,192,237669,128,0,237731:0:0:0:0:
448,192,237731,128,0,237794:0:0:0:0:
192,192,237794,128,0,237856:0:0:0:0:
64,192,237919,128,0,238044:0:0:0:0:
192,192,238169,128,0,238231:0:0:0:0:
320,192,238231,128,0,238294:0:0:0:0:
192,192,238294,128,0,238356:0:0:0:0:
64,192,238419,128,0,238544:0:0:0:0:
448,192,238544,128,0,238606:0:0:0:0:
192,192,238544,1,0,0:0:0:0:
64,192,238669,128,0,238731:0:0:0:0:
320,192,238669,1,0,0:0:0:0:
64,192,238794,128,0,238856:0:0:0:0:
192,192,238794,128,0,238856:0:0:0:0:
448,192,238794,1,0,0:0:0:0:
64,192,238919,128,0,238981:0:0:0:0:
192,192,238919,128,0,238981:0:0:0:0:
320,192,238919,128,0,238981:0:0:0:0:
64,192,239044,128,0,239106:0:0:0:0:
192,192,239044,128,0,239106:0:0:0:0:
320,192,239044,128,0,239106:0:0:0:0:
448,192,239044,128,0,239106:0:0:0:0:
320,192,239169,1,0,0:0:0:0:
448,192,239231,128,0,239294:0:0:0:0:
192,192,239294,128,0,239335:0:0:0:0:
320,192,239356,128,0,239398:0:0:0:0:
192,192,239419,128,0,239460:0:0:0:0:
320,192,239481,128,0,239523:0:0:0:0:
64,192,239544,1,0,0:0:0:0:
448,192,239544,1,0,0:0:0:0:
192,192,239606,1,0,0:0:0:0:
320,192,239669,1,0,0:0:0:0:
448,192,239669,1,0,0:0:0:0:
64,192,239731,1,0,0:0:0:0:
192,192,239794,1,0,0:0:0:0:
320,192,239794,1,0,0:0:0:0:
64,192,239856,1,0,0:0:0:0:
320,192,239919,1,0,0:0:0:0:
448,192,239919,1,0,0:0:0:0:
192,192,239981,1,0,0:0:0:0:
64,192,240044,1,0,0:0:0:0:
448,192,240044,1,0,0:0:0:0:
320,192,240106,1,0,0:0:0:0:
192,192,240169,1,0,0:0:0:0:
64,192,240169,1,0,0:0:0:0:
448,192,240231,1,0,0:0:0:0:
320,192,240294,1,0,0:0:0:0:
192,192,240294,1,0,0:0:0:0:
64,192,240356,1,0,0:0:0:0:
320,192,240419,1,0,0:0:0:0:
448,192,240419,1,0,0:0:0:0:
192,192,240481,1,0,0:0:0:0:
64,192,240481,1,0,0:0:0:0:
320,192,240544,1,0,0:0:0:0:
448,192,240544,1,0,0:0:0:0:
192,192,240606,1,0,0:0:0:0:
64,192,240669,1,0,0:0:0:0:
448,192,240669,1,0,0:0:0:0:
320,192,240731,1,0,0:0:0:0:
192,192,240794,1,0,0:0:0:0:
64,192,240794,1,0,0:0:0:0:
320,192,240856,1,0,0:0:0:0:
448,192,240919,1,0,0:0:0:0:
64,192,240919,1,0,0:0:0:0:
192,192,240981,1,0,0:0:0:0:
448,192,241044,1,0,0:0:0:0:
320,192,241044,1,0,0:0:0:0:
64,192,241106,1,0,0:0:0:0:
192,192,241106,1,0,0:0:0:0:
320,192,241169,1,0,0:0:0:0:
448,192,241169,1,0,0:0:0:0:
64,192,241231,1,0,0:0:0:0:
192,192,241231,1,0,0:0:0:0:
320,192,241294,1,0,0:0:0:0:
64,192,241335,1,0,0:0:0:0:
192,192,241377,1,0,0:0:0:0:
448,192,241419,1,0,0:0:0:0:
320,192,241450,1,0,0:0:0:0:
192,192,241481,1,0,0:0:0:0:
64,192,241512,1,0,0:0:0:0:
448,192,241544,1,0,0:0:0:0:
320,192,241544,1,0,0:0:0:0:
192,192,241606,1,0,0:0:0:0:
64,192,241669,1,0,0:0:0:0:
448,192,241669,1,0,0:0:0:0:
320,192,241731,1,0,0:0:0:0:
192,192,241794,1,0,0:0:0:0:
64,192,241794,1,0,0:0:0:0:
320,192,241856,1,0,0:0:0:0:
192,192,241919,1,0,0:0:0:0:
448,192,241919,1,0,0:0:0:0:
320,192,241981,1,0,0:0:0:0:
64,192,242044,1,0,0:0:0:0:
448,192,242044,1,0,0:0:0:0:
192,192,242106,1,0,0:0:0:0:
448,192,242169,1,0,0:0:0:0:
320,192,242169,1,0,0:0:0:0:
64,192,242231,1,0,0:0:0:0:
320,192,242294,1,0,0:0:0:0:
192,192,242294,1,0,0:0:0:0:
448,192,242356,1,0,0:0:0:0:
64,192,242419,1,0,0:0:0:0:
192,192,242419,1,0,0:0:0:0:
320,192,242481,1,0,0:0:0:0:
448,192,242481,1,0,0:0:0:0:
64,192,242544,1,0,0:0:0:0:
192,192,242544,1,0,0:0:0:0:
320,192,242606,1,0,0:0:0:0:
64,192,242669,1,0,0:0:0:0:
448,192,242669,1,0,0:0:0:0:
320,192,242731,1,0,0:0:0:0:
64,192,242794,1,0,0:0:0:0:
192,192,242794,1,0,0:0:0:0:
448,192,242856,1,0,0:0:0:0:
320,192,242919,1,0,0:0:0:0:
192,192,242919,1,0,0:0:0:0:
64,192,242981,1,0,0:0:0:0:
320,192,243044,1,0,0:0:0:0:
448,192,243044,1,0,0:0:0:0:
192,192,243106,1,0,0:0:0:0:
64,192,243106,1,0,0:0:0:0:
320,192,243169,1,0,0:0:0:0:
448,192,243169,1,0,0:0:0:0:
192,192,243231,1,0,0:0:0:0:
64,192,243231,1,0,0:0:0:0:
448,192,243294,1,0,0:0:0:0:
320,192,243294,1,0,0:0:0:0:
64,192,243356,1,0,0:0:0:0:
192,192,243356,1,0,0:0:0:0:
320,192,243419,1,0,0:0:0:0:
448,192,243450,1,0,0:0:0:0:
64,192,243481,1,0,0:0:0:0:
192,192,243512,1,0,0:0:0:0:
448,192,243544,1,0,0:0:0:0:
320,192,243544,1,0,0:0:0:0:
64,192,243669,1,0,0:0:0:0:
192,192,243669,1,0,0:0:0:0:
320,192,243731,1,0,0:0:0:0:
64,192,243794,1,0,0:0:0:0:
448,192,243794,1,0,0:0:0:0:
192,192,243794,1,0,0:0:0:0:
320,192,243919,1,0,0:0:0:0:
448,192,243919,1,0,0:0:0:0:
64,192,243981,1,0,0:0:0:0:
192,192,244044,1,0,0:0:0:0:
320,192,244044,1,0,0:0:0:0:
448,192,244044,1,0,0:0:0:0:
64,192,244169,1,0,0:0:0:0:
320,192,244169,1,0,0:0:0:0:
192,192,244231,1,0,0:0:0:0:
320,192,244294,1,0,0:0:0:0:
64,192,244294,1,0,0:0:0:0:
448,192,244294,1,0,0:0:0:0:
192,192,244419,1,0,0:0:0:0:
448,192,244419,1,0,0:0:0:0:
64,192,244481,1,0,0:0:0:0:
192,192,244544,1,0,0:0:0:0:
448,192,244544,1,0,0:0:0:0:
320,192,244544,1,0,0:0:0:0:
64,192,244669,1,0,0:0:0:0:
320,192,244669,1,0,0:0:0:0:
448,192,244731,1,0,0:0:0:0:
320,192,244794,1,0,0:0:0:0:
192,192,244794,1,0,0:0:0:0:
64,192,244794,1,0,0:0:0:0:
192,192,244919,1,0,0:0:0:0:
448,192,244919,1,0,0:0:0:0:
320,192,244981,1,0,0:0:0:0:
64,192,245044,1,0,0:0:0:0:
192,192,245044,1,0,0:0:0:0:
448,192,245044,1,0,0:0:0:0:
320,192,245169,1,0,0:0:0:0:
192,192,245169,1,0,0:0:0:0:
64,192,245231,1,0,0:0:0:0:
320,192,245294,128,0,245335:0:0:0:0:
64,192,245356,128,0,245398:0:0:0:0:
192,192,245419,128,0,245460:0:0:0:0:
448,192,245481,128,0,245523:0:0:0:0:
192,192,245544,1,0,0:0:0:0:
64,192,245544,1,0,0:0:0:0:
320,192,245544,1,0,0:0:0:0:
64,192,245669,1,0,0:0:0:0:
448,192,245669,1,0,0:0:0:0:
320,192,245731,1,0,0:0:0:0:
448,192,245794,1,0,0:0:0:0:
192,192,245794,1,0,0:0:0:0:
64,192,245794,1,0,0:0:0:0:
320,192,245919,1,0,0:0:0:0:
192,192,245919,1,0,0:0:0:0:
448,192,245981,1,0,0:0:0:0:
320,192,246044,1,0,0:0:0:0:
192,192,246044,1,0,0:0:0:0:
64,192,246044,1,0,0:0:0:0:
64,192,246169,1,0,0:0:0:0:
448,192,246169,1,0,0:0:0:0:
192,192,246231,1,0,0:0:0:0:
320,192,246294,1,0,0:0:0:0:
448,192,246294,1,0,0:0:0:0:
64,192,246294,1,0,0:0:0:0:
320,192,246419,1,0,0:0:0:0:
192,192,246419,1,0,0:0:0:0:
448,192,246481,1,0,0:0:0:0:
320,192,246544,1,0,0:0:0:0:
192,192,246544,1,0,0:0:0:0:
64,192,246544,1,0,0:0:0:0:
64,192,246669,1,0,0:0:0:0:
192,192,246669,1,0,0:0:0:0:
448,192,246731,1,0,0:0:0:0:
192,192,246794,1,0,0:0:0:0:
64,192,246794,1,0,0:0:0:0:
320,192,246794,1,0,0:0:0:0:
448,192,246919,1,0,0:0:0:0:
320,192,246919,1,0,0:0:0:0:
192,192,246981,1,0,0:0:0:0:
320,192,247044,1,0,0:0:0:0:
448,192,247044,1,0,0:0:0:0:
64,192,247044,1,0,0:0:0:0:
192,192,247169,1,0,0:0:0:0:
448,192,247169,1,0,0:0:0:0:
64,192,247231,1,0,0:0:0:0:
320,192,247294,128,0,247335:0:0:0:0:
448,192,247356,128,0,247398:0:0:0:0:
192,192,247419,128,0,247460:0:0:0:0:
320,192,247481,128,0,247523:0:0:0:0:
192,192,247544,1,0,0:0:0:0:
64,192,247544,1,0,0:0:0:0:
448,192,247606,1,0,0:0:0:0:
320,192,247669,1,0,0:0:0:0:
192,192,247669,1,0,0:0:0:0:
64,192,247731,1,0,0:0:0:0:
448,192,247794,1,0,0:0:0:0:
320,192,247794,1,0,0:0:0:0:
192,192,247856,1,0,0:0:0:0:
64,192,247919,1,0,0:0:0:0:
448,192,247919,1,0,0:0:0:0:
192,192,247981,1,0,0:0:0:0:
320,192,248044,1,0,0:0:0:0:
448,192,248044,1,0,0:0:0:0:
64,192,248106,1,0,0:0:0:0:
320,192,248169,1,0,0:0:0:0:
192,192,248169,1,0,0:0:0:0:
448,192,248231,1,0,0:0:0:0:
192,192,248294,1,0,0:0:0:0:
64,192,248294,1,0,0:0:0:0:
320,192,248356,1,0,0:0:0:0:
64,192,248419,1,0,0:0:0:0:
192,192,248450,1,0,0:0:0:0:
320,192,248481,1,0,0:0:0:0:
448,192,248512,1,0,0:0:0:0:
192,192,248544,1,0,0:0:0:0:
64,192,248544,1,0,0:0:0:0:
320,192,248606,1,0,0:0:0:0:
64,192,248669,1,0,0:0:0:0:
448,192,248669,1,0,0:0:0:0:
192,192,248731,1,0,0:0:0:0:
448,192,248794,1,0,0:0:0:0:
320,192,248794,1,0,0:0:0:0:
64,192,248856,1,0,0:0:0:0:
320,192,248919,1,0,0:0:0:0:
448,192,248919,1,0,0:0:0:0:
192,192,248981,1,0,0:0:0:0:
64,192,249044,1,0,0:0:0:0:
320,192,249044,1,0,0:0:0:0:
448,192,249106,1,0,0:0:0:0:
192,192,249169,1,0,0:0:0:0:
64,192,249200,1,0,0:0:0:0:
448,192,249231,1,0,0:0:0:0:
320,192,249262,1,0,0:0:0:0:
192,192,249294,1,0,0:0:0:0:
64,192,249294,1,0,0:0:0:0:
320,192,249356,1,0,0:0:0:0:
448,192,249356,1,0,0:0:0:0:
64,192,249419,1,0,0:0:0:0:
192,192,249419,1,0,0:0:0:0:
320,192,249481,1,0,0:0:0:0:
448,192,249481,1,0,0:0:0:0:
192,192,249544,1,0,0:0:0:0:
64,192,249544,1,0,0:0:0:0:
320,192,249606,1,0,0:0:0:0:
192,192,249669,1,0,0:0:0:0:
448,192,249669,1,0,0:0:0:0:
64,192,249731,1,0,0:0:0:0:
320,192,249794,1,0,0:0:0:0:
448,192,249794,1,0,0:0:0:0:
64,192,249856,1,0,0:0:0:0:
192,192,249919,1,0,0:0:0:0:
320,192,249919,1,0,0:0:0:0:
448,192,249981,1,0,0:0:0:0:
64,192,250044,1,0,0:0:0:0:
192,192,250044,1,0,0:0:0:0:
320,192,250106,1,0,0:0:0:0:
64,192,250169,1,0,0:0:0:0:
192,192,250169,1,0,0:0:0:0:
320,192,250231,1,0,0:0:0:0:
448,192,250231,1,0,0:0:0:0:
64,192,250294,1,0,0:0:0:0:
192,192,250325,1,0,0:0:0:0:
320,192,250356,1,0,0:0:0:0:
448,192,250387,1,0,0:0:0:0:
64,192,250419,1,0,0:0:0:0:
192,192,250450,1,0,0:0:0:0:
320,192,250481,1,0,0:0:0:0:
448,192,250512,1,0,0:0:0:0:
64,192,250544,128,0,250606:0:0:0:0:
192,192,250669,1,0,0:0:0:0:
64,192,250794,1,0,0:0:0:0:
448,192,250794,1,0,0:0:0:0:
320,192,250919,128,0,251044:0:0:0:0:
64,192,251044,1,0,0:0:0:0:
448,192,251044,1,0,0:0:0:0:
192,192,251169,1,0,0:0:0:0:
320,192,251294,1,0,0:0:0:0:
448,192,251294,1,0,0:0:0:0:
320,192,251419,1,0,0:0:0:0:
448,192,251419,1,0,0:0:0:0:
448,192,251544,128,0,251590:0:0:0:0:
192,192,251551,128,0,251598:0:0:0:0:
64,192,251559,128,0,251606:0:0:0:0:
320,192,251669,1,0,0:0:0:0:
64,192,251731,1,0,0:0:0:0:
192,192,251794,128,0,251840:0:0:0:0:
320,192,251801,128,0,251848:0:0:0:0:
448,192,251809,128,0,251856:0:0:0:0:
192,192,251919,1,0,0:0:0:0:
320,192,251981,1,0,0:0:0:0:
448,192,252044,128,0,252090:0:0:0:0:
64,192,252051,128,0,252098:0:0:0:0:
192,192,252059,128,0,252106:0:0:0:0:
320,192,252169,128,0,252215:0:0:0:0:
448,192,252176,128,0,252223:0:0:0:0:
64,192,252184,128,0,252231:0:0:0:0:
320,192,252294,128,0,252340:0:0:0:0:
192,192,252301,128,0,252348:0:0:0:0:
64,192,252309,128,0,252356:0:0:0:0:
448,192,252419,1,0,0:0:0:0:
320,192,252450,1,0,0:0:0:0:
192,192,252481,1,0,0:0:0:0:
64,192,252544,128,0,252590:0:0:0:0:
448,192,252551,128,0,252598:0:0:0:0:
320,192,252559,128,0,252606:0:0:0:0:
192,192,252669,128,0,252715:0:0:0:0:
64,192,252676,128,0,252723:0:0:0:0:
448,192,252684,128,0,252731:0:0:0:0:
192,192,252794,128,0,252840:0:0:0:0:
320,192,252801,128,0,252848:0:0:0:0:
448,192,252809,128,0,252856:0:0:0:0:
64,192,252919,1,0,0:0:0:0:
448,192,252981,1,0,0:0:0:0:
320,192,253044,128,0,253090:0:0:0:0:
192,192,253051,128,0,253098:0:0:0:0:
64,192,253059,128,0,253106:0:0:0:0:
448,192,253169,1,0,0:0:0:0:
320,192,253231,1,0,0:0:0:0:
64,192,253294,1,0,0:0:0:0:
192,192,253325,1,0,0:0:0:0:
320,192,253356,1,0,0:0:0:0:
448,192,253387,1,0,0:0:0:0:
64,192,253419,1,0,0:0:0:0:
192,192,253481,1,0,0:0:0:0:
64,192,253544,1,0,0:0:0:0:
448,192,253544,128,0,253585:0:0:0:0:
320,192,253669,128,0,253710:0:0:0:0:
192,192,253794,128,0,253835:0:0:0:0:
448,192,253794,1,0,0:0:0:0:
320,192,253919,128,0,253960:0:0:0:0:
192,192,253981,1,0,0:0:0:0:
448,192,254044,128,0,254085:0:0:0:0:
320,192,254106,1,0,0:0:0:0:
192,192,254169,128,0,254210:0:0:0:0:
448,192,254294,1,0,0:0:0:0:
320,192,254294,128,0,254335:0:0:0:0:
192,192,254419,128,0,254460:0:0:0:0:
448,192,254544,128,0,254585:0:0:0:0:
192,192,254606,1,0,0:0:0:0:
320,192,254669,128,0,254710:0:0:0:0:
448,192,254794,1,0,0:0:0:0:
192,192,254794,128,0,254835:0:0:0:0:
320,192,254919,128,0,254960:0:0:0:0:
448,192,255044,128,0,255085:0:0:0:0:
320,192,255044,1,0,0:0:0:0:
192,192,255106,1,0,0:0:0:0:
320,192,255169,1,0,0:0:0:0:
192,192,255231,1,0,0:0:0:0:
64,192,255294,128,0,255356:0:0:0:0:
320,192,255294,128,0,255356:0:0:0:0:
448,192,255294,128,0,255356:0:0:0:0:
192,192,255419,1,0,0:0:0:0:
64,192,255544,1,0,0:0:0:0:
448,192,255544,1,0,0:0:0:0:
320,192,255606,1,0,0:0:0:0:
64,192,255669,1,0,0:0:0:0:
448,192,255669,1,0,0:0:0:0:
192,192,255731,1,0,0:0:0:0:
320,192,255794,1,0,0:0:0:0:
448,192,255794,1,0,0:0:0:0:
64,192,255856,1,0,0:0:0:0:
192,192,255919,1,0,0:0:0:0:
320,192,255919,1,0,0:0:0:0:
448,192,255981,1,0,0:0:0:0:
192,192,256044,1,0,0:0:0:0:
64,192,256044,1,0,0:0:0:0:
448,192,256106,1,0,0:0:0:0:
320,192,256169,1,0,0:0:0:0:
192,192,256169,1,0,0:0:0:0:
64,192,256231,1,0,0:0:0:0:
320,192,256294,1,0,0:0:0:0:
448,192,256294,1,0,0:0:0:0:
192,192,256356,1,0,0:0:0:0:
64,192,256419,1,0,0:0:0:0:
448,192,256419,1,0,0:0:0:0:
192,192,256481,1,0,0:0:0:0:
320,192,256544,1,0,0:0:0:0:
448,192,256544,1,0,0:0:0:0:
64,192,256606,1,0,0:0:0:0:
192,192,256669,1,0,0:0:0:0:
320,192,256669,1,0,0:0:0:0:
448,192,256731,1,0,0:0:0:0:
192,192,256794,1,0,0:0:0:0:
64,192,256794,1,0,0:0:0:0:
320,192,256856,1,0,0:0:0:0:
64,192,256919,1,0,0:0:0:0:
192,192,256919,1,0,0:0:0:0:
448,192,256981,1,0,0:0:0:0:
64,192,257044,1,0,0:0:0:0:
320,192,257044,1,0,0:0:0:0:
192,192,257106,1,0,0:0:0:0:
320,192,257169,1,0,0:0:0:0:
448,192,257169,1,0,0:0:0:0:
64,192,257231,1,0,0:0:0:0:
192,192,257231,1,0,0:0:0:0:
448,192,257294,1,0,0:0:0:0:
320,192,257294,1,0,0:0:0:0:
64,192,257356,1,0,0:0:0:0:
192,192,257419,1,0,0:0:0:0:
320,192,257419,1,0,0:0:0:0:
448,192,257481,1,0,0:0:0:0:
192,192,257544,1,0,0:0:0:0:
64,192,257544,1,0,0:0:0:0:
320,192,257606,1,0,0:0:0:0:
448,192,257669,1,0,0:0:0:0:
64,192,257669,1,0,0:0:0:0:
320,192,257731,1,0,0:0:0:0:
64,192,257794,1,0,0:0:0:0:
192,192,257794,1,0,0:0:0:0:
448,192,257856,1,0,0:0:0:0:
192,192,257919,1,0,0:0:0:0:
320,192,257919,1,0,0:0:0:0:
64,192,257981,1,0,0:0:0:0:
320,192,258044,1,0,0:0:0:0:
448,192,258044,1,0,0:0:0:0:
192,192,258106,1,0,0:0:0:0:
448,192,258169,1,0,0:0:0:0:
320,192,258169,1,0,0:0:0:0:
64,192,258231,1,0,0:0:0:0:
192,192,258294,1,0,0:0:0:0:
320,192,258294,1,0,0:0:0:0:
448,192,258356,1,0,0:0:0:0:
192,192,258419,1,0,0:0:0:0:
64,192,258419,1,0,0:0:0:0:
320,192,258481,1,0,0:0:0:0:
64,192,258544,1,0,0:0:0:0:
448,192,258544,1,0,0:0:0:0:
192,192,258606,1,0,0:0:0:0:
64,192,258669,1,0,0:0:0:0:
448,192,258669,1,0,0:0:0:0:
192,192,258731,1,0,0:0:0:0:
320,192,258794,1,0,0:0:0:0:
448,192,258794,1,0,0:0:0:0:
64,192,258856,1,0,0:0:0:0:
192,192,258919,1,0,0:0:0:0:
320,192,258919,1,0,0:0:0:0:
448,192,258981,1,0,0:0:0:0:
192,192,259044,1,0,0:0:0:0:
64,192,259044,1,0,0:0:0:0:
448,192,259106,1,0,0:0:0:0:
192,192,259169,1,0,0:0:0:0:
320,192,259169,1,0,0:0:0:0:
64,192,259231,1,0,0:0:0:0:
320,192,259294,128,0,259335:0:0:0:0:
448,192,259294,128,0,259335:0:0:0:0:
192,192,259419,128,0,259460:0:0:0:0:
448,192,259419,128,0,259460:0:0:0:0:
64,192,259544,1,0,0:0:0:0:
192,192,259544,1,0,0:0:0:0:
320,192,259606,1,0,0:0:0:0:
192,192,259669,1,0,0:0:0:0:
448,192,259669,1,0,0:0:0:0:
320,192,259731,1,0,0:0:0:0:
64,192,259794,1,0,0:0:0:0:
448,192,259794,1,0,0:0:0:0:
192,192,259856,1,0,0:0:0:0:
64,192,259919,1,0,0:0:0:0:
320,192,259919,1,0,0:0:0:0:
448,192,259981,1,0,0:0:0:0:
320,192,260044,1,0,0:0:0:0:
192,192,260044,1,0,0:0:0:0:
64,192,260106,1,0,0:0:0:0:
192,192,260169,1,0,0:0:0:0:
448,192,260169,1,0,0:0:0:0:
320,192,260231,1,0,0:0:0:0:
448,192,260294,1,0,0:0:0:0:
64,192,260294,1,0,0:0:0:0:
192,192,260356,1,0,0:0:0:0:
448,192,260419,1,0,0:0:0:0:
64,192,260419,1,0,0:0:0:0:
320,192,260481,1,0,0:0:0:0:
64,192,260544,1,0,0:0:0:0:
192,192,260544,1,0,0:0:0:0:
320,192,260606,1,0,0:0:0:0:
64,192,260669,1,0,0:0:0:0:
448,192,260669,1,0,0:0:0:0:
320,192,260731,1,0,0:0:0:0:
192,192,260794,1,0,0:0:0:0:
448,192,260794,1,0,0:0:0:0:
64,192,260856,1,0,0:0:0:0:
192,192,260919,1,0,0:0:0:0:
448,192,260919,1,0,0:0:0:0:
64,192,260981,1,0,0:0:0:0:
320,192,261044,1,0,0:0:0:0:
448,192,261044,1,0,0:0:0:0:
192,192,261106,1,0,0:0:0:0:
64,192,261169,1,0,0:0:0:0:
320,192,261169,1,0,0:0:0:0:
192,192,261231,1,0,0:0:0:0:
64,192,261294,1,0,0:0:0:0:
448,192,261294,128,0,261335:0:0:0:0:
320,192,261356,128,0,261398:0:0:0:0:
192,192,261419,128,0,261460:0:0:0:0:
64,192,261481,128,0,261523:0:0:0:0:
320,192,261544,1,0,0:0:0:0:
448,192,261544,1,0,0:0:0:0:
192,192,261606,1,0,0:0:0:0:
448,192,261669,1,0,0:0:0:0:
64,192,261669,1,0,0:0:0:0:
320,192,261731,1,0,0:0:0:0:
64,192,261794,1,0,0:0:0:0:
448,192,261794,1,0,0:0:0:0:
192,192,261856,1,0,0:0:0:0:
64,192,261919,1,0,0:0:0:0:
448,192,261919,1,0,0:0:0:0:
320,192,261981,1,0,0:0:0:0:
64,192,262044,1,0,0:0:0:0:
192,192,262044,1,0,0:0:0:0:
320,192,262106,1,0,0:0:0:0:
448,192,262169,1,0,0:0:0:0:
192,192,262169,1,0,0:0:0:0:
320,192,262231,1,0,0:0:0:0:
448,192,262294,1,0,0:0:0:0:
64,192,262294,1,0,0:0:0:0:
320,192,262356,1,0,0:0:0:0:
64,192,262419,1,0,0:0:0:0:
448,192,262419,1,0,0:0:0:0:
192,192,262481,1,0,0:0:0:0:
320,192,262544,1,0,0:0:0:0:
448,192,262544,1,0,0:0:0:0:
192,192,262606,1,0,0:0:0:0:
320,192,262669,1,0,0:0:0:0:
64,192,262669,1,0,0:0:0:0:
448,192,262731,1,0,0:0:0:0:
64,192,262794,1,0,0:0:0:0:
320,192,262794,1,0,0:0:0:0:
192,192,262856,1,0,0:0:0:0:
64,192,262919,1,0,0:0:0:0:
448,192,262919,1,0,0:0:0:0:
192,192,262981,1,0,0:0:0:0:
448,192,263044,1,0,0:0:0:0:
320,192,263044,1,0,0:0:0:0:
192,192,263106,1,0,0:0:0:0:
320,192,263169,1,0,0:0:0:0:
64,192,263169,1,0,0:0:0:0:
192,192,263231,1,0,0:0:0:0:
320,192,263294,1,0,0:0:0:0:
448,192,263294,1,0,0:0:0:0:
64,192,263356,1,0,0:0:0:0:
320,192,263419,1,0,0:0:0:0:
64,192,263481,1,0,0:0:0:0:
448,192,263544,1,0,0:0:0:0:
320,192,263575,1,0,0:0:0:0:
192,192,263606,1,0,0:0:0:0:
64,192,263637,1,0,0:0:0:0:
320,192,263669,1,0,0:0:0:0:
448,192,263669,1,0,0:0:0:0:
192,192,263731,1,0,0:0:0:0:
64,192,263794,1,0,0:0:0:0:
448,192,263794,1,0,0:0:0:0:
320,192,263856,1,0,0:0:0:0:
64,192,263919,1,0,0:0:0:0:
192,192,263950,1,0,0:0:0:0:
320,192,263981,1,0,0:0:0:0:
448,192,264012,1,0,0:0:0:0:
64,192,264044,1,0,0:0:0:0:
192,192,264044,1,0,0:0:0:0:
320,192,264106,1,0,0:0:0:0:
64,192,264169,1,0,0:0:0:0:
448,192,264169,1,0,0:0:0:0:
192,192,264231,1,0,0:0:0:0:
448,192,264294,128,0,264333:0:0:0:0:
320,192,264325,128,0,264364:0:0:0:0:
192,192,264356,128,0,264395:0:0:0:0:
64,192,264387,128,0,264426:0:0:0:0:
448,192,264419,1,0,0:0:0:0:
320,192,264481,1,0,0:0:0:0:
64,192,264544,1,0,0:0:0:0:
192,192,264575,1,0,0:0:0:0:
320,192,264606,1,0,0:0:0:0:
448,192,264637,1,0,0:0:0:0:
64,192,264669,1,0,0:0:0:0:
192,192,264669,1,0,0:0:0:0:
320,192,264731,1,0,0:0:0:0:
64,192,264794,1,0,0:0:0:0:
448,192,264794,1,0,0:0:0:0:
192,192,264856,1,0,0:0:0:0:
448,192,264919,1,0,0:0:0:0:
320,192,264950,1,0,0:0:0:0:
192,192,264981,1,0,0:0:0:0:
64,192,265012,1,0,0:0:0:0:
448,192,265044,1,0,0:0:0:0:
320,192,265044,1,0,0:0:0:0:
192,192,265106,1,0,0:0:0:0:
64,192,265169,1,0,0:0:0:0:
448,192,265169,1,0,0:0:0:0:
320,192,265231,1,0,0:0:0:0:
64,192,265294,128,0,265333:0:0:0:0:
192,192,265325,128,0,265364:0:0:0:0:
320,192,265356,128,0,265395:0:0:0:0:
448,192,265387,128,0,265426:0:0:0:0:
192,192,265450,128,0,265489:0:0:0:0:
320,192,265481,128,0,265520:0:0:0:0:
448,192,265512,128,0,265551:0:0:0:0:
64,192,265544,1,0,0:0:0:0:
192,192,265575,1,0,0:0:0:0:
320,192,265606,1,0,0:0:0:0:
448,192,265637,1,0,0:0:0:0:
64,192,265669,1,0,0:0:0:0:
192,192,265669,1,0,0:0:0:0:
448,192,265731,1,0,0:0:0:0:
320,192,265731,1,0,0:0:0:0:
192,192,265794,1,0,0:0:0:0:
64,192,265825,1,0,0:0:0:0:
320,192,265856,1,0,0:0:0:0:
448,192,265856,1,0,0:0:0:0:
64,192,265919,1,0,0:0:0:0:
192,192,265950,1,0,0:0:0:0:
320,192,265981,1,0,0:0:0:0:
448,192,266012,1,0,0:0:0:0:
64,192,266044,1,0,0:0:0:0:
192,192,266044,1,0,0:0:0:0:
448,192,266106,1,0,0:0:0:0:
320,192,266106,1,0,0:0:0:0:
192,192,266169,1,0,0:0:0:0:
64,192,266169,1,0,0:0:0:0:
448,192,266231,1,0,0:0:0:0:
320,192,266231,1,0,0:0:0:0:
192,192,266294,1,0,0:0:0:0:
64,192,266325,1,0,0:0:0:0:
448,192,266356,1,0,0:0:0:0:
320,192,266387,1,0,0:0:0:0:
64,192,266419,1,0,0:0:0:0:
192,192,266419,1,0,0:0:0:0:
448,192,266481,1,0,0:0:0:0:
320,192,266481,1,0,0:0:0:0:
192,192,266544,128,0,267044:0:0:0:0:
64,192,266544,1,0,0:0:0:0:
320,192,266669,1,0,0:0:0:0:
448,192,266794,1,0,0:0:0:0:
320,192,266919,128,0,267169:0:0:0:0:
64,192,267044,128,0,267481:0:0:0:0:
192,192,267169,128,0,267481:0:0:0:0:
320,192,267294,128,0,267481:0:0:0:0:
448,192,267419,128,0,267481:0:0:0:0:
64,192,267544,5,0,0:0:0:0:
448,192,267544,1,0,0:0:0:0:
320,192,267544,1,0,0:0:0:0:
192,192,267669,1,0,0:0:0:0:
320,192,267794,1,0,0:0:0:0:
448,192,268544,1,0,0:0:0:0:
64,192,269544,1,0,0:0:0:0:
320,192,269669,1,0,0:0:0:0:
192,192,269794,1,0,0:0:0:0:
448,192,270544,1,0,0:0:0:0:
320,192,271544,1,0,0:0:0:0:
64,192,271669,1,0,0:0:0:0:
192,192,271794,1,0,0:0:0:0:
320,192,272544,1,0,0:0:0:0:
448,192,273044,1,0,0:0:0:0:
64,192,273544,1,0,0:0:0:0:
192,192,273669,1,0,0:0:0:0:
320,192,273919,1,0,0:0:0:0:
448,192,274044,1,0,0:0:0:0:
64,192,274544,1,0,0:0:0:0:
320,192,274669,1,0,0:0:0:0:
192,192,274919,1,0,0:0:0:0:
448,192,275044,1,0,0:0:0:0:
448,192,275544,1,0,0:0:0:0:
64,192,275544,1,0,0:0:0:0:
192,192,275669,1,0,0:0:0:0:
320,192,275794,1,0,0:0:0:0:
448,192,276544,1,0,0:0:0:0:
64,192,277544,1,0,0:0:0:0:
320,192,277669,1,0,0:0:0:0:
192,192,277794,1,0,0:0:0:0:
448,192,278544,1,0,0:0:0:0:
192,192,279169,1,0,0:0:0:0:
320,192,279294,1,0,0:0:0:0:
192,192,279419,1,0,0:0:0:0:
448,192,279544,1,0,0:0:0:0:
64,192,279669,1,0,0:0:0:0:
192,192,279794,1,0,0:0:0:0:
320,192,280544,1,0,0:0:0:0:
448,192,281044,1,0,0:0:0:0:
64,192,281544,128,0,281669:0:0:0:0:
192,192,281669,1,0,0:0:0:0:
320,192,281919,128,0,281981:0:0:0:0:
448,192,282044,1,0,0:0:0:0:
320,192,282544,128,0,283419:0:0:0:0:
64,192,282669,1,0,0:0:0:0:
192,192,282919,128,0,283419:0:0:0:0:
448,192,283044,1,0,0:0:0:0:
64,192,283544,1,0,0:0:0:0:
448,192,283544,1,0,0:0:0:0:
320,192,283544,1,0,0:0:0:0:
64,192,283794,1,0,0:0:0:0:
192,192,283794,1,0,0:0:0:0:
320,192,283919,1,0,0:0:0:0:
64,192,284044,1,0,0:0:0:0:
448,192,284044,1,0,0:0:0:0:
192,192,284169,1,0,0:0:0:0:
320,192,284294,1,0,0:0:0:0:
448,192,284294,1,0,0:0:0:0:
64,192,284544,1,0,0:0:0:0:
320,192,284544,1,0,0:0:0:0:
192,192,284794,1,0,0:0:0:0:
448,192,284794,1,0,0:0:0:0:
320,192,284919,1,0,0:0:0:0:
448,192,285044,1,0,0:0:0:0:
64,192,285044,1,0,0:0:0:0:
320,192,285169,1,0,0:0:0:0:
192,192,285294,1,0,0:0:0:0:
64,192,285419,1,0,0:0:0:0:
320,192,285544,1,0,0:0:0:0:
448,192,285544,1,0,0:0:0:0:
64,192,285794,1,0,0:0:0:0:
448,192,285794,1,0,0:0:0:0:
192,192,285919,1,0,0:0:0:0:
64,192,286044,1,0,0:0:0:0:
448,192,286044,1,0,0:0:0:0:
192,192,286169,1,0,0:0:0:0:
320,192,286294,1,0,0:0:0:0:
448,192,286294,1,0,0:0:0:0:
64,192,286544,1,0,0:0:0:0:
320,192,286794,1,0,0:0:0:0:
448,192,286794,1,0,0:0:0:0:
64,192,287044,1,0,0:0:0:0:
192,192,287294,1,0,0:0:0:0:
320,192,287294,1,0,0:0:0:0:
64,192,287544,1,0,0:0:0:0:
448,192,287544,1,0,0:0:0:0:
320,192,287669,1,0,0:0:0:0:
192,192,287794,1,0,0:0:0:0:
320,192,287919,1,0,0:0:0:0:
192,192,288044,1,0,0:0:0:0:
64,192,288169,1,0,0:0:0:0:
448,192,288294,1,0,0:0:0:0:
320,192,288419,1,0,0:0:0:0:
64,192,288544,1,0,0:0:0:0:
448,192,288544,1,0,0:0:0:0:
192,192,288669,1,0,0:0:0:0:
320,192,288794,1,0,0:0:0:0:
448,192,288919,1,0,0:0:0:0:
192,192,289044,1,0,0:0:0:0:
320,192,289294,1,0,0:0:0:0:
192,192,289419,1,0,0:0:0:0:
64,192,289544,1,0,0:0:0:0:
448,192,289544,1,0,0:0:0:0:
192,192,289669,1,0,0:0:0:0:
320,192,289919,1,0,0:0:0:0:
448,192,290044,1,0,0:0:0:0:
64,192,290544,1,0,0:0:0:0:
448,192,290544,1,0,0:0:0:0:
192,192,290794,1,0,0:0:0:0:
448,192,291044,1,0,0:0:0:0:
320,192,291044,1,0,0:0:0:0:
320,192,291294,1,0,0:0:0:0:
448,192,291419,1,0,0:0:0:0:
64,192,291544,1,0,0:0:0:0:
320,192,291544,1,0,0:0:0:0:
448,192,291794,1,0,0:0:0:0:
192,192,291794,1,0,0:0:0:0:
320,192,292044,1,0,0:0:0:0:
64,192,292294,1,0,0:0:0:0:
192,192,292294,1,0,0:0:0:0:
320,192,292544,1,0,0:0:0:0:
448,192,292544,1,0,0:0:0:0:
64,192,292794,1,0,0:0:0:0:
192,192,293044,1,0,0:0:0:0:
64,192,293544,1,0,0:0:0:0:
448,192,293544,1,0,0:0:0:0:
320,192,293794,1,0,0:0:0:0:
192,192,294044,1,0,0:0:0:0:
448,192,294544,1,0,0:0:0:0:
64,192,294794,1,0,0:0:0:0:
192,192,295044,1,0,0:0:0:0:
320,192,295169,1,0,0:0:0:0:
448,192,295294,1,0,0:0:0:0:
320,192,295419,1,0,0:0:0:0:
448,192,295544,1,0,0:0:0:0:
64,192,295544,1,0,0:0:0:0:
192,192,295794,1,0,0:0:0:0:
320,192,296044,1,0,0:0:0:0:
448,192,296544,1,0,0:0:0:0:
64,192,296794,1,0,0:0:0:0:
320,192,297044,1,0,0:0:0:0:
64,192,297544,1,0,0:0:0:0:
192,192,297669,1,0,0:0:0:0:
320,192,297919,1,0,0:0:0:0:
448,192,298044,1,0,0:0:0:0:
64,192,298544,1,0,0:0:0:0:
320,192,298669,1,0,0:0:0:0:
192,192,298919,1,0,0:0:0:0:
448,192,299044,1,0,0:0:0:0:
192,192,301585,1,0,0:0:0:0:
448,192,302544,128,0,302606:0:0:0:0:
320,192,302669,1,0,0:0:0:0:
64,192,302794,1,0,0:0:0:0:
