osu file format v14

[General]
AudioFilename: ringatingatingating.mp3
AudioLeadIn: 3000
PreviewTime: 54260
Countdown: 0
SampleSet: Soft
StackLeniency: 0.7
Mode: 0
LetterboxInBreaks: 0
WidescreenStoryboard: 0

[Editor]
DistanceSpacing: 1
BeatDivisor: 3
GridSize: 4
TimelineZoom: 1

[Metadata]
Title:SHIVER
TitleUnicode:SHIVER
Artist:Lucy Rose
ArtistUnicode:Lucy Rose
Creator:Feb
Version:Normal
Source:蟲師 続章
Tags:second Mushi-shi Zoku Shou Mushishi The Next Chapter 2nd Season Tv Size Short Version
BeatmapID:854307
BeatmapSetID:392324

[Difficulty]
HPDrainRate:3
CircleSize:3
OverallDifficulty:3
ApproachRate:3
SliderMultiplier:1
SliderTickRate:1

[Events]
//Background and Video events
0,0,"bestofthebest.jpg",0,0
Video,0,"swag.avi"
//Break Periods
//Storyboard Layer 0 (Background)
//Storyboard Layer 1 (Fail)
//Storyboard Layer 2 (Pass)
//Storyboard Layer 3 (Foreground)
//Storyboard Sound Samples

[TimingPoints]
190,500,4,2,2,25,1,0
2190,493.827160493827,4,2,2,25,1,0
6140,490.196078431373,4,2,2,25,1,0
12022,489.396411092985,4,2,2,25,1,0
13979,481.927710843374,4,2,2,25,1,0
15906,490.196078431373,4,2,2,25,1,0
19827,481.154771451484,4,2,2,25,1,0
23676,489.795918367347,4,2,2,25,1,0
27594,485.82995951417,4,2,2,25,1,0
29537,489.795918367347,4,2,2,25,1,0
31496,484.261501210654,4,2,2,25,1,0
35370,488.20179007323,4,2,2,25,1,0
37322,483.870967741935,4,2,2,25,1,0
41192,493.015612161052,4,2,2,25,1,0
45136,495.867768595041,4,2,2,25,1,0
47119,502.092050209205,4,2,2,25,1,0
50131,485.82995951417,4,2,2,25,1,0
51102,499.168053244592,4,2,2,25,1,0
54097,491.803278688525,4,2,2,25,1,0
55080,489.795918367347,4,2,2,40,1,1
57039,487.408610885459,4,2,2,40,1,1
62887,495.458298926507,4,2,2,40,1,1
64868,483.870967741935,4,2,2,40,1,1
66803,485.82995951417,4,2,2,40,1,1
68746,491.803278688525,4,2,2,40,1,1
70713,504.201680672269,4,2,2,40,1,1
72729,489.795918367347,4,2,2,40,1,1
74688,481.927710843374,4,2,2,40,1,1
76615,487.012987012987,4,2,2,40,1,1
78563,490.998363338789,4,2,2,18,1,0
82490,500,4,2,2,18,1,0
86490,485.82995951417,4,2,2,12,1,0
88433,500,4,2,2,12,1,0
88933,512.820512820513,4,2,2,10,1,0
89445,526.315789473684,4,2,2,10,1,0
89971,576.923076923077,4,2,2,10,1,0

[Colours]
Combo1 : 255,128,191
Combo2 : 140,255,140
Combo3 : 255,197,138
Combo4 : 221,221,221

[HitObjects]
219,328,190,5,0,0:0:0:0:
304,276,690,2,0,P|352:269|410:286,2,100,8|0|8,0:0|0:0|0:0,0:0:0:0:
226,210,2190,1,2,0:0:0:0:
126,212,2683,2,0,P|113:253|128:314,2,100,8|0|8,0:0|0:0|0:0,0:0:0:0:
226,210,4165,5,2,0:0:0:0:
317,169,4658,2,0,P|340:118|329:69,1,100,8|0,0:0|0:0,0:0:0:0:
238,110,5646,1,8,0:0:0:0:
226,210,6140,1,2,0:0:0:0:
265,301,6630,2,0,P|314:319|383:306,1,100,8|0,0:0|0:0,0:0:0:0:
439,253,7610,1,8,0:0:0:0:
366,184,8100,6,0,P|312:172|245:190,2,100,2|8|0,0:0|0:0|0:0,0:0:0:0:
446,123,9571,2,0,P|432:85|436:43,1,66.6666666666667,8|0,0:0|0:0,0:0:0:0:
405,39,10061,2,0,P|359:23|296:37,2,100,6|8|0,0:0|0:0|0:0,0:0:0:0:
446,123,11532,1,8,0:0:0:0:
493,211,12022,6,0,P|490:289|480:333,2,100,2|8|0,0:0|0:0|0:0,0:0:0:0:
390,193,13490,1,8,0:0:0:0:
289,207,13979,2,0,P|253:212|184:181,1,100,6|8,0:0|0:0,0:0:0:0:
94,182,14942,1,0,0:0:0:0:
56,275,15424,2,0,P|91:277|131:293,1,66.6666666666666,8|0,0:0|0:0,0:0:0:0:
140,313,15906,6,0,B|174:303|264:310,2,100,14|8|0,0:0|0:0|0:0,0:0:0:0:
178,220,17376,1,8,0:0:0:0:
272,186,17866,2,0,P|275:144|263:71,1,100,6|8,0:0|0:0,0:0:0:0:
69,58,19337,2,0,P|65:94|66:129,1,66.6666666666667,8|0,0:0|0:0,0:0:0:0:
75,157,19827,6,0,L|186:139,1,100,6|8,0:0|0:0,0:0:0:0:
270,116,20789,1,2,0:0:0:0:
368,134,21270,2,0,L|441:122,1,66.6666666666667,8|0,0:0|0:0,0:0:0:0:
460,102,21751,2,0,P|470:147|466:229,2,100,6|8|0,0:0|0:0|0:0,0:0:0:0:
391,28,23195,2,0,L|312:39,1,66.6666666666667,8|0,0:0|0:0,0:0:0:0:
292,29,23676,6,0,P|248:21|186:50,2,100,6|8|0,0:0|0:0|0:0,0:0:0:0:
255,122,25145,1,8,0:0:0:0:
168,173,25635,2,0,P|99:173|55:162,2,100,6|8|0,0:0|0:0|0:0,0:0:0:0:
230,251,27104,2,0,P|235:306|231:343,1,66.6666666666667,8|0,0:0|0:0,0:0:0:0:
216,346,27594,6,0,P|304:337|342:336,1,100,6|8,0:0|0:0,0:0:0:0:
402,286,28565,1,0,0:0:0:0:
343,204,29051,2,0,P|334:152|333:122,1,66.6666666666667,8|0,0:0|0:0,0:0:0:0:
342,106,29537,2,0,P|395:96|449:100,2,100,6|8|0,0:0|0:0|0:0,0:0:0:0:
254,58,31006,1,8,0:0:0:0:
171,116,31496,6,0,P|112:115|71:89,2,100,6|8|0,0:0|0:0|0:0,0:0:0:0:
229,197,32948,2,0,P|236:237|225:287,1,66.6666666666667,8|0,0:0|0:0,0:0:0:0:
220,293,33433,2,0,P|265:285|338:297,1,100,6|8,0:0|0:0,0:0:0:0:
369,204,34401,1,0,0:0:0:0:
455,258,34885,2,0,L|464:173,1,66.6666666666667,8|0,0:0|0:0,0:0:0:0:
449,160,35370,6,0,P|438:111|442:42,1,100,4|8,0:0|0:0,0:0:0:0:
343,29,36346,1,0,0:0:0:0:
274,102,36834,2,0,P|219:107|200:104,1,66.6666666666667,8|0,0:0|0:0,0:0:0:0:
178,89,37322,2,0,P|172:141|173:195,2,100,6|8|0,0:0|0:0|0:0,0:0:0:0:
78,82,38773,1,8,0:0:0:0:
30,169,39257,6,0,L|42:293,1,100,6|8,0:0|0:0,0:0:0:0:
228,335,40709,2,0,P|237:283|236:257,1,66.6666666666667,8|0,0:0|0:0,0:0:0:0:
220,240,41192,2,0,L|352:232,2,100,6|8|0,0:0|0:0|0:0,0:0:0:0:
148,169,42671,2,0,P|147:129|132:96,1,66.6666666666667,8|0,0:0|0:0,0:0:0:0:
122,74,43164,6,0,P|182:68|240:71,1,100,6|8,0:0|0:0,0:0:0:0:
318,45,44150,1,2,0:0:0:0:
368,131,44643,2,0,P|361:173|367:222,1,66.6666666666667,8|0,0:0|0:0,0:0:0:0:
379,224,45136,2,0,L|258:225,1,100,6|8,0:0|0:0,0:0:0:0:
194,170,46127,1,0,0:0:0:0:
98,200,46623,2,0,L|81:127,1,66.6666666666667,8|0,0:0|0:0,0:0:0:0:
77,102,47119,6,0,P|146:42|262:53,1,200,6|0,0:0|0:0,0:0:0:0:
329,106,48625,2,0,L|448:98,1,100,8|0,0:0|0:0,0:0:0:0:
430,199,49629,1,8,0:0:0:0:
326,203,50131,2,0,P|305:256|311:301,1,100,2|8,0:0|0:0,0:0:0:0:
221,337,51102,6,0,P|211:253|257:133,1,200,6|0,0:0|0:0,0:0:0:0:
301,58,52599,2,0,L|195:61,1,100,8|0,0:0|0:0,0:0:0:0:
102,42,53597,1,8,0:0:0:0:
74,241,54588,2,0,P|112:231|154:232,1,66.6666666666667,8|0,0:0|0:0,0:0:0:0:
171,238,55080,6,0,P|183:283|164:340,2,100,14|8|0,0:0|0:0|0:0,0:0:0:0:
195,141,56549,1,8,0:0:0:0:
276,200,57039,2,0,P|331:195|376:175,1,100,0|8,0:0|0:0,0:0:0:0:
446,111,58013,2,0,P|465:143|465:202,1,66.6666666666667
458,203,58501,2,0,P|446:252|451:282,1,66.6666666666667,8|0,0:0|0:0,0:0:0:0:
461,297,58988,6,0,L|344:297,1,100,6|8,0:0|0:0,0:0:0:0:
160,293,60450,2,0,P|162:247|153:218,1,66.6666666666667,8|0,0:0|0:0,0:0:0:0:
141,197,60938,2,0,P|189:191|248:195,2,100,6|8|0,0:0|0:0|0:0,0:0:0:0:
41,190,62400,2,0,L|50:124,1,66.6666666666667,8|0,0:0|0:0,0:0:0:0:
38,93,62887,6,0,P|84:94|152:88,1,100,6|8,0:0|0:0,0:0:0:0:
235,68,63877,2,0,P|295:70|341:80,1,100,0|8,0:0|0:0,0:0:0:0:
432,106,64868,2,0,P|436:155|411:197,1,100,2|8,0:0|0:0,0:0:0:0:
317,230,65835,2,0,P|281:220|232:220,1,66.6666666666667,0|0,0:0|0:0,0:0:0:0:
218,224,66319,2,0,P|183:220|154:204,1,66.6666666666667,8|0,0:0|0:0,0:0:0:0:
128,185,66803,6,0,P|133:243|134:313,1,100,6|8,0:0|0:0,0:0:0:0:
330,324,68260,2,0,P|336:274|344:256,1,66.6666666666667,8|0,0:0|0:0,0:0:0:0:
367,238,68746,2,0,L|266:223,2,100,2|8|0,0:0|0:0|0:0,0:0:0:0:
412,149,70221,2,0,L|340:138,1,66.6666666666667,8|0,0:0|0:0,0:0:0:0:
315,128,70713,6,0,P|301:69|312:22,1,100,6|8,0:0|0:0,0:0:0:0:
214,66,71721,2,0,L|105:52,1,100,0|8,0:0|0:0,0:0:0:0:
72,147,72729,2,0,L|175:161,1,100,6|8,0:0|0:0,0:0:0:0:
268,182,73708,2,0,P|281:218|275:252,1,66.6666666666667,2|0,0:0|0:0,0:0:0:0:
252,267,74198,2,0,P|244:305|246:334,1,66.6666666666667,10|0,0:0|0:0,0:0:0:0:
265,360,74688,6,0,L|154:354,1,100,14|8,0:0|0:0,0:0:0:0:
82,172,76133,2,0,P|131:156|152:158,1,66.6666666666667,8|0,0:0|0:0,0:0:0:0:
176,168,76615,2,0,P|197:122|194:52,1,100,6|8,0:0|0:0,0:0:0:0:
478,174,78563,6,0,L|357:176,1,100,6|0,0:0|0:0,0:0:0:0:
331,263,79544,2,0,L|445:260,1,100,2|0,0:0|0:0,0:0:0:0:
381,347,80526,2,0,L|272:350,1,100,2|0,0:0|0:0,0:0:0:0:
189,309,81508,2,0,P|180:251|186:202,1,100,2|0,0:0|0:0,0:0:0:0:
228,122,82490,6,0,L|121:114,2,100,2|0|0,0:0|0:0|0:0,0:0:0:0:
317,76,83990,1,0,0:0:0:0:
361,270,84990,1,2,0:0:0:0:
165,311,85990,2,0,P|108:303|87:304,1,66.6666666666667,0|0,0:0|0:0,0:0:0:0:
67,317,86490,6,0,P|64:259|64:198,1,100,2|2,0:0|0:0,0:0:0:0:
11,131,87461,2,0,P|57:118|123:138,1,100,2|0,0:0|0:0,0:0:0:0:
201,155,88433,2,0,P|247:165|316:148,1,100,2|0,0:0|0:0,0:0:0:0:
378,99,89445,2,0,P|397:160|374:212,1,100,2|0,0:0|0:0,0:0:0:0:
329,274,90547,5,2,0:0:0:0:
