osu file format v14

[General]
AudioFilename: Hirano Aya - Nichijou Sanka ~ This Place ~.mp3
AudioLeadIn: 1500
PreviewTime: 64708
Countdown: 0
SampleSet: Normal
StackLeniency: 0.7
Mode: 0
LetterboxInBreaks: 1
WidescreenStoryboard: 0

[Editor]
DistanceSpacing: 1
BeatDivisor: 4
GridSize: 4
TimelineZoom: 1

[Metadata]
Title:Nichijou Sanka ~This Place~ (TV Size)
TitleUnicode:日常賛歌 ~This Place~ (TV Size)
Artist:Lucy (CV: Aya Hirano)
ArtistUnicode:ルーシィ (CV:平野綾)
Creator:Dino99
Version:Normal
Source:FAIRY TAIL
Tags:フェアリーテイル japanese pop jpop j-pop ova anime ending Heartfilia character song cRyo[iceeicee] 12BARRY21
BeatmapID:166628
BeatmapSetID:54360

[Difficulty]
HPDrainRate:4
CircleSize:4
OverallDifficulty:3
ApproachRate:6
SliderMultiplier:0.96
SliderTickRate:2

[Events]
//Background and Video events
0,0,"Lucy.jpg",0,0
Video,0,"Ending.avi"
//Break Periods
//Storyboard Layer 0 (Background)
//Storyboard Layer 1 (Fail)
//Storyboard Layer 2 (Pass)
//Storyboard Layer 3 (Foreground)
//Storyboard Layer 4 (Overlay)
//Storyboard Sound Samples

[TimingPoints]
348,315.789473684211,4,1,1,10,1,0
505,-100,4,1,1,15,0,0
663,-100,4,1,1,20,0,0
821,-100,4,1,1,25,0,0
979,-100,4,1,1,30,0,0
1137,-100,4,1,1,35,0,0
1295,-100,4,1,1,40,0,0
1453,-100,4,1,1,45,0,0
1611,-100,4,1,1,50,0,0
1769,-100,4,1,1,55,0,0
1926,-100,4,1,1,60,0,0
2084,-100,4,1,1,65,0,0
2242,-100,4,1,1,70,0,0
2874,-100,4,2,1,75,0,1
12979,-100,4,2,1,70,0,0
21821,-100,4,2,1,80,0,0
22295,-100,4,2,1,80,0,0
22611,-100,4,2,1,40,0,0
23084,-100,4,2,2,45,0,0
31926,-100,4,2,1,45,0,0
32084,-100,4,2,1,50,0,0
32242,-100,4,2,1,50,0,0
32400,-100,4,2,1,55,0,0
32558,-100,4,2,1,55,0,0
32874,-100,4,2,1,65,0,0
33190,-100,4,2,1,65,0,1
33269,-100,4,2,1,65,0,0
41558,-100,4,2,1,60,0,0
42979,-100,4,2,1,55,0,0
43295,-100,4,2,2,50,0,0
52137,-100,4,2,1,45,0,0
52295,-100,4,2,1,50,0,0
52453,-100,4,2,1,50,0,0
52769,-100,4,2,1,55,0,0
52926,-100,4,2,1,60,0,0
53084,-100,4,2,1,65,0,0
53242,-100,4,2,1,70,0,0
53400,-100,4,2,1,72,0,0
62242,-100,4,1,1,75,0,0
62716,-100,4,1,1,80,0,0
63190,-100,4,1,1,75,0,0
63663,-100,4,1,1,80,0,0
64769,-100,4,2,1,75,0,1
83716,-100,4,2,1,60,0,1
84979,-100,4,2,1,70,0,0
87505,-100,4,2,1,75,0,0
88137,-100,4,2,1,50,0,0
88453,-100,4,2,1,65,0,0
88690,-100,4,2,1,55,0,0
88769,-100,4,2,1,50,0,0
88926,-100,4,2,1,40,0,0
89084,-100,4,2,1,30,0,0
89242,-100,4,2,1,20,0,0
89400,-100,4,2,1,10,0,0

[Colours]
Combo1 : 240,98,172
Combo2 : 252,211,73
Combo3 : 255,124,62
Combo4 : 20,167,222

[HitObjects]
256,192,348,12,0,2242,0:0:0:0:
52,168,2874,6,0,B|56:132|56:132|72:112|72:112|76:76,1,96,4|8,3:2|0:0,0:0:0:0:
140,148,3505,2,0,B|136:184|136:184|120:204|120:204|116:240,1,96,0|8,0:0|0:0,0:0:0:0:
116,276,3979,2,0,B|178:321|255:313,1,144,4|8,3:2|0:0,0:0:0:0:
324,252,4769,1,0,0:0:0:0:
344,344,5084,1,8,0:0:0:0:
416,280,5400,6,0,B|424:236|424:236|456:196,1,96,4|8,3:2|0:0,0:0:0:0:
372,148,6032,2,0,B|364:104|364:104|332:64,1,96,0|8,3:2|0:0,0:0:0:0:
296,56,6505,2,0,B|248:68|200:60,1,96,4|0,3:2|3:2,0:0:0:0:
164,48,6979,2,0,B|116:36|68:44,2,96,8|8|8,0:0|0:0|0:0,0:0:0:0:
184,144,7926,6,0,B|112:164|40:140,2,144,4|0|8,3:2|0:0|0:0,0:0:0:0:
164,240,9190,2,0,B|116:248,2,48,8|0|8,0:0|3:2|0:0,0:0:0:0:
144,332,9821,2,0,B|96:340,2,48,8|0|8,0:0|3:2|0:0,0:0:0:0:
236,304,10453,5,4,3:2:0:0:
332,320,10769,1,8,0:0:0:0:
428,336,11084,2,0,B|444:292|436:240,1,96,0|8,3:2|0:0,0:0:0:0:
340,228,11716,2,0,B|331:155|347:84,2,144,8|8|0,0:0|0:0|3:2,0:0:0:0:
244,216,12979,6,8,B|196:212,1,48,12|8,0:0|0:0,0:0:0:0:
128,280,13453,2,0,B|176:284,1,48,8|8,0:0|0:0,0:0:0:0:
108,352,13926,2,0,B|60:348,1,48,8|4,0:0|0:0,0:0:0:0:
28,328,14242,6,0,B|20:280|36:232,1,96,0|8,0:0|0:0,0:0:0:0:
108,168,14874,2,0,B|116:120|100:72,1,96,0|8,3:2|0:0,0:0:0:0:
188,32,15505,5,12,0:0:0:0:
188,32,15663,2,0,B|236:24|284:32,1,96,8|8,0:0|0:0,0:0:0:0:
320,40,16137,2,0,B|364:56|364:56|388:100,1,96,8|8,0:0|0:0,0:0:0:0:
396,136,16611,2,0,B|396:168|412:196|452:204,1,96,4|0,0:0|3:2,0:0:0:0:
488,220,17084,5,8,0:0:0:0:
464,312,17400,1,0,3:2:0:0:
376,348,17716,1,8,0:0:0:0:
284,328,18032,6,0,B|288:280,1,48,12|8,0:0|0:0,0:0:0:0:
192,300,18505,2,0,B|196:252,1,48,8|8,0:0|0:0,0:0:0:0:
100,272,18979,2,0,B|104:224,1,48,8|4,0:0|0:0,0:0:0:0:
92,188,19295,6,0,B|44:168|36:116,1,96,0|8,0:0|0:0,0:0:0:0:
108,52,19926,2,0,B|156:72|164:124,1,96,0|8,3:2|0:0,0:0:0:0:
260,140,20558,1,12,0:0:0:0:
351,114,20874,1,8,0:0:0:0:
377,207,21190,1,8,0:0:0:0:
284,232,21505,1,8,0:0:0:0:
377,207,21821,6,0,B|428:160|428:160|444:88,2,144,8|8|8,0:0|0:0|0:0,0:0:0:0:
352,300,23084,6,0,B|252:276|168:332,1,192,4|8,3:2|0:0,0:0:0:0:
80,292,24032,1,0,3:2:0:0:
48,200,24348,2,0,B|60:152|56:104,1,96
135,159,24979,2,0,B|131:110|143:63,1,96,8|0,0:0|0:0,0:0:0:0:
236,40,25611,6,0,B|268:76|332:80|372:56|372:56|404:92,1,192,0|8,3:2|0:0,0:0:0:0:
468,160,26558,2,0,B|460:208|460:208|420:236,1,96,0|0,3:2|0:0,0:0:0:0:
336,280,27190,2,0,B|344:328|344:328|384:356,2,96,0|8|0,3:2|0:0|0:0,0:0:0:0:
240,260,28137,5,0,3:2:0:0:
160,312,28453,1,0,0:0:0:0:
68,288,28769,2,0,B|48:244|52:192,1,96,8|0,0:0|3:2,0:0:0:0:
52,156,29242,2,0,B|60:120|60:120|112:104|128:40,1,144,0|0,3:2|0:0,0:0:0:0:
224,32,30032,1,8,0:0:0:0:
316,60,30348,1,0,0:0:0:0:
376,136,30663,6,0,B|452:120|464:32,2,144,0|0|0,3:2|0:0|3:2,0:0:0:0:
336,224,31926,2,0,B|320:320,1,96,8|8,0:0|0:0,0:0:0:0:
416,336,32558,2,0,B|432:240,1,96,8|8,0:0|0:0,0:0:0:0:
336,224,33190,5,4,3:2:0:0:
248,260,33505,2,0,B|200:256|152:268,1,96,8|0,0:0|3:2,0:0:0:0:
64,308,34137,1,8,0:0:0:0:
68,212,34453,2,0,B|64:140|64:140|40:72,2,144,2|2|8,3:1|3:1|0:0,0:0:0:0:
156,172,35716,6,0,B|196:144|248:160,1,96,0|8,3:2|0:0,0:0:0:0:
292,76,36348,2,0,B|344:92|384:64,1,96,0|8,3:2|0:0,0:0:0:0:
472,24,36979,2,0,B|484:120,1,96,2|8,3:1|0:0,0:0:0:0:
484,156,37453,2,0,B|452:192|444:244|456:292,1,144,2|8,3:1|0:0,0:0:0:0:
364,324,38242,5,4,3:2:0:0:
280,280,38558,1,8,0:0:0:0:
184,264,38874,2,0,B|144:292|92:272,1,96,0|8,3:2|0:0,0:0:0:0:
140,188,39505,2,0,B|91:192|56:148,1,96,8|8,0:0|0:0,0:0:0:0:
136,96,40137,2,0,B|91:75|83:20,1,96,8|8,0:0|0:0,0:0:0:0:
256,192,40769,12,8,42663,0:0:0:0:
116,292,43295,6,0,B|168:108,1,192,6|2,3:2|0:0,0:0:0:0:
256,72,44242,1,2,3:2:0:0:
344,108,44558,2,0,B|396:292,1,192,2|8,3:2|0:0,0:0:0:0:
312,340,45505,1,2,0:0:0:0:
216,328,45821,6,0,B|168:312|120:328,1,96,2|2,3:2|0:0,0:0:0:0:
112,232,46453,2,0,B|68:248|68:248|20:240,1,96,2|2,0:0|3:2,0:0:0:0:
20,144,47084,2,0,B|68:136|68:136|112:152,1,96,2|2,3:2|0:0,0:0:0:0:
127,56,47716,1,8,0:0:0:0:
222,44,48032,1,0,0:0:0:0:
304,92,48348,6,0,B|322:136|322:136|355:174|342:222|342:222|346:275,1,192,6|0,3:2|0:0,0:0:0:0:
256,312,49295,1,2,3:2:0:0:
165,275,49611,2,0,B|169:222|169:222|156:174|189:136|189:136|208:92,1,192,2|8,3:2|0:0,0:0:0:0:
288,40,50558,1,0,0:0:0:0:
384,48,50874,6,0,B|396:120|384:192,2,144,2|0|2,3:2|0:0|3:2,0:0:0:0:
472,88,52137,2,0,B|475:136|470:183,1,96,8|8,0:0|0:0,0:0:0:0:
432,272,52769,2,0,B|384:280|360:328,1,96,8|8,0:0|0:0,0:0:0:0:
264,332,53400,6,0,B|200:300|200:300|128:292,1,144,4|0,3:2|0:0,0:0:0:0:
36,320,54190,1,0,3:2:0:0:
56,228,54505,2,0,B|80:160|52:84,1,144,4|8,3:2|0:0,0:0:0:0:
128,24,55295,1,0,3:2:0:0:
188,100,55611,1,8,0:0:0:0:
264,40,55926,6,0,B|316:48|316:48|336:92|388:100,1,144,4|0,3:2|0:0,0:0:0:0:
416,192,56716,1,0,3:2:0:0:
388,284,57032,2,0,B|336:292|316:336|316:336|264:344,1,144,4|8,3:2|0:0,0:0:0:0:
172,320,57821,1,0,3:2:0:0:
124,236,58137,1,8,0:0:0:0:
132,140,58453,6,0,B|132:92|180:64|180:64|276:56,1,192,8|8,0:0|0:0,0:0:0:0:
300,148,59400,1,8,0:0:0:0:
328,240,59716,2,0,B|425:231|425:231|473:203|473:155,2,192,8|8|0,0:0|0:0|3:2,0:0:0:0:
240,276,61295,5,8,0:0:0:0:
152,312,61611,2,0,B|104:312|60:340,1,96,0|8,3:2|0:0,0:0:0:0:
56,243,62242,6,0,B|0:228,2,48
90,225,62716,1,0,0:0:0:0:
91,80,63190,2,0,B|70:31,2,48
121,103,63663,1,0,0:0:0:0:
256,48,64137,1,0,0:0:0:0:
256,48,64295,2,0,B|304:76|352:56|352:56|376:96,1,144,0|4,0:0|3:2,0:0:0:0:
400,188,65084,5,8,0:0:0:0:
376,280,65400,2,0,B|340:312|288:316,1,96,0|8,0:0|0:0,0:0:0:0:
252,316,65874,2,0,B|212:284|160:288|160:288|136:328,1,144,4|8,3:2|0:0,0:0:0:0:
48,284,66663,1,0,0:0:0:0:
24,192,66979,1,8,0:0:0:0:
48,100,67295,6,0,B|88:76|88:76|136:80,1,96,4|8,3:2|0:0,0:0:0:0:
228,116,67926,2,0,B|277:120|277:120|317:96,1,96,0|8,3:2|0:0,0:0:0:0:
352,84,68400,2,0,B|396:88|416:124|420:164|396:196,1,144,4|8,3:2|0:0,0:0:0:0:
344,276,69190,1,0,3:2:0:0:
440,284,69505,1,8,0:0:0:0:
344,276,69821,6,0,B|296:288|296:288|260:320,1,96,4|8,3:2|0:0,0:0:0:0:
168,348,70453,2,0,B|116:344|92:292,1,96,0|8,3:2|0:0,0:0:0:0:
88,256,70926,2,0,B|80:188|80:188|40:124,1,144,4|8,3:2|0:0,0:0:0:0:
129,87,71716,1,0,3:2:0:0:
218,51,72032,5,8,0:0:0:0:
309,21,72348,2,0,B|380:19|461:44,2,144,4|0|8,3:2|3:2|0:0,0:0:0:0:
296,116,73611,2,0,B|343:105|392:116,1,96,8|8,0:0|0:0,0:0:0:0:
448,192,74242,2,0,B|401:203|352:192,1,96,8|8,0:0|0:0,0:0:0:0:
276,252,74874,6,0,B|284:300|272:348|272:348|228:364,1,144,4|0,3:2|0:0,0:0:0:0:
180,280,75663,1,0,3:2:0:0:
84,308,75979,2,0,B|76:260|88:212|88:212|132:196,1,144,4|8,3:2|0:0,0:0:0:0:
172,108,76769,1,0,0:0:0:0:
112,36,77084,1,8,0:0:0:0:
172,108,77400,6,0,B|220:88|268:92,1,96,4|8,3:2|0:0,0:0:0:0:
336,28,78032,2,0,B|384:48|432:44,1,96,0|8,3:2|0:0,0:0:0:0:
464,60,78505,2,0,B|476:156,1,96,4|0,3:2|3:2,0:0:0:0:
472,192,78979,1,8,0:0:0:0:
452,284,79295,1,8,0:0:0:0:
364,324,79611,1,8,0:0:0:0:
268,312,79926,6,0,B|244:272|240:216|256:172,2,144,4|0|8,3:2|0:0|0:0,0:0:0:0:
172,312,81190,2,0,B|128:296|76:304,1,96,8|8,0:0|0:0,0:0:0:0:
44,212,81821,2,0,B|88:228|140:220,1,96,8|8,0:0|0:0,0:0:0:0:
256,192,82453,12,8,84348,0:0:0:0:
120,178,84979,5,12,0:0:0:0:
156,170,85137,2,0,B|184:134|184:134|192:86,1,96,8|8,0:0|0:0,0:0:0:0:
208,50,85611,2,0,B|255:29|300:50,1,96,8|8,0:0|0:0,0:0:0:0:
319,84,86084,2,0,B|328:134|328:134|356:170,1,96,4|0,0:0|3:2,0:0:0:0:
392,178,86558,1,8,0:0:0:0:
484,150,86874,1,0,3:2:0:0:
506,243,87190,1,8,0:0:0:0:
414,272,87505,6,0,L|403:324,1,48,8|8,0:0|0:0,0:0:0:0:
377,346,87821,1,8,0:0:0:0:
377,346,87979,2,0,P|301:346|230:332,1,144,8|8,0:0|0:0,0:0:0:0:
197,322,88611,1,4,0:0:0:0:
