osu file format v14

[General]
AudioFilename: kaede.mp3
AudioLeadIn: 0
PreviewTime: 237949
Countdown: 0
SampleSet: Normal
StackLeniency: 0.7
Mode: 1
LetterboxInBreaks: 0
WidescreenStoryboard: 1

[Editor]
Bookmarks: 96401,178726,263841
DistanceSpacing: 0.1
BeatDivisor: 16
GridSize: 32
TimelineZoom: 2.4

[Metadata]
Title:Kaede
TitleUnicode:楓
Artist:Lucrezia (CV: kurokumo)
ArtistUnicode:ルクレツィア (CV: くろくも)
Creator:TaikOseania
Version:Resplendent Refrain
Source:ドラガリアロスト
Tags:mtntwarz lucretia 黒雲 加隈亜衣 ai kakuma dragalia lost eve numa cymusic cygames nintendo japanese pop jpop j-pop video game full version ver. overture
BeatmapID:2736099
BeatmapSetID:1320779

[Difficulty]
HPDrainRate:6
CircleSize:5
OverallDifficulty:5
ApproachRate:5
SliderMultiplier:1.6
SliderTickRate:1

[Events]
//Background and Video events
0,0,"lucretia.jpg",0,0
//Break Periods
//Storyboard Layer 0 (Background)
//Storyboard Layer 1 (Fail)
//Storyboard Layer 2 (Pass)
//Storyboard Layer 3 (Foreground)
//Storyboard Layer 4 (Overlay)
//Storyboard Sound Samples

[TimingPoints]
821,697.674418604651,4,1,0,40,1,0
821,-76.9230769230769,4,1,0,40,0,0
10235,-76.9230769230769,4,1,0,40,0,0
10933,-70.4225352112676,4,1,0,40,0,0
11282,-67.5675675675676,4,1,0,40,0,0
11630,-64.9350649350649,4,1,0,40,0,0
11805,-63.6942675159236,4,1,0,40,0,0
11979,-62.5,4,1,0,65,0,0
24537,-62.5,4,1,0,65,0,0
24886,-64.5161290322581,4,1,0,65,0,0
25235,-66.6666666666667,4,1,0,65,0,0
25410,-68.0272108843537,4,1,0,65,0,0
25584,-68.9655172413793,4,1,0,65,0,0
25933,-71.4285714285714,4,1,0,65,0,0
27328,-76.9230769230769,4,1,0,65,0,0
48258,-76.9230769230769,4,1,0,65,0,0
48607,-75.9493478609246,4,1,0,65,0,0
48956,-75.0000187500047,4,1,0,65,0,0
49130,-74.5341429728837,4,1,0,65,0,0
49305,-74.0740740740741,4,1,0,65,0,0
49654,-71.4285714285714,4,1,0,65,0,0
66398,-71.4285714285714,4,1,0,65,0,0
66747,-71.0059339659015,4,1,0,65,0,0
67096,-70.588218685125,4,1,0,65,0,0
67445,-70.1754385964912,4,1,0,65,0,0
67794,-69.7674580854554,4,1,0,65,0,0
68142,-69.3641458117582,4,1,0,65,0,0
68491,-68.9655172413793,4,1,0,65,0,0
68840,-68.5714442449015,4,1,0,65,0,0
69014,-68.0272108843537,4,1,0,65,0,0
69189,-68.1818026859539,4,1,0,65,0,0
69538,-67.7966101694915,4,1,0,65,0,0
69887,-67.4157454866844,4,1,0,65,0,0
70061,-67.2268907563025,4,1,0,65,0,0
70235,-67.0390911644489,4,1,0,65,0,0
70410,-66.8523825854892,4,1,0,65,0,0
70584,-66.6666666666667,4,1,0,65,0,0
71282,-50,4,1,0,65,0,0
71456,-66.6666666666667,4,1,0,65,0,0
71983,697.674418604651,4,1,0,70,1,1
71983,-62.5,4,1,0,70,0,9
77215,-62.5,4,1,0,70,0,9
77299,-61.576354679803,4,1,0,70,0,9
77387,-60.6796116504854,4,1,0,70,0,9
77561,-58.9622641509434,4,1,0,70,0,9
77910,-62.5,4,1,0,70,0,9
82793,-62.5,4,1,0,70,0,9
82968,-60.6060606060606,4,1,0,70,0,9
83055,-59.7014925373134,4,1,0,70,0,9
83142,-58.8235294117647,4,1,0,70,0,9
83491,-62.5,4,1,0,70,0,9
88375,-62.5,4,1,0,70,0,9
88549,-60.6796116504854,4,1,0,70,0,9
88636,-59.8086124401914,4,1,0,70,0,9
88723,-58.9622641509434,4,1,0,70,0,9
89072,-62.65664160401,4,1,0,70,0,9
89421,-58.9622641509434,4,1,0,70,0,9
89770,-62.65664160401,4,1,0,70,0,9
90119,-58.9622641509434,4,1,0,70,0,9
90468,-62.65664160401,4,1,0,70,0,9
90816,-58.9622641509434,4,1,0,70,0,9
91165,-62.65664160401,4,1,0,70,0,9
91514,-58.9622641509434,4,1,0,70,0,9
91863,-62.65664160401,4,1,0,70,0,9
96401,-71.4285714285714,4,1,0,40,0,8
96747,-74.0740740740741,4,1,0,40,0,8
97099,697.674418604651,4,1,0,40,1,0
97099,-76.9230769230769,4,1,0,40,0,8
105118,-66.6666666666667,4,1,0,40,0,8
105292,-76.9230769230769,4,1,0,40,0,8
107909,-66.6666666666667,4,1,0,40,0,8
109657,697.674418604651,4,1,0,50,1,0
109657,-71.4285714285714,4,1,0,50,0,8
119769,-71.4285714285714,4,1,0,50,0,8
119943,-70.2005630085153,4,1,0,50,0,8
120031,-69.6022578972462,4,1,0,50,0,8
120118,-69.0140650664605,4,1,0,50,0,8
120292,-67.8670538708314,4,1,0,50,0,8
120467,-66.7575013735356,4,1,0,50,0,8
120815,-71.6332378223496,4,1,0,50,0,8
129885,-71.4285714285714,4,1,0,50,0,8
130234,-70.9219858156028,4,1,0,50,0,8
130583,-70.4225352112676,4,1,0,50,0,8
130932,-69.9300699300699,4,1,0,50,0,8
131106,-69.6864111498258,4,1,0,50,0,8
131281,-69.4444444444444,4,1,0,50,0,8
131629,-68.9655172413793,4,1,0,50,0,8
131978,-66.6666666666667,4,1,0,65,0,8
148722,-66.6666666666667,4,1,0,65,0,8
149071,-66.2983571930071,4,1,0,65,0,8
149420,-65.9340514430656,4,1,0,65,0,8
149769,-65.5737704918033,4,1,0,65,0,8
150118,-65.2174054820447,4,1,0,65,0,8
150467,-64.8648508400323,4,1,0,65,0,8
150815,-64.5161290322581,4,1,0,65,0,8
151164,-64.1711367210988,4,1,0,65,0,8
151339,-63.6942675159236,4,1,0,65,0,8
151513,-63.8297736532396,4,1,0,65,0,8
151862,-63.4920634920635,4,1,0,65,0,8
152211,-63.1579080332438,4,1,0,65,0,8
152385,-62.992125984252,4,1,0,65,0,8
152560,-62.8272119733588,4,1,0,65,0,8
152734,-62.6631984675088,4,1,0,65,0,8
152909,-62.5,4,1,0,65,0,8
153606,-50,4,1,0,65,0,8
153781,-62.5,4,1,0,65,0,8
154308,-58.8235294117647,4,1,0,70,0,9
159536,-58.8235294117647,4,1,0,70,0,9
159624,-58.0046403712297,4,1,0,70,0,9
159711,-57.20823798627,4,1,0,70,0,9
159885,-55.6792873051225,4,1,0,70,0,9
160234,-58.9622641509434,4,1,0,70,0,9
165118,-58.8235294117647,4,1,0,70,0,9
165292,-57.1428571428571,4,1,0,70,0,9
165379,-56.3380281690141,4,1,0,70,0,9
165467,-55.5555555555556,4,1,0,70,0,9
165815,-58.8235294117647,4,1,0,70,0,9
170699,-58.8235294117647,4,1,0,70,0,9
170874,-57.20823798627,4,1,0,70,0,9
170961,-56.4334085778781,4,1,0,70,0,9
171048,-55.6792873051225,4,1,0,70,0,9
171397,-58.9622641509434,4,1,0,70,0,9
171746,-55.6792873051225,4,1,0,70,0,9
172095,-58.9622641509434,4,1,0,70,0,9
172443,-55.6792873051225,4,1,0,70,0,9
172796,-58.8235294117647,4,1,0,70,0,9
172970,-58.2601876677165,4,1,0,70,0,9
173145,-57.7075003015217,4,1,0,70,0,9
173319,-57.165233248443,4,1,0,70,0,9
173494,-56.6330624951508,4,1,0,70,0,9
173668,-56.1106771885409,4,1,0,70,0,9
173843,-55.6391069478222,4,1,0,70,0,9
174188,-58.9622641509434,4,1,0,70,0,9
178726,-66.6666666666667,4,1,0,40,0,9
178897,-68.9655172413793,4,1,0,40,0,9
179071,-71.4285714285714,4,1,0,40,0,9
179424,697.674418604651,4,1,0,65,1,0
179424,-76.9230769230769,4,1,0,65,0,8
200699,-76.9230769230769,4,1,0,65,0,8
200874,-72.8862973760933,4,1,0,65,0,8
200961,-71.0227272727273,4,1,0,65,0,8
201048,-69.2520775623269,4,1,0,65,0,8
201397,-76.9230769230769,4,1,0,65,0,8
201746,-76.9230769230769,4,1,0,40,0,8
212036,-76.9230769230769,4,1,0,60,0,8
212211,-74.8091431734787,4,1,0,60,0,8
212385,-72.8083415060697,4,1,0,60,0,8
212734,-69.1114138191036,4,1,0,60,0,8
212909,-66.6666666666667,4,1,0,60,0,8
213257,-66.6666666666667,4,1,0,60,0,8
213432,-64.5994832041344,4,1,0,60,0,8
213519,-63.6132315521628,4,1,0,60,0,8
213606,-62.65664160401,4,1,0,60,0,8
213955,-66.6666666666667,4,1,0,60,0,8
215002,-66.6666666666667,4,1,0,60,0,8
215089,-64.5994832041344,4,1,0,60,0,8
215176,-62.65664160401,4,1,0,60,0,8
215263,-60.8272506082725,4,1,0,60,0,8
215350,-59.1016548463357,4,1,0,60,0,8
215699,-66.6666666666667,4,1,0,60,0,8
216048,-66.6666666666667,4,1,0,60,0,8
216222,-64.5994832041344,4,1,0,60,0,8
216310,-63.6132315521628,4,1,0,60,0,8
216397,-62.65664160401,4,1,0,60,0,8
216746,-66.8449197860962,4,1,0,60,0,8
217792,-66.6666666666667,4,1,0,60,0,8
217879,-64.5994832041344,4,1,0,60,0,8
217967,-62.65664160401,4,1,0,60,0,8
218054,-60.8272506082725,4,1,0,60,0,8
218141,-59.1016548463357,4,1,0,60,0,8
218490,-66.6666666666667,4,1,0,60,0,8
218839,-66.6666666666667,4,1,0,60,0,8
219013,-64.5161290322581,4,1,0,60,0,8
219100,-63.4920634920635,4,1,0,60,0,8
219188,-62.5,4,1,0,60,0,8
219536,-66.6666666666667,4,1,0,60,0,8
220583,-66.6666666666667,4,1,0,60,0,8
220670,-64.5994832041344,4,1,0,60,0,8
220757,-62.65664160401,4,1,0,60,0,8
220845,-60.8272506082725,4,1,0,60,0,8
220932,-59.1016548463357,4,1,0,60,0,8
221281,-66.6666666666667,4,1,0,60,0,8
221629,-66.6666666666667,4,1,0,60,0,8
221804,-64.5994832041344,4,1,0,60,0,8
221891,-63.6132315521628,4,1,0,60,0,8
221978,-62.65664160401,4,1,0,60,0,8
222327,-66.6666666666667,4,1,0,60,0,8
223374,-66.6666666666667,4,1,0,60,0,8
223461,-64.5994832041344,4,1,0,60,0,8
223548,-62.65664160401,4,1,0,60,0,8
223635,-60.8272506082725,4,1,0,60,0,8
223722,-59.1016548463357,4,1,0,60,0,8
224071,-66.6666666666667,4,1,0,60,0,8
224420,-66.6666666666667,4,1,0,60,0,8
224595,-64.5994832041344,4,1,0,60,0,8
224682,-63.6132315521628,4,1,0,60,0,8
224769,-62.65664160401,4,1,0,60,0,8
225118,-66.6666666666667,4,1,0,60,0,8
226164,-66.6666666666667,4,1,0,60,0,8
226252,-64.5994832041344,4,1,0,60,0,8
226339,-62.65664160401,4,1,0,60,0,8
226426,-60.8272506082725,4,1,0,60,0,8
226513,-59.1016548463357,4,1,0,60,0,8
226862,-66.6666666666667,4,1,0,60,0,8
227211,-66.6666666666667,4,1,0,60,0,8
227385,-64.5161290322581,4,1,0,60,0,8
227472,-63.4920634920635,4,1,0,60,0,8
227560,-62.5,4,1,0,60,0,8
227909,-66.6666666666667,4,1,0,60,0,8
228955,-66.6666666666667,4,1,0,60,0,8
229042,-64.5994832041344,4,1,0,60,0,8
229129,-62.65664160401,4,1,0,60,0,8
229217,-60.8272506082725,4,1,0,60,0,8
229304,-59.1016548463357,4,1,0,60,0,8
229653,-66.6666666666667,4,1,0,60,0,8
230002,-66.6666666666667,4,1,0,60,0,8
230176,-66.3516291315501,4,1,0,60,0,8
230350,-66.039598664151,4,1,0,60,0,8
230525,-65.7304460139414,4,1,0,60,0,8
230699,-65.4241743632756,4,1,0,60,0,8
230874,-65.1207860339357,4,1,0,60,0,8
231048,-64.8201564758577,4,1,0,60,0,8
231222,-64.5222898702586,4,1,0,60,0,8
231397,-64.2271895530623,4,1,0,60,0,8
231571,-63.9347354220811,4,1,0,60,0,8
231746,-63.6449325586472,4,1,0,60,0,8
231920,-63.3577852145738,4,1,0,60,0,8
232095,-63.0731775005361,4,1,0,60,0,8
232269,-62.7911153083483,4,1,0,60,0,8
232443,-62.5116037164399,4,1,0,60,0,8
232618,-62.2345308294307,4,1,0,60,0,8
232792,-61.959903268199,4,1,0,60,0,8
232967,-61.6877268566155,4,1,0,60,0,8
233141,-61.4178934890891,4,1,0,60,0,8
233315,-61.1504104415549,4,1,0,60,0,8
233490,-60.8852842094624,4,1,0,60,0,8
233664,-60.6224102864106,4,1,0,60,0,8
233839,-60.3617965360779,4,1,0,60,0,8
234013,-60.1034500582402,4,1,0,60,0,8
234188,-59.8472697675532,4,1,0,60,0,8
234362,-59.5932640541774,4,1,0,60,0,8
234536,-59.3414405609428,4,1,0,60,0,8
234711,-59.0917014569059,4,1,0,70,0,8
234798,-58.9676185219649,4,1,0,70,0,8
234885,-58.844055602925,4,1,0,70,0,8
235234,-58.8235294117647,4,1,0,70,0,8
235583,-66.6666666666667,4,1,0,70,0,8
237153,-66.6666666666667,4,1,0,70,0,8
237327,-64.052307676541,4,1,0,70,0,8
237676,-59.3939559522544,4,1,0,70,0,8
237763,-58.3333236111127,4,1,0,70,0,8
237850,-57.3099401798844,4,1,0,70,0,8
238028,697.674418604651,4,1,0,80,1,1
238028,-55.5555555555556,4,1,0,80,0,9
243257,-55.5555555555556,4,1,0,80,0,9
243345,-54.8245614035088,4,1,0,80,0,9
243432,-54.1125541125541,4,1,0,80,0,9
243606,-52.7426160337553,4,1,0,80,0,9
243955,-55.6792873051225,4,1,0,80,0,9
248839,-55.5555555555556,4,1,0,80,0,9
248926,-54.7945205479452,4,1,0,80,0,9
249013,-54.054054054054,4,1,0,80,0,9
249100,-53.475935828877,4,1,0,80,0,9
249188,-52.6315789473684,4,1,0,80,0,9
249536,-55.5555555555556,4,1,0,80,0,9
254246,-55.5555555555556,4,1,0,80,0,9
254420,-54.5454644628117,4,1,0,80,0,9
254595,-53.5714190051037,4,1,0,80,0,9
254682,-53.0973545305052,4,1,0,80,0,9
254769,-52.6315789473684,4,1,0,80,0,9
255118,-55.5555555555556,4,1,0,80,0,9
255467,-50,4,1,0,80,0,9
255815,-55.5555555555556,4,1,0,80,0,9
256164,-50,4,1,0,80,0,9
256516,-55.5555555555556,4,1,0,80,0,9
256690,-54.5454644628117,4,1,0,80,0,9
256865,-53.5714190051037,4,1,0,80,0,9
257039,-52.6315789473684,4,1,0,80,0,9
257214,-51.7241468489908,4,1,0,80,0,9
257388,-50.8474490089069,4,1,0,80,0,9
257562,-50,4,1,0,80,0,9
257909,-55.5555555555556,4,1,0,80,0,9
260350,-55.5555555555556,4,1,0,80,0,9
260525,-55.8103920066124,4,1,0,80,0,9
260699,-56.0675771293625,4,1,0,80,0,9
260786,-56.1970764032972,4,1,0,80,0,9
260874,-56.3271752710182,4,1,0,80,0,9
261048,-56.58915649901,4,1,0,80,0,9
261222,-56.8535860967966,4,1,0,80,0,9
261397,-57.1204985477113,4,1,0,80,0,9
261748,-58.8235294117647,4,1,0,40,0,9
263841,-76.9230769230769,4,1,0,40,0,8
264539,697.674418604651,4,1,0,40,1,0
264539,-76.9230769230769,4,1,0,40,0,0
275309,-76.9230769230769,4,1,0,40,0,8
275396,-74.0740740740741,4,1,0,40,0,8
275483,-71.4285714285714,4,1,0,40,0,8
275699,-76.9230769230769,4,1,0,25,0,8

[HitObjects]
256,192,821,5,0,0:0:0:0:
256,192,1169,1,8,0:0:0:0:
256,192,1518,1,0,0:0:0:0:
256,192,1867,1,0,0:0:0:0:
256,192,2565,1,8,0:0:0:0:
256,192,2914,1,0,0:0:0:0:
256,192,3262,1,0,0:0:0:0:
256,192,3437,1,8,0:0:0:0:
256,192,3611,1,8,0:0:0:0:
256,192,3960,1,8,0:0:0:0:
256,192,4309,1,0,0:0:0:0:
256,192,4658,1,8,0:0:0:0:
256,192,5355,1,8,0:0:0:0:
256,192,5704,1,0,0:0:0:0:
256,192,6402,1,0,0:0:0:0:
256,192,6751,1,8,0:0:0:0:
256,192,7100,1,0,0:0:0:0:
256,192,7448,1,0,0:0:0:0:
256,192,8146,1,8,0:0:0:0:
256,192,8495,1,0,0:0:0:0:
256,192,8844,1,0,0:0:0:0:
256,192,9018,1,8,0:0:0:0:
256,192,9193,1,8,0:0:0:0:
256,192,9541,1,8,0:0:0:0:
256,192,9890,1,0,0:0:0:0:
256,192,10239,1,8,0:0:0:0:
256,192,10937,1,8,0:0:0:0:
256,192,11286,1,0,0:0:0:0:
256,192,11634,1,8,0:0:0:0:
256,192,11809,1,8,0:0:0:0:
256,192,11983,1,12,0:0:0:0:
256,192,12332,1,0,0:0:0:0:
256,192,12507,1,8,0:0:0:0:
256,192,12681,1,8,0:0:0:0:
256,192,13030,1,12,0:0:0:0:
256,192,13379,1,8,0:0:0:0:
256,192,13553,1,8,0:0:0:0:
256,192,13727,1,0,0:0:0:0:
256,192,14076,1,8,0:0:0:0:
256,192,14425,1,0,0:0:0:0:
256,192,14774,1,12,0:0:0:0:
256,192,15123,1,0,0:0:0:0:
256,192,15297,1,0,0:0:0:0:
256,192,15472,1,8,0:0:0:0:
256,192,15820,1,12,0:0:0:0:
256,192,16169,1,0,0:0:0:0:
256,192,16344,1,0,0:0:0:0:
256,192,16518,1,8,0:0:0:0:
256,192,16867,1,8,0:0:0:0:
256,192,17216,1,8,0:0:0:0:
256,192,17390,1,8,0:0:0:0:
256,192,17565,1,12,0:0:0:0:
256,192,17914,1,0,0:0:0:0:
256,192,18088,1,8,0:0:0:0:
256,192,18262,1,8,0:0:0:0:
256,192,18611,1,12,0:0:0:0:
256,192,18960,1,8,0:0:0:0:
256,192,19134,1,8,0:0:0:0:
256,192,19309,1,0,0:0:0:0:
256,192,19658,1,8,0:0:0:0:
256,192,20007,1,0,0:0:0:0:
256,192,20181,1,0,0:0:0:0:
256,192,20355,1,12,0:0:0:0:
256,192,20704,1,0,0:0:0:0:
256,192,21053,1,8,0:0:0:0:
256,192,21227,1,0,0:0:0:0:
256,192,21402,1,0,0:0:0:0:
256,192,21751,1,12,0:0:0:0:
256,192,22100,1,0,0:0:0:0:
256,192,22274,1,0,0:0:0:0:
256,192,22448,1,8,0:0:0:0:
256,192,22797,1,0,0:0:0:0:
256,192,23146,1,8,0:0:0:0:
256,192,23495,1,0,0:0:0:0:
256,192,23844,1,8,0:0:0:0:
256,192,24018,1,0,0:0:0:0:
256,192,24193,1,0,0:0:0:0:
256,192,24541,1,8,0:0:0:0:
256,192,24890,1,0,0:0:0:0:
256,192,25239,1,0,0:0:0:0:
256,192,25414,1,0,0:0:0:0:
256,192,25588,1,8,0:0:0:0:
256,192,25937,1,12,0:0:0:0:
256,192,27332,1,8,0:0:0:0:
256,192,28030,1,8,0:0:0:0:
256,192,28204,1,0,0:0:0:0:
256,192,28727,1,0,0:0:0:0:
256,192,29425,1,0,0:0:0:0:
256,192,29600,1,8,0:0:0:0:
256,192,30123,1,8,0:0:0:0:
256,192,30820,1,0,0:0:0:0:
256,192,30995,1,8,0:0:0:0:
256,192,31518,1,0,0:0:0:0:
256,192,32216,1,8,0:0:0:0:
256,192,32390,1,0,0:0:0:0:
256,192,32914,1,0,0:0:0:0:
256,192,33611,1,8,0:0:0:0:
256,192,33786,1,0,0:0:0:0:
256,192,34309,1,0,0:0:0:0:
256,192,35007,1,0,0:0:0:0:
256,192,35181,1,8,0:0:0:0:
256,192,35704,1,8,0:0:0:0:
256,192,36402,1,8,0:0:0:0:
256,192,36576,1,0,0:0:0:0:
256,192,37100,1,0,0:0:0:0:
256,192,37797,1,8,0:0:0:0:
256,192,37972,1,0,0:0:0:0:
256,192,38495,1,8,0:0:0:0:
256,192,39541,1,0,0:0:0:0:
256,192,39716,1,8,0:0:0:0:
256,192,39890,1,0,0:0:0:0:
256,192,40937,1,8,0:0:0:0:
256,192,41111,1,0,0:0:0:0:
256,192,41286,1,8,0:0:0:0:
256,192,42332,1,0,0:0:0:0:
256,192,42681,1,8,0:0:0:0:
256,192,43030,1,8,0:0:0:0:
256,192,43204,1,0,0:0:0:0:
256,192,43553,1,8,0:0:0:0:
256,192,43727,1,8,0:0:0:0:
256,192,44076,1,0,0:0:0:0:
256,192,45123,1,0,0:0:0:0:
256,192,45297,1,8,0:0:0:0:
256,192,45472,1,8,0:0:0:0:
256,192,45820,1,8,0:0:0:0:
256,192,45995,1,0,0:0:0:0:
256,192,46344,1,8,0:0:0:0:
256,192,46518,1,0,0:0:0:0:
256,192,46867,1,8,0:0:0:0:
256,192,47565,1,8,0:0:0:0:
256,192,48262,1,8,0:0:0:0:
256,192,48611,1,0,0:0:0:0:
256,192,48960,1,8,0:0:0:0:
256,192,49134,1,0,0:0:0:0:
256,192,49309,1,0,0:0:0:0:
256,192,49658,1,8,0:0:0:0:
256,192,50355,1,8,0:0:0:0:
256,192,50530,1,0,0:0:0:0:
256,192,50704,1,0,0:0:0:0:
256,192,51053,1,8,0:0:0:0:
256,192,51402,1,0,0:0:0:0:
256,192,51751,1,0,0:0:0:0:
256,192,51925,1,8,0:0:0:0:
256,192,52448,1,8,0:0:0:0:
256,192,53146,1,8,0:0:0:0:
256,192,53320,1,0,0:0:0:0:
256,192,53495,1,0,0:0:0:0:
256,192,53844,1,8,0:0:0:0:
256,192,54193,1,0,0:0:0:0:
256,192,54541,1,0,0:0:0:0:
256,192,54716,1,8,0:0:0:0:
256,192,55239,1,8,0:0:0:0:
256,192,55937,1,8,0:0:0:0:
256,192,56111,1,0,0:0:0:0:
256,192,56286,1,0,0:0:0:0:
256,192,56634,1,8,0:0:0:0:
256,192,56983,1,0,0:0:0:0:
256,192,57332,1,0,0:0:0:0:
256,192,57507,1,8,0:0:0:0:
256,192,58030,1,8,0:0:0:0:
256,192,58727,1,0,0:0:0:0:
256,192,58902,1,8,0:0:0:0:
256,192,59076,1,0,0:0:0:0:
256,192,59425,1,8,0:0:0:0:
256,192,59774,1,0,0:0:0:0:
256,192,60123,1,8,0:0:0:0:
256,192,60472,1,8,0:0:0:0:
256,192,60646,1,8,0:0:0:0:
256,192,60820,1,0,0:0:0:0:
256,192,61518,1,8,0:0:0:0:
256,192,61867,1,0,0:0:0:0:
256,192,62041,1,8,0:0:0:0:
256,192,62216,1,0,0:0:0:0:
256,192,62565,1,0,0:0:0:0:
256,192,62914,1,8,0:0:0:0:
256,192,63262,1,0,0:0:0:0:
256,192,63437,1,0,0:0:0:0:
256,192,63611,1,8,0:0:0:0:
256,192,64309,1,8,0:0:0:0:
256,192,64658,1,0,0:0:0:0:
256,192,65007,1,8,0:0:0:0:
256,192,65181,1,0,0:0:0:0:
256,192,65355,1,0,0:0:0:0:
256,192,65704,1,0,0:0:0:0:
256,192,65879,1,8,0:0:0:0:
256,192,66053,1,8,0:0:0:0:
256,192,66402,1,12,0:0:0:0:
256,192,66751,1,0,0:0:0:0:
256,192,67100,1,8,0:0:0:0:
256,192,67448,1,0,0:0:0:0:
256,192,67797,1,8,0:0:0:0:
256,192,68146,1,0,0:0:0:0:
256,192,68495,1,8,0:0:0:0:
256,192,68844,1,0,0:0:0:0:
256,192,69018,1,0,0:0:0:0:
256,192,69193,1,8,0:0:0:0:
256,192,69541,1,0,0:0:0:0:
256,192,69716,1,8,0:0:0:0:
256,192,69890,1,8,0:0:0:0:
256,192,70065,1,0,0:0:0:0:
256,192,70239,1,0,0:0:0:0:
256,192,70414,1,0,0:0:0:0:
256,192,70588,1,8,0:0:0:0:
256,192,71286,1,12,0:0:0:0:
256,192,71983,1,12,0:0:0:0:
256,192,72331,1,0,0:0:0:0:
256,192,72680,1,8,0:0:0:0:
256,192,72855,1,0,0:0:0:0:
256,192,73203,1,0,0:0:0:0:
256,192,73378,1,8,0:0:0:0:
256,192,73727,1,8,0:0:0:0:
256,192,73901,1,0,0:0:0:0:
256,192,74076,1,0,0:0:0:0:
256,192,74250,1,8,0:0:0:0:
256,192,74599,1,8,0:0:0:0:
256,192,74773,1,0,0:0:0:0:
256,192,75122,1,0,0:0:0:0:
256,192,75471,1,0,0:0:0:0:
256,192,75645,1,8,0:0:0:0:
256,192,75994,1,8,0:0:0:0:
256,192,76169,1,0,0:0:0:0:
256,192,76343,1,8,0:0:0:0:
256,192,76517,1,0,0:0:0:0:
256,192,76692,1,0,0:0:0:0:
256,192,76866,1,8,0:0:0:0:
256,192,77215,1,0,0:0:0:0:
256,192,77302,1,0,0:0:0:0:
256,192,77389,1,0,0:0:0:0:
256,192,77564,1,12,0:0:0:0:
256,192,77913,1,0,0:0:0:0:
256,192,78262,1,8,0:0:0:0:
256,192,78610,1,0,0:0:0:0:
256,192,78785,1,0,0:0:0:0:
256,192,78959,1,8,0:0:0:0:
256,192,79134,1,0,0:0:0:0:
256,192,79308,1,0,0:0:0:0:
256,192,79657,1,8,0:0:0:0:
256,192,79831,1,0,0:0:0:0:
256,192,80180,1,0,0:0:0:0:
256,192,80355,1,8,0:0:0:0:
256,192,80703,1,0,0:0:0:0:
256,192,80878,1,0,0:0:0:0:
256,192,81052,1,8,0:0:0:0:
256,192,81227,1,0,0:0:0:0:
256,192,81576,1,0,0:0:0:0:
256,192,81750,1,8,0:0:0:0:
256,192,81924,1,0,0:0:0:0:
256,192,82099,1,8,0:0:0:0:
256,192,82273,1,8,0:0:0:0:
256,192,82448,1,0,0:0:0:0:
256,192,82796,1,8,0:0:0:0:
256,192,82971,1,0,0:0:0:0:
256,192,83058,1,0,0:0:0:0:
256,192,83145,1,12,0:0:0:0:
256,192,83494,1,0,0:0:0:0:
256,192,83843,1,8,0:0:0:0:
256,192,84017,1,0,0:0:0:0:
256,192,84366,1,0,0:0:0:0:
256,192,84541,1,8,0:0:0:0:
256,192,84715,1,0,0:0:0:0:
256,192,84889,1,0,0:0:0:0:
256,192,85238,1,8,0:0:0:0:
256,192,85413,1,8,0:0:0:0:
256,192,85587,1,0,0:0:0:0:
256,192,85762,1,0,0:0:0:0:
256,192,85936,1,8,0:0:0:0:
256,192,86285,1,0,0:0:0:0:
256,192,86634,1,0,0:0:0:0:
256,192,86808,1,8,0:0:0:0:
256,192,87157,1,8,0:0:0:0:
256,192,87331,1,0,0:0:0:0:
256,192,87680,1,0,0:0:0:0:
256,192,87855,1,8,0:0:0:0:
256,192,88029,1,8,0:0:0:0:
256,192,88378,1,0,0:0:0:0:
256,192,88552,1,0,0:0:0:0:
256,192,88639,1,0,0:0:0:0:
256,192,88727,1,12,0:0:0:0:
256,192,89076,1,0,0:0:0:0:
256,192,89424,1,12,0:0:0:0:
256,192,89773,1,0,0:0:0:0:
256,192,90122,1,12,0:0:0:0:
256,192,90471,1,0,0:0:0:0:
256,192,90820,1,12,0:0:0:0:
256,192,91169,1,0,0:0:0:0:
256,192,91517,1,12,0:0:0:0:
256,192,91866,1,0,0:0:0:0:
256,192,92041,1,8,0:0:0:0:
256,192,92215,1,8,0:0:0:0:
256,192,92389,1,0,0:0:0:0:
256,192,92564,1,8,0:0:0:0:
256,192,92913,1,8,0:0:0:0:
256,192,93087,1,0,0:0:0:0:
256,192,93262,1,0,0:0:0:0:
256,192,93610,1,8,0:0:0:0:
256,192,93785,1,0,0:0:0:0:
256,192,93959,1,8,0:0:0:0:
256,192,94308,1,8,0:0:0:0:
256,192,94483,1,0,0:0:0:0:
256,192,94657,1,0,0:0:0:0:
256,192,94744,1,8,0:0:0:0:
256,192,94831,1,8,0:0:0:0:
256,192,95006,1,8,0:0:0:0:
256,192,95180,1,0,0:0:0:0:
256,192,95355,1,0,0:0:0:0:
256,192,95442,1,0,0:0:0:0:
256,192,95529,1,8,0:0:0:0:
256,192,95703,1,12,0:0:0:0:
256,192,96401,1,8,0:0:0:0:
256,192,96750,1,0,0:0:0:0:
256,192,97099,1,12,0:0:0:0:
256,192,97447,1,0,0:0:0:0:
256,192,97622,1,8,0:0:0:0:
256,192,97796,1,8,0:0:0:0:
256,192,98145,1,8,0:0:0:0:
256,192,98494,1,0,0:0:0:0:
256,192,98843,1,0,0:0:0:0:
256,192,99017,1,0,0:0:0:0:
256,192,99192,1,8,0:0:0:0:
256,192,99540,1,8,0:0:0:0:
256,192,100238,1,0,0:0:0:0:
256,192,100587,1,8,0:0:0:0:
256,192,100936,1,0,0:0:0:0:
256,192,101110,1,8,0:0:0:0:
256,192,101285,1,8,0:0:0:0:
256,192,101633,1,0,0:0:0:0:
256,192,101982,1,8,0:0:0:0:
256,192,102331,1,0,0:0:0:0:
256,192,102680,1,8,0:0:0:0:
256,192,103029,1,0,0:0:0:0:
256,192,103203,1,8,0:0:0:0:
256,192,103378,1,8,0:0:0:0:
256,192,103726,1,8,0:0:0:0:
256,192,104075,1,8,0:0:0:0:
256,192,104424,1,0,0:0:0:0:
256,192,104773,1,8,0:0:0:0:
256,192,105122,1,12,0:0:0:0:
256,192,105819,1,0,0:0:0:0:
256,192,106168,1,8,0:0:0:0:
256,192,106517,1,0,0:0:0:0:
256,192,106866,1,12,0:0:0:0:
256,192,107564,1,12,0:0:0:0:
256,192,107912,1,0,0:0:0:0:
256,192,108087,1,0,0:0:0:0:
256,192,108174,1,0,0:0:0:0:
256,192,108261,1,8,0:0:0:0:
256,192,108436,1,0,0:0:0:0:
256,192,108610,1,8,0:0:0:0:
256,192,108785,1,0,0:0:0:0:
256,192,108872,1,8,0:0:0:0:
256,192,108959,1,8,0:0:0:0:
256,192,109133,1,0,0:0:0:0:
256,192,109308,1,0,0:0:0:0:
256,192,109657,1,12,0:0:0:0:
256,192,110354,1,0,0:0:0:0:
256,192,110529,1,8,0:0:0:0:
256,192,111052,1,0,0:0:0:0:
256,192,111750,1,0,0:0:0:0:
256,192,111924,1,8,0:0:0:0:
256,192,112098,1,0,0:0:0:0:
256,192,112273,1,0,0:0:0:0:
256,192,112447,1,8,0:0:0:0:
256,192,113145,1,0,0:0:0:0:
256,192,113494,1,8,0:0:0:0:
256,192,114148,1,8,0:0:0:0:
256,192,114235,1,8,0:0:0:0:
256,192,114540,1,8,0:0:0:0:
256,192,114715,1,8,0:0:0:0:
256,192,114889,1,0,0:0:0:0:
256,192,115238,1,8,0:0:0:0:
256,192,115936,1,8,0:0:0:0:
256,192,116633,1,0,0:0:0:0:
256,192,116938,1,8,0:0:0:0:
256,192,117026,1,8,0:0:0:0:
256,192,117331,1,8,0:0:0:0:
256,192,117505,1,0,0:0:0:0:
256,192,117680,1,0,0:0:0:0:
256,192,118029,1,8,0:0:0:0:
256,192,118726,1,8,0:0:0:0:
256,192,118901,1,0,0:0:0:0:
256,192,119075,1,0,0:0:0:0:
256,192,119424,1,8,0:0:0:0:
256,192,119773,1,0,0:0:0:0:
256,192,119947,1,0,0:0:0:0:
256,192,120034,1,8,0:0:0:0:
256,192,120122,1,8,0:0:0:0:
256,192,120296,1,0,0:0:0:0:
256,192,120470,1,0,0:0:0:0:
256,192,120819,1,8,0:0:0:0:
256,192,121168,1,0,0:0:0:0:
256,192,121343,1,0,0:0:0:0:
256,192,121517,1,8,0:0:0:0:
256,192,121866,1,0,0:0:0:0:
256,192,122040,1,8,0:0:0:0:
256,192,122215,1,0,0:0:0:0:
256,192,122563,1,0,0:0:0:0:
256,192,122912,1,8,0:0:0:0:
256,192,123261,1,8,0:0:0:0:
256,192,123436,1,0,0:0:0:0:
256,192,123610,1,8,0:0:0:0:
256,192,123959,1,0,0:0:0:0:
256,192,124308,1,8,0:0:0:0:
256,192,124657,1,0,0:0:0:0:
256,192,124831,1,0,0:0:0:0:
256,192,125005,1,8,0:0:0:0:
256,192,125354,1,0,0:0:0:0:
256,192,125529,1,8,0:0:0:0:
256,192,125877,1,8,0:0:0:0:
256,192,126052,1,8,0:0:0:0:
256,192,126401,1,8,0:0:0:0:
256,192,127098,1,8,0:0:0:0:
256,192,127447,1,0,0:0:0:0:
256,192,127622,1,0,0:0:0:0:
256,192,127796,1,8,0:0:0:0:
256,192,128145,1,8,0:0:0:0:
256,192,128494,1,0,0:0:0:0:
256,192,128668,1,8,0:0:0:0:
256,192,128843,1,0,0:0:0:0:
256,192,129191,1,8,0:0:0:0:
256,192,129889,1,8,0:0:0:0:
256,192,130238,1,0,0:0:0:0:
256,192,130587,1,8,0:0:0:0:
256,192,130936,1,0,0:0:0:0:
256,192,131110,1,8,0:0:0:0:
256,192,131284,1,8,0:0:0:0:
256,192,131633,1,0,0:0:0:0:
256,192,131982,1,8,0:0:0:0:
256,192,132331,1,0,0:0:0:0:
256,192,132505,1,8,0:0:0:0:
256,192,132680,1,8,0:0:0:0:
256,192,132854,1,0,0:0:0:0:
256,192,133029,1,0,0:0:0:0:
256,192,133377,1,8,0:0:0:0:
256,192,133726,1,0,0:0:0:0:
256,192,134075,1,0,0:0:0:0:
256,192,134250,1,8,0:0:0:0:
256,192,134773,1,8,0:0:0:0:
256,192,134947,1,0,0:0:0:0:
256,192,135296,1,0,0:0:0:0:
256,192,135470,1,8,0:0:0:0:
256,192,135645,1,0,0:0:0:0:
256,192,135819,1,0,0:0:0:0:
256,192,136168,1,8,0:0:0:0:
256,192,136517,1,0,0:0:0:0:
256,192,136866,1,8,0:0:0:0:
256,192,137040,1,0,0:0:0:0:
256,192,137563,1,8,0:0:0:0:
256,192,137912,1,0,0:0:0:0:
256,192,138087,1,0,0:0:0:0:
256,192,138261,1,8,0:0:0:0:
256,192,138436,1,8,0:0:0:0:
256,192,138610,1,0,0:0:0:0:
256,192,138959,1,8,0:0:0:0:
256,192,139308,1,0,0:0:0:0:
256,192,139657,1,8,0:0:0:0:
256,192,139831,1,0,0:0:0:0:
256,192,140354,1,8,0:0:0:0:
256,192,140529,1,0,0:0:0:0:
256,192,140877,1,0,0:0:0:0:
256,192,141052,1,8,0:0:0:0:
256,192,141226,1,0,0:0:0:0:
256,192,141401,1,0,0:0:0:0:
256,192,141750,1,8,0:0:0:0:
256,192,142098,1,0,0:0:0:0:
256,192,142273,1,0,0:0:0:0:
256,192,142447,1,8,0:0:0:0:
256,192,142622,1,8,0:0:0:0:
256,192,142796,1,0,0:0:0:0:
256,192,143145,1,8,0:0:0:0:
256,192,143668,1,0,0:0:0:0:
256,192,143843,1,8,0:0:0:0:
256,192,144191,1,0,0:0:0:0:
256,192,144366,1,8,0:0:0:0:
256,192,144540,1,0,0:0:0:0:
256,192,144889,1,0,0:0:0:0:
256,192,145238,1,8,0:0:0:0:
256,192,145587,1,0,0:0:0:0:
256,192,145761,1,0,0:0:0:0:
256,192,145936,1,8,0:0:0:0:
256,192,146459,1,0,0:0:0:0:
256,192,146633,1,8,0:0:0:0:
256,192,146982,1,0,0:0:0:0:
256,192,147331,1,8,0:0:0:0:
256,192,147505,1,0,0:0:0:0:
256,192,147680,1,0,0:0:0:0:
256,192,148029,1,0,0:0:0:0:
256,192,148203,1,8,0:0:0:0:
256,192,148377,1,8,0:0:0:0:
256,192,148726,1,8,0:0:0:0:
256,192,149075,1,0,0:0:0:0:
256,192,149424,1,8,0:0:0:0:
256,192,149773,1,0,0:0:0:0:
256,192,150122,1,8,0:0:0:0:
256,192,150470,1,0,0:0:0:0:
256,192,150819,1,8,0:0:0:0:
256,192,151168,1,0,0:0:0:0:
256,192,151343,1,0,0:0:0:0:
256,192,151517,1,8,0:0:0:0:
256,192,151866,1,0,0:0:0:0:
256,192,152040,1,8,0:0:0:0:
256,192,152215,1,8,0:0:0:0:
256,192,152389,1,0,0:0:0:0:
256,192,152563,1,0,0:0:0:0:
256,192,152738,1,0,0:0:0:0:
256,192,152912,1,8,0:0:0:0:
256,192,153610,1,12,0:0:0:0:
256,192,154308,1,12,0:0:0:0:
256,192,154657,1,0,0:0:0:0:
256,192,155005,1,8,0:0:0:0:
256,192,155180,1,0,0:0:0:0:
256,192,155529,1,0,0:0:0:0:
256,192,155703,1,8,0:0:0:0:
256,192,156052,1,8,0:0:0:0:
256,192,156226,1,0,0:0:0:0:
256,192,156401,1,0,0:0:0:0:
256,192,156575,1,8,0:0:0:0:
256,192,156924,1,8,0:0:0:0:
256,192,157098,1,0,0:0:0:0:
256,192,157447,1,0,0:0:0:0:
256,192,157796,1,0,0:0:0:0:
256,192,157970,1,8,0:0:0:0:
256,192,158319,1,8,0:0:0:0:
256,192,158494,1,0,0:0:0:0:
256,192,158668,1,8,0:0:0:0:
256,192,158843,1,0,0:0:0:0:
256,192,159017,1,0,0:0:0:0:
256,192,159191,1,8,0:0:0:0:
256,192,159540,1,0,0:0:0:0:
256,192,159627,1,0,0:0:0:0:
256,192,159715,1,0,0:0:0:0:
256,192,159889,1,12,0:0:0:0:
256,192,160238,1,0,0:0:0:0:
256,192,160587,1,8,0:0:0:0:
256,192,160936,1,0,0:0:0:0:
256,192,161110,1,0,0:0:0:0:
256,192,161284,1,8,0:0:0:0:
256,192,161459,1,0,0:0:0:0:
256,192,161633,1,0,0:0:0:0:
256,192,161982,1,8,0:0:0:0:
256,192,162157,1,0,0:0:0:0:
256,192,162505,1,0,0:0:0:0:
256,192,162680,1,8,0:0:0:0:
256,192,163029,1,0,0:0:0:0:
256,192,163203,1,0,0:0:0:0:
256,192,163377,1,8,0:0:0:0:
256,192,163552,1,0,0:0:0:0:
256,192,163901,1,0,0:0:0:0:
256,192,164075,1,8,0:0:0:0:
256,192,164250,1,0,0:0:0:0:
256,192,164424,1,0,0:0:0:0:
256,192,164598,1,8,0:0:0:0:
256,192,164773,1,0,0:0:0:0:
256,192,165122,1,8,0:0:0:0:
256,192,165296,1,0,0:0:0:0:
256,192,165383,1,0,0:0:0:0:
256,192,165470,1,12,0:0:0:0:
256,192,165819,1,0,0:0:0:0:
256,192,166168,1,8,0:0:0:0:
256,192,166343,1,0,0:0:0:0:
256,192,166691,1,0,0:0:0:0:
256,192,166866,1,8,0:0:0:0:
256,192,167040,1,0,0:0:0:0:
256,192,167215,1,0,0:0:0:0:
256,192,167563,1,8,0:0:0:0:
256,192,167738,1,8,0:0:0:0:
256,192,167912,1,0,0:0:0:0:
256,192,168087,1,0,0:0:0:0:
256,192,168261,1,8,0:0:0:0:
256,192,168610,1,0,0:0:0:0:
256,192,168959,1,0,0:0:0:0:
256,192,169133,1,8,0:0:0:0:
256,192,169482,1,8,0:0:0:0:
256,192,169657,1,0,0:0:0:0:
256,192,169831,1,0,0:0:0:0:
256,192,170005,1,0,0:0:0:0:
256,192,170180,1,8,0:0:0:0:
256,192,170354,1,8,0:0:0:0:
256,192,170703,1,0,0:0:0:0:
256,192,170877,1,0,0:0:0:0:
256,192,170965,1,0,0:0:0:0:
256,192,171052,1,12,0:0:0:0:
256,192,171401,1,0,0:0:0:0:
256,192,171750,1,12,0:0:0:0:
256,192,172098,1,0,0:0:0:0:
256,192,172447,1,12,0:0:0:0:
256,192,172796,1,0,0:0:0:0:
256,192,172970,1,0,0:0:0:0:
256,192,173145,1,12,0:0:0:0:
256,192,173319,1,0,0:0:0:0:
256,192,173494,1,0,0:0:0:0:
256,192,173668,1,0,0:0:0:0:
256,192,173843,1,12,0:0:0:0:
256,192,174191,1,0,0:0:0:0:
256,192,174366,1,8,0:0:0:0:
256,192,174540,1,8,0:0:0:0:
256,192,174715,1,0,0:0:0:0:
256,192,174889,1,8,0:0:0:0:
256,192,175238,1,8,0:0:0:0:
256,192,175412,1,0,0:0:0:0:
256,192,175587,1,0,0:0:0:0:
256,192,175936,1,8,0:0:0:0:
256,192,176110,1,0,0:0:0:0:
256,192,176284,1,8,0:0:0:0:
256,192,176633,1,8,0:0:0:0:
256,192,176808,1,0,0:0:0:0:
256,192,176982,1,0,0:0:0:0:
256,192,177157,1,8,0:0:0:0:
256,192,177331,1,8,0:0:0:0:
256,192,177680,1,0,0:0:0:0:
256,192,177854,1,8,0:0:0:0:
256,192,178029,1,8,0:0:0:0:
256,192,178377,1,8,0:0:0:0:
256,192,178726,1,8,0:0:0:0:
256,192,178901,1,0,0:0:0:0:
256,192,179075,1,0,0:0:0:0:
256,192,179424,1,12,0:0:0:0:
256,192,179772,1,0,0:0:0:0:
256,192,179947,1,8,0:0:0:0:
256,192,180121,1,8,0:0:0:0:
256,192,180470,1,12,0:0:0:0:
256,192,180819,1,8,0:0:0:0:
256,192,180993,1,8,0:0:0:0:
256,192,181168,1,0,0:0:0:0:
256,192,181517,1,8,0:0:0:0:
256,192,181865,1,0,0:0:0:0:
256,192,182214,1,12,0:0:0:0:
256,192,182563,1,0,0:0:0:0:
256,192,182737,1,0,0:0:0:0:
256,192,182912,1,8,0:0:0:0:
256,192,183261,1,12,0:0:0:0:
256,192,183610,1,0,0:0:0:0:
256,192,183784,1,0,0:0:0:0:
256,192,183958,1,8,0:0:0:0:
256,192,184307,1,8,0:0:0:0:
256,192,184656,1,8,0:0:0:0:
256,192,184830,1,8,0:0:0:0:
256,192,185005,1,12,0:0:0:0:
256,192,185354,1,0,0:0:0:0:
256,192,185528,1,8,0:0:0:0:
256,192,185703,1,8,0:0:0:0:
256,192,186051,1,12,0:0:0:0:
256,192,186400,1,8,0:0:0:0:
256,192,186575,1,8,0:0:0:0:
256,192,186749,1,0,0:0:0:0:
256,192,187098,1,8,0:0:0:0:
256,192,187447,1,0,0:0:0:0:
256,192,187621,1,0,0:0:0:0:
256,192,187796,1,12,0:0:0:0:
256,192,188144,1,0,0:0:0:0:
256,192,188319,1,8,0:0:0:0:
256,192,188493,1,8,0:0:0:0:
256,192,188842,1,12,0:0:0:0:
256,192,189191,1,0,0:0:0:0:
256,192,189365,1,0,0:0:0:0:
256,192,189540,1,8,0:0:0:0:
256,192,189714,1,0,0:0:0:0:
256,192,189889,1,8,0:0:0:0:
256,192,190063,1,0,0:0:0:0:
256,192,190237,1,0,0:0:0:0:
256,192,190586,1,12,0:0:0:0:
256,192,190935,1,0,0:0:0:0:
256,192,191110,1,8,0:0:0:0:
256,192,191284,1,8,0:0:0:0:
256,192,191633,1,12,0:0:0:0:
256,192,191982,1,8,0:0:0:0:
256,192,192156,1,8,0:0:0:0:
256,192,192330,1,0,0:0:0:0:
256,192,192679,1,8,0:0:0:0:
256,192,193028,1,0,0:0:0:0:
256,192,193377,1,12,0:0:0:0:
256,192,193726,1,0,0:0:0:0:
256,192,193900,1,0,0:0:0:0:
256,192,194075,1,8,0:0:0:0:
256,192,194424,1,12,0:0:0:0:
256,192,194772,1,0,0:0:0:0:
256,192,194947,1,0,0:0:0:0:
256,192,195121,1,8,0:0:0:0:
256,192,195470,1,8,0:0:0:0:
256,192,195819,1,8,0:0:0:0:
256,192,195993,1,8,0:0:0:0:
256,192,196168,1,12,0:0:0:0:
256,192,196517,1,0,0:0:0:0:
256,192,196691,1,8,0:0:0:0:
256,192,196865,1,8,0:0:0:0:
256,192,197214,1,12,0:0:0:0:
256,192,197563,1,8,0:0:0:0:
256,192,197737,1,8,0:0:0:0:
256,192,197912,1,0,0:0:0:0:
256,192,198261,1,8,0:0:0:0:
256,192,198610,1,0,0:0:0:0:
256,192,198784,1,0,0:0:0:0:
256,192,198958,1,12,0:0:0:0:
256,192,199307,1,0,0:0:0:0:
256,192,199482,1,0,0:0:0:0:
256,192,199656,1,8,0:0:0:0:
256,192,200005,1,12,0:0:0:0:
256,192,200703,1,0,0:0:0:0:
256,192,200877,1,0,0:0:0:0:
256,192,200964,1,0,0:0:0:0:
256,192,201051,1,8,0:0:0:0:
256,192,201400,1,0,0:0:0:0:
256,192,201575,1,0,0:0:0:0:
256,192,201749,1,12,0:0:0:0:
256,192,202098,1,0,0:0:0:0:
256,192,202272,1,8,0:0:0:0:
256,192,202447,1,0,0:0:0:0:
256,192,202970,1,8,0:0:0:0:
256,192,203144,1,0,0:0:0:0:
256,192,203319,1,8,0:0:0:0:
256,192,203493,1,0,0:0:0:0:
256,192,204191,1,0,0:0:0:0:
256,192,204365,1,8,0:0:0:0:
256,192,204540,1,8,0:0:0:0:
256,192,205063,1,8,0:0:0:0:
256,192,205237,1,0,0:0:0:0:
256,192,205761,1,0,0:0:0:0:
256,192,205935,1,8,0:0:0:0:
256,192,206110,1,0,0:0:0:0:
256,192,206284,1,8,0:0:0:0:
256,192,206982,1,0,0:0:0:0:
256,192,207330,1,8,0:0:0:0:
256,192,207854,1,8,0:0:0:0:
256,192,208028,1,0,0:0:0:0:
256,192,208551,1,8,0:0:0:0:
256,192,208726,1,8,0:0:0:0:
256,192,209075,1,8,0:0:0:0:
256,192,209424,1,0,0:0:0:0:
256,192,209772,1,0,0:0:0:0:
256,192,210121,1,8,0:0:0:0:
256,192,210470,1,0,0:0:0:0:
256,192,210819,1,0,0:0:0:0:
256,192,210993,1,8,0:0:0:0:
256,192,211168,1,0,0:0:0:0:
256,192,212040,1,8,0:0:0:0:
256,192,212214,1,0,0:0:0:0:
256,192,212389,1,0,0:0:0:0:
256,192,212737,1,0,0:0:0:0:
256,192,212912,1,8,0:0:0:0:
256,192,213261,1,0,0:0:0:0:
256,192,213435,1,0,0:0:0:0:
256,192,213522,1,0,0:0:0:0:
256,192,213610,1,8,0:0:0:0:
256,192,213958,1,8,0:0:0:0:
256,192,214307,1,0,0:0:0:0:
256,192,214482,1,8,0:0:0:0:
256,192,214656,1,8,0:0:0:0:
256,192,215005,1,8,0:0:0:0:
256,192,215092,1,8,0:0:0:0:
256,192,215179,1,8,0:0:0:0:
256,192,215267,1,8,0:0:0:0:
256,192,215354,1,8,0:0:0:0:
256,192,215703,1,8,0:0:0:0:
256,192,216051,1,0,0:0:0:0:
256,192,216226,1,0,0:0:0:0:
256,192,216313,1,0,0:0:0:0:
256,192,216400,1,8,0:0:0:0:
256,192,216749,1,8,0:0:0:0:
256,192,217098,1,0,0:0:0:0:
256,192,217272,1,8,0:0:0:0:
256,192,217447,1,8,0:0:0:0:
256,192,217796,1,8,0:0:0:0:
256,192,217883,1,8,0:0:0:0:
256,192,217970,1,8,0:0:0:0:
256,192,218057,1,8,0:0:0:0:
256,192,218144,1,8,0:0:0:0:
256,192,218493,1,8,0:0:0:0:
256,192,218842,1,0,0:0:0:0:
256,192,219017,1,0,0:0:0:0:
256,192,219104,1,0,0:0:0:0:
256,192,219191,1,8,0:0:0:0:
256,192,219540,1,8,0:0:0:0:
256,192,219889,1,0,0:0:0:0:
256,192,220063,1,8,0:0:0:0:
256,192,220237,1,8,0:0:0:0:
256,192,220586,1,8,0:0:0:0:
256,192,220674,1,8,0:0:0:0:
256,192,220761,1,8,0:0:0:0:
256,192,220848,1,8,0:0:0:0:
256,192,220935,1,8,0:0:0:0:
256,192,221284,1,8,0:0:0:0:
256,192,221633,1,0,0:0:0:0:
256,192,221807,1,0,0:0:0:0:
256,192,221894,1,0,0:0:0:0:
256,192,221982,1,8,0:0:0:0:
256,192,222330,1,8,0:0:0:0:
256,192,222679,1,0,0:0:0:0:
256,192,222854,1,8,0:0:0:0:
256,192,223028,1,8,0:0:0:0:
256,192,223377,1,8,0:0:0:0:
256,192,223464,1,8,0:0:0:0:
256,192,223551,1,8,0:0:0:0:
256,192,223639,1,8,0:0:0:0:
256,192,223726,1,8,0:0:0:0:
256,192,224075,1,0,0:0:0:0:
256,192,224424,1,8,0:0:0:0:
256,192,224598,1,8,0:0:0:0:
256,192,224685,1,8,0:0:0:0:
256,192,224772,1,0,0:0:0:0:
256,192,225121,1,8,0:0:0:0:
256,192,225470,1,0,0:0:0:0:
256,192,225644,1,8,0:0:0:0:
256,192,225819,1,8,0:0:0:0:
256,192,226168,1,0,0:0:0:0:
256,192,226255,1,0,0:0:0:0:
256,192,226342,1,0,0:0:0:0:
256,192,226429,1,0,0:0:0:0:
256,192,226517,1,8,0:0:0:0:
256,192,226865,1,0,0:0:0:0:
256,192,227214,1,8,0:0:0:0:
256,192,227389,1,8,0:0:0:0:
256,192,227476,1,8,0:0:0:0:
256,192,227563,1,0,0:0:0:0:
256,192,227912,1,8,0:0:0:0:
256,192,228261,1,0,0:0:0:0:
256,192,228435,1,8,0:0:0:0:
256,192,228610,1,8,0:0:0:0:
256,192,228958,1,0,0:0:0:0:
256,192,229046,1,0,0:0:0:0:
256,192,229133,1,0,0:0:0:0:
256,192,229220,1,0,0:0:0:0:
256,192,229307,1,8,0:0:0:0:
256,192,229656,1,8,0:0:0:0:
256,192,230005,1,0,0:0:0:0:
256,192,230179,1,8,0:0:0:0:
256,192,230354,1,8,0:0:0:0:
256,192,230528,1,0,0:0:0:0:
256,192,230703,1,0,0:0:0:0:
256,192,230877,1,8,0:0:0:0:
256,192,231051,1,8,0:0:0:0:
256,192,231226,1,0,0:0:0:0:
256,192,231400,1,0,0:0:0:0:
256,192,231575,1,8,0:0:0:0:
256,192,231749,1,8,0:0:0:0:
256,192,231924,1,0,0:0:0:0:
256,192,232098,1,0,0:0:0:0:
256,192,232272,1,8,0:0:0:0:
256,192,232447,1,8,0:0:0:0:
256,192,232621,1,0,0:0:0:0:
256,192,232796,1,0,0:0:0:0:
256,192,232970,1,8,0:0:0:0:
256,192,233144,1,8,0:0:0:0:
256,192,233319,1,0,0:0:0:0:
256,192,233493,1,0,0:0:0:0:
256,192,233668,1,8,0:0:0:0:
256,192,233842,1,8,0:0:0:0:
256,192,234017,1,0,0:0:0:0:
256,192,234191,1,0,0:0:0:0:
256,192,234365,1,8,0:0:0:0:
256,192,234540,1,8,0:0:0:0:
256,192,234714,1,0,0:0:0:0:
256,192,234801,1,0,0:0:0:0:
256,192,234889,1,8,0:0:0:0:
256,192,234976,1,8,0:0:0:0:
256,192,235063,1,8,0:0:0:0:
256,192,235150,1,8,0:0:0:0:
256,192,235237,1,0,0:0:0:0:
256,192,235586,1,0,0:0:0:0:
256,192,235674,1,8,0:0:0:0:
256,192,235761,1,8,0:0:0:0:
256,192,235935,1,8,0:0:0:0:
256,192,236110,1,0,0:0:0:0:
256,192,236284,1,0,0:0:0:0:
256,192,236458,1,8,0:0:0:0:
256,192,236633,1,8,0:0:0:0:
256,192,237156,1,0,0:0:0:0:
256,192,237330,1,8,0:0:0:0:
256,192,237679,1,8,0:0:0:0:
256,192,237767,1,8,0:0:0:0:
256,192,237854,1,8,0:0:0:0:
256,192,238028,1,12,0:0:0:0:
256,192,238376,1,0,0:0:0:0:
256,192,238551,1,0,0:0:0:0:
256,192,238725,1,8,0:0:0:0:
256,192,238900,1,0,0:0:0:0:
256,192,239074,1,0,0:0:0:0:
256,192,239423,1,8,0:0:0:0:
256,192,239772,1,8,0:0:0:0:
256,192,239946,1,0,0:0:0:0:
256,192,240295,1,8,0:0:0:0:
256,192,240469,1,0,0:0:0:0:
256,192,240644,1,8,0:0:0:0:
256,192,240818,1,0,0:0:0:0:
256,192,241167,1,0,0:0:0:0:
256,192,241341,1,8,0:0:0:0:
256,192,241516,1,0,0:0:0:0:
256,192,241690,1,8,0:0:0:0:
256,192,241865,1,0,0:0:0:0:
256,192,242214,1,8,0:0:0:0:
256,192,242388,1,8,0:0:0:0:
256,192,242562,1,0,0:0:0:0:
256,192,242737,1,8,0:0:0:0:
256,192,242911,1,8,0:0:0:0:
256,192,243086,1,0,0:0:0:0:
256,192,243260,1,8,0:0:0:0:
256,192,243347,1,0,0:0:0:0:
256,192,243434,1,0,0:0:0:0:
256,192,243609,1,12,0:0:0:0:
256,192,243958,1,0,0:0:0:0:
256,192,244132,1,0,0:0:0:0:
256,192,244307,1,8,0:0:0:0:
256,192,244481,1,0,0:0:0:0:
256,192,244655,1,8,0:0:0:0:
256,192,244830,1,0,0:0:0:0:
256,192,245004,1,8,0:0:0:0:
256,192,245353,1,0,0:0:0:0:
256,192,245528,1,8,0:0:0:0:
256,192,245702,1,0,0:0:0:0:
256,192,245876,1,0,0:0:0:0:
256,192,246051,1,8,0:0:0:0:
256,192,246225,1,0,0:0:0:0:
256,192,246400,1,8,0:0:0:0:
256,192,246748,1,0,0:0:0:0:
256,192,246923,1,8,0:0:0:0:
256,192,247097,1,0,0:0:0:0:
256,192,247272,1,0,0:0:0:0:
256,192,247446,1,8,0:0:0:0:
256,192,247795,1,8,0:0:0:0:
256,192,248144,1,0,0:0:0:0:
256,192,248318,1,8,0:0:0:0:
256,192,248493,1,0,0:0:0:0:
256,192,248667,1,0,0:0:0:0:
256,192,248841,1,8,0:0:0:0:
256,192,248929,1,8,0:0:0:0:
256,192,249016,1,0,0:0:0:0:
256,192,249103,1,0,0:0:0:0:
256,192,249190,1,12,0:0:0:0:
256,192,249539,1,0,0:0:0:0:
256,192,249714,1,8,0:0:0:0:
256,192,249888,1,0,0:0:0:0:
256,192,250062,1,0,0:0:0:0:
256,192,250237,1,8,0:0:0:0:
256,192,250411,1,0,0:0:0:0:
256,192,250586,1,8,0:0:0:0:
256,192,250934,1,0,0:0:0:0:
256,192,251109,1,8,0:0:0:0:
256,192,251283,1,8,0:0:0:0:
256,192,251458,1,0,0:0:0:0:
256,192,251632,1,8,0:0:0:0:
256,192,251807,1,0,0:0:0:0:
256,192,251981,1,8,0:0:0:0:
256,192,252330,1,0,0:0:0:0:
256,192,252504,1,8,0:0:0:0:
256,192,252679,1,8,0:0:0:0:
256,192,252853,1,0,0:0:0:0:
256,192,253028,1,8,0:0:0:0:
256,192,253202,1,8,0:0:0:0:
256,192,253376,1,0,0:0:0:0:
256,192,253551,1,0,0:0:0:0:
256,192,253725,1,0,0:0:0:0:
256,192,253900,1,8,0:0:0:0:
256,192,253987,1,8,0:0:0:0:
256,192,254074,1,8,0:0:0:0:
256,192,254248,1,0,0:0:0:0:
256,192,254423,1,0,0:0:0:0:
256,192,254597,1,0,0:0:0:0:
256,192,254684,1,0,0:0:0:0:
256,192,254772,1,12,0:0:0:0:
256,192,255121,1,0,0:0:0:0:
256,192,255469,1,12,0:0:0:0:
256,192,255818,1,0,0:0:0:0:
256,192,256167,1,12,0:0:0:0:
256,192,256516,1,0,0:0:0:0:
256,192,256690,1,0,0:0:0:0:
256,192,256865,1,12,0:0:0:0:
256,192,257039,1,0,0:0:0:0:
256,192,257214,1,0,0:0:0:0:
256,192,257388,1,0,0:0:0:0:
256,192,257562,1,12,0:0:0:0:
256,192,257911,1,0,0:0:0:0:
256,192,258086,1,8,0:0:0:0:
256,192,258260,1,8,0:0:0:0:
256,192,258434,1,0,0:0:0:0:
256,192,258609,1,8,0:0:0:0:
256,192,258783,1,0,0:0:0:0:
256,192,258958,1,8,0:0:0:0:
256,192,259132,1,0,0:0:0:0:
256,192,259307,1,0,0:0:0:0:
256,192,259655,1,8,0:0:0:0:
256,192,259830,1,0,0:0:0:0:
256,192,260004,1,8,0:0:0:0:
256,192,260353,1,8,0:0:0:0:
256,192,260528,1,0,0:0:0:0:
256,192,260702,1,0,0:0:0:0:
256,192,260789,1,8,0:0:0:0:
256,192,260876,1,8,0:0:0:0:
256,192,261051,1,0,0:0:0:0:
256,192,261225,1,8,0:0:0:0:
256,192,261400,1,0,0:0:0:0:
256,192,261748,8,0,263144,0:0:0:0:
256,192,263841,5,8,0:0:0:0:
256,192,264190,1,0,0:0:0:0:
256,192,264539,1,8,0:0:0:0:
256,192,264887,1,0,0:0:0:0:
256,192,265236,1,8,0:0:0:0:
256,192,265585,1,0,0:0:0:0:
256,192,266283,1,8,0:0:0:0:
256,192,266632,1,0,0:0:0:0:
256,192,267329,1,0,0:0:0:0:
256,192,267678,1,8,0:0:0:0:
256,192,268027,1,8,0:0:0:0:
256,192,268376,1,0,0:0:0:0:
256,192,269073,1,8,0:0:0:0:
256,192,269422,1,0,0:0:0:0:
256,192,270120,1,8,0:0:0:0:
256,192,270469,1,0,0:0:0:0:
256,192,270818,1,8,0:0:0:0:
256,192,271166,1,0,0:0:0:0:
256,192,271864,1,8,0:0:0:0:
256,192,272213,1,0,0:0:0:0:
256,192,272911,1,0,0:0:0:0:
256,192,273259,1,8,0:0:0:0:
256,192,273608,1,8,0:0:0:0:
256,192,273957,1,0,0:0:0:0:
256,192,274655,1,8,0:0:0:0:
256,192,275309,1,0,0:0:0:0:
256,192,275396,1,0,0:0:0:0:
256,192,275483,1,8,0:0:0:0:
256,192,275701,12,0,280585,0:0:0:0:
