osu file format v14

[General]
AudioFilename: audio.mp3
AudioLeadIn: 0
PreviewTime: 60300
Countdown: 0
SampleSet: Soft
StackLeniency: 0.4
Mode: 0
LetterboxInBreaks: 0
WidescreenStoryboard: 0

[Editor]
Bookmarks: 28300,47500,60300,73100,92300,105088,117888,133888,153088,165888,172288
DistanceSpacing: 1.2
BeatDivisor: 4
GridSize: 16
TimelineZoom: 1.8

[Metadata]
Title:Lucky (Nightcore Mix)
TitleUnicode:Lucky (Nightcore Mix)
Artist:Lucky Twice
ArtistUnicode:Lucky Twice
Creator:Gordon123
Version:Ryxliee's Hard
Source:
Tags:Mortem Pjecoo Ryxliee pop sped up eurodance english Young & Clever Young_&_Clever Bubblegum Europop Synth-pop trance electronic
BeatmapID:3407334
BeatmapSetID:1641849

[Difficulty]
HPDrainRate:4.5
CircleSize:4
OverallDifficulty:5.5
ApproachRate:7.8
SliderMultiplier:1.35
SliderTickRate:1

[Events]
//Background and Video events
0,0,"gbDdwzR.jpeg",0,0
//Break Periods
//Storyboard Layer 0 (Background)
//Storyboard Layer 1 (Fail)
//Storyboard Layer 2 (Pass)
//Storyboard Layer 3 (Foreground)
//Storyboard Layer 4 (Overlay)
//Storyboard Sound Samples

[TimingPoints]
9100,400,4,2,1,70,1,0
9100,-100,4,2,1,70,0,0
47500,-111.111111111111,4,2,1,55,0,0
60300,-90.9090909090909,4,2,1,80,0,1
73100,-100,4,2,1,70,0,0
92300,-111.111111111111,4,2,1,55,0,0
105088,400,4,2,1,80,1,1
105088,-90.9090909090909,4,2,1,80,0,1
117888,-100,4,2,1,70,0,0
133888,-111.111111111111,4,2,1,55,0,0
153088,-90.9090909090909,4,2,1,80,0,1
165888,-111.111111111111,4,2,1,55,0,0
172288,-111.111111111111,4,2,1,55,0,0
172688,-111.111111111111,4,2,1,50,0,0
173088,-111.111111111111,4,2,1,45,0,0
173488,-111.111111111111,4,2,1,40,0,0
173888,-111.111111111111,4,2,1,35,0,0
174288,-111.111111111111,4,2,1,30,0,0
174688,-111.111111111111,4,2,1,25,0,0
175088,-111.111111111111,4,2,1,20,0,0
175488,-111.111111111111,4,2,1,15,0,0

[Colours]
Combo1 : 164,216,255
Combo2 : 243,228,158
Combo3 : 253,196,221
Combo4 : 190,185,255
SliderBorder : 240,120,150

[HitObjects]
471,112,7500,6,0,P|405:126|353:169,1,135,2|0,0:0|3:0,0:0:0:0:
409,262,8300,1,8,0:0:0:0:
480,288,8500,1,8,0:0:0:0:
454,360,8700,1,8,0:0:0:0:
382,333,8900,1,8,0:0:0:0:
289,277,9100,6,0,P|251:288|221:307,1,67.5,4|0,0:0|0:0,0:0:0:0:
163,362,9500,2,0,P|130:366|102:348,1,67.5,2|0,0:0|0:0,0:0:0:0:
42,284,9900,2,0,P|54:217|75:153,1,135,2|8,0:0|0:1,0:0:0:0:
41,72,10500,1,0,0:0:0:0:
139,25,10700,6,0,P|176:41|200:64,1,67.5,2|2,0:0|0:0,0:0:0:0:
279,85,11100,1,0,0:0:0:0:
218,148,11300,2,0,P|201:176|208:208,1,67.5,2|0,0:0|0:0,0:0:0:0:
160,282,11700,2,0,P|176:310|208:320,1,67.5,2|8,0:0|0:1,0:0:0:0:
276,375,12100,6,0,B|314:382|341:352|316:344|352:312|388:322,1,135,2|2,0:0|0:0,0:0:0:0:
461,273,12700,2,0,P|470:305|476:338,1,67.5
382,240,13100,2,0,P|387:206|397:174,1,67.5,0|2,0:0|0:0,0:0:0:0:
472,126,13500,1,8,0:1:0:0:
472,126,13700,1,0,0:0:0:0:
397,44,13900,6,0,P|365:53|335:68,1,67.5
260,114,14300,2,0,P|287:132|296:164,1,67.5
191,235,14700,2,0,P|192:202|216:178,1,67.5,0|2,0:0|0:0,0:0:0:0:
275,250,15100,1,8,0:1:0:0:
275,250,15300,1,2,0:0:0:0:
225,348,15500,6,0,P|197:366|164:362,1,67.5,0|2,0:0|0:0,0:0:0:0:
90,313,15900,2,0,P|86:280|77:248,1,67.5,2|0,0:0|0:0,0:0:0:0:
16,184,16300,2,0,P|46:126|110:122,1,135,2|8,0:0|0:1,0:0:0:0:
170,186,16900,1,0,0:0:0:0:
261,123,17100,6,0,P|267:89|276:57,1,67.5,2|2,0:0|0:0,0:0:0:0:
349,8,17500,1,0,0:0:0:0:
407,71,17700,2,0,P|435:90|468:86,1,67.5,2|0,0:0|0:0,0:0:0:0:
488,171,18100,2,0,P|460:189|427:185,1,67.5,2|8,0:0|0:1,0:0:0:0:
345,153,18500,6,0,B|315:161|306:195|306:195|323:230|334:264,1,135,2|2,0:0|0:0,0:0:0:0:
399,324,19100,2,0,P|432:317|465:313,1,67.5
339,384,19500,2,0,P|305:380|272:373,1,67.5,0|2,0:0|0:0,0:0:0:0:
223,307,19900,1,8,0:1:0:0:
223,307,20100,1,0,0:0:0:0:
104,318,20300,6,0,P|96:350|90:384,1,67.5
4,369,20700,2,0,P|9:335|17:302,1,67.5
73,235,21100,1,8,0:0:0:0:
30,158,21300,1,8,0:0:0:0:
87,92,21500,1,8,0:0:0:0:
48,13,21700,1,8,0:0:0:0:
167,27,21900,6,0,P|194:48|203:80,1,67.5,4|0,0:0|0:0,0:0:0:0:
262,145,22300,2,0,P|235:165|226:197,1,67.5,2|0,0:0|0:0,0:0:0:0:
179,271,22700,2,0,P|245:285|301:322,1,135,2|8,0:0|0:1,0:0:0:0:
365,384,23300,1,2,0:0:0:0:
459,328,23500,6,0,P|465:296|479:258,1,67.5,2|2,0:0|0:0,0:0:0:0:
430,188,23900,1,0,0:0:0:0:
355,234,24100,2,0,P|349:202|335:164,1,67.5,2|0,0:0|0:0,0:0:0:0:
292,93,24500,2,0,P|303:61|331:43,1,67.5,2|8,0:0|0:1,0:0:0:0:
414,15,24900,1,0,0:0:0:0:
507,71,25100,6,0,P|497:103|491:136,1,67.5,2|0,0:0|0:0,0:0:0:0:
424,193,25500,2,0,P|433:225|439:258,1,67.5,2|0,0:0|0:0,0:0:0:0:
415,343,25900,2,0,P|352:360|301:319,1,135,2|8,0:0|0:1,0:0:0:0:
241,255,26500,1,2,0:0:0:0:
283,147,26700,6,0,P|307:124|340:121,1,67.5,2|2,0:0|0:0,0:0:0:0:
424,93,27100,1,0,0:0:0:0:
360,32,27300,2,0,P|326:29|303:6,1,67.5,2|0,0:0|0:0,0:0:0:0:
217,27,27700,1,8,0:0:0:0:
190,113,27900,1,8,0:0:0:0:
190,113,28100,1,2,0:0:0:0:
95,33,28300,6,0,P|60:38|25:45,1,67.5,4|2,0:0|0:0,0:0:0:0:
39,131,28700,2,0,P|72:124|105:119,1,67.5,2|0,0:0|0:0,0:0:0:0:
111,207,29100,2,0,B|87:214|76:238|76:238|99:280|115:315,1,135,2|8,0:0|0:1,0:0:0:0:
171,384,29700,1,0,0:0:0:0:
261,323,29900,6,0,P|294:315|325:327,1,67.5,2|2,0:0|0:0,0:0:0:0:
394,382,30300,1,0,0:0:0:0:
461,325,30500,2,0,P|467:290|478:250,1,67.5,2|0,0:0|0:0,0:0:0:0:
416,193,30900,2,0,P|409:158|399:118,1,67.5,2|8,0:0|0:1,0:0:0:0:
439,47,31300,6,0,P|383:12|324:38,1,135,2|2,0:0|0:0,0:0:0:0:
259,98,31900,2,0,P|226:88|193:83,1,67.5,2|2,0:0|0:0,0:0:0:0:
284,180,32300,2,0,P|316:170|349:165,1,67.5,2|2,0:0|0:0,0:0:0:0:
427,216,32700,1,8,0:1:0:0:
427,216,32900,1,0,0:0:0:0:
357,302,33100,6,0,P|350:336|346:369,1,67.5,2|2,0:0|0:0,0:0:0:0:
276,316,33500,2,0,P|246:300|212:307,1,67.5,2|2,0:0|0:0,0:0:0:0:
99,384,33900,2,0,P|127:366|138:333,1,67.5,2|2,0:0|0:0,0:0:0:0:
151,251,34300,1,8,0:1:0:0:
151,251,34500,1,2,0:0:0:0:
95,157,34700,6,0,P|61:162|28:169,1,67.5,2|2,0:0|0:0,0:0:0:0:
11,82,35100,2,0,P|44:74|77:69,1,67.5,2|0,0:0|0:0,0:0:0:0:
144,13,35500,2,0,B|179:8|210:37|179:49|211:80|252:77,1,135,2|8,0:0|0:1,0:0:0:0:
326,32,36100,1,0,0:0:0:0:
384,128,36300,6,0,P|374:159|347:179,1,67.5,2|2,0:0|0:0,0:0:0:0:
262,157,36700,1,0,0:0:0:0:
192,210,36900,2,0,P|185:243|179:276,1,67.5,2|0,0:0|0:0,0:0:0:0:
92,265,37300,2,0,P|97:231|104:198,1,67.5,2|8,0:0|0:1,0:0:0:0:
5,279,37700,6,0,P|23:340|86:353,1,135,2|2,0:0|0:0,0:0:0:0:
158,302,38300,2,0,P|190:296|220:311,1,67.5,2|2,0:0|0:0,0:0:0:0:
325,368,38700,2,0,P|303:342|301:309,1,67.5,2|2,0:0|0:0,0:0:0:0:
260,237,39100,1,8,0:1:0:0:
260,237,39300,1,0,0:0:0:0:
325,148,39500,6,0,P|357:140|391:135,1,67.5,2|2,0:0|0:0,0:0:0:0:
293,52,39900,2,0,P|260:44|226:39,1,67.5,2|2,0:0|0:0,0:0:0:0:
153,88,40300,1,8,0:0:0:0:
131,3,40500,1,8,0:0:0:0:
46,26,40700,1,8,0:0:0:0:
68,110,40900,1,8,0:0:0:0:
19,221,41100,6,0,P|28:254|34:287,1,67.5,4|0,0:0|0:0,0:0:0:0:
94,352,41500,2,0,P|126:357|155:340,1,67.5,2|0,0:0|0:0,0:0:0:0:
215,276,41900,2,0,P|281:277|339:311,1,135,2|8,0:0|0:1,0:0:0:0:
402,372,42500,1,2,0:0:0:0:
491,308,42700,6,0,P|494:274|499:241,1,67.5,2|2,0:0|0:0,0:0:0:0:
411,244,43100,1,0,0:0:0:0:
340,191,43300,2,0,P|336:157|331:124,1,67.5,2|0,0:0|0:0,0:0:0:0:
285,48,43700,2,0,P|252:40|222:53,1,67.5,2|8,0:0|0:1,0:0:0:0:
169,129,44100,1,0,0:0:0:0:
82,64,44300,6,0,P|48:60|14:57,1,67.5,2|0,0:0|0:0,0:0:0:0:
2,144,44700,2,0,P|35:146|69:150,1,67.5,2|0,0:0|0:0,0:0:0:0:
99,232,45100,2,0,B|103:260|131:270|131:270|168:253|208:240,1,135,2|8,0:0|0:1,0:0:0:0:
272,180,45700,1,2,0:0:0:0:
361,244,45900,6,0,P|367:276|353:306,1,67.5,2|2,0:0|0:0,0:0:0:0:
395,384,46300,1,0,0:0:0:0:
459,324,46500,2,0,P|452:291|466:261,1,67.5,2|0,0:0|0:0,0:0:0:0:
512,186,46900,1,2,0:0:0:0:
467,116,47100,1,8,0:1:0:0:
467,116,47300,1,0,0:0:0:0:
469,12,47500,6,0,P|412:31|371:75,1,121.499996292114,4|8,0:0|0:0,0:0:0:0:
347,144,48100,1,0,0:0:0:0:
287,187,48300,2,0,P|258:178|229:169,1,60.7499981460572,2|0,0:0|0:0,0:0:0:0:
162,142,48700,2,0,P|132:133|103:124,1,60.7499981460572,8|0,0:0|0:0,0:0:0:0:
42,64,49100,5,2,0:0:0:0:
42,64,49300,2,0,P|4:108|21:163,1,121.499996292114,2|2,0:0|0:0,0:0:0:0:
80,206,49900,2,0,P|99:229|100:258,1,60.7499981460572,2|0,0:0|0:0,0:0:0:0:
81,329,50300,2,0,P|82:358|101:381,1,60.7499981460572,8|0,0:0|0:0,0:0:0:0:
197,359,50700,6,0,P|240:318|303:304,1,121.499996292114,2|8,0:0|0:0,0:0:0:0:
369,325,51300,1,0,0:0:0:0:
431,287,51500,2,0,P|436:257|442:227,1,60.7499981460572,2|0,0:0|0:0,0:0:0:0:
458,155,51900,2,0,P|463:125|469:95,1,60.7499981460572,8|0,0:0|0:0,0:0:0:0:
420,16,52300,5,2,0:0:0:0:
420,16,52500,2,0,B|381:11|360:38|378:50|360:77|306:80,1,121.499996292114,2|2,0:0|0:0,0:0:0:0:
257,106,53100,2,0,P|238:130|236:160,1,60.7499981460572,2|0,0:0|0:0,0:0:0:0:
274,222,53500,2,0,P|272:251|253:275,1,60.7499981460572,8|0,0:0|0:0,0:0:0:0:
167,320,53900,6,0,P|137:315|106:312,1,60.7499981460572,2|2,0:0|0:0,0:0:0:0:
63,253,54300,2,0,P|32:255|2:260,1,60.7499981460572,8|0,0:0|0:0,0:0:0:0:
0,187,54700,2,0,P|16:131|72:115,1,121.499996292114,2|8,0:0|0:0,0:0:0:0:
133,156,55300,1,2,0:0:0:0:
208,105,55500,6,0,P|210:74|213:44,1,60.7499981460572,2|0,0:0|0:0,0:0:0:0:
286,50,55900,2,0,P|282:80|280:110,1,60.7499981460572,8|0,0:0|0:0,0:0:0:0:
310,177,56300,2,0,P|367:194|412:234,1,121.499996292114,2|8,0:0|0:0,0:0:0:0:
454,294,56900,1,2,0:0:0:0:
383,360,57100,6,0,P|353:366|325:356,1,60.7499981460572,2|0,0:0|0:0,0:0:0:0:
269,308,57500,2,0,P|239:302|211:312,1,60.7499981460572,8|0,0:0|0:0,0:0:0:0:
145,343,57900,2,0,B|125:339|114:320|114:320|131:280|142:243,1,121.499996292114,2|8,0:0|0:0,0:0:0:0:
197,196,58500,1,2,0:0:0:0:
179,100,58700,6,0,P|149:96|123:111,1,60.7499981460572,2|0,0:0|0:0,0:0:0:0:
59,152,59100,2,0,P|29:156|3:141,1,60.7499981460572,8|0,0:0|0:0,0:0:0:0:
0,68,59500,1,8,0:0:0:0:
56,21,59700,1,8,0:0:0:0:
128,27,59900,1,8,0:0:0:0:
171,85,60100,1,8,0:0:0:0:
221,203,60300,6,0,B|243:232|276:225|276:225|304:187|352:197,1,148.50000453186,6|8,0:0|0:1,0:0:0:0:
441,236,60900,1,0,0:0:0:0:
508,167,61100,1,2,0:0:0:0:
508,167,61300,1,2,0:0:0:0:
452,87,61500,2,0,P|460:50|466:14,1,74.2500022659302,8|0,0:1|0:0,0:0:0:0:
345,40,61900,5,2,0:0:0:0:
345,40,62100,2,0,P|294:68|256:109,1,111.375003398895,2|0,0:0|0:0,0:0:0:0:
238,123,62500,1,2,0:0:0:0:
171,52,62700,2,0,P|140:38|99:38,1,74.2500022659302,2|2,0:0|0:0,0:0:0:0:
18,86,63099,1,8,0:1:0:0:
18,86,63299,1,0,0:0:0:0:
117,153,63500,6,0,P|141:219|93:270,1,148.50000453186,6|8,0:0|0:1,0:0:0:0:
4,309,64100,1,2,0:0:0:0:
74,382,64300,1,2,0:0:0:0:
74,382,64500,1,2,0:0:0:0:
157,333,64700,2,0,P|193:337|228:350,1,74.2500022659302,8|0,0:1|0:0,0:0:0:0:
334,297,65100,5,2,0:0:0:0:
337,300,65300,2,0,P|392:294|443:273,1,111.375003398895,2|0,0:0|0:0,0:0:0:0:
467,259,65700,1,2,0:0:0:0:
434,168,65900,2,0,P|402:150|366:155,1,74.2500022659302,2|2,0:0|0:0,0:0:0:0:
293,217,66299,1,8,0:1:0:0:
293,217,66499,1,0,0:0:0:0:
212,126,66700,6,0,P|219:89|228:53,1,74.2500022659302,4|2,0:0|0:0,0:0:0:0:
127,144,67100,2,0,P|136:179|143:216,1,74.2500022659302,8|0,0:1|0:0,0:0:0:0:
142,61,67500,2,0,P|95:33|44:49,1,111.375003398895,2|0,0:0|0:0,0:0:0:0:
25,67,67900,1,8,0:1:0:0:
25,67,68100,1,2,0:0:0:0:
127,144,68300,6,0,P|162:150|195:132,1,74.2500022659302,2|0,0:0|0:0,0:0:0:0:
69,201,68700,2,0,P|33:207|0:189,1,74.2500022659302,8|0,0:1|0:0,0:0:0:0:
129,253,69100,2,0,P|183:263|229:293,1,111.375003398895,2|0,0:0|0:0,0:0:0:0:
246,322,69500,1,8,0:1:0:0:
246,322,69700,1,2,0:0:0:0:
360,281,69900,6,0,P|366:245|377:202,1,74.2500022659302,2|0,0:0|0:0,0:0:0:0:
306,140,70300,2,0,P|300:104|289:61,1,74.2500022659302,8|0,0:1|0:0,0:0:0:0:
373,16,70700,2,0,P|426:8|466:44,1,111.375003398895,2|0,0:0|0:0,0:0:0:0:
489,69,71100,1,8,0:1:0:0:
489,69,71300,1,0,0:0:0:0:
443,177,71500,6,0,P|406:183|370:192,1,74.2500022659302,2|0,0:0|0:0,0:0:0:0:
309,268,71900,2,0,P|273:258|236:253,1,74.2500022659302,8|2,0:1|0:0,0:0:0:0:
176,177,72300,1,8,0:0:0:0:
201,84,72500,1,8,0:0:0:0:
108,59,72700,1,8,0:0:0:0:
83,152,72900,1,8,0:0:0:0:
29,247,73100,6,0,P|41:284|46:320,1,67.5,4|0,0:0|0:0,0:0:0:0:
120,358,73500,2,0,P|125:324|136:292,1,67.5,2|0,0:0|0:0,0:0:0:0:
212,249,73900,2,0,B|244:242|272:275|251:287|283:320|320:317,1,135,2|8,0:0|0:1,0:0:0:0:
399,349,74500,1,0,0:0:0:0:
481,276,74700,6,0,P|474:242|465:210,1,67.5,2|2,0:0|0:0,0:0:0:0:
441,125,75100,1,0,0:0:0:0:
368,174,75300,2,0,P|335:181|304:167,1,67.5,2|0,0:0|0:0,0:0:0:0:
255,94,75700,2,0,P|224:80|191:87,1,67.5,2|8,0:0|0:1,0:0:0:0:
125,145,76100,6,0,P|154:205|170:271,1,135,2|2,0:0|0:0,0:0:0:0:
229,336,76700,2,0,P|261:342|289:326,1,67.5,2|2,0:0|0:0,0:0:0:0:
161,370,77100,2,0,P|128:376|100:360,1,67.5,2|2,0:0|0:0,0:0:0:0:
50,293,77500,1,8,0:1:0:0:
50,293,77700,1,0,0:0:0:0:
106,198,77900,6,0,P|139:192|172:188,1,67.5,2|2,0:0|0:0,0:0:0:0:
252,150,78300,2,0,P|270:122|266:89,1,67.5,2|2,0:0|0:0,0:0:0:0:
144,61,78700,2,0,P|158:90|188:103,1,67.5,2|2,0:0|0:0,0:0:0:0:
219,23,79100,1,8,0:1:0:0:
219,23,79300,1,0,0:0:0:0:
340,41,79500,6,0,P|350:73|358:105,1,67.5,2|0,0:0|0:0,0:0:0:0:
425,162,79900,2,0,P|414:194|406:226,1,67.5,2|0,0:0|0:0,0:0:0:0:
448,304,80300,2,0,P|423:363|359:367,1,135,2|8,0:0|0:1,0:0:0:0:
301,300,80900,1,0,0:0:0:0:
211,364,81100,6,0,P|179:355|146:352,1,67.5,2|2,0:0|0:0,0:0:0:0:
57,351,81500,1,0,0:0:0:0:
24,269,81700,2,0,P|31:235|39:203,1,67.5,2|0,0:0|0:0,0:0:0:0:
125,218,82100,2,0,P|116:250|109:283,1,67.5,2|8,0:0|0:1,0:0:0:0:
208,198,82500,6,0,P|187:137|123:127,1,135,2|2,0:0|0:0,0:0:0:0:
60,66,83100,2,0,P|29:78|-1:65,1,67.5,2|2,0:0|0:0,0:0:0:0:
124,11,83500,2,0,P|154:-1|185:11,1,67.5,2|2,0:0|0:0,0:0:0:0:
253,74,83900,1,8,0:1:0:0:
253,74,84100,1,0,0:0:0:0:
201,168,84300,6,0,P|207:202|213:235,1,67.5,2|2,0:0|0:0,0:0:0:0:
111,333,84700,2,0,P|121:301|151:285,1,67.5,2|2,0:0|0:0,0:0:0:0:
221,337,85100,1,8,0:0:0:0:
303,366,85300,1,8,0:0:0:0:
366,305,85500,1,8,0:0:0:0:
446,339,85700,1,8,0:0:0:0:
505,246,85900,6,0,P|497:213|488:180,1,67.5,4|0,0:0|0:0,0:0:0:0:
414,133,86300,2,0,P|421:100|430:67,1,67.5,2|0,0:0|0:0,0:0:0:0:
366,6,86700,2,0,P|300:15|250:60,1,135,2|8,0:0|0:1,0:0:0:0:
209,138,87300,1,2,0:0:0:0:
292,207,87500,6,0,P|324:213|354:199,1,67.5,2|2,0:0|0:0,0:0:0:0:
433,239,87900,1,0,0:0:0:0:
376,305,88100,2,0,P|343:298|313:312,1,67.5,2|0,0:0|0:0,0:0:0:0:
246,369,88500,2,0,P|212:360|180:351,1,67.5,2|8,0:0|0:1,0:0:0:0:
98,321,88900,1,0,0:0:0:0:
170,241,89100,6,0,P|160:208|149:176,1,67.5,2|0,0:0|0:0,0:0:0:0:
73,132,89500,2,0,P|61:163|52:196,1,67.5,2|0,0:0|0:0,0:0:0:0:
0,86,89900,2,0,P|40:36|103:51,1,135,2|8,0:0|0:1,0:0:0:0:
171,105,90500,1,2,0:0:0:0:
255,35,90700,6,0,P|288:30|322:27,1,67.5,2|2,0:0|0:0,0:0:0:0:
294,110,91100,1,0,0:0:0:0:
352,175,91300,2,0,P|385:178|419:182,1,67.5,2|0,0:0|0:0,0:0:0:0:
485,239,91700,1,2,0:0:0:0:
436,313,91900,1,8,0:1:0:0:
436,313,92100,1,0,0:0:0:0:
350,267,92300,6,0,B|311:262|290:289|308:301|290:328|236:331,1,121.499996292114,4|8,0:0|0:0,0:0:0:0:
190,364,92900,1,0,0:0:0:0:
122,337,93100,2,0,P|114:307|107:278,1,60.7499981460572,2|0,0:0|0:0,0:0:0:0:
86,208,93500,2,0,P|78:178|71:149,1,60.7499981460572,8|0,0:0|0:0,0:0:0:0:
45,60,93900,5,2,0:0:0:0:
45,60,94100,2,0,P|102:78|162:73,1,121.499996292114,2|2,0:0|0:0,0:0:0:0:
229,43,94700,2,0,P|258:46|281:65,1,60.7499981460572,2|0,0:0|0:0,0:0:0:0:
308,133,95100,2,0,P|330:152|360:155,1,60.7499981460572,8|0,0:0|0:0,0:0:0:0:
452,125,95500,6,0,P|436:183|438:243,1,121.499996292114,2|8,0:0|0:0,0:0:0:0:
452,315,96100,1,0,0:0:0:0:
399,365,96300,2,0,P|369:359|339:355,1,60.7499981460572,2|0,0:0|0:0,0:0:0:0:
267,340,96700,2,0,P|237:334|207:330,1,60.7499981460572,8|0,0:0|0:0,0:0:0:0:
117,309,97100,5,2,0:0:0:0:
116,308,97300,2,0,P|74:270|91:215,1,121.499996292114,2|2,0:0|0:0,0:0:0:0:
160,192,97900,2,0,P|184:175|193:147,1,60.7499981460572,2|0,0:0|0:0,0:0:0:0:
183,74,98300,2,0,P|191:45|216:29,1,60.7499981460572,8|0,0:0|0:0,0:0:0:0:
313,16,98700,6,0,P|343:24|371:36,1,60.7499981460572,2|2,0:0|0:0,0:0:0:0:
419,91,99100,2,0,P|446:79|476:71,1,60.7499981460572,8|0,0:0|0:0,0:0:0:0:
511,135,99500,2,0,P|505:191|450:207,1,121.499996292114,2|8,0:0|0:0,0:0:0:0:
382,179,100100,1,2,0:0:0:0:
311,247,100300,6,0,P|318:276|323:306,1,60.7499981460572,2|0,0:0|0:0,0:0:0:0:
252,322,100700,2,0,P|246:292|239:262,1,60.7499981460572,8|0,0:0|0:0,0:0:0:0:
192,206,101100,2,0,P|201:145|215:86,1,121.499996292114,2|8,0:0|0:0,0:0:0:0:
235,16,101700,1,2,0:0:0:0:
143,52,101900,6,0,P|113:46|83:42,1,60.7499981460572,2|0,0:0|0:0,0:0:0:0:
65,113,102300,2,0,P|95:117|124:122,1,60.7499981460572,8|0,0:0|0:0,0:0:0:0:
171,179,102700,2,0,P|182:235|133:271,1,121.499996292114,2|8,0:0|0:0,0:0:0:0:
64,273,103300,1,2,0:0:0:0:
98,363,103500,6,0,P|127:370|155:363,1,60.7499981460572,2|0,0:0|0:0,0:0:0:0:
215,320,103900,2,0,P|244:312|272:319,1,60.7499981460572,8|0,0:0|0:0,0:0:0:0:
330,364,104300,1,8,0:0:0:0:
379,310,104500,1,8,0:0:0:0:
451,302,104700,1,8,0:0:0:0:
511,342,104900,1,8,0:0:0:0:
511,213,105088,6,0,B|499:177|463:169|463:169|443:206|398:208,1,148.50000453186,4|8,0:0|0:1,0:0:0:0:
316,157,105688,1,0,0:0:0:0:
250,227,105888,1,2,0:0:0:0:
250,227,106088,1,2,0:0:0:0:
168,174,106288,2,0,P|171:138|176:101,1,74.2500022659302,8|0,0:1|0:0,0:0:0:0:
86,18,106688,5,2,0:0:0:0:
86,18,106888,2,0,P|78:73|71:128,1,111.375003398895,2|0,0:0|0:0,0:0:0:0:
69,155,107288,1,2,0:0:0:0:
23,239,107488,2,0,P|40:270|74:282,1,74.2500022659302,2|0,0:0|0:0,0:0:0:0:
166,252,107887,1,8,0:1:0:0:
166,252,108087,1,0,0:0:0:0:
248,341,108288,6,0,B|290:346|319:303|279:292|317:246|368:258,1,148.50000453186,4|8,0:0|0:1,0:0:0:0:
438,301,108888,1,2,0:0:0:0:
512,239,109088,1,2,0:0:0:0:
512,239,109288,1,2,0:0:0:0:
464,155,109488,2,0,P|431:139|397:152,1,74.2500022659302,8|0,0:1|0:0,0:0:0:0:
322,247,109888,5,2,0:0:0:0:
322,246,110088,2,0,P|269:260|226:228,1,111.375003398895,2|0,0:0|0:0,0:0:0:0:
208,211,110488,1,2,0:0:0:0:
258,128,110688,2,0,P|267:92|274:55,1,74.2500022659302,2|2,0:0|0:0,0:0:0:0:
198,5,111087,1,8,0:1:0:0:
198,5,111287,1,0,0:0:0:0:
113,88,111488,6,0,P|77:97|43:83,1,74.2500022659302,4|2,0:0|0:0,0:0:0:0:
165,163,111888,2,0,P|200:171|234:157,1,74.2500022659302,8|0,0:1|0:0,0:0:0:0:
107,226,112288,2,0,P|56:248|27:295,1,111.375003398895,2|0,0:0|0:0,0:0:0:0:
27,325,112688,1,8,0:1:0:0:
27,325,112888,1,2,0:0:0:0:
132,380,113088,6,0,P|168:369|205:362,1,74.2500022659302,2|0,0:0|0:0,0:0:0:0:
331,370,113488,2,0,P|306:342|280:316,1,74.2500022659302,8|0,0:1|0:0,0:0:0:0:
255,168,113888,2,0,P|205:189|198:241,1,111.375003398895,2|0,0:0|0:0,0:0:0:0:
204,273,114288,1,8,0:1:0:0:
204,273,114488,1,2,0:0:0:0:
320,222,114688,6,0,P|355:216|385:237,1,74.2500022659302,2|0,0:0|0:0,0:0:0:0:
475,336,115088,2,0,P|452:307|455:271,1,74.2500022659302,8|0,0:1|0:0,0:0:0:0:
502,186,115488,2,0,P|523:136|497:90,1,111.375003398895,2|0,0:0|0:0,0:0:0:0:
485,72,115888,1,8,0:1:0:0:
485,72,116088,1,0,0:0:0:0:
386,139,116288,6,0,P|350:131|312:126,1,74.2500022659302,2|0,0:0|0:0,0:0:0:0:
191,204,116688,2,0,P|213:174|238:147,1,74.2500022659302,8|0,0:1|0:0,0:0:0:0:
230,4,117088,2,0,P|244:38|255:73,1,74.2500022659302,2|2,0:0|0:0,0:0:0:0:
346,35,117488,1,8,0:1:0:0:
346,35,117688,1,0,0:0:0:0:
427,108,117888,6,0,P|408:173|395:240,1,135,6|8,0:0|0:1,0:0:0:0:
401,328,118488,1,0,0:0:0:0:
322,289,118688,2,0,P|289:284|260:301,1,67.5,0|2,0:0|0:0,0:0:0:0:
200,365,119088,2,0,P|167:369|138:352,1,67.5,8|0,0:1|0:0,0:0:0:0:
77,263,119488,6,0,B|95:227|111:188|111:188|138:175|162:189,1,135,2|8,0:0|0:1,0:0:0:0:
215,258,120088,2,0,B|245:270|278:242|260:227|297:200|333:209,1,135,2|2,0:0|0:0,0:0:0:0:
409,260,120688,1,8,0:1:0:0:
409,260,120888,1,0,0:0:0:0:
492,191,121088,6,0,P|473:126|465:59,1,135,2|8,0:0|0:1,0:0:0:0:
389,14,121688,2,0,B|358:1|325:29|343:44|306:71|270:62,1,135,2|2,0:0|0:0,0:0:0:0:
201,20,122288,1,8,0:1:0:0:
201,20,122488,1,0,0:0:0:0:
135,104,122688,6,0,P|143:136|150:169,1,67.5,2|0,0:0|0:0,0:0:0:0:
178,253,123088,1,8,0:1:0:0:
91,240,123288,2,0,P|40:278|57:340,1,135,2|2,0:0|0:0,0:0:0:0:
139,384,123888,1,8,0:1:0:0:
139,384,124088,1,0,0:0:0:0:
231,328,124288,6,0,P|265:327|298:334,1,67.5,2|0,0:0|0:0,0:0:0:0:
375,376,124688,2,0,P|439:354|480:302,1,135,8|0,0:1|0:0,0:0:0:0:
511,220,125288,1,2,0:0:0:0:
447,159,125488,2,0,P|414:152|385:168,1,67.5,8|2,0:1|0:0,0:0:0:0:
319,255,125888,6,0,P|255:236|188:229,1,135,2|8,0:0|0:1,0:0:0:0:
123,288,126488,2,0,P|60:275|45:213,1,135,2|2,0:0|0:0,0:0:0:0:
86,135,127088,2,0,P|118:125|151:120,1,67.5,8|0,0:1|0:0,0:0:0:0:
214,31,127488,6,0,P|247:35|268:61,1,67.5,2|0,0:0|0:0,0:0:0:0:
323,130,127888,1,8,0:1:0:0:
243,167,128088,2,0,B|217:175|209:210|209:210|239:248|253:274,1,135,2|2,0:0|0:0,0:0:0:0:
306,343,128688,2,0,P|339:346|371:356,1,67.5,8|0,0:1|0:0,0:0:0:0:
479,308,129088,6,0,P|460:279|452:246,1,67.5,2|0,0:0|0:0,0:0:0:0:
426,163,129488,1,8,0:1:0:0:
352,210,129688,2,0,P|384:151|390:84,1,135,2|2,0:0|0:0,0:0:0:0:
355,9,130288,1,8,0:1:0:0:
355,9,130488,1,0,0:0:0:0:
267,74,130688,6,0,P|237:88|204:81,1,67.5,2|0,0:0|0:0,0:0:0:0:
135,27,131088,1,8,0:1:0:0:
61,75,131288,2,0,P|49:137|103:169,1,135,2|2,0:0|0:0,0:0:0:0:
191,167,131888,2,0,P|223:173|244:199,1,67.5,8|0,0:1|0:0,0:0:0:0:
184,289,132288,6,0,P|150:294|118:302,1,67.5,2|0,0:0|0:0,0:0:0:0:
51,361,132688,1,8,0:1:0:0:
133,383,132888,2,0,P|200:369|266:357,1,135,2|2,0:0|0:0,0:0:0:0:
321,289,133488,1,8,0:1:0:0:
321,289,133688,1,0,0:0:0:0:
412,340,133888,6,0,P|426:282|451:226,1,121.499996292114,4|8,0:0|0:0,0:0:0:0:
491,166,134488,1,0,0:0:0:0:
440,113,134688,2,0,P|410:118|380:124,1,60.7499981460572,2|0,0:0|0:0,0:0:0:0:
308,138,135088,2,0,P|278:143|248:149,1,60.7499981460572,8|0,0:0|0:0,0:0:0:0:
155,164,135488,5,2,0:0:0:0:
155,164,135688,2,0,P|168:108|121:75,1,121.499996292114,2|2,0:0|0:0,0:0:0:0:
49,87,136288,2,0,P|34:113|39:142,1,60.7499981460572,2|0,0:0|0:0,0:0:0:0:
74,207,136688,2,0,P|88:233|83:262,1,60.7499981460572,8|0,0:0|0:0,0:0:0:0:
7,323,137088,6,0,B|46:318|67:345|49:357|67:384|121:387,1,121.499996292114,2|8,0:0|0:0,0:0:0:0:
175,382,137688,1,0,0:0:0:0:
235,341,137888,2,0,P|240:311|246:281,1,60.7499981460572,2|0,0:0|0:0,0:0:0:0:
261,209,138288,2,0,P|266:179|272:149,1,60.7499981460572,8|0,0:0|0:0,0:0:0:0:
295,56,138688,5,2,0:0:0:0:
295,55,138888,2,0,P|355:52|411:74,1,121.499996292114,2|2,0:0|0:0,0:0:0:0:
460,127,139488,2,0,P|468:156|456:184,1,60.7499981460572,2|0,0:0|0:0,0:0:0:0:
401,232,139888,2,0,P|389:259|396:288,1,60.7499981460572,8|0,0:0|0:0,0:0:0:0:
445,374,140288,6,0,P|414:370|384:367,1,60.7499981460572,2|2,0:0|0:0,0:0:0:0:
321,329,140688,2,0,P|290:331|260:335,1,60.7499981460572,8|0,0:0|0:0,0:0:0:0:
201,379,141088,2,0,P|147:357|144:299,1,121.499996292114,2|8,0:0|0:0,0:0:0:0:
180,235,141688,1,2,0:0:0:0:
278,231,141888,6,0,P|299:210|305:180,1,60.7499981460572,2|0,0:0|0:0,0:0:0:0:
344,118,142288,2,0,P|322:97|316:67,1,60.7499981460572,8|0,0:0|0:0,0:0:0:0:
350,3,142688,2,0,P|409:12|465:37,1,121.499996292114,2|8,0:0|0:0,0:0:0:0:
510,94,143288,1,2,0:0:0:0:
459,178,143488,6,0,P|429:180|400:189,1,60.7499981460572,2|0,0:0|0:0,0:0:0:0:
343,234,143888,2,0,P|313:225|283:222,1,60.7499981460572,8|0,0:0|0:0,0:0:0:0:
232,171,144288,2,0,B|193:166|172:193|190:205|172:232|118:235,1,121.499996292114,2|8,0:0|0:0,0:0:0:0:
65,249,144888,1,2,0:0:0:0:
10,168,145088,6,0,P|13:137|19:108,1,60.7499981460572,2|0,0:0|0:0,0:0:0:0:
63,48,145488,2,0,P|92:42|119:53,1,60.7499981460572,8|0,0:0|0:0,0:0:0:0:
180,93,145888,2,0,P|207:104|236:97,1,60.7499981460572,2|0,0:0|0:0,0:0:0:0:
301,61,146288,1,8,0:0:0:0:
301,61,146488,1,2,0:0:0:0:
360,137,146688,6,0,P|350:166|344:196,1,60.7499981460572,2|0,0:0|0:0,0:0:0:0:
290,246,147088,2,0,P|299:274|305:304,1,60.7499981460572,8|0,0:0|0:0,0:0:0:0:
363,349,147488,2,0,P|422:346|465:304,1,121.499996292114,2|8,0:0|0:0,0:0:0:0:
493,237,148088,1,2,0:0:0:0:
416,178,148288,6,0,P|399:153|401:123,1,60.7499981460572,2|0,0:0|0:0,0:0:0:0:
452,71,148688,2,0,P|454:41|437:16,1,60.7499981460572,8|2,0:0|0:0,0:0:0:0:
365,2,149088,2,0,B|326:-3|305:24|323:36|305:63|251:66,1,121.499996292114,2|8,0:0|0:0,0:0:0:0:
198,81,149688,1,2,0:0:0:0:
255,161,149888,6,0,P|245:189|241:219,1,60.7499981460572,2|0,0:0|0:0,0:0:0:0:
180,260,150288,2,0,P|190:288|194:318,1,60.7499981460572,8|0,0:0|0:0,0:0:0:0:
150,376,150688,2,0,P|92:381|62:332,1,121.499996292114,2|8,0:0|0:0,0:0:0:0:
67,259,151288,1,0,0:0:0:0:
27,197,151488,5,2,0:0:0:0:
101,71,151888,1,0,0:0:0:0:
232,134,152288,1,8,0:0:0:0:
200,197,152488,1,8,0:0:0:0:
136,165,152688,1,8,0:0:0:0:
168,100,152888,1,8,0:0:0:0:
273,30,153088,6,0,B|313:20|337:59|337:59|342:96|381:111,1,148.50000453186,4|8,0:0|0:1,0:0:0:0:
467,154,153688,1,0,0:0:0:0:
510,245,153888,1,2,0:0:0:0:
510,245,154088,1,2,0:0:0:0:
460,327,154288,2,0,P|429:347|393:345,1,74.2500022659302,8|0,0:1|0:0,0:0:0:0:
299,280,154688,5,2,0:0:0:0:
298,280,154888,2,0,P|312:226|337:176,1,111.375003398895,2|0,0:0|0:0,0:0:0:0:
357,159,155288,1,2,0:0:0:0:
330,64,155488,2,0,P|295:52|259:47,1,74.2500022659302,2|0,0:0|0:0,0:0:0:0:
181,101,155887,1,8,0:1:0:0:
181,101,156087,1,0,0:0:0:0:
71,41,156288,6,0,B|40:47|31:79|31:79|54:115|69:160,1,148.50000453186,4|8,0:0|0:1,0:0:0:0:
25,246,156888,1,2,0:0:0:0:
105,307,157088,1,2,0:0:0:0:
105,307,157288,1,0,0:0:0:0:
175,241,157488,2,0,P|211:245|247:254,1,74.2500022659302,8|0,0:1|0:0,0:0:0:0:
316,359,157888,5,2,0:0:0:0:
315,358,158088,2,0,P|367:365|399:322,1,111.375003398895,2|0,0:0|0:0,0:0:0:0:
405,297,158488,1,2,0:0:0:0:
476,231,158688,2,0,P|453:202|456:166,1,74.2500022659302,2|2,0:0|0:0,0:0:0:0:
505,86,159087,1,8,0:1:0:0:
505,86,159287,1,0,0:0:0:0:
408,17,159488,6,0,P|371:22|335:30,1,74.2500022659302,4|2,0:0|0:0,0:0:0:0:
332,179,159888,2,0,P|343:143|357:109,1,74.2500022659302,8|0,0:1|0:0,0:0:0:0:
164,22,160288,2,0,P|217:35|262:68,1,111.375003398895,2|0,0:0|0:0,0:0:0:0:
279,94,160688,1,8,0:1:0:0:
279,94,160888,1,2,0:0:0:0:
201,183,161088,6,0,P|165:190|132:174,1,74.2500022659302,2|0,0:0|0:0,0:0:0:0:
260,253,161488,2,0,P|295:260|328:244,1,74.2500022659302,8|0,0:1|0:0,0:0:0:0:
200,323,161888,2,0,P|148:338|103:307,1,111.375003398895,2|0,0:0|0:0,0:0:0:0:
92,290,162288,1,8,0:1:0:0:
92,290,162488,1,2,0:0:0:0:
27,182,162688,6,0,P|33:145|41:109,1,74.2500022659302,2|0,0:0|0:0,0:0:0:0:
122,197,163088,2,0,P|127:160|135:124,1,74.2500022659302,8|0,0:1|0:0,0:0:0:0:
220,210,163488,2,0,P|228:155|240:100,1,111.375003398895,2|0,0:0|0:0,0:0:0:0:
250,79,163888,1,8,0:1:0:0:
250,79,164088,1,0,0:0:0:0:
351,16,164288,6,0,P|387:12|417:33,1,74.2500022659302,2|0,0:0|0:0,0:0:0:0:
377,169,164688,2,0,P|356:139|358:102,1,74.2500022659302,8|0,0:1|0:0,0:0:0:0:
458,118,165088,1,8,0:0:0:0:
510,198,165288,1,8,0:0:0:0:
428,250,165488,1,8,0:0:0:0:
475,333,165688,1,8,0:0:0:0:
389,382,165888,6,0,P|360:371|330:365,1,60.7499981460572,4|0,0:0|0:0,0:0:0:0:
275,317,166288,2,0,P|245:323|216:333,1,60.7499981460572,8|0,0:0|0:0,0:0:0:0:
158,378,166688,2,0,P|100:369|83:314,1,121.499996292114,2|8,0:0|0:0,0:0:0:0:
70,243,167288,1,2,0:0:0:0:
155,196,167488,6,0,P|194:202|226:219,1,60.7499981460572,2|0,0:0|0:0,0:0:0:0:
275,249,167888,2,0,P|303:237|333:234,1,60.7499981460572,8|0,0:0|0:0,0:0:0:0:
402,210,168288,2,0,P|413:150|437:94,1,121.499996292114,2|8,0:0|0:0,0:0:0:0:
473,30,168888,1,2,0:0:0:0:
377,49,169088,6,0,P|347:56|320:45,1,60.7499981460572,2|0,0:0|0:0,0:0:0:0:
254,13,169488,2,0,P|224:5|197:16,1,60.7499981460572,8|0,0:0|0:0,0:0:0:0:
139,61,169888,2,0,B|100:66|79:39|97:27|79:0|25:-3,1,121.499996292114,2|8,0:0|0:0,0:0:0:0:
0,58,170488,1,2,0:0:0:0:
62,132,170688,6,0,P|52:160|46:190,1,60.7499981460572,2|0,0:0|0:0,0:0:0:0:
4,250,171088,2,0,P|14:278|20:308,1,60.7499981460572,8|0,0:0|0:0,0:0:0:0:
70,362,171488,2,0,P|97:373|127:369,1,60.7499981460572,2|0,0:0|0:0,0:0:0:0:
195,338,171888,1,8,0:0:0:0:
195,338,172088,1,2,0:0:0:0:
258,374,172288,1,4,0:1:0:0:
256,192,172388,12,0,175488,0:0:0:0:
