osu file format v14

[General]
AudioFilename: audio.mp3
AudioLeadIn: 0
PreviewTime: 60300
Countdown: 0
SampleSet: Soft
StackLeniency: 0.4
Mode: 0
LetterboxInBreaks: 0
WidescreenStoryboard: 0

[Editor]
Bookmarks: 47500,60300,73100,92300,105088,117888,133888,153088,165888,172288
DistanceSpacing: 1.3
BeatDivisor: 4
GridSize: 4
TimelineZoom: 3.399999

[Metadata]
Title:Lucky (Nightcore Mix)
TitleUnicode:Lucky (Nightcore Mix)
Artist:Lucky Twice
ArtistUnicode:Lucky Twice
Creator:Gordon123
Version:Lucky
Source:
Tags:Mortem Pjecoo Ryxliee pop sped up eurodance english Young & Clever Young_&_Clever Bubblegum Europop Synth-pop trance electronic
BeatmapID:3351002
BeatmapSetID:1641849

[Difficulty]
HPDrainRate:5
CircleSize:4.5
OverallDifficulty:7
ApproachRate:8.4
SliderMultiplier:1.45
SliderTickRate:1

[Events]
//Background and Video events
0,0,"gbDdwzR.jpeg",0,0
//Break Periods
//Storyboard Layer 0 (Background)
//Storyboard Layer 1 (Fail)
//Storyboard Layer 2 (Pass)
//Storyboard Layer 3 (Foreground)
//Storyboard Layer 4 (Overlay)
//Storyboard Sound Samples

[TimingPoints]
9100,400,4,2,1,70,1,0
9100,-100,4,2,1,70,0,0
47500,-111.111111111111,4,2,1,55,0,0
59500,-108.695652173913,4,2,1,54,0,0
59700,-106.382978723404,4,2,1,58,0,0
59900,-104.166666666667,4,2,1,64,0,0
60100,-102.040816326531,4,2,1,68,0,0
60300,-90.9090909090909,4,2,1,80,0,1
73100,-100,4,2,1,70,0,0
92300,-111.111111111111,4,2,1,55,0,0
104300,-108.695652173913,4,2,1,54,0,0
104500,-106.382978723404,4,2,1,58,0,0
104700,-104.166666666667,4,2,1,64,0,0
104900,-102.040816326531,4,2,1,68,0,0
105088,400,4,2,1,80,1,1
105088,-90.9090909090909,4,2,1,80,0,1
117888,-100,4,2,1,70,0,0
133888,-111.111111111111,4,2,1,55,0,0
152288,-108.695652173913,4,2,1,54,0,0
152488,-106.382978723404,4,2,1,58,0,0
152688,-104.166666666667,4,2,1,64,0,0
152888,-102.040816326531,4,2,1,68,0,0
153088,-90.9090909090909,4,2,1,80,0,1
165888,-111.111111111111,4,2,1,55,0,0
172288,-111.111111111111,4,2,1,55,0,0
172688,-111.111111111111,4,2,1,50,0,0
173088,-111.111111111111,4,2,1,45,0,0
173488,-111.111111111111,4,2,1,40,0,0
173888,-111.111111111111,4,2,1,35,0,0
174288,-111.111111111111,4,2,1,30,0,0
174688,-111.111111111111,4,2,1,25,0,0
175088,-111.111111111111,4,2,1,20,0,0
175488,-111.111111111111,4,2,1,15,0,0

[Colours]
Combo1 : 164,216,255
Combo2 : 243,228,158
Combo3 : 253,196,221
Combo4 : 190,185,255
SliderBorder : 240,120,150

[HitObjects]
189,80,7500,6,0,P|241:52|321:83,1,145,2|0,0:0|3:0,0:0:0:0:
352,210,8300,1,8,0:0:0:0:
326,338,8500,1,8,0:0:0:0:
186,338,8700,1,8,0:0:0:0:
160,210,8900,1,8,0:0:0:0:
65,211,9100,6,0,P|84:168|121:141,1,72.5,4|0,0:0|0:0,0:0:0:0:
63,65,9500,2,0,P|101:55|149:69,1,72.5,2|0,0:0|0:0,0:0:0:0:
271,93,9900,2,0,P|309:103|388:70,1,108.75,2|0,0:0|0:0,0:0:0:0:
410,53,10300,1,8,0:1:0:0:
487,106,10500,1,0,0:0:0:0:
507,197,10700,6,0,P|506:239|492:272,1,72.5,2|2,0:0|0:0,0:0:0:0:
433,337,11100,1,0,0:0:0:0:
376,261,11300,2,0,L|231:275,1,145,2|2,0:0|0:0,0:0:0:0:
90,266,11900,1,8,0:1:0:0:
58,354,12100,6,0,B|60:274|10:307|11:200,1,145,2|2,0:0|0:0,0:0:0:0:
51,134,12700,2,0,L|135:138,1,72.5
207,179,13100,2,0,L|291:175,1,72.5,0|2,0:0|0:0,0:0:0:0:
404,242,13500,1,8,0:1:0:0:
464,314,13700,1,0,0:0:0:0:
404,242,13900,6,0,P|444:212|469:178,1,72.5
462,100,14300,2,0,P|437:73|407:52,1,72.5
315,73,14700,2,0,L|238:70,1,72.5,0|2,0:0|0:0,0:0:0:0:
101,67,15100,1,8,0:1:0:0:
156,142,15300,6,0,P|233:126|237:57,1,145,2|2,0:0|0:0,0:0:0:0:
329,34,15900,2,0,P|357:71|393:81,1,72.5,2|0,0:0|0:0,0:0:0:0:
264,161,16300,2,0,P|257:219|276:273,1,108.75,2|0,0:0|0:0,0:0:0:0:
302,301,16700,1,8,0:1:0:0:
370,235,16900,1,0,0:0:0:0:
260,360,17100,6,0,P|225:351|182:353,1,72.5,2|2,0:0|0:0,0:0:0:0:
95,366,17500,1,0,0:0:0:0:
13,317,17700,2,0,L|27:171,1,145,2|2,0:0|0:0,0:0:0:0:
40,31,18300,1,8,0:1:0:0:
112,90,18500,6,0,B|199:98|177:49|265:61,1,145,2|2,0:0|0:0,0:0:0:0:
325,117,19100,2,0,L|321:194,1,72.5
227,194,19500,2,0,L|230:266,1,72.5,0|2,0:0|0:0,0:0:0:0:
333,363,19900,1,8,0:1:0:0:
426,373,20100,1,0,0:0:0:0:
512,346,20300,6,0,P|494:302|488:257,1,72.5
407,229,20700,2,0,P|414:193|429:160,1,72.5
507,43,21100,1,8,0:0:0:0:
378,73,21300,1,8,0:0:0:0:
256,25,21500,1,8,0:0:0:0:
140,86,21700,1,8,0:0:0:0:
15,47,21900,6,0,P|28:97|30:141,1,72.5,4|0,0:0|0:0,0:0:0:0:
112,163,22300,2,0,P|101:213|84:254,1,72.5,2|0,0:0|0:0,0:0:0:0:
15,350,22700,2,0,P|68:320|143:325,1,108.75,2|0,0:0|0:0,0:0:0:0:
161,326,23100,1,8,0:1:0:0:
249,359,23300,1,2,0:0:0:0:
336,324,23500,6,0,L|327:231,1,72.5,2|2,0:0|0:0,0:0:0:0:
251,198,23900,2,0,L|242:105,1,72.5,0|2,0:0|0:0,0:0:0:0:
232,31,24300,2,0,P|272:44|321:45,1,72.5,0|2,0:0|0:0,0:0:0:0:
443,38,24700,1,8,0:1:0:0:
379,107,24900,1,0,0:0:0:0:
302,46,25100,6,0,P|267:43|231:30,1,72.5,2|0,0:0|0:0,0:0:0:0:
161,94,25500,2,0,P|125:97|90:109,1,72.5,2|0,0:0|0:0,0:0:0:0:
8,223,25900,2,0,P|66:224|130:202,1,108.75,2|0,0:0|0:0,0:0:0:0:
142,188,26300,1,8,0:1:0:0:
228,226,26500,1,2,0:0:0:0:
151,283,26700,6,0,L|147:364,1,72.5,2|2,0:0|0:0,0:0:0:0:
256,344,27100,1,0,0:0:0:0:
364,355,27300,2,0,L|361:283,1,72.5,2|2,0:0|0:0,0:0:0:0:
316,192,27700,1,8,0:0:0:0:
192,192,27900,1,8,0:0:0:0:
235,275,28100,6,0,P|187:286|107:230,1,145,2|2,0:0|0:0,0:0:0:0:
192,192,28700,1,2,0:0:0:0:
138,114,28900,1,0,0:0:0:0:
265,52,29100,2,0,P|300:39|352:49,1,72.5,2|0,0:0|0:0,0:0:0:0:
424,71,29500,1,8,0:1:0:0:
392,159,29700,1,0,0:0:0:0:
459,224,29900,6,0,P|480:258|477:308,1,72.5,2|2,0:0|0:0,0:0:0:0:
429,368,30300,1,0,0:0:0:0:
373,291,30500,2,0,B|302:288|306:238|225:239,1,145,2|2,0:0|0:0,0:0:0:0:
101,260,31100,1,8,0:1:0:0:
14,297,31300,6,0,P|61:247|56:165,1,145,2|2,0:0|0:0,0:0:0:0:
28,84,31900,1,2,0:0:0:0:
110,38,32100,1,2,0:0:0:0:
197,75,32300,2,0,L|187:163,1,72.5,2|2,0:0|0:0,0:0:0:0:
323,147,32700,2,0,L|315:75,1,72.5,8|0,0:1|0:0,0:0:0:0:
403,41,33100,6,0,L|411:113,1,72.5,2|2,0:0|0:0,0:0:0:0:
479,178,33500,2,0,L|470:250,1,72.5,2|2,0:0|0:0,0:0:0:0:
454,342,33900,1,2,0:0:0:0:
381,281,34100,1,2,0:0:0:0:
250,334,34300,1,8,0:1:0:0:
179,270,34500,6,0,P|145:202|192:124,1,145,2|2,0:0|0:0,0:0:0:0:
99,78,35100,2,0,P|74:112|60:152,1,72.5,2|0,0:0|0:0,0:0:0:0:
31,277,35500,2,0,P|45:326|110:328,1,108.75,2|0,0:0|0:0,0:0:0:0:
138,315,35900,1,8,0:1:0:0:
223,353,36100,1,0,0:0:0:0:
313,336,36300,6,0,P|297:305|293:253,1,72.5,2|2,0:0|0:0,0:0:0:0:
314,176,36700,1,0,0:0:0:0:
399,135,36900,2,0,P|377:85|288:37,1,145,2|2,0:0|0:0,0:0:0:0:
160,34,37500,1,8,0:1:0:0:
226,101,37700,6,0,B|236:187|185:164|193:256,1,145,2|2,0:0|0:0,0:0:0:0:
227,326,38300,1,2,0:0:0:0:
313,362,38500,1,2,0:0:0:0:
408,357,38700,2,0,L|391:271,1,72.5,2|2,0:0|0:0,0:0:0:0:
475,170,39100,2,0,L|489:98,1,72.5,8|0,0:1|0:0,0:0:0:0:
420,33,39500,6,0,L|340:48,1,72.5,2|2,0:0|0:0,0:0:0:0:
258,20,39900,1,2,0:0:0:0:
299,104,40100,1,2,0:0:0:0:
164,56,40300,1,8,0:0:0:0:
137,194,40500,1,8,0:0:0:0:
49,82,40700,1,8,0:0:0:0:
26,221,40900,1,8,0:0:0:0:
120,325,41100,6,0,L|197:342,1,72.5,4|0,0:0|0:0,0:0:0:0:
253,270,41500,2,0,L|182:254,1,72.5,2|0,0:0|0:0,0:0:0:0:
63,273,41900,2,0,P|101:231|85:162,1,108.75,2|0,0:0|0:0,0:0:0:0:
77,147,42300,1,8,0:1:0:0:
4,86,42500,1,0,0:0:0:0:
43,0,42700,6,0,P|78:16|133:24,1,72.5,2|0,0:0|0:0,0:0:0:0:
190,73,43100,2,0,P|225:57|280:49,1,72.5,2|0,0:0|0:0,0:0:0:0:
349,25,43500,2,0,L|345:109,1,72.5,2|0,0:0|0:0,0:0:0:0:
477,147,43900,1,8,0:1:0:0:
499,238,44100,1,0,0:0:0:0:
426,297,44300,6,0,P|397:313|352:311,1,72.5,2|0,0:0|0:0,0:0:0:0:
325,224,44700,2,0,P|296:208|251:210,1,72.5,2|0,0:0|0:0,0:0:0:0:
119,176,45100,2,0,L|122:291,1,108.75,2|0,0:0|0:0,0:0:0:0:
124,331,45500,1,8,0:1:0:0:
47,314,45700,1,2,0:0:0:0:
212,342,45900,6,0,L|306:357,1,72.5,2|2,0:0|0:0,0:0:0:0:
360,298,46300,1,0,0:0:0:0:
454,298,46500,2,0,P|463:335|494:369,2,72.5,2|0|2,0:0|0:0|0:0,0:0:0:0:
442,204,47100,1,8,0:1:0:0:
489,122,47300,1,0,0:0:0:0:
404,73,47500,6,0,P|338:78|268:108,1,130.499996017456,4|8,0:0|0:0,0:0:0:0:
214,147,48100,1,0,0:0:0:0:
136,158,48300,2,0,L|143:232,1,65.2499980087281,2|0,0:0|0:0,0:0:0:0:
136,158,48700,2,0,L|127:79,1,65.2499980087281,8|0,0:0|0:0,0:0:0:0:
119,15,49100,5,2,0:0:0:0:
192,41,49300,2,0,B|255:55|252:22|330:36,1,130.499996017456,2|2,0:0|0:0,0:0:0:0:
383,81,49900,2,0,P|390:66|426:29,1,65.2499980087281,2|0,0:0|0:0,0:0:0:0:
383,81,50300,2,0,P|376:96|340:133,1,65.2499980087281,8|0,0:0|0:0,0:0:0:0:
269,158,50700,6,0,P|265:213|306:290,1,130.499996017456,2|8,0:0|0:0,0:0:0:0:
360,323,51300,1,0,0:0:0:0:
436,305,51500,2,0,L|423:234,1,65.2499980087281,2|0,0:0|0:0,0:0:0:0:
436,305,51900,2,0,L|423:234,1,65.2499980087281,8|0,0:0|0:0,0:0:0:0:
468,175,52300,5,2,0:0:0:0:
470,96,52500,2,0,L|323:123,1,130.499996017456,2|2,0:0|0:0,0:0:0:0:
265,99,53100,2,0,P|231:90|194:92,1,65.2499980087281,2|0,0:0|0:0,0:0:0:0:
265,99,53500,2,0,P|231:90|194:92,1,65.2499980087281,8|0,0:0|0:0,0:0:0:0:
124,108,53900,5,2,0:0:0:0:
48,89,54100,1,2,0:0:0:0:
72,163,54300,2,0,L|79:237,1,65.2499980087281,8|0,0:0|0:0,0:0:0:0:
12,271,54700,2,0,P|59:304|141:277,1,130.499996017456,2|8,0:0|0:0,0:0:0:0:
193,332,55300,1,2,0:0:0:0:
270,317,55500,6,0,L|261:229,1,65.2499980087281,2|0,0:0|0:0,0:0:0:0:
206,199,55900,2,0,L|212:134,1,65.2499980087281,8|0,0:0|0:0,0:0:0:0:
163,72,56300,2,0,B|229:88|225:46|301:61,1,130.499996017456,2|8,0:0|0:0,0:0:0:0:
364,86,56900,1,2,0:0:0:0:
416,143,57100,6,0,P|409:180|422:213,1,65.2499980087281,2|0,0:0|0:0,0:0:0:0:
467,266,57500,2,0,P|474:303|461:336,1,65.2499980087281,8|0,0:0|0:0,0:0:0:0:
390,352,57900,2,0,L|256:338,1,130.499996017456,2|8,0:0|0:0,0:0:0:0:
182,329,58500,1,2,0:0:0:0:
104,339,58700,6,0,P|114:309|106:250,1,65.2499980087281,2|0,0:0|0:0,0:0:0:0:
60,218,59100,2,0,P|59:185|69:154,1,65.2499980087281,8|0,0:0|0:0,0:0:0:0:
13,48,59500,1,8,0:0:0:0:
128,90,59700,1,8,0:0:0:0:
237,29,59900,1,8,0:0:0:0:
350,87,60100,1,8,0:0:0:0:
489,52,60300,6,0,P|474:90|469:155,1,79.7500024337769,6|0,0:0|0:0,0:0:0:0:
434,340,60700,2,0,P|427:300|413:263,1,79.7500024337769,8|0,0:1|0:0,0:0:0:0:
302,192,61100,1,2,0:0:0:0:
472,202,61300,1,2,0:0:0:0:
297,211,61500,1,8,0:1:0:0:
181,105,61700,1,0,0:0:0:0:
192,88,61900,5,2,0:0:0:0:
295,42,62100,2,0,P|278:97|287:194,1,119.625003650665,2|0,0:0|0:0,0:0:0:0:
291,196,62500,1,2,0:0:0:0:
190,298,62700,2,0,P|166:294|101:306,1,79.7500024337769,2|2,0:0|0:0,0:0:0:0:
314,344,63100,2,0,P|338:348|403:336,1,79.7500024337769,8|0,0:1|0:0,0:0:0:0:
503,212,63500,6,0,B|515:126|459:145|467:51,1,159.500004867554,6|8,0:0|0:1,0:0:0:0:
367,112,64100,1,2,0:0:0:0:
268,58,64300,2,0,L|168:66,1,79.7500024337769,2|2,0:0|0:0,0:0:0:0:
74,187,64700,2,0,L|153:194,1,79.7500024337769,8|0,0:1|0:0,0:0:0:0:
85,337,65100,5,2,0:0:0:0:
195,354,65300,2,0,B|251:363|258:316|311:323,1,119.625003650665,2|0,0:0|0:0,0:0:0:0:
344,335,65700,1,2,0:0:0:0:
485,293,65900,1,2,0:0:0:0:
312,246,66100,1,2,0:0:0:0:
480,313,66300,1,8,0:1:0:0:
512,161,66500,1,0,0:0:0:0:
389,72,66700,5,4,0:0:0:0:
364,180,66900,1,2,0:0:0:0:
256,124,67100,1,8,0:1:0:0:
148,180,67300,1,0,0:0:0:0:
123,72,67500,2,0,P|78:81|26:156,1,119.625003650665,2|0,0:0|0:0,0:0:0:0:
26,174,67900,1,8,0:1:0:0:
33,311,68100,1,2,0:0:0:0:
154,344,68300,6,0,L|146:249,1,79.7500024337769,2|0,0:0|0:0,0:0:0:0:
315,265,68700,2,0,L|308:344,1,79.7500024337769,8|0,0:1|0:0,0:0:0:0:
236,192,69100,2,0,B|217:136|260:139|234:47,1,119.625003650665,2|0,0:0|0:0,0:0:0:0:
226,39,69500,1,8,0:1:0:0:
363,65,69700,1,2,0:0:0:0:
472,40,69900,6,0,P|459:100|470:149,1,79.7500024337769,2|0,0:0|0:0,0:0:0:0:
405,215,70300,2,0,P|418:275|407:324,1,79.7500024337769,8|0,0:1|0:0,0:0:0:0:
294,367,70700,2,0,L|123:333,1,159.500004867554,2|8,0:0|0:1,0:0:0:0:
26,347,71300,1,0,0:0:0:0:
137,221,71500,6,0,P|121:170|126:122,1,79.7500024337769,2|0,0:0|0:0,0:0:0:0:
256,40,71900,2,0,P|272:91|267:139,1,79.7500024337769,8|2,0:1|0:0,0:0:0:0:
254,220,72300,1,8,0:0:0:0:
201,357,72500,1,8,0:0:0:0:
332,274,72700,1,8,0:0:0:0:
180,274,72900,1,8,0:0:0:0:
311,357,73100,6,0,P|332:350|389:348,1,72.5,4|0,0:0|0:0,0:0:0:0:
475,363,73500,1,2,0:0:0:0:
505,273,73700,1,0,0:0:0:0:
395,183,73900,2,0,L|283:179,1,108.75,2|0,0:0|0:0,0:0:0:0:
250,162,74300,1,8,0:1:0:0:
309,102,74500,1,0,0:0:0:0:
235,240,74700,6,0,P|250:275|231:314,1,72.5,2|2,0:0|0:0,0:0:0:0:
169,369,75100,1,0,0:0:0:0:
77,345,75300,2,0,L|88:190,1,145,2|2,0:0|0:0,0:0:0:0:
2,217,75900,1,8,0:1:0:0:
116,116,76100,6,0,B|195:118|163:171|262:175,1,145,2|2,0:0|0:0,0:0:0:0:
325,222,76700,1,2,0:0:0:0:
397,159,76900,1,2,0:0:0:0:
336,86,77100,2,0,L|346:3,1,72.5,2|2,0:0|0:0,0:0:0:0:
171,14,77500,2,0,L|180:86,1,72.5,8|0,0:1|0:0,0:0:0:0:
110,149,77900,6,0,L|118:220,1,72.5,2|2,0:0|0:0,0:0:0:0:
98,312,78300,2,0,P|151:308|184:285,1,72.5,2|2,0:0|0:0,0:0:0:0:
243,243,78700,1,2,0:0:0:0:
270,333,78900,1,2,0:0:0:0:
409,354,79100,2,0,L|402:265,1,72.5,8|0,0:1|0:0,0:0:0:0:
468,214,79500,6,0,L|473:141,1,72.5,2|0,0:0|0:0,0:0:0:0:
502,52,79900,1,2,0:0:0:0:
411,78,80100,1,0,0:0:0:0:
260,52,80300,2,0,P|292:96|297:178,1,108.75,2|0,0:0|0:0,0:0:0:0:
298,196,80700,1,8,0:1:0:0:
383,156,80900,1,0,0:0:0:0:
281,282,81100,6,0,L|186:291,1,72.5,2|2,0:0|0:0,0:0:0:0:
115,302,81500,1,0,0:0:0:0:
151,214,81700,2,0,P|134:177|177:80,1,145,2|2,0:0|0:0,0:0:0:0:
245,42,82300,1,8,0:1:0:0:
91,16,82500,6,0,B|101:102|50:79|58:171,1,145,2|2,0:0|0:0,0:0:0:0:
57,248,83100,1,2,0:0:0:0:
110,325,83300,1,2,0:0:0:0:
199,353,83500,2,0,L|209:256,1,72.5,2|2,0:0|0:0,0:0:0:0:
171,148,83900,2,0,L|181:51,1,72.5,8|0,0:1|0:0,0:0:0:0:
263,35,84300,6,0,P|296:24|361:31,1,72.5,2|2,0:0|0:0,0:0:0:0:
426,39,84700,1,2,0:0:0:0:
490,107,84900,1,2,0:0:0:0:
369,156,85100,1,8,0:0:0:0:
490,204,85300,1,8,0:0:0:0:
369,252,85500,1,8,0:0:0:0:
246,204,85700,1,8,0:0:0:0:
123,247,85900,6,0,L|119:167,1,72.5,4|0,0:0|0:0,0:0:0:0:
42,134,86300,2,0,L|45:206,1,72.5,2|0,0:0|0:0,0:0:0:0:
11,332,86700,2,0,B|60:331|62:372|127:366,1,108.75,2|0,0:0|0:0,0:0:0:0:
153,361,87100,1,8,0:1:0:0:
254,353,87300,1,2,0:0:0:0:
348,323,87500,6,0,P|397:312|444:314,1,72.5,2|2,0:0|0:0,0:0:0:0:
456,224,87900,2,0,P|424:205|396:181,1,72.5,0|2,0:0|0:0,0:0:0:0:
329,116,88300,2,0,L|317:23,1,72.5,0|2,0:0|0:0,0:0:0:0:
190,101,88700,1,8,0:1:0:0:
167,192,88900,1,0,0:0:0:0:
236,255,89100,6,0,P|254:292|255:353,1,72.5,2|0,0:0|0:0,0:0:0:0:
178,372,89500,2,0,P|143:349|111:297,1,72.5,2|0,0:0|0:0,0:0:0:0:
75,192,89900,2,0,B|70:138|109:147|97:71,1,108.75,2|0,0:0|0:0,0:0:0:0:
82,43,90300,1,8,0:1:0:0:
10,98,90500,1,2,0:0:0:0:
170,45,90700,6,0,L|261:51,1,72.5,2|2,0:0|0:0,0:0:0:0:
314,97,91100,1,0,0:0:0:0:
408,97,91300,2,0,P|412:51|440:13,2,72.5,2|0|2,0:0|0:0|0:0,0:0:0:0:
421,190,91900,1,8,0:1:0:0:
473,268,92100,1,0,0:0:0:0:
400,328,92300,6,0,L|242:316,1,130.499996017456,4|8,0:0|0:0,0:0:0:0:
217,259,92900,1,0,0:0:0:0:
162,202,93100,2,0,P|141:224|110:246,1,65.2499980087281,2|0,0:0|0:0,0:0:0:0:
162,202,93500,2,0,P|183:180|214:158,1,65.2499980087281,8|0,0:0|0:0,0:0:0:0:
283,129,93900,5,2,0:0:0:0:
320,61,94100,2,0,P|358:111|346:174,1,130.499996017456,2|2,0:0|0:0,0:0:0:0:
306,241,94700,2,0,L|240:231,1,65.2499980087281,2|0,0:0|0:0,0:0:0:0:
306,241,95100,2,0,L|370:250,1,65.2499980087281,8|0,0:0|0:0,0:0:0:0:
436,292,95500,6,0,B|441:224|398:245|406:142,1,130.499996017456,2|8,0:0|0:0,0:0:0:0:
435,95,96100,1,0,0:0:0:0:
357,83,96300,2,0,L|286:74,1,65.2499980087281,2|0,0:0|0:0,0:0:0:0:
357,83,96700,2,0,L|286:74,1,65.2499980087281,8|0,0:0|0:0,0:0:0:0:
214,66,97100,5,2,0:0:0:0:
142,34,97300,2,0,P|162:76|130:179,1,130.499996017456,2|2,0:0|0:0,0:0:0:0:
92,212,97900,2,0,P|78:262|82:293,1,65.2499980087281,2|0,0:0|0:0,0:0:0:0:
92,212,98300,2,0,P|78:262|82:293,1,65.2499980087281,8|0,0:0|0:0,0:0:0:0:
45,346,98700,5,2,0:0:0:0:
123,341,98900,1,2,0:0:0:0:
199,322,99100,2,0,P|233:320|287:340,1,65.2499980087281,8|0,0:0|0:0,0:0:0:0:
337,350,99500,2,0,L|308:194,1,130.499996017456,2|8,0:0|0:0,0:0:0:0:
235,216,100100,1,2,0:0:0:0:
164,250,100300,6,0,P|171:210|153:175,1,65.2499980087281,2|0,0:0|0:0,0:0:0:0:
91,155,100700,2,0,P|83:105|101:70,1,65.2499980087281,8|0,0:0|0:0,0:0:0:0:
136,31,101100,2,0,B|202:47|198:5|274:20,1,130.499996017456,2|8,0:0|0:0,0:0:0:0:
338,41,101700,1,2,0:0:0:0:
391,98,101900,6,0,L|384:179,1,65.2499980087281,2|0,0:0|0:0,0:0:0:0:
442,216,102300,2,0,L|447:281,1,65.2499980087281,8|0,0:0|0:0,0:0:0:0:
457,358,102700,2,0,P|396:331|311:341,1,130.499996017456,2|8,0:0|0:0,0:0:0:0:
257,352,103300,1,2,0:0:0:0:
276,276,103500,6,0,L|285:206,1,65.2499980087281,2|0,0:0|0:0,0:0:0:0:
242,145,103900,2,0,L|233:80,1,65.2499980087281,8|0,0:0|0:0,0:0:0:0:
120,40,104300,1,8,0:0:0:0:
32,128,104500,1,8,0:0:0:0:
140,192,104700,1,8,0:0:0:0:
32,256,104900,1,8,0:0:0:0:
120,344,105088,6,0,P|168:332|232:336,1,79.7500024337769,4|0,0:0|0:0,0:0:0:0:
381,284,105488,2,0,P|341:281|302:271,1,79.7500024337769,8|0,0:1|0:0,0:0:0:0:
194,188,105888,1,2,0:0:0:0:
118,38,106088,1,2,0:0:0:0:
198,172,106288,1,8,0:1:0:0:
59,275,106488,1,0,0:0:0:0:
80,264,106688,5,2,0:0:0:0:
16,356,106888,2,0,P|88:340|160:362,1,119.625003650665,2|0,0:0|0:0,0:0:0:0:
162,365,107288,1,2,0:0:0:0:
192,235,107488,2,0,P|171:171|173:132,1,79.7500024337769,2|0,0:0|0:0,0:0:0:0:
299,52,107888,2,0,P|320:116|318:155,1,79.7500024337769,8|0,0:1|0:0,0:0:0:0:
287,235,108288,6,0,B|373:247|354:191|448:199,1,159.500004867554,4|8,0:0|0:1,0:0:0:0:
435,310,108888,1,2,0:0:0:0:
335,361,109088,2,0,L|236:354,1,79.7500024337769,2|2,0:0|0:0,0:0:0:0:
134,238,109488,2,0,L|213:233,1,79.7500024337769,8|0,0:1|0:0,0:0:0:0:
189,133,109888,5,2,0:0:0:0:
299,118,110088,2,0,P|276:65|223:27,1,119.625003650665,2|0,0:0|0:0,0:0:0:0:
189,23,110488,1,2,0:0:0:0:
80,69,110688,1,2,0:0:0:0:
7,208,110888,1,2,0:0:0:0:
82,101,111088,1,8,0:1:0:0:
155,275,111288,1,0,0:0:0:0:
276,195,111488,5,4,0:0:0:0:
370,127,111688,1,2,0:0:0:0:
326,23,111888,1,8,0:1:0:0:
214,23,112088,1,0,0:0:0:0:
170,127,112288,2,0,P|118:123|54:163,1,119.625003650665,2|0,0:0|0:0,0:0:0:0:
40,189,112688,1,8,0:1:0:0:
57,299,112888,1,2,0:0:0:0:
161,336,113088,6,0,P|149:285|156:241,1,79.7500024337769,2|0,0:0|0:0,0:0:0:0:
360,258,113488,2,0,P|362:297|351:336,1,79.7500024337769,8|0,0:1|0:0,0:0:0:0:
256,196,113888,2,0,L|256:68,1,119.625003650665,2|0,0:0|0:0,0:0:0:0:
256,40,114288,1,8,0:1:0:0:
395,72,114488,1,2,0:0:0:0:
504,48,114688,6,0,L|493:147,1,79.7500024337769,2|0,0:0|0:0,0:0:0:0:
409,200,115088,2,0,L|420:299,1,79.7500024337769,8|0,0:1|0:0,0:0:0:0:
473,376,115488,2,0,B|395:388|405:325|302:342,1,159.500004867554,2|8,0:0|0:1,0:0:0:0:
216,376,116088,1,0,0:0:0:0:
81,298,116288,6,0,L|69:211,1,79.7500024337769,2|0,0:0|0:0,0:0:0:0:
167,74,116688,2,0,L|177:153,1,79.7500024337769,8|0,0:1|0:0,0:0:0:0:
256,232,117088,1,2,0:0:0:0:
200,328,117288,1,2,0:0:0:0:
312,328,117488,1,8,0:1:0:0:
256,232,117688,1,0,0:0:0:0:
334,153,117888,6,0,P|374:133|470:169,1,145,6|8,0:0|0:1,0:0:0:0:
395,226,118488,1,0,0:0:0:0:
368,316,118688,2,0,L|285:310,1,72.5,0|2,0:0|0:0,0:0:0:0:
166,245,119088,2,0,L|249:239,1,72.5,8|0,0:1|0:0,0:0:0:0:
207,150,119488,6,0,P|138:147|143:64,1,145,2|8,0:0|0:1,0:0:0:0:
197,20,120088,2,0,B|257:10|279:59|355:37,1,145,2|2,0:0|0:0,0:0:0:0:
478,23,120688,1,8,0:1:0:0:
354,67,120888,1,0,0:0:0:0:
491,58,121088,6,0,P|498:98|468:145,1,72.5,2|0,0:0|0:0,0:0:0:0:
399,232,121488,1,8,0:1:0:0:
376,323,121688,2,0,B|299:334|307:286|226:290,1,145,2|2,0:0|0:0,0:0:0:0:
76,306,122288,2,0,P|92:271|90:207,1,72.5,8|0,0:1|0:0,0:0:0:0:
46,156,122688,6,0,P|50:120|65:87,1,72.5,2|0,0:0|0:0,0:0:0:0:
148,38,123088,1,8,0:1:0:0:
222,98,123288,2,0,P|264:73|381:108,1,145,2|2,0:0|0:0,0:0:0:0:
321,217,123888,1,8,0:1:0:0:
384,74,124088,1,0,0:0:0:0:
355,212,124288,6,0,L|433:198,1,72.5,2|0,0:0|0:0,0:0:0:0:
356,322,124688,2,0,P|288:318|202:348,1,145,8|0,0:1|0:0,0:0:0:0:
260,245,125288,1,2,0:0:0:0:
281,117,125488,1,8,0:1:0:0:
153,89,125688,1,2,0:0:0:0:
46,107,125888,6,0,P|99:115|88:193,1,145,2|8,0:0|0:1,0:0:0:0:
37,267,126488,2,0,L|193:261,1,145,2|2,0:0|0:0,0:0:0:0:
351,191,127088,2,0,P|312:190|270:203,1,72.5,8|0,0:1|0:0,0:0:0:0:
182,261,127488,6,0,L|177:166,1,72.5,2|0,0:0|0:0,0:0:0:0:
42,150,127888,1,8,0:1:0:0:
6,62,128088,2,0,L|159:73,1,145,2|2,0:0|0:0,0:0:0:0:
288,42,128688,2,0,P|274:74|276:119,1,72.5,8|0,0:1|0:0,0:0:0:0:
317,194,129088,6,0,P|317:230|302:263,1,72.5,2|0,0:0|0:0,0:0:0:0:
188,346,129488,1,8,0:1:0:0:
282,346,129688,2,0,L|442:357,1,145,2|2,0:0|0:0,0:0:0:0:
510,241,130288,2,0,L|406:233,1,72.5,8|0,0:1|0:0,0:0:0:0:
343,232,130688,6,0,P|383:210|342:124,1,145,2|8,0:0|0:1,0:0:0:0:
418,54,131288,2,0,L|256:64,1,145,2|2,0:0|0:0,0:0:0:0:
132,75,131888,1,8,0:1:0:0:
210,126,132088,1,0,0:0:0:0:
254,209,132288,6,0,P|262:253|233:300,1,72.5,2|0,0:0|0:0,0:0:0:0:
144,351,132688,1,8,0:1:0:0:
57,351,132888,2,0,L|79:193,1,145,2|2,0:0|0:0,0:0:0:0:
196,155,133488,1,8,0:1:0:0:
137,90,133688,1,0,0:0:0:0:
143,12,133888,6,0,P|94:24|62:111,1,130.499996017456,4|8,0:0|0:0,0:0:0:0:
83,165,134488,1,0,0:0:0:0:
146,210,134688,2,0,L|128:289,1,65.2499980087281,2|0,0:0|0:0,0:0:0:0:
146,210,135088,2,0,L|160:146,1,65.2499980087281,8|0,0:0|0:0,0:0:0:0:
219,94,135488,5,2,0:0:0:0:
290,62,135688,2,0,B|288:137|322:116|316:206,1,130.499996017456,2|2,0:0|0:0,0:0:0:0:
301,265,136288,2,0,P|281:261|234:265,1,65.2499980087281,2|0,0:0|0:0,0:0:0:0:
301,265,136688,2,0,P|321:269|368:265,1,65.2499980087281,8|0,0:0|0:0,0:0:0:0:
415,326,137088,6,0,P|441:265|401:193,1,130.499996017456,2|8,0:0|0:0,0:0:0:0:
362,153,137688,1,0,0:0:0:0:
284,141,137888,2,0,L|271:70,1,65.2499980087281,2|0,0:0|0:0,0:0:0:0:
284,141,138288,2,0,L|271:70,1,65.2499980087281,8|0,0:0|0:0,0:0:0:0:
215,22,138688,5,2,0:0:0:0:
137,32,138888,2,0,P|161:89|130:167,1,130.499996017456,2|2,0:0|0:0,0:0:0:0:
87,208,139488,2,0,P|71:241|66:280,1,65.2499980087281,2|0,0:0|0:0,0:0:0:0:
87,208,139888,2,0,P|71:241|66:280,1,65.2499980087281,8|0,0:0|0:0,0:0:0:0:
16,329,140288,5,2,0:0:0:0:
91,348,140488,1,2,0:0:0:0:
164,373,140688,2,0,L|157:293,1,65.2499980087281,8|0,0:0|0:0,0:0:0:0:
236,316,141088,2,0,B|237:249|193:259|197:162,1,130.499996017456,2|8,0:0|0:0,0:0:0:0:
222,119,141688,1,2,0:0:0:0:
298,103,141888,6,0,L|289:15,1,65.2499980087281,2|0,0:0|0:0,0:0:0:0:
368,53,142288,2,0,L|374:117,1,65.2499980087281,8|0,0:0|0:0,0:0:0:0:
441,158,142688,2,0,P|480:198|463:287,1,130.499996017456,2|8,0:0|0:0,0:0:0:0:
405,231,143288,1,2,0:0:0:0:
342,278,143488,6,0,P|312:268|275:281,1,65.2499980087281,2|0,0:0|0:0,0:0:0:0:
221,328,143888,2,0,P|191:338|154:325,1,65.2499980087281,8|0,0:0|0:0,0:0:0:0:
84,351,144288,2,0,L|98:193,1,130.499996017456,2|8,0:0|0:0,0:0:0:0:
101,142,144888,1,2,0:0:0:0:
164,187,145088,6,0,L|243:182,1,65.2499980087281,2|0,0:0|0:0,0:0:0:0:
279,243,145488,2,0,L|344:247,1,65.2499980087281,8|0,0:0|0:0,0:0:0:0:
412,286,145888,2,0,P|379:238|404:151,1,130.499996017456,2|8,0:0|0:0,0:0:0:0:
436,106,146488,1,2,0:0:0:0:
396,38,146688,6,0,L|311:43,1,65.2499980087281,2|0,0:0|0:0,0:0:0:0:
252,40,147088,1,8,0:0:0:0:
290,108,147288,1,0,0:0:0:0:
314,182,147488,2,0,B|248:198|252:156|176:171,1,130.499996017456,2|8,0:0|0:0,0:0:0:0:
111,192,148088,1,2,0:0:0:0:
61,252,148288,6,0,L|69:336,1,65.2499980087281,2|0,0:0|0:0,0:0:0:0:
124,369,148688,1,8,0:0:0:0:
200,352,148888,1,2,0:0:0:0:
278,353,149088,2,0,P|270:316|188:274,1,130.499996017456,2|8,0:0|0:0,0:0:0:0:
137,219,149688,1,2,0:0:0:0:
58,225,149888,6,0,L|67:135,1,65.2499980087281,2|0,0:0|0:0,0:0:0:0:
0,120,150288,2,0,L|9:30,1,65.2499980087281,8|0,0:0|0:0,0:0:0:0:
79,25,150688,2,0,B|145:9|141:51|206:37,1,130.499996017456,2|8,0:0|0:0,0:0:0:0:
280,12,151288,1,0,0:0:0:0:
266,89,151488,6,0,L|273:181,1,65.2499980087281,2|0,0:0|0:0,0:0:0:0:
320,214,151888,1,0,0:0:0:0:
242,226,152088,1,0,0:0:0:0:
152,304,152288,1,8,0:0:0:0:
36,264,152488,1,8,0:0:0:0:
140,192,152688,1,8,0:0:0:0:
36,120,152888,1,8,0:0:0:0:
152,80,153088,6,0,P|184:88|240:92,1,79.7500024337769,4|0,0:0|0:0,0:0:0:0:
387,151,153488,2,0,P|347:154|308:163,1,79.7500024337769,8|0,0:1|0:0,0:0:0:0:
208,212,153888,1,2,0:0:0:0:
88,329,154088,1,2,0:0:0:0:
197,188,154288,1,8,0:1:0:0:
84,33,154488,1,0,0:0:0:0:
100,63,154688,5,2,0:0:0:0:
33,152,154888,2,0,P|86:124|165:122,1,119.625003650665,2|0,0:0|0:0,0:0:0:0:
179,127,155288,1,2,0:0:0:0:
309,148,155488,2,0,P|298:110|308:42,1,79.7500024337769,2|0,0:0|0:0,0:0:0:0:
255,249,155888,2,0,P|266:287|256:355,1,79.7500024337769,8|0,0:1|0:0,0:0:0:0:
155,299,156288,6,0,P|124:265|29:305,1,159.500004867554,4|8,0:0|0:1,0:0:0:0:
48,189,156888,1,2,0:0:0:0:
124,107,157088,2,0,L|110:7,1,79.7500024337769,2|0,0:0|0:0,0:0:0:0:
278,53,157488,2,0,L|289:131,1,79.7500024337769,8|0,0:1|0:0,0:0:0:0:
242,234,157888,5,2,0:0:0:0:
223,344,158088,2,0,B|287:346|276:303|362:313,1,119.625003650665,2|0,0:0|0:0,0:0:0:0:
372,320,158488,1,2,0:0:0:0:
497,354,158688,1,2,0:0:0:0:
465,189,158888,1,2,0:0:0:0:
489,329,159088,1,8,0:1:0:0:
312,192,159288,1,0,0:0:0:0:
194,72,159488,5,4,0:0:0:0:
88,112,159688,1,2,0:0:0:0:
168,192,159888,1,8,0:1:0:0:
88,272,160088,1,0,0:0:0:0:
194,312,160288,2,0,L|328:320,1,119.625003650665,2|0,0:0|0:0,0:0:0:0:
351,321,160688,1,8,0:1:0:0:
320,214,160888,1,2,0:0:0:0:
352,104,161088,6,0,P|349:59|322:23,1,79.7500024337769,2|0,0:0|0:0,0:0:0:0:
181,30,161488,2,0,P|161:64|160:104,1,79.7500024337769,8|0,0:1|0:0,0:0:0:0:
256,160,161888,2,0,B|272:216|240:216|256:280,1,119.625003650665,2|0,0:0|0:0,0:0:0:0:
275,312,162288,1,8,0:1:0:0:
119,302,162488,1,2,0:0:0:0:
16,345,162688,6,0,L|36:242,1,79.7500024337769,2|0,0:0|0:0,0:0:0:0:
118,196,163088,2,0,L|102:117,1,79.7500024337769,8|0,0:1|0:0,0:0:0:0:
32,30,163488,2,0,P|109:63|219:49,1,159.500004867554,2|8,0:0|0:1,0:0:0:0:
291,31,164088,1,0,0:0:0:0:
414,143,164288,6,0,P|439:185|447:253,1,79.7500024337769,2|0,0:0|0:0,0:0:0:0:
309,311,164688,2,0,P|284:269|276:201,1,79.7500024337769,8|0,0:1|0:0,0:0:0:0:
267,71,165088,1,8,0:0:0:0:
104,40,165288,1,8,0:0:0:0:
35,190,165488,1,8,0:0:0:0:
147,310,165688,1,8,0:0:0:0:
277,239,165888,6,0,L|361:244,1,65.2499980087281,4|0,0:0|0:0,0:0:0:0:
314,316,166288,2,0,L|230:311,1,65.2499980087281,8|0,0:0|0:0,0:0:0:0:
184,266,166688,2,0,P|148:221|160:149,1,130.499996017456,2|8,0:0|0:0,0:0:0:0:
223,196,167288,1,2,0:0:0:0:
292,160,167488,6,0,P|324:150|374:167,1,65.2499980087281,2|0,0:0|0:0,0:0:0:0:
424,191,167888,2,0,P|445:216|448:269,1,65.2499980087281,8|0,0:0|0:0,0:0:0:0:
432,323,168288,2,0,B|364:339|368:298|278:317,1,130.499996017456,2|8,0:0|0:0,0:0:0:0:
227,330,168888,1,2,0:0:0:0:
151,350,169088,6,0,L|151:271,1,65.2499980087281,2|0,0:0|0:0,0:0:0:0:
76,259,169488,2,0,L|76:180,1,65.2499980087281,8|0,0:0|0:0,0:0:0:0:
72,115,169888,2,0,P|121:138|204:103,1,130.499996017456,2|8,0:0|0:0,0:0:0:0:
252,67,170488,1,2,0:0:0:0:
323,99,170688,6,0,P|312:129|321:165,1,65.2499980087281,2|0,0:0|0:0,0:0:0:0:
379,211,171088,2,0,P|385:242|374:272,1,65.2499980087281,8|0,0:0|0:0,0:0:0:0:
324,333,171488,2,0,L|415:341,1,65.2499980087281,2|0,0:0|0:0,0:0:0:0:
467,346,171888,1,8,0:0:0:0:
506,278,172088,1,2,0:0:0:0:
470,208,172288,5,4,0:1:0:0:
256,192,172388,12,0,175488,0:0:0:0:
