osu file format v14

[General]
AudioFilename: audio.mp3
AudioLeadIn: 0
PreviewTime: 60300
Countdown: 0
SampleSet: Soft
StackLeniency: 0.4
Mode: 0
LetterboxInBreaks: 0
WidescreenStoryboard: 0

[Editor]
Bookmarks: 47500,60300,73100,92300,105088,117888,133888,153088,165888,172288
DistanceSpacing: 1.4
BeatDivisor: 4
GridSize: 4
TimelineZoom: 3.399999

[Metadata]
Title:Lucky (Nightcore Mix)
TitleUnicode:Lucky (Nightcore Mix)
Artist:Lucky Twice
ArtistUnicode:Lucky Twice
Creator:Gordon123
Version:Collab Normal
Source:
Tags:Mortem Pjecoo Ryxliee pop sped up eurodance english Young & Clever Young_&_Clever Bubblegum Europop Synth-pop trance electronic
BeatmapID:3426471
BeatmapSetID:1641849

[Difficulty]
HPDrainRate:4
CircleSize:3.4
OverallDifficulty:3.5
ApproachRate:5
SliderMultiplier:1.2
SliderTickRate:1

[Events]
//Background and Video events
0,0,"gbDdwzR.jpeg",0,0
//Break Periods
//Storyboard Layer 0 (Background)
//Storyboard Layer 1 (Fail)
//Storyboard Layer 2 (Pass)
//Storyboard Layer 3 (Foreground)
//Storyboard Layer 4 (Overlay)
//Storyboard Sound Samples

[TimingPoints]
9100,400,4,2,1,70,1,0
9100,-100,4,2,1,70,0,0
47500,-100,4,2,1,55,0,0
59500,-100,4,2,1,54,0,0
59700,-100,4,2,1,58,0,0
59900,-100,4,2,1,64,0,0
60100,-100,4,2,1,68,0,0
60300,-100,4,2,1,80,0,1
73100,-100,4,2,1,70,0,0
92300,-100,4,2,1,55,0,0
104300,-100,4,2,1,54,0,0
104500,-100,4,2,1,58,0,0
104700,-100,4,2,1,64,0,0
104900,-100,4,2,1,68,0,0
105088,400,4,2,1,80,1,1
105088,-100,4,2,1,80,0,1
117888,-100,4,2,1,70,0,0
133888,-100,4,2,1,55,0,0
152288,-100,4,2,1,54,0,0
152488,-100,4,2,1,58,0,0
152688,-100,4,2,1,64,0,0
152888,-100,4,2,1,68,0,0
153088,-100,4,2,1,80,0,1
165888,-100,4,2,1,55,0,0
172288,-100,4,2,1,55,0,0
172688,-100,4,2,1,50,0,0
173088,-100,4,2,1,45,0,0
173488,-100,4,2,1,40,0,0
173888,-100,4,2,1,35,0,0
174288,-100,4,2,1,30,0,0
174688,-100,4,2,1,25,0,0
175088,-100,4,2,1,20,0,0
175488,-100,4,2,1,15,0,0

[Colours]
Combo1 : 164,216,255
Combo2 : 243,228,158
Combo3 : 253,196,221
Combo4 : 190,185,255
SliderBorder : 240,120,150

[HitObjects]
173,325,9100,6,0,L|166:186,1,120,4|2,0:0|0:0,0:0:0:0:
99,50,9900,1,2,0:0:0:0:
263,83,10300,2,0,P|292:89|321:84,1,60,8|0,0:1|0:0,0:0:0:0:
404,67,10700,5,2,0:0:0:0:
404,67,10900,1,2,0:0:0:0:
464,223,11300,2,0,P|402:215|338:254,1,120,2|2,0:0|0:0,0:0:0:0:
294,300,11900,1,8,0:1:0:0:
294,300,12100,6,0,B|198:304|224:246|117:242,1,180,2|0,0:0|0:0,0:0:0:0:
67,85,13100,2,0,P|120:57|179:47,1,120,0|8,0:0|0:1,0:0:0:0:
256,81,13700,1,0,0:0:0:0:
332,45,13900,6,0,P|390:55|444:82,1,120
438,250,14700,2,0,P|379:261|325:288,1,120,0|8,0:0|0:1,0:0:0:0:
250,326,15300,6,0,B|192:330|192:286|118:291,1,120,2|2,0:0|0:0,0:0:0:0:
52,287,15900,2,0,L|61:209,1,60,2|0,0:0|0:0,0:0:0:0:
70,144,16300,1,2,0:0:0:0:
218,66,16700,2,0,L|211:125,1,60,8|0,0:1|0:0,0:0:0:0:
204,209,17100,5,2,0:0:0:0:
204,209,17300,1,2,0:0:0:0:
315,335,17700,2,0,P|348:293|420:308,1,120,2|2,0:0|0:0,0:0:0:0:
481,351,18300,1,8,0:1:0:0:
481,351,18500,6,0,L|472:155,1,180,2|0,0:0|0:0,0:0:0:0:
377,33,19500,2,0,B|320:28|327:65|252:56,1,120,0|8,0:0|0:1,0:0:0:0:
185,35,20100,1,0,0:0:0:0:
185,35,20300,6,0,P|132:68|123:133,1,120
149,205,20900,1,0,0:0:0:0:
149,205,21100,2,0,L|154:269,1,60,8|8,0:0|0:0,0:0:0:0:
238,268,21500,2,0,L|233:208,1,60,8|8,0:0|0:0,0:0:0:0:
224,124,21900,6,0,P|280:127|337:176,1,120,4|2,0:0|0:0,0:0:0:0:
401,316,22700,2,0,P|450:355|507:352,1,120,2|8,0:0|0:1,0:0:0:0:
473,275,23300,1,0,0:0:0:0:
464,191,23500,6,0,P|490:161|531:147,2,60,2|2|0,0:0|0:0|0:0,0:0:0:0:
379,184,24100,2,0,B|319:190|320:162|260:161,1,120,2|0,0:0|0:0,0:0:0:0:
199,216,24700,1,8,0:1:0:0:
39,163,25100,6,0,L|44:307,1,120,2|2,0:0|0:0,0:0:0:0:
199,216,25900,2,0,L|194:96,1,120,2|8,0:0|0:1,0:0:0:0:
254,38,26500,1,2,0:0:0:0:
335,59,26700,6,0,P|366:38|410:26,2,60,2|2|0,0:0|0:0|0:0,0:0:0:0:
330,143,27300,2,0,L|334:262,1,120,2|8,0:0|0:0,0:0:0:0:
341,350,27900,1,8,0:0:0:0:
341,350,28100,6,0,P|284:347|231:303,1,120,2|2,0:0|0:0,0:0:0:0:
187,240,28700,2,0,L|193:166,1,60,2|0,0:0|0:0,0:0:0:0:
201,96,29100,1,2,0:0:0:0:
44,33,29500,2,0,L|39:92,1,60,8|0,0:1|0:0,0:0:0:0:
38,180,29900,5,2,0:0:0:0:
38,180,30100,1,2,0:0:0:0:
186,259,30500,2,0,P|213:222|194:137,1,120,2|2,0:0|0:0,0:0:0:0:
158,87,31100,1,8,0:1:0:0:
158,87,31300,2,0,B|255:96|232:32|336:42,1,180,2|2,0:0|0:0,0:0:0:0:
410,56,32100,2,0,P|467:93|478:156,1,120,2|2,0:0|0:0,0:0:0:0:
470,224,32700,1,8,0:1:0:0:
328,315,33100,6,0,P|302:306|268:315,1,60,2|2,0:0|0:0,0:0:0:0:
202,361,33500,2,0,P|176:370|142:361,1,60,2|2,0:0|0:0,0:0:0:0:
137,278,33900,2,0,L|143:219,1,60,2|2,0:0|0:0,0:0:0:0:
204,160,34300,1,8,0:1:0:0:
204,160,34500,6,0,P|166:136|80:161,1,120,2|2,0:0|0:0,0:0:0:0:
33,205,35100,2,0,L|27:264,1,60,2|0,0:0|0:0,0:0:0:0:
25,348,35500,1,2,0:0:0:0:
188,309,35900,2,0,P|217:302|248:307,1,60,8|0,0:1|0:0,0:0:0:0:
330,337,36300,5,2,0:0:0:0:
330,337,36500,1,2,0:0:0:0:
458,230,36900,2,0,P|483:182|454:105,1,120,2|2,0:0|0:0,0:0:0:0:
418,60,37500,1,8,0:1:0:0:
418,60,37700,2,0,B|328:46|340:112|227:95,1,180,2|2,0:0|0:0,0:0:0:0:
168,64,38500,2,0,P|113:59|64:117,1,120,2|2,0:0|0:0,0:0:0:0:
48,182,39100,1,8,0:1:0:0:
174,291,39500,6,0,P|206:284|241:292,1,60,2|2,0:0|0:0,0:0:0:0:
308,325,39900,2,0,P|340:332|375:324,1,60,2|2,0:0|0:0,0:0:0:0:
447,305,40300,2,0,L|443:368,2,60,8|8|8,0:0|0:0|0:0,0:0:0:0:
469,226,40900,1,8,0:0:0:0:
469,226,41100,6,0,P|492:176|464:111,1,120,4|2,0:0|0:0,0:0:0:0:
315,53,41900,2,0,B|255:38|258:81|189:63,1,120,2|8,0:0|0:1,0:0:0:0:
116,42,42500,1,2,0:0:0:0:
46,89,42700,6,0,P|34:61|32:31,2,60,2|2|0,0:0|0:0|0:0,0:0:0:0:
98,154,43300,2,0,L|85:281,1,120,2|2,0:0|0:0,0:0:0:0:
77,355,43900,1,8,0:1:0:0:
244,369,44300,6,0,L|231:249,1,120,2|2,0:0|0:0,0:0:0:0:
208,83,45100,2,0,B|272:82|263:118|343:112,1,120,2|8,0:0|0:1,0:0:0:0:
409,104,45700,1,2,0:0:0:0:
409,104,45900,6,0,L|413:37,2,60,2|2|0,0:0|0:0|0:0,0:0:0:0:
466,165,46500,2,0,P|492:215|463:294,1,120,2|2,0:0|0:0,0:0:0:0:
425,339,47100,1,8,0:1:0:0:
257,349,47500,6,0,B|256:292|290:292|290:210,1,120,4|8,0:0|0:0,0:0:0:0:
317,69,48300,2,0,L|241:74,1,60,2|0,0:0|0:0,0:0:0:0:
196,131,48700,2,0,L|120:136,1,60,8|0,0:0|0:0,0:0:0:0:
52,137,49100,5,2,0:0:0:0:
129,285,49500,1,8,0:0:0:0:
290,331,49900,2,0,P|327:324|355:331,1,60,2|0,0:0|0:0,0:0:0:0:
426,361,50300,2,0,P|463:368|491:361,1,60,8|0,0:0|0:0,0:0:0:0:
459,283,50700,6,0,L|471:152,1,120,2|8,0:0|0:0,0:0:0:0:
365,31,51500,2,0,L|292:26,1,60,2|0,0:0|0:0,0:0:0:0:
283,108,51900,2,0,L|342:112,1,60,8|0,0:0|0:0,0:0:0:0:
425,94,52300,5,2,0:0:0:0:
462,257,52700,1,8,0:0:0:0:
306,321,53100,2,0,P|278:313|247:321,1,60,2|0,0:0|0:0,0:0:0:0:
171,352,53500,2,0,P|143:360|112:352,1,60,8|0,0:0|0:0,0:0:0:0:
35,322,53900,5,2,0:0:0:0:
108,171,54300,2,0,L|102:96,1,60,8|0,0:0|0:0,0:0:0:0:
95,27,54700,2,0,P|154:24|205:53,1,120,2|8,0:0|0:0,0:0:0:0:
259,125,55300,1,2,0:0:0:0:
259,125,55500,6,0,B|324:121|316:154|395:146,1,120,2|8,0:0|0:0,0:0:0:0:
438,303,56300,2,0,B|373:299|384:332|301:321,1,120,2|8,0:0|0:0,0:0:0:0:
244,301,56900,1,2,0:0:0:0:
244,301,57100,6,0,L|249:230,1,60,2|0,0:0|0:0,0:0:0:0:
295,171,57500,2,0,L|290:111,1,60,8|0,0:0|0:0,0:0:0:0:
285,27,57900,1,2,0:0:0:0:
117,27,58300,2,0,L|121:86,1,60,8|2,0:0|0:0,0:0:0:0:
44,122,58700,6,0,P|82:164|155:165,1,120,2|8,0:0|0:0,0:0:0:0:
281,75,59500,2,0,L|275:16,2,60,8|8|8,0:0|0:0|0:0,0:0:0:0:
300,161,60100,1,8,0:0:0:0:
300,161,60300,6,0,P|332:133|416:135,1,120,6|8,0:0|0:1,0:0:0:0:
480,169,60900,1,0,0:0:0:0:
462,251,61100,2,0,P|436:292|411:308,1,60,2|2,0:0|0:0,0:0:0:0:
350,332,61500,2,0,P|301:337|273:328,1,60,8|0,0:1|0:0,0:0:0:0:
211,307,61900,5,2,0:0:0:0:
334,193,62300,1,8,0:1:0:0:
225,65,62700,2,0,L|151:67,1,60,2|2,0:0|0:0,0:0:0:0:
115,134,63100,2,0,L|41:136,1,60,8|0,0:1|0:0,0:0:0:0:
25,214,63500,6,0,B|83:226|63:269|147:279,1,120,6|8,0:0|0:1,0:0:0:0:
209,271,64100,1,2,0:0:0:0:
252,342,64300,2,0,P|280:336|312:344,1,60,2|2,0:0|0:0,0:0:0:0:
376,292,64700,2,0,P|405:297|434:290,1,60,8|0,0:1|0:0,0:0:0:0:
503,241,65100,5,2,0:0:0:0:
506,73,65500,1,8,0:1:0:0:
341,105,65900,2,0,L|345:43,1,60,2|2,0:0|0:0,0:0:0:0:
262,30,66300,2,0,L|258:89,1,60,8|0,0:1|0:0,0:0:0:0:
186,134,66700,6,0,P|158:122|121:119,2,60,4|2|8,0:0|0:0|0:1,0:0:0:0:
246,199,67300,1,0,0:0:0:0:
246,199,67500,2,0,L|235:337,1,120,2|8,0:0|0:1,0:0:0:0:
163,356,68100,1,2,0:0:0:0:
163,356,68300,5,2,0:0:0:0:
28,255,68700,1,8,0:1:0:0:
59,89,69100,2,0,B|117:92|105:132|194:131,1,120,2|8,0:0|0:1,0:0:0:0:
252,117,69700,1,2,0:0:0:0:
230,198,69900,6,0,P|228:234|242:275,1,60,2|0,0:0|0:0,0:0:0:0:
293,316,70300,2,0,P|327:325|370:320,1,60,8|0,0:1|0:0,0:0:0:0:
432,299,70700,2,0,L|403:160,1,120,2|8,0:0|0:1,0:0:0:0:
382,106,71300,1,0,0:0:0:0:
382,106,71500,5,2,0:0:0:0:
232,28,71900,1,8,0:1:0:0:
90,118,72300,2,0,L|70:41,2,60,8|8|8,0:0|0:0|0:0,0:0:0:0:
53,194,72900,6,0,P|41:239|81:310,1,120,8|0,0:0|0:0,0:0:0:0:
125,238,73500,1,2,0:0:0:0:
273,316,73900,1,2,0:0:0:0:
255,148,74300,2,0,P|251:115|260:77,1,60,8|0,0:1|0:0,0:0:0:0:
292,15,74700,5,2,0:0:0:0:
292,15,74900,1,2,0:0:0:0:
457,43,75300,2,0,L|447:174,1,120,2|2,0:0|0:0,0:0:0:0:
397,230,75900,1,8,0:1:0:0:
397,230,76100,6,0,B|308:222|326:285|209:272,1,180,2|2,0:0|0:0,0:0:0:0:
142,263,76900,2,0,P|90:233|85:157,1,120,2|2,0:0|0:0,0:0:0:0:
104,97,77500,1,8,0:1:0:0:
271,82,77900,6,0,P|299:66|336:65,1,60,2|2,0:0|0:0,0:0:0:0:
400,23,78300,2,0,P|410:50|408:79,1,60,2|2,0:0|0:0,0:0:0:0:
379,160,78700,2,0,L|384:228,1,60,2|2,0:0|0:0,0:0:0:0:
413,298,79100,1,8,0:1:0:0:
249,338,79500,6,0,B|188:343|197:308|131:311,1,120,2|2,0:0|0:0,0:0:0:0:
54,327,80100,1,0,0:0:0:0:
54,327,80300,1,2,0:0:0:0:
131,178,80700,2,0,L|123:92,1,60,8|0,0:1|0:0,0:0:0:0:
120,38,81100,5,2,0:0:0:0:
120,38,81300,1,2,0:0:0:0:
274,104,81699,2,0,B|281:167|246:163|247:219,1,120,2|2,0:0|0:0,0:0:0:0:
278,302,82300,1,8,0:1:0:0:
278,302,82500,2,0,P|332:316|419:220,1,180,2|2,0:0|0:0,0:0:0:0:
403,157,83300,2,0,L|420:35,1,120,2|2,0:0|0:0,0:0:0:0:
337,53,83900,1,8,0:1:0:0:
170,31,84300,6,0,L|176:112,1,60,2|2,0:0|0:0,0:0:0:0:
99,129,84700,2,0,L|105:210,1,60,2|2,0:0|0:0,0:0:0:0:
104,273,85100,2,0,P|73:277|39:268,2,60,8|8|8,0:0|0:0|0:0,0:0:0:0:
184,240,85700,1,8,0:0:0:0:
184,240,85900,6,0,B|242:246|234:279|307:284,1,120,4|2,0:0|0:0,0:0:0:0:
456,327,86700,2,0,L|437:189,1,120,2|8,0:0|0:1,0:0:0:0:
460,126,87300,1,2,0:0:0:0:
409,58,87500,6,0,P|447:42|478:44,2,60,2|2|0,0:0|0:0|0:0,0:0:0:0:
340,107,88100,2,0,P|308:153|307:225,1,120,2|2,0:0|0:0,0:0:0:0:
327,296,88700,1,8,0:1:0:0:
169,355,89100,6,0,L|41:338,1,120,2|2,0:0|0:0,0:0:0:0:
25,172,89900,2,0,P|59:123|136:119,1,120,2|8,0:0|0:1,0:0:0:0:
202,129,90500,1,2,0:0:0:0:
202,129,90700,6,0,L|198:53,2,60,2|2|0,0:0|0:0|0:0,0:0:0:0:
267,181,91300,2,0,B|327:185|325:220|393:224,1,120,2|2,0:0|0:0,0:0:0:0:
461,211,91900,1,8,0:1:0:0:
332,319,92300,6,0,P|274:297|203:315,1,120,4|8,0:0|0:0,0:0:0:0:
135,320,92900,1,0,0:0:0:0:
70,265,93100,2,0,P|61:229|38:201,1,60,2|0,0:0|0:0,0:0:0:0:
78,131,93500,2,0,P|87:95|110:67,1,60,8|0,0:0|0:0,0:0:0:0:
173,35,93900,5,2,0:0:0:0:
252,182,94300,1,8,0:0:0:0:
356,50,94700,2,0,P|384:59|420:57,1,60,2|0,0:0|0:0,0:0:0:0:
452,133,95100,2,0,P|443:161|445:197,1,60,8|0,0:0|0:0,0:0:0:0:
477,268,95500,6,0,P|428:252|346:274,1,120,2|8,0:0|0:0,0:0:0:0:
289,306,96100,1,0,0:0:0:0:
213,268,96300,2,0,P|206:232|215:208,1,60,2|0,0:0|0:0,0:0:0:0:
274,151,96700,2,0,P|281:115|272:91,1,60,8|0,0:0|0:0,0:0:0:0:
216,31,97100,5,2,0:0:0:0:
84,135,97500,1,8,0:0:0:0:
169,279,97900,2,0,P|166:308|179:335,1,60,2|0,0:0|0:0,0:0:0:0:
263,355,98299,2,0,P|265:325|252:298,1,60,8|0,0:0|0:0,0:0:0:0:
254,214,98700,6,0,P|301:199|387:228,1,120,2|8,0:0|0:0,0:0:0:0:
443,252,99300,1,0,0:0:0:0:
491,183,99500,2,0,P|481:153|486:115,1,60,2|2,0:0|0:0,0:0:0:0:
343,33,100100,5,2,0:0:0:0:
274,82,100300,2,0,P|241:66|195:72,1,60,2|0,0:0|0:0,0:0:0:0:
135,82,100700,1,8,0:0:0:0:
73,139,100900,1,0,0:0:0:0:
51,220,101100,2,0,P|87:241|169:221,1,120,2|8,0:0|0:0,0:0:0:0:
289,118,101900,6,0,P|325:97|407:117,1,120,2|8,0:0|0:0,0:0:0:0:
470,154,102500,1,0,0:0:0:0:
462,237,102700,1,0,0:0:0:0:
322,330,103100,2,0,P|290:315|261:309,1,60,8|2,0:0|0:0,0:0:0:0:
182,301,103500,6,0,P|139:319|61:272,1,120,2|8,0:0|0:0,0:0:0:0:
22,226,104100,1,0,0:0:0:0:
40,144,104300,2,0,P|26:105|27:69,2,60,8|8|8,0:0|0:0|0:0,0:0:0:0:
120,168,104900,1,8,0:0:0:0:
157,237,105088,6,0,P|219:214|292:221,1,120,4|8,0:0|0:1,0:0:0:0:
342,262,105688,1,0,0:0:0:0:
419,229,105888,2,0,P|453:194|473:185,1,60,2|2,0:0|0:0,0:0:0:0:
410,123,106288,2,0,P|375:89|366:69,1,60,8|0,0:1|0:0,0:0:0:0:
303,28,106688,5,2,0:0:0:0:
148,94,107088,1,8,0:1:0:0:
153,261,107488,2,0,P|122:282|93:284,1,60,2|0,0:0|0:0,0:0:0:0:
85,201,107888,2,0,P|48:193|26:174,1,60,8|0,0:1|0:0,0:0:0:0:
81,112,108288,6,0,P|117:110|175:180,1,120,4|8,0:0|0:1,0:0:0:0:
184,249,108888,1,2,0:0:0:0:
225,321,109088,2,0,P|265:344|289:345,1,60,2|2,0:0|0:0,0:0:0:0:
359,322,109488,2,0,P|382:282|383:258,1,60,8|0,0:1|0:0,0:0:0:0:
427,196,109888,5,2,0:0:0:0:
266,147,110288,1,8,0:1:0:0:
409,59,110688,2,0,P|431:88|441:113,1,60,2|2,0:0|0:0,0:0:0:0:
427,196,111088,2,0,P|398:218|373:228,1,60,8|0,0:1|0:0,0:0:0:0:
292,221,111488,6,0,P|261:209|219:207,1,60,4|2,0:0|0:0,0:0:0:0:
153,229,111888,2,0,P|122:241|80:243,1,60,8|0,0:1|0:0,0:0:0:0:
26,195,112288,2,0,P|50:143|36:75,1,120,2|8,0:0|0:1,0:0:0:0:
107,32,112888,1,2,0:0:0:0:
167,89,113088,6,0,P|219:113|287:99,1,120,2|8,0:0|0:1,0:0:0:0:
354,65,113688,1,0,0:0:0:0:
384,143,113888,2,0,P|360:195|374:263,1,120,2|8,0:0|0:1,0:0:0:0:
214,319,114688,6,0,P|178:337|153:339,1,60,2|0,0:0|0:0,0:0:0:0:
152,255,115088,2,0,P|134:219|132:194,1,60,8|0,0:1|0:0,0:0:0:0:
216,203,115488,2,0,P|256:206|326:138,1,120,2|8,0:0|0:1,0:0:0:0:
355,85,116088,1,0,0:0:0:0:
407,155,116288,6,0,P|398:195|399:215,1,60,2|0,0:0|0:0,0:0:0:0:
480,192,116688,2,0,P|489:152|488:132,1,60,8|0,0:1|0:0,0:0:0:0:
465,53,117088,2,0,P|409:85|338:80,1,120,2|8,0:0|0:1,0:0:0:0:
275,57,117688,1,0,0:0:0:0:
193,75,117888,6,0,P|167:115|99:165,1,120,6|8,0:0|0:1,0:0:0:0:
139,325,118688,2,0,P|180:311|218:313,1,60,0|2,0:0|0:0,0:0:0:0:
258,253,119088,2,0,P|287:256|315:267,1,60,8|0,0:1|0:0,0:0:0:0:
397,286,119488,6,0,P|390:227|425:154,1,120,2|8,0:0|0:1,0:0:0:0:
461,103,120088,1,2,0:0:0:0:
391,56,120288,2,0,P|333:58|261:24,1,120,0|8,0:0|0:1,0:0:0:0:
107,44,121088,6,0,P|106:87|93:110,1,60,2|0,0:0|0:0,0:0:0:0:
43,165,121488,2,0,P|32:193|35:222,1,60,8|2,0:1|0:0,0:0:0:0:
78,294,121888,2,0,P|150:266|212:288,1,120,0|8,0:0|0:1,0:0:0:0:
356,295,122688,6,0,P|387:268|405:263,1,60,2|0,0:0|0:0,0:0:0:0:
385,180,123088,2,0,P|358:149|353:131,1,60,8|2,0:1|0:0,0:0:0:0:
279,90,123488,2,0,P|257:117|161:129,1,120,0|8,0:0|0:1,0:0:0:0:
97,106,124088,1,0,0:0:0:0:
32,159,124288,5,2,0:0:0:0:
114,305,124688,2,0,P|158:296|229:332,1,120,8|0,0:1|0:0,0:0:0:0:
288,271,125288,1,2,0:0:0:0:
360,312,125488,2,0,P|397:326|427:325,1,60,8|2,0:1|0:0,0:0:0:0:
400,244,125888,6,0,P|385:205|409:118,1,120,2|8,0:0|0:1,0:0:0:0:
347,64,126488,1,2,0:0:0:0:
270,99,126688,2,0,P|241:150|189:179,1,120,0|8,0:0|0:1,0:0:0:0:
104,171,127288,1,0,0:0:0:0:
43,112,127488,6,0,P|28:86|23:42,1,60,2|0,0:0|0:0,0:0:0:0:
106,56,127888,2,0,P|132:41|176:36,1,60,8|2,0:1|0:0,0:0:0:0:
241,58,128288,1,2,0:0:0:0:
407,35,128688,2,0,P|436:40|462:55,1,60,8|0,0:1|0:0,0:0:0:0:
409,121,129088,6,0,P|403:158|408:197,1,60,2|0,0:0|0:0,0:0:0:0:
443,254,129488,2,0,P|449:291|444:330,1,60,8|2,0:1|0:0,0:0:0:0:
382,366,129888,1,2,0:0:0:0:
219,321,130288,2,0,P|176:311|143:315,1,60,8|0,0:1|0:0,0:0:0:0:
82,278,130688,6,0,P|98:242|71:145,1,120,2|8,0:0|0:1,0:0:0:0:
34,98,131288,1,2,0:0:0:0:
77,25,131488,1,0,0:0:0:0:
219,113,131888,2,0,P|263:130|286:127,1,60,8|0,0:1|0:0,0:0:0:0:
356,152,132288,6,0,P|331:212|342:278,1,120,2|8,0:0|0:1,0:0:0:0:
268,314,132888,1,2,0:0:0:0:
188,288,133088,2,0,P|158:269|123:264,1,60,0|2,0:0|0:0,0:0:0:0:
143,180,133488,2,0,P|140:144|123:113,1,60,8|0,0:1|0:0,0:0:0:0:
214,112,133888,6,0,P|272:134|343:116,1,120,4|8,0:0|0:0,0:0:0:0:
402,84,134488,1,0,0:0:0:0:
465,140,134688,2,0,P|474:176|497:204,1,60,2|0,0:0|0:0,0:0:0:0:
431,258,135088,2,0,P|422:294|399:322,1,60,8|0,0:0|0:0,0:0:0:0:
333,349,135488,5,2,0:0:0:0:
258,199,135888,1,8,0:0:0:0:
155,332,136288,2,0,P|127:323|91:325,1,60,2|0,0:0|0:0,0:0:0:0:
59,249,136688,2,0,P|68:221|66:185,1,60,8|0,0:0|0:0,0:0:0:0:
34,114,137088,6,0,P|83:130|165:108,1,120,2|8,0:0|0:0,0:0:0:0:
222,77,137688,1,0,0:0:0:0:
298,115,137888,2,0,P|305:151|296:175,1,60,2|0,0:0|0:0,0:0:0:0:
238,232,138288,2,0,P|231:268|240:292,1,60,8|0,0:0|0:0,0:0:0:0:
295,352,138688,5,2,0:0:0:0:
427,249,139088,1,8,0:0:0:0:
456,83,139488,2,0,P|445:55|420:38,1,60,2|0,0:0|0:0,0:0:0:0:
336,35,139888,2,0,P|311:52|301:79,1,60,8|0,0:0|0:0,0:0:0:0:
304,163,140288,5,2,0:0:0:0:
234,210,140488,1,2,0:0:0:0:
153,187,140688,2,0,P|114:187|82:209,1,60,8|0,0:0|0:0,0:0:0:0:
30,249,141088,1,2,0:0:0:0:
177,329,141488,2,0,P|207:328|243:346,1,60,8|2,0:0|0:0,0:0:0:0:
309,300,141888,6,0,P|367:290|413:252,1,120,2|8,0:0|0:0,0:0:0:0:
460,182,142488,1,0,0:0:0:0:
459,98,142688,1,2,0:0:0:0:
300,43,143088,2,0,P|281:80|281:108,1,60,8|2,0:0|0:0,0:0:0:0:
293,180,143488,5,2,0:0:0:0:
332,256,143688,1,0,0:0:0:0:
287,327,143888,2,0,P|234:350|213:346,1,60,8|0,0:0|0:0,0:0:0:0:
152,326,144288,2,0,P|167:288|143:202,1,120,2|8,0:0|0:0,0:0:0:0:
82,164,144888,1,2,0:0:0:0:
123,90,145088,6,0,P|161:105|247:81,1,120,2|8,0:0|0:0,0:0:0:0:
309,48,145688,1,0,0:0:0:0:
381,90,145888,2,0,P|410:121|419:141,1,60,2|0,0:0|0:0,0:0:0:0:
374,208,146288,2,0,P|345:177|336:157,1,60,8|2,0:0|0:0,0:0:0:0:
254,171,146688,6,0,P|207:186|121:157,1,120,2|8,0:0|0:0,0:0:0:0:
67,128,147288,1,0,0:0:0:0:
21,198,147488,2,0,P|31:228|26:266,1,60,2|2,0:0|0:0,0:0:0:0:
167,351,148088,5,2,0:0:0:0:
237,304,148288,2,0,P|270:320|316:314,1,60,2|0,0:0|0:0,0:0:0:0:
374,302,148688,1,8,0:0:0:0:
438,248,148888,1,2,0:0:0:0:
459,166,149088,2,0,P|423:145|341:165,1,120,2|8,0:0|0:0,0:0:0:0:
221,268,149888,6,0,P|185:289|103:269,1,120,2|8,0:0|0:0,0:0:0:0:
51,216,150488,1,0,0:0:0:0:
106,152,150688,2,0,P|121:120|127:91,1,60,2|0,0:0|0:0,0:0:0:0:
196,50,151088,2,0,P|228:65|257:71,1,60,8|0,0:0|0:0,0:0:0:0:
331,99,151488,6,0,P|374:81|452:128,1,120,2|0,0:0|0:0,0:0:0:0:
474,271,152288,2,0,P|488:310|487:346,2,60,8|8|8,0:0|0:0|0:0,0:0:0:0:
411,214,152888,1,8,0:0:0:0:
335,176,153088,6,0,P|273:199|200:192,1,120,4|8,0:0|0:1,0:0:0:0:
173,127,153688,1,0,0:0:0:0:
93,155,153888,2,0,P|59:190|39:199,1,60,2|2,0:0|0:0,0:0:0:0:
101,261,154288,2,0,P|136:295|145:315,1,60,8|0,0:1|0:0,0:0:0:0:
207,355,154688,5,2,0:0:0:0:
362,290,155088,1,8,0:1:0:0:
359,122,155488,2,0,P|390:101|419:99,1,60,2|0,0:0|0:0,0:0:0:0:
427,182,155888,2,0,P|464:190|486:209,1,60,8|0,0:1|0:0,0:0:0:0:
430,271,156288,6,0,P|394:273|336:203,1,120,4|8,0:0|0:1,0:0:0:0:
327,134,156888,1,2,0:0:0:0:
286,61,157088,2,0,P|246:38|222:37,1,60,2|0,0:0|0:0,0:0:0:0:
153,62,157488,2,0,P|130:102|129:126,1,60,8|0,0:1|0:0,0:0:0:0:
85,188,157888,5,2,0:0:0:0:
246,237,158288,1,8,0:1:0:0:
103,325,158688,2,0,P|81:296|71:271,1,60,2|2,0:0|0:0,0:0:0:0:
85,188,159088,2,0,P|114:166|139:156,1,60,8|0,0:1|0:0,0:0:0:0:
220,163,159488,6,0,P|251:175|293:177,1,60,4|2,0:0|0:0,0:0:0:0:
359,155,159888,2,0,P|390:143|432:141,1,60,8|0,0:1|0:0,0:0:0:0:
486,189,160288,2,0,P|462:241|476:309,1,120,2|8,0:0|0:1,0:0:0:0:
405,352,160888,1,2,0:0:0:0:
345,295,161088,6,0,P|293:271|225:285,1,120,2|8,0:0|0:1,0:0:0:0:
158,319,161688,1,0,0:0:0:0:
128,241,161888,2,0,P|152:189|138:121,1,120,2|8,0:0|0:1,0:0:0:0:
298,65,162688,6,0,P|334:47|359:45,1,60,2|0,0:0|0:0,0:0:0:0:
360,129,163088,2,0,P|378:165|380:190,1,60,8|0,0:1|0:0,0:0:0:0:
296,181,163488,2,0,P|256:178|186:246,1,120,2|8,0:0|0:1,0:0:0:0:
140,287,164088,1,0,0:0:0:0:
64,251,164288,6,0,P|35:221|26:203,1,60,2|0,0:0|0:0,0:0:0:0:
46,123,164688,2,0,P|86:114|106:115,1,60,8|0,0:1|0:0,0:0:0:0:
186,135,165088,2,0,P|182:108|195:69,2,60,8|8|8,0:0|0:0|0:0,0:0:0:0:
210,215,165688,1,8,0:0:0:0:
279,262,165888,5,4,0:0:0:0:
361,247,166088,1,0,0:0:0:0:
414,182,166288,2,0,P|426:159|421:118,1,60,8|0,0:0|0:0,0:0:0:0:
381,53,166688,1,2,0:0:0:0:
215,83,167088,2,0,P|175:89|152:78,1,60,8|2,0:0|0:0,0:0:0:0:
85,37,167488,6,0,P|40:77|32:138,1,120,2|8,0:0|0:0,0:0:0:0:
37,217,168088,1,0,0:0:0:0:
81,290,168288,1,2,0:0:0:0:
240,343,168688,2,0,P|262:311|260:280,1,60,8|2,0:0|0:0,0:0:0:0:
254,206,169088,5,2,0:0:0:0:
212,133,169288,1,0,0:0:0:0:
228,50,169488,2,0,P|260:31|302:31,1,60,8|0,0:0|0:0,0:0:0:0:
365,40,169888,2,0,P|350:78|380:159,1,120,2|8,0:0|0:0,0:0:0:0:
432,209,170488,1,2,0:0:0:0:
408,289,170688,6,0,P|370:274|284:298,1,120,2|8,0:0|0:0,0:0:0:0:
222,332,171288,1,0,0:0:0:0:
145,297,171488,2,0,P|116:266|107:246,1,60,2|0,0:0|0:0,0:0:0:0:
113,166,171888,2,0,P|144:137|164:128,1,60,8|2,0:0|0:0,0:0:0:0:
242,115,172288,5,4,0:1:0:0:
256,192,172388,12,0,175488,0:0:0:0:
