osu file format v14

[General]
AudioFilename: audio.mp3
AudioLeadIn: 0
PreviewTime: 42634
Countdown: 1
SampleSet: None
StackLeniency: 0.3
Mode: 0
LetterboxInBreaks: 0
WidescreenStoryboard: 0

[Editor]
Bookmarks: 9647
DistanceSpacing: 2
BeatDivisor: 4
GridSize: 8
TimelineZoom: 2.1

[Metadata]
Title:Yoru no Umi
TitleUnicode:夜の海
Artist:Luck Life
ArtistUnicode:Luck Life
Creator:Yahuri
Version:Dawn
Source:
Tags:the sea at night
BeatmapID:1388107
BeatmapSetID:654945

[Difficulty]
HPDrainRate:6
CircleSize:4.2
OverallDifficulty:8
ApproachRate:9
SliderMultiplier:1.8
SliderTickRate:1

[Events]
//Background and Video events
0,0,"umi.jpg",0,0
//Break Periods
2,132625,140019
//Storyboard Layer 0 (Background)
//Storyboard Layer 1 (Fail)
//Storyboard Layer 2 (Pass)
//Storyboard Layer 3 (Foreground)
//Storyboard Sound Samples

[TimingPoints]
203,277.777777777778,4,2,1,30,1,0
203,-125,4,2,1,30,0,0
25480,-100,4,3,1,50,0,0
42703,-125,4,2,1,50,0,0
43536,-83.3333333333333,4,3,2,70,0,1
74648,-100,4,3,1,60,0,0
83536,-100,4,3,1,50,0,0
92425,-100,4,3,1,60,0,0
100480,-125,4,3,1,50,0,0
101314,-83.3333333333333,4,3,2,70,0,1
132425,-166.666666666667,4,2,1,40,0,0
141314,-166.666666666667,4,3,1,50,0,0
150203,-125,4,3,1,60,0,0
167980,-100,4,3,1,70,0,0
185758,-100,4,3,2,60,0,0
189369,-125,4,3,1,50,0,0
190203,-83.3333333333333,4,3,1,70,0,0
192425,-83.3333333333333,4,3,2,80,0,1
224647,-125,4,3,1,60,0,0
225758,-100,4,3,2,70,0,0
241730,-76.9230769230769,4,3,2,70,0,0
242147,-62.5,4,3,2,70,0,0

[Colours]
Combo1 : 149,43,255
Combo2 : 0,213,213
Combo3 : 0,128,255
Combo4 : 64,64,255

[HitObjects]
287,99,619,5,0,0:0:0:0:
287,99,758,2,0,P|355:80|424:99,1,144,8|8,0:0|0:0,0:0:0:0:
456,165,1175,2,0,L|456:243,1,72,0|8,0:0|0:0,0:0:0:0:
425,303,1453,1,0,0:0:0:0:
425,303,1591,2,0,P|354:321|288:303,1,144,8|8,0:0|0:0,0:0:0:0:
256,164,2147,5,8,0:0:0:0:
256,164,2286,1,0,0:0:0:0:
287,99,2425,1,8,0:0:0:0:
287,99,2564,1,0,0:0:0:0:
256,34,2703,2,0,L|183:34,1,72,8|0,0:0|0:0,0:0:0:0:
120,67,2980,6,0,L|120:140,1,72,8|0,0:0|0:0,0:0:0:0:
88,204,3258,1,8,0:0:0:0:
88,204,3397,2,0,L|88:277,1,72,0|8,0:0|0:0,0:0:0:0:
120,341,3675,1,0,0:0:0:0:
120,341,3814,2,0,P|188:359|257:340,1,144,8|8,0:0|0:0,0:0:0:0:
289,200,4369,5,8,0:0:0:0:
289,200,4508,1,0,0:0:0:0:
258,135,4647,1,8,0:0:0:0:
258,135,4786,1,0,0:0:0:0:
289,70,4925,2,0,L|362:70,1,72,8|0,0:0|0:0,0:0:0:0:
427,100,5203,6,0,P|445:168|426:237,1,144,8|8,0:0|0:0,0:0:0:0:
363,272,5619,2,0,L|363:345,1,72,0|8,0:0|0:0,0:0:0:0:
299,378,5897,1,0,0:0:0:0:
299,378,6036,2,0,P|230:359|161:378,1,144,8|8,0:0|0:0,0:0:0:0:
82,258,6591,5,8,0:0:0:0:
82,258,6730,1,0,0:0:0:0:
113,193,6869,1,8,0:0:0:0:
113,193,7008,1,0,0:0:0:0:
82,128,7147,2,0,L|82:55,1,72,8|0,0:0|0:0,0:0:0:0:
146,22,7425,6,0,P|214:3|283:22,1,144,8|8,0:0|0:0,0:0:0:0:
346,58,7841,2,0,L|419:58,1,72,0|8,0:0|0:0,0:0:0:0:
481,94,8119,1,0,0:0:0:0:
481,94,8258,2,0,P|462:162|481:231,2,144,8|8|8,0:0|0:0|0:0,0:0:0:0:
355,165,9091,1,8,0:0:0:0:
229,94,9369,1,8,0:0:0:0:
103,165,9647,6,0,P|51:143|108:123,1,144,8|8,0:0|0:0,0:0:0:0:
172,143,10064,2,0,P|174:179|156:215,1,72,0|8,0:0|0:0,0:0:0:0:
127,275,10341,1,0,0:0:0:0:
127,275,10480,2,0,P|75:297|132:317,1,144,8|8,0:0|0:0,0:0:0:0:
256,256,11036,5,8,0:0:0:0:
256,256,11175,1,0,0:0:0:0:
321,225,11314,1,8,0:0:0:0:
321,225,11453,1,0,0:0:0:0:
386,256,11591,2,0,P|384:292|402:328,1,72,8|0,0:0|0:0,0:0:0:0:
454,229,11869,6,0,P|507:253|455:278,1,144,8|8,0:0|0:0,0:0:0:0:
397,185,12286,2,0,P|382:152|384:116,1,72,0|8,0:0|0:0,0:0:0:0:
417,53,12564,1,0,0:0:0:0:
417,53,12703,2,0,P|469:31|412:11,1,144,8|8,0:0|0:0,0:0:0:0:
296,84,13258,5,8,0:0:0:0:
296,84,13397,1,0,0:0:0:0:
225,70,13536,2,0,P|189:67|156:82,1,72,8|0,0:0|0:0,0:0:0:0:
84,89,13814,2,0,P|96:122|123:147,1,72,8|0,0:0|0:0,0:0:0:0:
249,139,14091,6,0,P|226:191|201:139,1,144,8|8,0:0|0:0,0:0:0:0:
296,84,14508,2,0,P|331:81|364:96,1,72,0|8,0:0|0:0,0:0:0:0:
400,160,14786,1,0,0:0:0:0:
400,160,14925,2,0,P|422:212|447:160,1,144,8|8,0:0|0:0,0:0:0:0:
306,190,15480,5,8,0:0:0:0:
306,190,15619,1,0,0:0:0:0:
241,159,15758,1,8,0:0:0:0:
241,159,15897,1,0,0:0:0:0:
176,190,16036,1,8,0:0:0:0:
176,190,16175,1,0,0:0:0:0:
220,90,16314,6,0,P|170:62|183:118,1,144,8|8,0:0|0:0,0:0:0:0:
236,231,16730,2,0,P|239:267|224:300,1,72,0|8,0:0|0:0,0:0:0:0:
162,336,17008,1,0,0:0:0:0:
162,336,17147,2,0,P|107:323|135:373,2,144,8|8|8,0:0|0:0|0:0,0:0:0:0:
306,336,17980,2,0,P|361:323|333:373,1,144,8|8,0:0|0:0,0:0:0:0:
234,267,18536,6,0,P|215:199|234:130,1,144,8|8,0:0|0:0,0:0:0:0:
280,74,18953,2,0,P|247:59|211:61,2,72,0|8|0,0:0|0:0|0:0,0:0:0:0:
306,141,19369,2,0,P|335:120|351:88,2,72,8|0|8,0:0|0:0|0:0,0:0:0:0:
234,130,19786,2,0,P|237:165|257:195,2,72,0|8|0,0:0|0:0|0:0,0:0:0:0:
377,155,20203,6,0,P|396:223|377:292,1,144,8|8,0:0|0:0,0:0:0:0:
331,348,20620,2,0,P|364:363|400:361,2,72,0|8|0,0:0|0:0|0:0,0:0:0:0:
305,281,21036,2,0,P|276:302|260:334,2,72,8|0|8,0:0|0:0|0:0,0:0:0:0:
377,292,21453,2,0,P|374:257|354:227,2,72,0|8|0,0:0|0:0|0:0,0:0:0:0:
234,267,21869,6,0,P|253:199|234:130,1,144,8|8,0:0|0:0,0:0:0:0:
188,74,22286,2,0,P|221:59|257:61,2,72,0|8|0,0:0|0:0|0:0,0:0:0:0:
162,141,22702,2,0,P|133:120|117:88,2,72,8|0|8,0:0|0:0|0:0,0:0:0:0:
234,130,23119,2,0,P|231:165|211:195,2,72,0|8|0,0:0|0:0|0:0,0:0:0:0:
91,155,23536,6,0,P|72:223|91:292,1,144,8|8,0:0|0:0,0:0:0:0:
137,348,23953,2,0,P|104:363|68:361,2,72,0|8|0,0:0|0:0|0:0,0:0:0:0:
163,281,24369,1,8,0:0:0:0:
256,192,24439,12,8,25480,0:0:0:0:
256,192,25758,6,0,B|295:110|295:110|345:184,1,180,4|8,0:2|0:0,0:0:0:0:
307,266,26175,2,0,L|218:273,1,90,0|0,0:0|2:0,0:0:0:0:
256,192,26453,1,0,2:0:0:0:
355,294,26591,2,0,L|171:310,1,180,8|0,0:0|2:0,0:0:0:0:
269,348,27008,1,0,2:0:0:0:
345,184,27147,5,8,0:0:0:0:
396,258,27286,1,0,2:0:0:0:
256,192,27425,1,0,2:0:0:0:
307,266,27564,1,0,2:0:0:0:
167,200,27703,1,8,0:0:0:0:
129,282,27841,1,0,2:0:0:0:
256,192,27980,6,0,P|197:115|108:132,1,180,0|8,0:0|0:0,0:0:0:0:
129,282,28397,2,0,L|40:275,1,90,0|0,0:0|2:0,0:0:0:0:
9,189,28675,1,0,2:0:0:0:
167,200,28814,2,0,L|151:384,1,180,8|0,0:0|2:0,0:0:0:0:
151,379,29230,1,0,2:0:0:0:
252,230,29369,5,8,0:0:0:0:
260,320,29508,1,0,2:0:0:0:
415,306,29647,1,0,2:0:0:0:
407,217,29786,1,0,2:0:0:0:
260,320,29925,1,8,0:0:0:0:
341,358,30064,1,0,2:0:0:0:
325,177,30203,6,0,B|313:43|313:43|285:78,1,180,0|8,0:0|0:0,0:0:0:0:
197,119,30619,2,0,L|108:112,1,90,0|0,0:0|2:0,0:0:0:0:
159,38,30898,1,0,2:0:0:0:
239,156,31036,2,0,L|59:140,1,180,8|0,0:0|2:0,0:0:0:0:
146,193,31453,1,0,2:0:0:0:
43,341,31591,5,8,0:0:0:0:
3,259,31730,1,0,2:0:0:0:
146,193,31869,1,0,2:0:0:0:
184,275,32008,1,0,2:0:0:0:
3,259,32147,1,8,0:0:0:0:
57,186,32286,1,0,2:0:0:0:
133,348,32425,6,0,P|209:361|272:282,1,180,0|8,0:0|0:0,0:0:0:0:
95,270,32841,2,0,P|104:313|133:348,1,90,0|0,0:0|2:0,0:0:0:0:
184,275,33119,1,0,2:0:0:0:
345,354,33258,6,0,B|349:308|349:308|378:274|378:274|382:228|382:228|360:192,1,180,10|0,0:0|2:0,0:0:0:0:
162,149,33675,1,4,0:0:0:0:
152,192,33744,1,4,0:0:0:0:
162,235,33813,1,4,0:0:0:0:
360,192,33953,1,4,0:0:0:0:
256,94,34091,1,8,0:0:0:0:
256,290,34230,1,8,0:0:0:0:
152,192,34369,5,2,2:3:0:0:
152,192,34647,6,0,B|90:154|25:193|25:193|71:207,1,180,4|8,0:2|0:0,0:0:0:0:
210,247,35064,2,0,P|211:291|192:336,1,90,0|0,0:0|2:0,0:0:0:0:
125,277,35341,1,0,2:3:0:0:
234,208,35480,2,0,P|237:295|201:382,1,180,8|0,0:3|2:3,0:3:0:0:
280,303,35897,1,0,2:0:0:0:
152,192,36036,5,8,0:0:0:0:
208,122,36175,1,0,2:0:0:0:
88,26,36314,1,0,2:0:0:0:
120,109,36453,1,0,2:0:0:0:
263,54,36591,1,8,0:0:0:0:
175,40,36730,1,0,2:0:0:0:
234,208,36869,6,0,B|250:255|294:272|294:272|393:254,1,180,0|8,0:0|0:0,0:0:0:0:
411,170,37286,2,0,P|366:168|321:187,1,90,0|0,0:0|2:0,0:0:0:0:
261,121,37564,1,0,2:0:0:0:
426,81,37703,2,0,P|460:163|456:252,1,180,8|0,0:3|2:3,0:3:0:0:
456,253,38119,1,0,2:0:0:0:
294,271,38258,5,8,0:0:0:0:
325,185,38397,1,0,2:0:0:0:
437,326,38536,2,0,P|395:342|351:341,1,90,0|0,2:0|2:0,0:0:0:0:
236,202,38814,1,8,0:0:0:0:
205,288,38953,1,0,2:0:0:0:
267,113,39092,6,0,P|308:97|352:98,1,90,0|0,0:0|2:0,0:0:0:0:
294,271,39369,1,8,0:0:0:0:
178,133,39508,2,0,P|136:116|92:117,1,90,0|0,0:0|2:0,0:0:0:0:
122,202,39785,1,0,2:3:0:0:
224,124,39924,2,0,P|142:90|53:93,1,180,8|0,0:0|2:0,0:0:0:0:
148,47,40341,1,0,2:0:0:0:
122,202,40480,5,8,3:0:0:0:
178,133,40619,1,0,2:0:0:0:
296,228,40758,1,0,2:0:0:0:
209,215,40897,1,0,2:0:0:0:
234,64,41036,1,8,0:0:0:0:
265,146,41175,1,0,2:0:0:0:
153,284,41314,6,0,P|75:276|37:186,1,180,0|8,0:0|0:0,0:0:0:0:
209,215,41730,2,0,P|241:290|183:368,1,180,0|0,0:0|2:0,0:0:0:0:
122,202,42147,2,0,P|170:136|267:148,1,180,10|0,0:0|2:0,0:0:0:0:
340,345,42703,6,0,B|340:306|340:306|359:279|359:279|369:242,1,108
290,244,42980,2,0,B|280:208|280:208|261:181|261:181|261:143,1,108
340,153,43258,2,0,B|349:116|349:116|368:89|368:89|369:51,1,108
256,45,43536,6,0,B|200:39|149:56|149:56|107:89,1,161.999995056153,4|0,0:2|2:0,0:0:0:0:
74,164,43814,2,0,B|130:158|180:175|180:175|223:208,1,161.999995056153,8|0,0:0|2:0,0:0:0:0:
281,267,44091,2,0,P|303:221|292:163,1,107.999996704102
179,366,44369,1,8,0:0:0:0:
339,326,44508,1,0,2:0:0:0:
223,208,44647,6,0,P|254:95|337:97,1,215.999993408203,0|8,0:0|0:0,0:0:0:0:
355,246,45064,2,0,P|311:217|294:167,1,107.999996704102,0|0,2:0|0:0,0:0:0:0:
414,73,45341,1,0,0:0:0:0:
223,208,45480,6,0,B|170:223|170:223|116:218|61:179,1,161.999995056153,8|0,0:0|2:0,0:0:0:0:
71,104,45758,2,0,B|124:89|124:89|178:94|233:133,1,161.999995056153,0|0,0:0|2:0,0:0:0:0:
223,208,46036,2,0,B|169:222|169:222|126:254|99:316,1,161.999995056153,8|0,0:0|2:0,0:0:0:0:
165,359,46314,5,0,0:0:0:0:
223,208,46453,1,0,0:0:0:0:
388,359,46591,1,8,0:0:0:0:
237,301,46730,1,0,2:0:0:0:
342,184,46869,6,0,B|351:218|351:218|351:246|330:287,1,107.999996704102,0|0,0:0|2:0,0:0:0:0:
58,106,47147,2,0,B|94:83|144:83|144:83|172:105|211:105,1,161.999995056153,8|0,0:0|2:0,0:0:0:0:
354,81,47425,2,0,B|363:115|363:115|363:143|342:184,1,107.999996704102
199,2,47703,2,0,B|190:36|190:36|190:64|211:105,1,107.999996704102,8|0,0:0|2:0,0:0:0:0:
330,287,47980,6,0,L|226:314,1,107.999996704102,0|0,0:0|2:0,0:0:0:0:
89,194,48258,2,0,L|245:235,1,161.999995056153,8|0,0:0|2:0,0:0:0:0:
226,314,48536,2,0,L|122:287,1,107.999996704102
56,100,48814,2,0,L|213:142,1,161.999995056153,8|0,0:0|2:0,0:0:0:0:
289,168,49091,6,0,B|342:153|366:97|366:97|410:135|465:120,1,215.999993408203,0|8,3:0|3:0,3:0:0:0:
451,348,49508,2,0,P|417:307|408:255,1,107.999996704102,0|0,2:0|0:0,0:0:0:0:
466,120,49785,1,0,0:0:0:0:
349,339,49925,2,0,B|313:362|263:362|263:362|235:340|196:340,1,161.999995056153,8|0,0:0|2:0,0:0:0:0:
121,373,50203,6,0,B|64:382|24:333|24:333|21:283|75:233,2,215.999993408203,0|8|0,3:0|3:0|3:0,3:0:0:0:
206,259,50897,1,0,0:0:0:0:
78,159,51035,1,8,0:0:0:0:
229,98,51175,1,0,2:0:0:0:
280,226,51314,6,0,P|332:216|368:177,1,107.999996704102,0|0,0:0|2:0,0:0:0:0:
160,53,51591,2,0,P|154:130|216:179,1,161.999995056153,8|0,0:0|2:0,0:0:0:0:
206,259,51869,2,0,P|189:309|204:360,1,107.999996704102
367,278,52147,2,0,P|331:238|280:226,1,107.999996704102,8|0,0:0|2:0,0:0:0:0:
67,327,52425,6,0,B|19:351|19:351|-11:266|22:193,1,215.999993408203,4|8,0:2|0:0,0:0:0:0:
111,57,52841,1,0,2:0:0:0:
207,180,52980,2,0,B|152:177|152:177|105:151,1,107.999996704102
294,139,53258,1,8,0:0:0:0:
206,275,53397,1,0,2:0:0:0:
216,87,53536,6,0,B|282:40|282:40|357:70,1,161.999995056153,0|0,0:0|2:0,0:0:0:0:
435,122,53814,2,0,B|369:169|369:169|293:138,1,161.999995056153,8|0,0:0|2:0,0:0:0:0:
216,87,54091,2,0,B|161:90|161:90|114:116,1,107.999996704102
206,275,54369,2,0,B|261:272|261:272|308:246,1,107.999996704102,8|0,0:0|2:0,0:0:0:0:
435,122,54647,6,0,B|454:96|499:96|499:96|533:165|499:242,1,215.999993408203,0|8,0:3|0:0,0:0:0:0:
429,382,55064,1,0,2:0:0:0:
307,276,55203,2,0,P|256:259|206:275,1,107.999996704102
256,122,55480,1,8,0:0:0:0:
256,352,55619,1,0,2:0:0:0:
180,173,55758,6,0,P|163:122|179:71,1,107.999996704102
332,173,56036,2,0,P|348:122|332:71,1,107.999996704102,8|0,0:0|2:0,0:0:0:0:
256,225,56314,1,0,0:0:0:0:
103,122,56453,5,8,0:0:0:0:
62,137,56522,1,8,0:0:0:0:
31,166,56591,1,8,0:0:0:0:
14,205,56661,1,8,0:0:0:0:
14,248,56730,1,8,0:0:0:0:
30,288,56800,1,8,0:0:0:0:
59,318,56869,6,0,P|157:335|221:362,1,161.999995056153,4|0,0:2|2:0,0:0:0:0:
299,290,57147,2,0,P|223:318|143:331,1,161.999995056153,12|0,0:2|2:0,0:0:0:0:
199,225,57425,6,0,B|234:122|234:122|180:122,1,161.999995056153,4|0,0:2|2:0,0:0:0:0:
73,196,57703,2,0,B|19:196|19:196|54:93,1,161.999995056153,12|0,0:2|2:0,0:0:0:0:
169,15,57980,6,0,B|213:10|245:34|245:34|259:29|259:29|294:47|339:32,1,161.999995056153,4|0,0:2|2:0,0:0:0:0:
504,116,58258,2,0,B|459:111|427:135|427:135|413:130|413:130|378:148|349:138,1,161.999995056153,12|0,0:2|2:0,0:0:0:0:
162,246,58536,6,0,B|129:257|129:257|115:200|162:138,1,161.999995056153,4|0,0:2|2:0,0:0:0:0:
349,246,58814,2,0,B|396:307|382:364|382:364|349:353,1,161.999995056153,12|0,0:2|2:0,0:0:0:0:
256,300,59091,5,8,0:0:0:0:
349,138,59230,1,0,0:0:0:0:
162,138,59369,1,0,0:0:0:0:
349,246,59508,1,8,0:0:0:0:
256,84,59647,1,0,0:0:0:0:
162,246,59786,1,0,0:0:0:0:
256,41,59925,5,12,0:2:0:0:
393,138,60064,1,0,0:0:0:0:
214,323,60203,2,0,P|163:339|112:324,1,107.999996704102,4|0,0:2|2:0,0:0:0:0:
6,137,60480,5,8,0:0:0:0:
26,99,60549,1,8,0:0:0:0:
62,77,60618,1,8,0:0:0:0:
105,77,60688,1,8,0:0:0:0:
141,99,60759,5,8,0:0:0:0:
170,130,60828,1,8,0:0:0:0:
211,141,60897,1,8,0:0:0:0:
252,129,60967,1,8,0:0:0:0:
281,98,61035,5,8,0:0:0:0:
317,76,61106,1,8,0:0:0:0:
360,76,61176,1,8,0:0:0:0:
396,98,61245,1,8,0:0:0:0:
416,136,61314,6,8,B|428:191|404:242|404:242|377:262|343:254,1,161.999995056153,4|8,0:2|2:0,0:0:0:0:
280,224,61591,2,8,B|225:212|174:236|174:236|154:263|162:297,1,161.999995056153,8|0,0:2|2:0,0:0:0:0:
188,363,61869,2,0,P|135:362|92:332,1,107.999996704102,0|0,3:0|0:0,0:0:0:0:
97,115,62147,2,0,P|150:115|193:145,1,107.999996704102,8|0,0:0|2:0,0:0:0:0:
318,356,62425,6,0,P|431:325|429:242,1,215.999993408203,0|8,0:0|0:0,0:0:0:0:
280,224,62842,2,0,P|309:268|359:285,1,107.999996704102,0|0,2:0|0:0,0:0:0:0:
453,165,63119,1,0,0:0:0:0:
207,259,63258,6,0,B|102:231|102:231|68:222|77:190,1,161.999995056153,8|0,0:0|2:0,0:0:0:0:
151,157,63536,2,0,B|255:184|255:184|289:193|280:225,1,161.999995056153,0|0,0:0|2:0,0:3:0:0:
207,259,63814,2,0,B|102:230|102:230|69:221|60:253,1,161.999995056153,8|0,0:0|2:0,0:3:0:0:
29,338,64091,5,0,0:0:0:0:
0,180,64230,1,0,0:0:0:0:
207,259,64368,1,8,3:0:0:0:
60,251,64507,1,0,2:0:0:0:
239,31,64647,6,0,B|280:-4|280:-4|252:100,1,161.999995056153,0|0,0:0|2:0,0:0:0:0:
103,88,64925,2,0,B|68:49|68:49|173:78,1,161.999995056153,8|0,0:0|2:0,0:0:0:0:
123,253,65203,2,0,P|120:200|150:156,1,107.999996704102
331,122,65480,2,0,B|384:133|384:133|438:123|438:123|470:125|499:147,1,161.999995056153,8|0,0:0|2:0,0:0:0:0:
509,214,65758,6,0,P|474:294|401:303,1,161.999995056153,0|0,0:0|2:0,0:0:0:0:
325,305,66036,2,0,P|249:287|223:214,1,161.999995056153,8|0,0:0|2:0,0:0:0:0:
243,135,66314,2,0,L|138:106,1,107.999996704102
303,226,66591,2,0,L|331:121,1,107.999996704102,8|0,0:0|2:0,0:0:0:0:
23,263,66869,6,0,B|79:278|123:240|123:240|147:296|200:311,1,215.999993408203,0|8,3:0|3:0,3:0:0:0:
400,254,67286,2,0,P|356:223|303:226,1,107.999996704102,0|0,2:0|0:0,0:0:0:0:
200,311,67563,1,0,0:0:0:0:
99,110,67703,2,0,B|156:95|200:133|200:133|206:102|238:79,1,161.999995056153,8|0,3:0|2:0,3:0:0:0:
280,150,67981,6,0,B|384:181|384:97|493:147,2,215.999993408203,0|8|0,0:0|0:0|0:0,3:0:0:0:
99,110,68675,1,0,0:0:0:0:
247,307,68814,1,8,0:0:0:0:
66,268,68953,1,0,2:0:0:0:
280,150,69091,6,0,B|332:163|332:163|376:195|376:195|437:211,1,161.999995056153,0|0,0:0|2:0,0:0:0:0:
472,279,69369,2,0,B|420:292|420:292|375:324|375:324|323:338,1,161.999995056153,8|0,0:0|2:0,0:0:0:0:
247,307,69647,2,0,P|216:263|219:210,1,107.999996704102
400,113,69925,2,0,P|431:157|428:210,1,107.999996704102,8|0,0:0|2:0,0:0:0:0:
219,211,70203,6,0,B|166:196|142:140|142:140|98:178|43:163,1,215.999993408203,4|8,0:2|3:0,3:0:0:0:
240,112,70619,1,0,2:0:0:0:
112,264,70758,2,0,P|103:316|125:364,1,107.999996704102
219,211,71036,1,8,0:0:0:0:
276,331,71175,1,0,2:0:0:0:
379,207,71314,6,0,B|378:151|378:151|355:103,1,107.999996704102,0|0,0:0|2:0,0:0:0:0:
276,331,71591,2,0,B|331:330|331:330|379:307,1,107.999996704102,8|0,0:0|2:0,0:0:0:0:
153,228,71869,2,0,B|153:283|153:283|176:331,1,107.999996704102
256,104,72147,2,0,B|200:104|200:104|152:127,1,107.999996704102,8|0,0:0|2:0,0:0:0:0:
333,304,72425,6,0,B|381:328|381:328|411:243|378:170,1,215.999993408203,4|8,0:2|0:0,0:0:0:0:
256,104,72841,1,0,0:0:0:0:
179,304,72980,2,0,P|126:299|79:265,1,107.999996704102
333,304,73258,1,8,0:0:0:0:
256,104,73397,1,0,0:0:0:0:
179,304,73536,5,8,0:0:0:0:
347,192,73675,1,0,0:0:0:0:
165,192,73814,1,8,0:0:0:0:
333,304,73953,1,0,0:0:0:0:
256,104,74091,6,0,P|355:115|420:137,1,161.999995056153,8|0,0:0|2:0,0:0:0:0:
414,244,74369,2,0,P|336:267|256:274,1,161.999995056153,4|0,0:0|2:0,0:0:0:0:
165,192,74647,5,4,0:2:0:0:
137,228,74786,1,0,2:0:0:0:
109,264,74925,1,8,0:0:0:0:
143,347,75064,2,0,P|197:345|232:334,1,90,0|8,0:0|0:0,0:0:0:0:
325,228,75341,1,0,2:0:0:0:
353,264,75480,1,8,0:0:0:0:
319,347,75619,6,0,P|265:345|230:334,1,90,0|8,2:0|0:0,0:0:0:0:
109,264,75897,1,0,2:0:0:0:
137,228,76036,1,8,0:0:0:0:
103,145,76175,1,0,2:0:0:0:
168,13,76314,1,8,0:3:0:0:
40,82,76453,1,0,2:0:0:0:
183,102,76591,1,8,0:0:0:0:
78,2,76730,1,0,2:0:0:0:
230,164,76869,5,8,0:0:0:0:
266,136,77008,1,0,2:0:0:0:
302,108,77147,1,8,0:0:0:0:
385,142,77286,2,0,P|383:196|372:231,1,90,0|8,0:0|0:0,0:0:0:0:
266,324,77563,1,0,2:0:0:0:
302,352,77702,1,8,0:0:0:0:
385,318,77841,6,0,P|383:264|372:229,1,90,0|8,2:0|0:0,0:0:0:0:
302,108,78119,1,0,2:0:0:0:
266,136,78258,1,8,0:0:0:0:
183,102,78397,1,0,2:0:0:0:
51,167,78536,1,8,0:3:0:0:
120,39,78675,1,0,2:0:0:0:
140,182,78813,1,8,0:0:0:0:
40,77,78952,1,0,2:0:0:0:
347,192,79091,5,8,0:0:0:0:
375,228,79230,1,0,2:0:0:0:
403,264,79369,1,8,0:0:0:0:
369,347,79508,2,0,P|315:345|280:334,1,90,0|8,0:0|0:0,0:0:0:0:
187,228,79785,1,0,2:0:0:0:
159,264,79924,1,8,0:0:0:0:
193,347,80063,6,0,P|247:345|282:334,1,90,0|8,2:0|0:0,0:0:0:0:
403,264,80341,1,0,2:0:0:0:
375,228,80480,1,8,0:0:0:0:
409,145,80619,1,0,2:0:0:0:
344,13,80758,1,8,0:3:0:0:
472,82,80897,1,0,2:0:0:0:
329,102,81035,1,8,0:0:0:0:
434,2,81174,1,0,2:0:0:0:
282,164,81313,5,8,0:0:0:0:
246,136,81452,1,0,2:0:0:0:
210,108,81591,1,8,0:0:0:0:
127,142,81730,2,0,P|129:196|140:231,1,90,0|8,0:0|0:0,0:0:0:0:
246,324,82007,1,0,2:0:0:0:
210,352,82146,1,8,0:0:0:0:
127,318,82285,6,0,P|129:264|140:229,1,90,0|8,2:0|0:0,0:0:0:0:
210,108,82563,1,2,2:3:0:0:
246,136,82702,1,8,0:0:0:0:
392,39,82841,1,4,0:2:0:0:
461,167,82980,1,8,0:0:0:0:
329,102,83119,1,0,0:0:0:0:
472,77,83258,1,8,0:0:0:0:
372,182,83397,1,0,2:0:0:0:
255,50,83536,6,0,B|174:87|174:87|248:140,1,180,8|8,0:0|0:0,0:0:0:0:
329,102,83953,2,0,L|321:191,1,90,0|8,0:0|0:0,0:0:0:0:
403,153,84230,1,0,2:0:0:0:
301,54,84369,2,0,L|285:238,1,180,8|8,0:0|0:0,0:0:0:0:
285,233,84925,6,0,P|339:312|296:392,1,180,8|8,0:0|0:0,0:0:0:0:
249,316,85341,1,0,0:0:0:0:
235,159,85480,1,8,0:0:0:0:
145,167,85619,1,0,2:0:0:0:
249,316,85758,6,0,B|114:328|114:328|144:294,1,180,8|8,0:0|0:0,0:0:0:0:
145,167,86175,2,0,L|234:159,1,90,0|8,0:0|0:0,0:0:0:0:
198,241,86452,1,0,2:0:0:0:
100,139,86591,2,0,L|284:123,1,180,8|8,0:0|0:0,0:0:0:0:
279,123,87147,5,8,0:0:0:0:
353,72,87286,1,0,2:0:0:0:
287,212,87425,1,8,0:0:0:0:
369,250,87564,1,2,2:3:0:0:
213,263,87703,1,8,0:0:0:0:
295,301,87841,1,0,2:0:0:0:
361,161,87980,6,0,P|433:186|450:286,1,180,8|8,0:0|0:0,0:0:0:0:
295,301,88397,2,0,L|287:212,1,90,0|8,0:0|0:0,0:0:0:0:
279,123,88675,1,0,2:0:0:0:
369,250,88814,2,0,L|185:266,1,180,8|8,0:0|0:0,0:0:0:0:
190,266,89369,6,0,L|182:177,1,90,8|0,0:0|2:0,0:0:0:0:
279,123,89647,2,0,L|287:212,1,90,8|2,0:0|0:0,0:0:0:0:
84,231,89925,1,8,0:0:0:0:
76,141,90064,1,0,2:0:0:0:
279,123,90203,6,0,B|325:127|325:127|359:156|359:156|405:160|405:160|441:138,1,180,8|8,0:0|0:0,0:0:0:0:
287,33,90619,2,0,L|279:122,1,90,0|8,0:0|0:0,0:0:0:0:
205,70,90897,1,0,0:0:0:0:
287,212,91036,6,0,B|241:216|241:216|207:245|207:245|161:249|161:249|125:227,1,180,10|0,0:0|2:0,0:0:0:0:
50,175,91453,2,0,L|42:264,2,90,0|0|0,2:0|2:0|2:0,2:0:0:0:
116,316,91869,2,0,P|194:283|208:193,1,180,0|0,2:0|2:0,0:0:0:0:
360,192,92425,6,0,B|422:230|487:191|487:191|441:177,1,180,4|8,0:2|0:0,0:0:0:0:
302,137,92842,2,0,P|301:93|320:48,1,90,0|0,0:0|2:0,0:0:0:0:
387,107,93119,1,0,2:3:0:0:
278,176,93258,2,0,P|277:132|296:87,1,90,8|0,0:0|2:0,0:0:0:0:
254,215,93536,2,0,P|253:171|272:126,1,90,0|0,0:0|2:0,0:0:0:0:
449,177,93814,6,0,L|360:191,1,90,8|0,0:0|2:0,0:0:0:0:
424,358,94092,1,0,2:0:0:0:
392,275,94231,1,0,2:0:0:0:
248,329,94369,2,0,L|336:343,1,90,8|0,0:0|2:0,0:0:0:0:
278,176,94647,6,0,B|262:129|218:112|218:112|119:130,1,180,0|8,0:0|0:0,0:0:0:0:
101,214,95064,2,0,P|146:216|191:197,1,90,0|0,2:0|2:0,0:0:0:0:
251,263,95342,1,0,2:0:0:0:
86,303,95480,2,0,L|71:214,1,90,8|0,0:0|2:0,0:0:0:0:
110,342,95758,2,0,L|95:253,1,90,0|0,0:0|2:0,0:0:0:0:
218,113,96036,5,8,0:0:0:0:
187,199,96175,1,0,2:0:0:0:
75,58,96314,2,0,P|117:42|161:43,1,90,0|0,2:0|2:0,0:0:0:0:
29,47,96591,2,0,P|70:31|118:33,1,90,8|0,0:0|2:0,0:0:0:0:
187,199,96870,6,0,P|146:215|102:214,1,90,0|0,0:0|2:0,0:0:0:0:
218,113,97147,1,8,0:0:0:0:
334,251,97286,2,0,P|376:268|420:267,1,90,0|0,2:0|2:0,0:0:0:0:
390,182,97563,1,0,2:3:0:0:
288,260,97703,2,0,P|330:277|374:276,1,90,8|0,0:0|2:0,0:0:0:0:
245,271,97980,2,0,P|287:288|331:287,1,90,0|0,0:0|2:0,0:0:0:0:
214,187,98258,5,8,3:0:0:0:
158,256,98397,1,0,2:0:0:0:
40,161,98536,1,0,2:0:0:0:
127,174,98675,1,0,2:0:0:0:
102,325,98814,1,8,0:0:0:0:
71,243,98953,1,0,2:0:0:0:
183,105,99092,6,0,B|228:105|228:105|271:117|271:117|315:105|315:105|360:105,1,180,8|0,0:0|2:0,0:0:0:0:
127,174,99508,2,0,B|104:135|104:135|93:91|93:91|61:59|61:59|38:20,1,180,8|0,0:0|2:0,0:0:0:0:
214,187,99925,2,0,B|191:225|191:225|159:257|159:257|148:301|148:301|125:340,1,180,8|0,0:0|2:0,0:0:0:0:
127,174,100480,6,0,B|102:147|102:147|92:113|92:113|67:86,1,108,0|0,2:0|2:0,2:0:0:0:
183,105,100758,2,0,B|218:97|218:97|253:105|253:105|289:96,1,108,0|0,2:0|2:0,2:0:0:0:
214,187,101036,2,0,B|203:221|203:221|179:247|179:247|167:282,1,108,0|0,2:0|2:0,2:0:0:0:
256,339,101314,6,0,B|312:345|363:328|363:328|405:295,1,161.999995056153,4|0,0:2|2:0,0:0:0:0:
438,220,101592,2,0,B|382:226|332:209|332:209|289:176,1,161.999995056153,8|0,0:0|2:0,0:0:0:0:
231,117,101869,2,0,P|209:163|220:221,1,107.999996704102
433,30,102147,2,0,P|387:8|329:19,1,107.999996704102,8|0,0:0|2:0,0:0:0:0:
289,176,102425,6,0,P|258:289|175:287,1,215.999993408203,0|8,0:0|0:0,0:0:0:0:
157,138,102842,2,0,P|201:167|218:217,1,107.999996704102,0|0,2:0|0:0,0:0:0:0:
98,311,103119,1,0,0:0:0:0:
289,176,103258,6,0,B|342:161|342:161|396:166|451:205,1,161.999995056153,8|0,0:0|2:0,0:0:0:0:
441,280,103536,2,0,B|388:295|388:295|334:290|279:251,1,161.999995056153,0|0,0:0|2:0,0:0:0:0:
289,176,103814,2,0,B|343:162|343:162|386:130|413:68,1,161.999995056153,8|0,0:0|2:0,0:0:0:0:
347,25,104092,5,0,0:0:0:0:
289,176,104231,1,0,0:0:0:0:
124,25,104369,1,8,0:0:0:0:
275,83,104508,1,0,2:0:0:0:
170,200,104647,6,0,B|161:166|161:166|161:138|182:97,1,107.999996704102,0|0,0:0|2:0,0:0:0:0:
301,279,104925,2,0,B|310:245|310:245|310:217|289:176,1,107.999996704102,8|0,0:0|2:0,0:0:0:0:
158,303,105203,2,0,B|149:269|149:269|149:241|170:200,1,107.999996704102
313,382,105481,2,0,B|322:348|322:348|322:320|301:279,1,107.999996704102,8|0,0:0|2:0,0:0:0:0:
182,97,105758,6,0,L|286:70,1,107.999996704102,0|0,0:0|2:0,0:0:0:0:
423,190,106036,2,0,L|316:161,1,107.999996704102,8|0,0:0|2:0,0:0:0:0:
286,70,106314,2,0,L|390:97,1,107.999996704102
456,284,106592,2,0,L|299:242,1,161.999995056153,8|0,0:0|2:0,0:0:0:0:
223,216,106869,6,0,B|170:231|146:287|146:287|102:249|47:264,1,215.999993408203,0|8,3:0|3:0,3:0:0:0:
61,36,107286,2,0,P|95:77|104:129,1,107.999996704102,0|0,2:0|0:0,0:0:0:0:
46,264,107563,1,0,0:0:0:0:
163,45,107703,2,0,B|199:22|249:22|249:22|277:44|316:44,1,161.999995056153,8|0,0:0|2:0,0:0:0:0:
391,11,107981,6,0,B|448:2|488:51|488:51|491:101|437:151,2,215.999993408203,0|8|0,3:0|3:0|3:0,3:0:0:0:
306,125,108675,1,0,0:0:0:0:
434,225,108813,1,8,0:0:0:0:
283,286,108953,1,0,2:0:0:0:
232,158,109092,6,0,P|180:168|144:207,1,107.999996704102,0|0,0:0|2:0,0:0:0:0:
352,331,109369,2,0,P|358:254|296:205,1,161.999995056153,8|0,0:0|2:0,0:0:0:0:
306,125,109647,2,0,P|323:75|308:24,1,107.999996704102
145,106,109925,2,0,P|181:146|232:158,1,107.999996704102,8|0,0:0|2:0,0:0:0:0:
445,57,110203,6,0,B|493:33|493:33|523:118|490:191,1,215.999993408203,4|8,0:2|0:0,0:0:0:0:
401,327,110619,1,0,2:0:0:0:
305,204,110758,2,0,B|360:207|360:207|407:233,1,107.999996704102
218,245,111036,1,8,0:0:0:0:
306,109,111175,1,0,2:0:0:0:
296,297,111314,6,0,B|230:344|230:344|155:314,1,161.999995056153,0|0,0:0|2:0,0:0:0:0:
77,262,111592,2,0,B|143:215|143:215|219:246,1,161.999995056153,8|0,0:0|2:0,0:0:0:0:
296,297,111869,2,0,B|351:294|351:294|398:268,1,107.999996704102
306,109,112147,2,0,B|251:112|251:112|204:138,1,107.999996704102,8|0,0:0|2:0,0:0:0:0:
77,262,112425,6,0,B|58:288|13:288|13:288|-21:219|13:142,1,215.999993408203,0|8,0:3|0:0,0:0:0:0:
83,2,112842,1,0,2:0:0:0:
205,108,112981,2,0,P|256:125|306:109,1,107.999996704102
256,262,113258,1,8,0:0:0:0:
256,32,113397,1,0,2:0:0:0:
332,211,113536,6,0,P|349:262|333:313,1,107.999996704102
180,211,113814,2,0,P|164:262|180:313,1,107.999996704102,8|0,0:0|2:0,0:0:0:0:
256,159,114092,1,0,0:0:0:0:
409,262,114231,5,8,0:0:0:0:
450,247,114300,1,8,0:0:0:0:
481,218,114369,1,8,0:0:0:0:
498,179,114439,1,8,0:0:0:0:
498,136,114508,1,8,0:0:0:0:
482,96,114578,1,8,0:0:0:0:
453,66,114647,6,0,P|355:49|291:22,1,161.999995056153,4|0,0:2|2:0,0:0:0:0:
213,94,114925,2,0,P|289:66|369:53,1,161.999995056153,12|0,0:2|2:0,0:0:0:0:
313,159,115203,6,0,B|278:262|278:262|332:262,1,161.999995056153,4|0,0:2|2:0,0:0:0:0:
439,188,115481,2,0,B|493:188|493:188|458:291,1,161.999995056153,12|0,0:2|2:0,0:0:0:0:
343,369,115758,6,0,B|299:374|267:350|267:350|253:355|253:355|218:337|173:352,1,161.999995056153,4|0,0:2|2:0,0:0:0:0:
8,268,116036,2,0,B|53:273|85:249|85:249|99:254|99:254|134:236|163:246,1,161.999995056153,12|0,0:2|2:0,0:0:0:0:
350,138,116314,6,0,B|383:127|383:127|397:184|350:246,1,161.999995056153,4|0,0:2|2:0,0:0:0:0:
163,138,116592,2,0,B|116:77|130:20|130:20|163:31,1,161.999995056153,12|0,0:2|2:0,0:0:0:0:
256,84,116869,5,8,0:0:0:0:
163,246,117008,1,0,0:0:0:0:
350,246,117147,1,0,0:0:0:0:
163,138,117286,1,8,0:0:0:0:
256,300,117425,1,0,0:0:0:0:
350,138,117564,1,0,0:0:0:0:
256,343,117703,5,12,0:2:0:0:
119,246,117842,1,0,0:0:0:0:
298,61,117981,2,0,P|349:45|400:60,1,107.999996704102,4|0,0:2|2:0,0:0:0:0:
506,247,118258,5,8,0:0:0:0:
486,285,118327,1,8,0:0:0:0:
450,307,118396,1,8,0:0:0:0:
407,307,118466,1,8,0:0:0:0:
371,285,118537,5,8,0:0:0:0:
342,254,118606,1,8,0:0:0:0:
301,243,118675,1,8,0:0:0:0:
260,255,118745,1,8,0:0:0:0:
231,286,118813,5,8,0:0:0:0:
195,308,118884,1,8,0:0:0:0:
152,308,118954,1,8,0:0:0:0:
116,286,119023,1,8,0:0:0:0:
96,248,119092,6,8,P|88:171|128:90,1,161.999995056153,4|0,0:2|2:0,0:0:0:0:
198,127,119369,2,0,P|275:135|356:95,1,161.999995056153,8|0,0:2|2:0,0:0:0:0:
407,42,119647,2,0,P|429:88|418:146,1,107.999996704102
185,228,119925,2,0,P|176:176|198:128,1,107.999996704102,8|0,0:0|2:0,0:0:0:0:
387,223,120203,6,0,P|356:336|273:334,1,215.999993408203,0|8,0:0|0:0,0:0:0:0:
255,185,120620,2,0,P|299:214|316:264,1,107.999996704102,0|0,2:0|0:0,0:0:0:0:
196,358,120897,1,0,0:0:0:0:
222,50,121036,6,0,P|321:61|386:83,1,161.999995056153,8|0,0:0|2:0,0:0:0:0:
413,155,121314,2,0,P|314:166|249:188,1,161.999995056153,0|0,0:0|2:0,0:0:0:0:
222,260,121592,2,0,P|321:271|386:293,1,161.999995056153,8|0,0:0|2:0,0:0:0:0:
473,305,121869,5,0,0:0:0:0:
322,363,122008,1,0,0:0:0:0:
322,140,122146,1,8,0:0:0:0:
380,291,122285,1,0,2:0:0:0:
77,260,122425,6,0,P|88:161|110:96,1,161.999995056153,0|0,0:0|2:0,0:0:0:0:
190,102,122703,2,0,P|214:180|221:260,1,161.999995056153,8|0,0:0|2:0,0:0:0:0:
216,342,122981,1,0,0:0:0:0:
77,260,123119,1,0,0:0:0:0:
291,140,123258,2,0,B|344:129|344:129|398:139|398:139|430:137|459:115,1,161.999995056153,8|0,0:0|2:0,0:0:0:0:
401,56,123536,6,0,P|390:155|368:220,1,161.999995056153,0|0,0:0|2:0,0:0:0:0:
290,222,123814,2,0,P|210:227|133:248,1,161.999995056153,8|0,0:0|2:0,0:0:0:0:
55,221,124092,2,0,L|74:114,1,107.999996704102
290,222,124369,2,0,L|272:330,1,107.999996704102,8|0,0:0|2:0,0:0:0:0:
63,384,124647,6,0,L|277:327,1,215.999993408203,0|8,0:0|0:0,0:0:0:0:
290,222,125064,2,0,L|394:193,1,107.999996704102,0|0,2:0|0:0,0:0:0:0:
425,35,125341,1,0,0:0:0:0:
190,108,125481,2,0,P|201:207|223:272,1,161.999995056153,8|0,0:0|2:0,0:0:0:0:
272,329,125759,6,0,B|376:360|376:276|485:326,2,215.999993408203,0|8|0,0:0|0:0|0:0,3:0:0:0:
133,248,126453,1,0,0:0:0:0:
329,190,126592,1,8,0:0:0:0:
190,108,126731,1,0,0:0:0:0:
272,329,126869,6,0,P|371:318|436:296,1,161.999995056153,0|0,0:0|2:0,0:0:0:0:
487,220,127147,2,0,P|409:197|329:190,1,161.999995056153,8|0,0:0|2:0,0:0:0:0:
289,119,127425,2,0,P|280:67|302:19,1,107.999996704102
500,119,127703,2,0,P|509:171|487:219,1,107.999996704102,8|0,0:0|2:0,0:0:0:0:
247,190,127981,6,0,B|194:205|170:261|170:261|126:223|71:238,1,215.999993408203,4|8,0:2|3:0,3:0:0:0:
268,289,128397,1,0,2:0:0:0:
140,137,128536,2,0,P|131:85|153:37,1,107.999996704102
247,190,128814,1,8,0:0:0:0:
296,36,128953,1,0,2:0:0:0:
348,204,129092,6,0,P|296:213|248:191,1,107.999996704102,0|0,0:0|2:0,0:0:0:0:
53,23,129369,2,0,P|105:14|153:36,1,107.999996704102,8|0,0:0|2:0,0:0:0:0:
334,305,129647,2,0,P|282:314|234:292,1,107.999996704102
39,124,129924,2,0,P|91:115|139:137,1,107.999996704102,10|0,0:0|2:0,0:0:0:0:
427,273,130203,6,0,B|475:297|475:297|505:212|472:139,1,215.999993408203,4|12,0:2|0:2,0:0:0:0:
333,80,130619,1,0,0:0:0:0:
165,192,130758,2,0,P|113:201|65:179,1,107.999996704102,8|0,0:0|0:2,0:0:0:0:
179,80,131036,1,12,0:2:0:0:
256,280,131175,1,0,0:0:0:0:
333,80,131314,5,12,0:2:0:0:
165,192,131453,1,0,0:0:0:0:
347,192,131592,1,8,0:0:0:0:
179,80,131731,1,0,0:0:0:0:
179,80,131800,1,8,0:0:0:0:
179,80,131869,1,8,0:0:0:0:
256,192,132008,1,8,0:0:0:0:
333,80,132147,1,8,0:0:0:0:
165,192,132286,1,8,0:0:0:0:
347,192,132425,5,4,0:0:0:0:
256,45,140619,5,8,0:3:0:0:
256,45,140689,1,8,0:3:0:0:
256,45,140758,1,8,0:3:0:0:
347,192,140897,1,8,0:3:0:0:
165,192,141036,1,4,0:3:0:0:
165,192,141314,6,0,L|165:300,1,107.999996704102,4|0,0:2|2:0,0:0:0:0:
68,349,141869,2,0,P|56:296|70:245,1,107.999996704102,8|0,0:0|2:0,0:0:0:0:
165,192,142425,1,0,0:0:0:0:
137,145,142703,1,0,0:0:0:0:
193,239,142980,2,0,L|301:239,1,107.999996704102,8|0,0:0|2:0,0:0:0:0:
356,145,143536,6,0,L|248:145,1,107.999996704102,0|0,0:0|2:0,0:0:0:0:
199,48,144091,2,0,P|252:36|303:50,1,107.999996704102,8|0,0:0|2:0,0:0:0:0:
356,145,144647,1,0,0:0:0:0:
403,117,144925,1,0,0:0:0:0:
309,173,145202,2,0,L|309:281,1,107.999996704102,8|0,0:0|2:0,0:0:0:0:
200,281,145758,6,0,L|200:173,1,107.999996704102,0|0,0:0|2:0,0:0:0:0:
103,124,146313,2,0,P|91:177|105:228,1,107.999996704102,8|0,0:0|2:0,0:0:0:0:
200,281,146869,1,0,0:0:0:0:
172,328,147147,1,0,0:0:0:0:
228,234,147424,2,0,L|336:234,1,107.999996704102,8|0,0:0|2:0,0:0:0:0:
283,139,147980,6,0,L|391:139,1,107.999996704102,0|0,0:0|2:0,0:0:0:0:
440,236,148535,2,0,P|387:248|336:234,1,107.999996704102,8|0,0:0|2:0,0:0:0:0:
283,139,149091,1,0,0:0:0:0:
236,167,149369,1,0,0:0:0:0:
330,111,149646,2,0,L|330:3,1,107.999996704102,8|0,0:0|2:0,0:0:0:0:
236,59,150064,1,0,2:0:0:0:
236,59,150203,6,0,P|156:69|96:46,1,144,2|0,0:2|2:0,0:0:0:0:
33,79,150619,2,0,L|26:154,2,72,0|8|0,2:0|3:0|2:0,0:0:0:0:
98,48,151036,1,0,2:0:0:0:
98,48,151175,1,0,2:0:0:0:
163,79,151314,6,0,P|185:146|174:217,1,144
134,277,151730,2,0,L|58:270,2,72,0|8|0,2:0|3:0|2:0,0:0:0:0:
165,342,152147,1,0,2:0:0:0:
165,342,152286,1,0,2:0:0:0:
206,283,152425,6,0,P|273:260|344:271,1,144,0|0,0:0|2:0,0:0:0:0:
407,305,152841,2,0,L|400:380,2,72,0|8|0,2:0|3:0|2:0,0:0:0:0:
469,267,153258,1,0,2:0:0:0:
469,267,153397,1,0,2:0:0:0:
406,232,153536,6,0,L|393:87,1,144
393,88,154091,1,8,0:0:0:0:
276,325,154508,1,0,2:0:0:0:
276,325,154647,6,0,P|355:314|415:337,1,144,0|0,0:0|2:0,0:0:0:0:
479,305,155063,2,0,L|485:229,2,72,0|8|0,2:0|3:0|2:0,0:0:0:0:
414,336,155480,1,0,2:0:0:0:
414,336,155619,1,0,2:0:0:0:
349,305,155758,6,0,P|326:237|337:166,1,144
378,107,156174,2,0,L|453:113,2,72,0|8|0,2:0|3:0|2:0,0:0:0:0:
347,42,156591,1,0,2:0:0:0:
347,42,156730,1,0,2:0:0:0:
306,101,156869,6,0,P|238:123|167:112,1,144,0|0,0:0|2:0,0:0:0:0:
105,79,157285,2,0,L|111:3,2,72,0|8|0,2:0|3:0|2:0,0:0:0:0:
43,117,157702,1,0,2:0:0:0:
43,117,157841,1,0,2:0:0:0:
106,152,157980,6,0,L|118:296,1,144
119,296,158535,1,8,0:0:0:0:
276,59,158953,1,0,2:0:0:0:
276,59,159091,6,0,P|355:69|415:46,1,144,0|0,0:0|2:0,0:0:0:0:
479,79,159508,2,0,L|485:154,2,72,0|8|0,2:0|3:0|2:0,0:0:0:0:
414,48,159925,1,0,2:0:0:0:
414,48,160064,1,0,2:0:0:0:
349,79,160203,6,0,P|326:146|337:217,1,144
378,277,160619,2,0,L|453:270,2,72,0|8|0,2:0|3:0|2:0,0:0:0:0:
347,342,161036,1,0,2:0:0:0:
347,342,161175,1,0,2:0:0:0:
306,283,161314,6,0,P|238:260|167:271,1,144,0|0,0:0|2:0,0:0:0:0:
105,305,161730,2,0,L|111:380,2,72,0|8|0,2:0|3:0|2:0,0:0:0:0:
43,267,162147,1,0,2:0:0:0:
43,267,162286,1,0,2:0:0:0:
106,232,162425,6,0,L|118:87,1,144
119,88,162980,1,8,0:0:0:0:
236,325,163397,1,0,2:0:0:0:
236,325,163536,6,0,P|156:314|96:337,1,144,0|0,0:0|2:0,0:0:0:0:
33,305,163952,2,0,L|26:229,2,72,0|8|0,2:0|3:0|2:0,0:0:0:0:
98,336,164369,1,0,2:0:0:0:
98,336,164508,1,0,2:0:0:0:
163,305,164647,6,0,P|185:237|174:166,1,144
134,107,165063,2,0,L|58:113,2,72,0|8|0,2:0|3:0|2:0,0:0:0:0:
165,42,165480,1,0,2:0:0:0:
165,42,165619,1,0,2:0:0:0:
206,101,165758,6,0,P|273:123|344:112,1,144,0|0,0:0|2:0,0:0:0:0:
407,79,166174,2,0,L|400:3,2,72,0|8|0,2:0|3:0|2:0,0:0:0:0:
469,117,166591,1,2,2:3:0:0:
469,117,166730,1,0,2:0:0:0:
406,152,166869,6,0,L|393:296,1,144,2|2,0:0|0:0,0:0:0:0:
276,325,167841,1,0,2:0:0:0:
276,325,167980,6,0,P|355:314|415:337,1,144,6|0,0:2|2:0,0:0:0:0:
479,305,168396,2,0,L|485:229,2,72,0|8|0,2:0|3:0|2:0,0:0:0:0:
414,336,168813,1,0,2:0:0:0:
414,336,168952,1,0,2:0:0:0:
349,305,169091,6,0,P|326:237|337:166,1,144
378,107,169507,2,0,L|453:113,2,72,0|8|0,2:0|3:0|2:0,0:0:0:0:
347,42,169924,1,0,2:0:0:0:
347,42,170063,1,0,2:0:0:0:
306,101,170202,6,0,P|238:123|167:112,1,144,0|0,0:0|2:0,0:0:0:0:
105,79,170618,2,0,L|111:3,2,72,0|8|0,2:0|3:0|2:0,0:0:0:0:
43,117,171035,1,0,2:0:0:0:
43,117,171174,1,0,2:0:0:0:
106,152,171313,6,0,L|118:296,1,144
119,296,171868,1,8,0:0:0:0:
236,59,172285,1,0,2:0:0:0:
236,59,172424,6,0,P|156:69|96:46,1,144,0|0,0:0|2:0,0:0:0:0:
33,79,172840,2,0,L|26:154,2,72,0|8|0,2:0|3:0|2:0,0:0:0:0:
98,48,173257,1,0,2:0:0:0:
98,48,173396,1,0,2:0:0:0:
163,79,173535,6,0,P|185:146|174:217,1,144
134,277,173951,2,0,L|58:270,2,72,0|8|0,2:0|3:0|2:0,0:0:0:0:
165,342,174368,1,0,2:0:0:0:
165,342,174507,1,0,2:0:0:0:
206,283,174646,6,0,P|273:260|344:271,1,144,0|0,0:0|2:0,0:0:0:0:
407,305,175062,2,0,L|400:380,2,72,0|8|0,2:0|3:0|2:0,0:0:0:0:
469,267,175479,1,0,2:0:0:0:
469,267,175618,1,0,2:0:0:0:
406,232,175757,6,0,L|393:87,1,144
393,88,176312,1,8,0:0:0:0:
236,325,176730,1,0,2:0:0:0:
236,325,176868,6,0,P|156:314|96:337,1,144,0|0,0:0|2:0,0:0:0:0:
33,305,177285,2,0,L|26:229,2,72,0|8|0,2:0|3:0|2:0,0:0:0:0:
98,336,177702,1,0,2:0:0:0:
98,336,177841,1,0,2:0:0:0:
163,305,177980,6,0,P|185:237|174:166,1,144
134,107,178396,2,0,L|58:113,2,72,0|8|0,2:0|3:0|2:0,0:0:0:0:
165,42,178813,1,0,2:0:0:0:
165,42,178952,1,0,2:0:0:0:
206,101,179091,6,0,P|273:123|344:112,1,144,0|0,0:0|2:0,0:0:0:0:
407,79,179507,2,0,L|400:3,2,72,0|8|0,2:0|3:0|2:0,0:0:0:0:
469,117,179924,1,0,2:0:0:0:
469,117,180063,1,0,2:0:0:0:
406,152,180202,6,0,L|393:296,1,144
393,296,180757,1,8,0:0:0:0:
276,59,181174,1,0,2:0:0:0:
276,59,181313,6,0,P|355:69|415:46,1,144,0|0,0:0|2:0,0:0:0:0:
479,79,181729,2,0,L|485:154,2,72,0|8|0,2:0|3:0|2:0,0:0:0:0:
414,48,182146,1,0,2:0:0:0:
414,48,182285,1,0,2:0:0:0:
349,79,182424,6,0,P|326:146|337:217,1,144
378,277,182840,2,0,L|453:270,2,72,0|8|0,2:0|3:0|2:0,0:0:0:0:
347,342,183257,1,0,2:0:0:0:
347,342,183396,1,0,2:0:0:0:
306,283,183535,6,0,P|238:260|167:271,1,144,4|0,0:2|2:0,0:0:0:0:
105,305,183951,2,8,L|111:380,2,72
43,267,184368,1,2,2:3:0:0:
43,267,184507,1,0,2:0:0:0:
106,232,184646,6,0,L|138:46,1,180,2|10,0:0|0:0,0:0:0:0:
223,23,185064,1,8,0:0:0:0:
307,55,185203,1,8,0:0:0:0:
307,144,185341,1,8,0:0:0:0:
391,176,185480,1,8,0:0:0:0:
475,144,185619,1,8,0:0:0:0:
223,176,185758,5,4,0:2:0:0:
256,192,187980,1,12,0:2:0:0:
256,192,188397,1,12,0:2:0:0:
256,192,188814,1,12,0:2:0:0:
127,350,189369,6,0,B|136:313|136:313|119:245|119:245|127:210,2,144,0|0|0,2:0|2:0|2:0,2:0:0:0:
256,45,190203,6,0,B|312:39|363:56|363:56|405:89,1,161.999995056153,4|0,0:2|2:0,0:0:0:0:
438,164,190481,2,0,B|382:158|332:175|332:175|289:208,1,161.999995056153,8|0,0:0|2:0,0:0:0:0:
231,267,190758,2,0,P|209:221|220:163,1,107.999996704102,8|0,0:0|0:0,0:0:0:0:
333,366,191036,1,8,0:0:0:0:
173,326,191175,1,0,2:0:0:0:
289,208,191314,6,0,P|258:95|175:97,1,215.999993408203,8|8,0:0|0:0,0:0:0:0:
157,246,191731,2,0,P|201:217|218:167,1,107.999996704102,8|0,0:0|2:0,0:0:0:0:
24,118,192147,2,0,B|77:133|77:133|131:128|186:89,1,161.999995056153,0|0,2:0|2:0,0:0:0:0:
441,104,192425,6,0,B|388:89|388:89|334:94|279:133,1,161.999995056153,4|0,0:2|2:0,0:0:0:0:
289,208,192703,2,0,B|343:222|343:222|386:254|413:316,1,161.999995056153,8|0,0:0|2:0,0:0:0:0:
347,359,192981,5,0,0:0:0:0:
289,208,193120,1,0,0:0:0:0:
124,359,193258,1,8,0:0:0:0:
275,301,193397,1,0,2:0:0:0:
170,184,193536,6,0,B|161:218|161:218|161:246|182:287,1,107.999996704102,0|0,0:0|2:0,0:0:0:0:
301,105,193814,2,0,B|310:139|310:139|310:167|289:208,1,107.999996704102,8|0,0:0|2:0,0:0:0:0:
158,81,194092,2,0,B|149:115|149:115|149:143|170:184,1,107.999996704102
313,2,194370,2,0,B|322:36|322:36|322:64|301:105,1,107.999996704102,8|0,0:0|2:0,0:0:0:0:
182,287,194647,6,0,L|286:314,1,107.999996704102,0|0,0:0|2:0,0:0:0:0:
423,194,194925,2,0,L|267:235,1,161.999995056153,8|0,0:0|2:0,0:0:0:0:
286,314,195203,2,0,L|390:287,1,107.999996704102
456,100,195481,6,0,L|299:142,1,161.999995056153,8|0,0:0|2:0,0:0:0:0:
223,168,195758,6,0,B|170:153|146:97|146:97|102:135|47:120,1,215.999993408203,0|8,3:0|3:0,3:0:0:0:
61,348,196175,2,0,P|95:307|104:255,1,107.999996704102,0|0,2:0|0:0,0:0:0:0:
46,120,196452,1,0,0:0:0:0:
163,339,196592,2,0,B|199:362|249:362|249:362|277:340|316:340,1,161.999995056153,8|0,0:0|2:0,0:0:0:0:
391,373,196870,6,0,B|448:382|488:333|488:333|491:283|437:233,2,215.999993408203,0|8|0,3:0|3:0|3:0,3:0:0:0:
306,259,197564,1,0,0:0:0:0:
434,159,197702,1,8,0:0:0:0:
283,98,197842,1,0,2:0:0:0:
232,226,197981,6,0,P|180:216|144:177,1,107.999996704102,0|0,0:0|2:0,0:0:0:0:
352,53,198258,2,0,P|358:130|296:179,1,161.999995056153,8|0,0:0|2:0,0:0:0:0:
306,259,198536,2,0,P|323:309|308:360,1,107.999996704102
145,278,198814,2,0,P|181:238|232:226,1,107.999996704102,8|0,0:0|2:0,0:0:0:0:
445,327,199092,6,0,B|493:351|493:351|523:266|490:193,1,215.999993408203,4|8,0:2|0:0,0:0:0:0:
401,57,199508,1,0,2:0:0:0:
305,180,199647,2,0,B|360:177|360:177|407:151,1,107.999996704102
218,139,199925,1,8,0:0:0:0:
306,275,200064,1,0,2:0:0:0:
296,87,200203,6,0,B|230:40|230:40|155:70,1,161.999995056153,0|0,0:0|2:0,0:0:0:0:
77,122,200481,2,0,B|143:169|143:169|219:138,1,161.999995056153,8|0,0:0|2:0,0:0:0:0:
296,87,200758,2,0,B|351:90|351:90|398:116,1,107.999996704102
306,275,201036,2,0,B|251:272|251:272|204:246,1,107.999996704102,8|0,0:0|2:0,0:0:0:0:
77,122,201314,6,0,B|58:96|13:96|13:96|-21:165|13:242,1,215.999993408203,0|8,0:3|0:0,0:0:0:0:
83,382,201731,1,0,2:0:0:0:
205,276,201870,2,0,P|256:259|306:275,1,107.999996704102
256,122,202147,1,8,0:0:0:0:
256,352,202286,1,0,2:0:0:0:
332,173,202425,6,0,P|349:122|333:71,1,107.999996704102
180,173,202703,2,0,P|164:122|180:71,1,107.999996704102,8|0,0:0|2:0,0:0:0:0:
256,225,202981,1,0,0:0:0:0:
409,122,203120,5,8,0:0:0:0:
450,137,203189,1,8,0:0:0:0:
481,166,203258,1,8,0:0:0:0:
498,205,203328,1,8,0:0:0:0:
498,248,203397,1,8,0:0:0:0:
482,288,203467,1,8,0:0:0:0:
453,318,203536,6,0,P|355:335|291:362,1,161.999995056153,4|0,0:2|2:0,0:0:0:0:
213,290,203814,2,0,P|289:318|369:331,1,161.999995056153,12|0,0:2|2:0,0:0:0:0:
313,225,204092,6,0,B|278:122|278:122|332:122,1,161.999995056153,4|0,0:2|2:0,0:0:0:0:
439,196,204370,2,0,B|493:196|493:196|458:93,1,161.999995056153,12|0,0:2|2:0,0:0:0:0:
343,15,204647,6,0,B|299:10|267:34|267:34|253:29|253:29|218:47|173:32,1,161.999995056153,4|0,0:2|2:0,0:0:0:0:
8,116,204925,2,0,B|53:111|85:135|85:135|99:130|99:130|134:148|163:138,1,161.999995056153,12|0,0:2|2:0,0:0:0:0:
350,246,205203,6,0,B|383:257|383:257|397:200|350:138,1,161.999995056153,4|0,0:2|2:0,0:0:0:0:
163,246,205481,2,0,B|116:307|130:364|130:364|163:353,1,161.999995056153,12|0,0:2|2:0,0:0:0:0:
256,300,205758,5,8,0:0:0:0:
163,138,205897,1,0,0:0:0:0:
350,138,206036,1,0,0:0:0:0:
163,246,206175,1,8,0:0:0:0:
256,84,206314,5,0,0:0:0:0:
350,246,206453,1,0,0:0:0:0:
256,41,206592,5,12,0:2:0:0:
119,138,206731,1,0,0:0:0:0:
298,323,206869,2,0,L|350:336,1,53.9999983520508,4|0,0:2|2:0,0:0:0:0:
457,316,207008,2,0,L|470:263,1,53.9999983520508,8|8,0:0|2:0,0:0:0:0:
506,137,207147,5,8,0:0:0:0:
486,99,207216,1,8,0:0:0:0:
450,77,207285,1,8,0:0:0:0:
407,77,207355,1,8,0:0:0:0:
371,99,207426,5,8,0:0:0:0:
342,130,207495,1,8,0:0:0:0:
301,141,207564,1,8,0:0:0:0:
260,129,207634,1,8,0:0:0:0:
231,98,207702,5,8,0:0:0:0:
195,76,207773,1,8,0:0:0:0:
152,76,207843,1,8,0:0:0:0:
116,98,207912,1,8,0:0:0:0:
96,136,207981,6,8,B|84:191|108:242|108:242|135:262|169:254,1,161.999995056153,4|8,0:2|2:0,0:0:0:0:
232,224,208258,2,8,B|287:212|338:236|338:236|358:263|350:297,1,161.999995056153,8|0,0:2|2:0,0:0:0:0:
324,363,208536,2,0,P|377:362|420:332,1,107.999996704102,0|0,3:0|0:0,0:0:0:0:
415,115,208814,2,0,P|362:115|319:145,1,107.999996704102,8|0,0:0|2:0,0:0:0:0:
194,356,209092,6,0,P|81:325|83:242,1,215.999993408203,0|8,0:0|0:0,0:0:0:0:
232,224,209509,2,0,P|203:268|153:285,1,107.999996704102,0|0,2:0|0:0,0:0:0:0:
59,165,209786,1,0,0:0:0:0:
305,259,209925,6,0,B|410:231|410:231|444:222|435:190,1,161.999995056153,8|0,0:0|2:0,0:0:0:0:
361,157,210203,2,0,B|257:184|257:184|223:193|232:225,1,161.999995056153,0|0,0:0|2:0,0:3:0:0:
305,259,210481,2,0,B|410:230|410:230|443:221|452:253,1,161.999995056153,8|0,0:0|2:0,0:3:0:0:
483,338,210758,5,0,0:0:0:0:
512,180,210897,1,0,0:0:0:0:
305,259,211035,1,8,3:0:0:0:
452,251,211174,1,0,3:0:0:0:
273,31,211314,6,0,B|232:-4|232:-4|260:100,1,161.999995056153,0|0,0:0|2:0,0:0:0:0:
409,88,211592,2,0,B|444:49|444:49|339:78,1,161.999995056153,8|0,0:0|2:0,0:0:0:0:
389,253,211870,2,0,P|392:200|362:156,1,107.999996704102
181,122,212147,2,0,B|128:133|128:133|74:123|74:123|42:125|13:147,1,161.999995056153,8|0,0:0|2:0,0:0:0:0:
3,214,212425,6,0,P|38:294|111:303,1,161.999995056153,0|0,0:0|2:0,0:0:0:0:
187,305,212703,2,0,P|263:287|289:214,1,161.999995056153,8|0,0:0|2:0,0:0:0:0:
269,135,212981,2,0,L|374:106,1,107.999996704102
209,226,213258,2,0,L|181:121,1,107.999996704102,8|0,0:0|2:0,0:0:0:0:
489,263,213536,6,0,B|433:278|389:240|389:240|365:296|312:311,1,215.999993408203,0|8,3:0|3:0,3:0:0:0:
112,254,213953,2,0,P|156:223|209:226,1,107.999996704102,0|0,2:0|0:0,0:0:0:0:
312,311,214230,1,0,0:0:0:0:
413,110,214370,2,0,B|356:95|312:133|312:133|306:102|274:79,1,161.999995056153,8|0,3:0|2:0,3:0:0:0:
232,150,214648,6,0,B|128:181|128:97|19:147,2,215.999993408203,0|8|0,0:0|0:0|0:0,3:0:0:0:
413,110,215342,1,0,0:0:0:0:
265,307,215481,1,8,0:0:0:0:
446,268,215620,1,0,2:0:0:0:
232,150,215758,6,0,B|180:163|180:163|136:195|136:195|75:211,1,161.999995056153,0|0,0:0|2:0,0:0:0:0:
40,279,216036,2,0,B|92:292|92:292|137:324|137:324|189:338,1,161.999995056153,8|0,0:0|2:0,0:0:0:0:
265,307,216314,2,0,P|296:263|293:210,1,107.999996704102
112,113,216592,2,0,P|81:157|84:210,1,107.999996704102,8|0,0:0|2:0,0:0:0:0:
293,211,216870,6,0,B|346:196|370:140|370:140|414:178|469:163,1,215.999993408203,4|8,0:2|3:0,3:0:0:0:
272,112,217286,1,0,2:0:0:0:
400,264,217425,2,0,P|409:316|387:364,1,107.999996704102
293,211,217703,1,8,0:0:0:0:
236,331,217842,1,0,2:0:0:0:
133,207,217981,6,0,B|134:151|134:151|157:103,1,107.999996704102,0|0,0:0|2:0,0:0:0:0:
236,331,218258,2,0,B|181:330|181:330|133:307,1,107.999996704102,8|0,0:0|2:0,0:0:0:0:
359,228,218536,2,0,B|359:283|359:283|336:331,1,107.999996704102
256,104,218814,2,0,B|312:104|312:104|360:127,1,107.999996704102,8|0,0:0|2:0,0:0:0:0:
179,304,219092,6,0,B|131:328|131:328|101:243|134:170,1,215.999993408203,4|8,0:2|0:0,0:0:0:0:
256,104,219508,1,0,0:0:0:0:
333,304,219647,2,0,P|386:299|433:265,1,107.999996704102
179,304,219925,1,8,0:0:0:0:
256,104,220064,1,0,0:0:0:0:
333,304,220203,5,8,0:0:0:0:
165,192,220342,1,0,0:0:0:0:
347,192,220481,1,8,0:0:0:0:
179,304,220620,1,0,0:0:0:0:
256,104,220758,6,0,P|157:115|92:137,1,161.999995056153,8|0,0:0|2:0,0:0:0:0:
98,244,221036,2,0,P|176:267|256:274,1,161.999995056153,4|0,0:0|2:0,0:0:0:0:
347,192,221314,5,4,0:2:0:0:
347,192,221869,1,8,0:0:0:0:
347,192,222147,1,8,0:0:0:0:
347,192,222425,1,8,0:0:0:0:
347,192,222703,1,8,0:0:0:0:
347,192,222980,1,8,0:0:0:0:
347,192,223258,1,8,0:0:0:0:
165,192,223536,5,12,0:2:0:0:
165,192,223953,1,12,0:2:0:0:
165,192,224369,1,8,0:2:0:0:
165,192,225758,5,4,0:2:0:0:
137,156,225897,1,0,2:0:0:0:
109,120,226036,1,8,0:0:0:0:
143,37,226175,2,0,P|197:39|232:50,1,90,0|8,0:0|0:0,0:0:0:0:
325,156,226452,1,0,2:0:0:0:
353,120,226591,1,8,0:0:0:0:
319,37,226730,6,0,P|265:39|230:50,1,90,4|0,2:0|2:0,0:0:0:0:
109,120,227008,1,0,2:0:0:0:
137,156,227147,1,8,0:0:0:0:
103,239,227286,1,0,2:0:0:0:
168,371,227425,1,8,0:3:0:0:
40,302,227564,1,0,2:0:0:0:
183,282,227702,1,8,0:0:0:0:
78,382,227841,1,0,2:0:0:0:
230,220,227980,5,12,0:2:0:0:
266,248,228119,1,0,2:0:0:0:
302,276,228258,1,8,0:0:0:0:
385,242,228397,2,0,P|383:188|372:153,1,90,0|8,0:0|0:0,0:0:0:0:
266,60,228674,1,0,2:0:0:0:
302,32,228813,1,12,0:2:0:0:
385,66,228952,6,0,P|383:120|372:155,1,90,0|0,2:0|0:0,0:0:0:0:
302,276,229230,1,0,2:0:0:0:
266,248,229369,1,8,0:0:0:0:
183,282,229508,1,0,2:0:0:0:
51,217,229647,1,8,0:3:0:0:
120,345,229786,1,0,2:0:0:0:
140,202,229924,1,8,0:0:0:0:
40,307,230063,1,0,2:0:0:0:
347,192,230202,5,12,0:2:0:0:
375,156,230341,1,0,2:0:0:0:
403,120,230480,1,8,0:0:0:0:
369,37,230619,2,0,P|315:39|280:50,1,90,0|8,0:0|0:0,0:0:0:0:
187,156,230896,1,0,2:0:0:0:
159,120,231035,1,8,0:0:0:0:
193,37,231174,6,0,P|247:39|282:50,1,90,4|0,2:0|0:0,0:0:0:0:
403,120,231452,1,0,2:0:0:0:
375,156,231591,1,8,0:0:0:0:
409,239,231730,1,0,2:0:0:0:
344,371,231869,1,8,0:3:0:0:
472,302,232008,1,0,2:0:0:0:
329,282,232146,1,8,0:0:0:0:
434,382,232285,1,0,2:0:0:0:
282,220,232424,5,12,0:2:0:0:
246,248,232563,1,0,2:0:0:0:
210,276,232702,1,8,0:0:0:0:
127,242,232841,2,0,P|129:188|140:153,1,90,0|8,0:0|0:0,0:0:0:0:
246,60,233118,1,0,2:0:0:0:
210,32,233257,1,8,0:0:0:0:
127,66,233396,6,0,P|129:120|140:155,1,90,4|0,2:0|0:0,0:0:0:0:
210,276,233674,1,8,0:0:0:0:
246,248,233813,1,2,0:0:0:0:
392,345,233952,1,0,2:0:0:0:
461,217,234091,1,8,0:0:0:0:
329,282,234230,1,8,0:0:0:0:
472,307,234369,1,8,0:0:0:0:
372,202,234508,1,8,2:0:0:0:
255,334,234647,6,0,B|174:297|174:297|248:244,1,180,4|0,0:2|0:0,0:0:0:0:
257,50,235064,2,0,B|338:87|338:87|264:140,1,180,8|0,0:2|0:0,0:0:0:0:
56,105,235480,6,0,P|5:131|80:144,1,180,12|0,0:2|0:0,0:0:0:0:
264,140,235897,2,0,P|315:166|240:178,1,180,8|0,0:2|0:0,0:0:0:0:
455,105,236314,1,8,0:0:0:0:
455,105,236591,1,12,0:0:0:0:
496,244,236730,1,8,0:0:0:0:
255,50,236869,6,0,B|174:87|174:87|248:140,1,180,4|0,0:2|0:0,0:0:0:0:
257,334,237286,2,0,B|338:297|338:297|264:244,1,180,8|0,0:2|0:0,0:0:0:0:
56,278,237702,6,0,P|5:252|80:240,1,180,12|0,0:2|0:0,0:0:0:0:
264,244,238119,1,8,0:0:0:0:
378,156,238258,1,2,0:0:0:0:
455,278,238397,1,8,0:0:0:0:
455,278,238466,1,8,0:0:0:0:
455,278,238536,1,8,0:0:0:0:
510,208,238675,1,4,0:0:0:0:
464,131,238814,1,4,0:0:0:0:
418,54,238953,1,4,0:0:0:0:
255,334,239091,6,0,B|174:297|174:297|248:244,1,180,4|0,0:2|0:0,0:0:0:0:
257,50,239508,2,0,B|338:87|338:87|264:140,1,180,8|0,0:2|0:0,0:0:0:0:
56,105,239924,6,0,P|5:131|80:144,1,180,12|0,0:2|0:0,0:0:0:0:
264,140,240341,2,0,P|315:166|240:178,1,180,8|0,0:2|0:0,0:0:0:0:
455,105,240758,1,8,0:0:0:0:
488,190,240897,1,0,0:0:0:0:
421,318,241036,2,0,P|362:294|285:294,1,135,4|0,0:0|2:0,0:0:0:0:
207,327,241314,6,0,P|164:336|119:327,1,90,8|0,0:0|2:0,0:0:0:0:
207,327,241730,6,0,P|164:336|90:311,1,116.999994644165,8|0,0:0|2:0,0:0:0:0:
207,327,242147,6,0,P|164:336|60:277,1,144,8|0,0:0|2:0,0:0:0:0:
