osu file format v14

[General]
AudioFilename: Parabola.mp3
AudioLeadIn: 0
PreviewTime: 47041
Countdown: 0
SampleSet: Drum
StackLeniency: 0.4
Mode: 0
LetterboxInBreaks: 0
WidescreenStoryboard: 0

[Editor]
DistanceSpacing: 1.6
BeatDivisor: 4
GridSize: 8
TimelineZoom: 1.6

[Metadata]
Title:Songs Compilation
TitleUnicode:Songs Compilation
Artist:Luck Life
ArtistUnicode:ラックライフ
Creator:Yahuri
Version:Parabola (Eternal Suffering)
Source:
Tags:atsushi nakajima dazai osamu bungou bungo stray dogs ブレイバー ラブリープリティーミュージック モーメント
BeatmapID:1344804
BeatmapSetID:620363

[Difficulty]
HPDrainRate:6
CircleSize:4
OverallDifficulty:8
ApproachRate:9
SliderMultiplier:1.6
SliderTickRate:1

[Events]
//Background and Video events
0,0,"Parabola.png",0,0
//Break Periods
//Storyboard Layer 0 (Background)
//Storyboard Layer 1 (Fail)
//Storyboard Layer 2 (Pass)
//Storyboard Layer 3 (Foreground)
//Storyboard Layer 4 (Overlay)
//Storyboard Sound Samples

[TimingPoints]
2000,342.857142857143,4,3,1,80,1,0
12800,-133.333333333333,4,3,1,50,0,0
13828,-100,4,3,1,60,0,0
25228,-100,4,3,1,5,0,0
25314,-100,4,3,1,70,0,0
36285,-100,4,3,1,80,0,0
47257,-90.9090909090909,4,3,1,90,0,1
66457,-100,4,3,1,80,0,0
77428,-100,4,3,1,60,0,0
88228,-100,4,3,1,70,0,0
110342,-100,4,3,1,80,0,0
124057,-100,4,3,1,90,0,1
147371,-100,4,3,1,80,0,0

[Colours]
Combo1 : 92,170,248
Combo2 : 209,211,171
Combo3 : 92,248,248
Combo4 : 207,184,112

[HitObjects]
256,238,3200,6,0,L|256:70,1,160,4|0,0:2|0:0,0:0:0:0:
415,127,3714,2,0,P|377:138|339:126,1,80,8|0,0:0|2:0,0:0:0:0:
256,78,4057,1,0,0:0:0:0:
256,174,4228,1,0,0:0:0:0:
340,30,4400,1,8,0:0:0:0:
172,126,4571,6,0,L|172:294,1,160,4|0,0:0|0:0,0:0:0:0:
314,258,5085,2,0,P|255:240|200:256,1,120,8|0,0:3|2:0,0:3:0:0:
172,286,5428,1,0,0:0:0:0:
256,335,5600,1,0,0:3:0:0:
256,160,5771,2,0,L|256:74,1,80,8|0,0:0|2:0,0:0:0:0:
71,186,6114,5,4,0:0:0:0:
77,281,6285,1,0,2:0:0:0:
163,133,6457,1,8,0:0:0:0:
157,228,6628,1,0,2:0:0:0:
256,80,6800,2,0,L|262:159,1,80
157,38,7142,1,8,0:0:0:0:
347,27,7314,6,0,L|433:27,1,80,4|0,0:0|2:0,0:0:0:0:
359,217,7657,2,0,L|439:217,1,80,0|8,0:0|0:0,0:0:0:0:
353,122,8000,2,0,L|439:122,1,80,0|0,2:0|0:0,0:0:0:0:
365,312,8342,2,0,L|445:312,1,80,0|8,0:0|0:0,0:0:0:0:
255,118,8685,5,0,2:0:0:0:
255,118,8857,2,0,L|255:37,1,80,4|0,0:0|2:0,0:0:0:0:
172,141,9200,2,0,L|172:60,1,80,8|0,0:0|2:0,0:0:0:0:
92,141,9542,1,0,0:0:0:0:
172,238,9714,1,0,0:0:0:0:
256,94,9885,1,8,0:0:0:0:
340,258,10057,6,0,L|340:90,1,160,4|0,0:0|0:0,0:0:0:0:
198,126,10571,2,0,P|257:144|312:128,1,120,8|0,0:3|2:0,0:3:0:0:
340,98,10914,1,0,0:0:0:0:
256,49,11085,1,0,0:3:0:0:
256,224,11257,2,0,L|256:310,1,80,8|0,0:0|2:0,0:0:0:0:
441,198,11600,5,4,0:0:0:0:
435,103,11771,1,0,2:0:0:0:
349,251,11942,1,8,0:0:0:0:
355,156,12114,1,0,2:0:0:0:
256,304,12285,2,0,L|249:224,1,80
355,346,12628,1,8,0:0:0:0:
165,357,12800,6,0,L|103:357,1,60.0000022888184,2|0,0:0|2:0,2:0:0:0:
79,262,13142,2,0,L|153:262,1,60.0000022888184,0|0,2:0|2:0,2:0:0:0:
153,167,13485,2,0,L|77:167,1,60.0000022888184,0|0,2:0|2:0,2:0:0:0:
67,72,13828,1,0,0:0:0:0:
244,114,14000,2,0,L|330:114,1,80,8|0,0:0|2:0,0:0:0:0:
298,353,14342,6,0,P|268:279|284:202,1,160,4|8,0:2|0:0,0:0:0:0:
324,114,14857,1,0,2:0:0:0:
381,191,15028,2,0,L|460:197,1,80,0|0,2:0|2:0,2:0:0:0:
284,203,15371,1,8,0:0:0:0:
461,197,15542,6,0,P|477:274|447:347,1,160,0|0,0:0|2:0,0:0:0:0:
284,203,16057,2,0,L|298:40,1,160,8|0,0:0|2:0,0:0:0:0:
392,65,16571,1,0,2:0:0:0:
284,203,16742,2,0,P|244:208|205:195,1,80,8|0,0:0|2:0,0:0:0:0:
375,172,17085,6,0,P|380:211|368:248,1,80,0|0,0:0|2:0,0:0:0:0:
221,346,17428,2,0,P|191:272|208:195,1,160,8|0,0:0|2:0,0:0:0:0:
302,190,17942,1,0,2:0:0:0:
221,346,18114,1,8,0:0:0:0:
112,172,18285,6,0,L|33:166,1,80,0|0,0:0|2:0,2:0:0:0:
79,80,18628,1,0,2:0:0:0:
208,196,18800,1,8,0:0:0:0:
138,264,18971,2,0,L|59:258,1,80,0|0,2:0|2:0,2:0:0:0:
112,172,19314,1,0,2:0:0:0:
194,346,19485,2,0,P|229:364|270:365,1,80,8|0,0:3|2:0,0:0:0:0:
208,196,19828,6,0,P|178:269|194:347,1,160,0|8,0:0|0:0,0:0:0:0:
288,336,20342,2,0,L|377:328,2,80,0|0|0,2:0|2:0|2:0,2:0:0:0:
207,196,20857,1,8,0:0:0:0:
367,329,21028,6,0,L|456:336,2,80,0|0|0,2:0|2:0|2:0,2:0:0:0:
286,189,21542,1,8,0:0:0:0:
372,232,21714,2,0,L|461:224,2,80,0|0|0,2:0|2:0|2:0,2:0:0:0:
291,92,22228,2,0,P|251:98|219:120,1,80,8|0,0:0|2:0,0:0:0:0:
164,245,22571,5,4,0:0:0:0:
170,340,22742,1,0,2:0:0:0:
256,192,22914,1,8,0:0:0:0:
250,287,23085,1,0,2:0:0:0:
349,139,23257,1,4,0:0:0:0:
361,313,23428,1,12,0:0:0:0:
357,273,23514,1,12,0:0:0:0:
354,233,23600,1,12,0:0:0:0:
256,48,23771,5,6,0:0:0:0:
131,264,24114,1,6,0:0:0:0:
380,264,24457,1,6,0:0:0:0:
380,264,24800,1,0,0:3:0:0:
256,192,24971,2,0,P|247:132|256:73,1,120,8|0,0:0|2:0,0:0:0:0:
335,20,25314,5,4,0:2:0:0:
343,115,25485,1,0,2:0:0:0:
509,102,25657,1,8,0:0:0:0:
422,61,25828,1,0,2:0:0:0:
429,156,26000,1,0,0:0:0:0:
350,211,26171,1,0,2:0:0:0:
256,74,26342,1,8,0:0:0:0:
183,230,26514,6,0,P|146:234|110:256,1,80,0|4,2:0|0:0,0:0:0:0:
271,266,26857,1,0,2:0:0:0:
176,134,27028,1,8,0:0:0:0:
256,74,27200,2,0,P|293:78|328:100,1,80,0|0,2:0|0:0,0:0:0:0:
170,34,27542,2,0,P|133:38|97:60,1,80,0|8,2:0|0:0,0:0:0:0:
263,169,27885,1,0,2:0:0:0:
183,230,28057,5,4,0:0:0:0:
350,211,28228,1,0,2:0:0:0:
273,343,28400,2,0,P|263:307|271:265,1,80,8|0,0:0|2:0,0:0:0:0:
350,211,28742,2,0,P|359:175|351:133,1,80,0|0,0:0|2:0,0:0:0:0:
176,134,29085,1,8,0:0:0:0:
256,74,29257,1,0,2:0:0:0:
272,266,29428,6,0,P|288:299|289:341,1,80,4|0,0:0|2:0,0:0:0:0:
104,285,29771,1,8,0:0:0:0:
183,230,29942,2,0,P|199:263|200:305,1,80,0|0,2:0|0:0,0:0:0:0:
80,114,30285,2,0,P|80:153|97:190,1,80,0|8,2:0|0:0,0:0:0:0:
176,134,30628,1,2,0:0:0:0:
350,211,30800,5,4,0:0:0:0:
272,266,30971,1,0,2:0:0:0:
256,74,31142,1,8,0:0:0:0:
343,115,31314,1,0,2:0:0:0:
183,230,31485,1,0,0:0:0:0:
176,134,31657,1,0,2:0:0:0:
350,211,31828,1,8,0:0:0:0:
272,266,32000,1,0,2:0:0:0:
256,74,32171,6,0,P|278:42|313:22,1,80,4|0,3:0|2:0,0:0:0:0:
408,160,32514,2,0,P|385:191|350:211,1,80,8|0,3:0|2:0,0:0:0:0:
265,171,32857,1,0,0:0:0:0:
279,346,33028,2,0,L|272:266,1,80,0|8,2:0|0:0,0:0:0:0:
176,134,33371,1,0,2:0:0:0:
176,310,33542,6,0,L|183:230,1,80,4|0,0:0|2:0,0:0:0:0:
336,310,33885,2,0,L|328:230,1,80,8|0,0:0|2:0,0:0:0:0:
343,54,34228,2,0,L|336:134,1,80,0|0,0:0|2:0,0:0:0:0:
169,54,34571,1,0,0:0:0:0:
256,335,34742,1,10,0:0:0:0:
256,335,35085,5,0,2:0:0:0:
256,319,35257,1,0,2:0:0:0:
256,295,35428,1,0,2:0:0:0:
256,263,35600,1,0,2:0:0:0:
256,223,35771,1,4,0:0:0:0:
256,175,35942,1,4,0:0:0:0:
256,127,36114,1,4,0:0:0:0:
103,97,36285,6,0,B|182:83|182:83|221:98,1,120,4|0,0:2|2:0,0:0:0:0:
256,127,36628,2,0,B|335:141|335:141|374:126,1,120,0|0,0:0|2:0,0:0:0:0:
409,156,36971,2,0,P|418:216|409:275,1,120,0|0,0:0|2:0,0:0:0:0:
372,305,37314,2,0,P|312:296|253:305,1,120,0|0,0:0|2:0,0:0:0:0:
163,337,37657,6,0,B|149:258|149:258|164:219,1,120,4|0,0:0|2:0,0:0:0:0:
193,184,38000,2,0,B|207:105|207:105|192:66,1,120,0|0,0:0|2:0,0:0:0:0:
172,25,38342,1,0,0:0:0:0:
407,76,38514,2,0,L|488:76,1,80,12|0,0:2|0:0,0:0:0:0:
273,184,38857,6,0,L|192:184,1,80,12|0,0:2|0:0,0:0:0:0:
233,272,39200,2,0,L|152:272,1,80,0|0,2:0|0:0,0:0:0:0:
193,360,39542,2,0,L|112:360,1,80,0|0,2:0|0:0,0:0:0:0:
58,281,39885,1,0,2:0:0:0:
98,193,40057,1,0,0:0:0:0:
43,114,40228,1,0,2:0:0:0:
153,272,40400,5,4,0:0:0:0:
193,184,40571,1,0,2:0:0:0:
345,252,40742,1,0,0:0:0:0:
289,174,40914,1,0,2:0:0:0:
209,350,41085,1,0,0:0:0:0:
233,96,41257,2,0,L|233:15,1,80,12|0,0:2|0:0,0:0:0:0:
98,193,41600,6,0,L|98:274,1,80,12|0,0:2|0:0,0:0:0:0:
186,233,41942,2,0,L|186:314,1,80,0|0,2:0|0:0,0:0:0:0:
274,273,42285,2,0,L|274:354,1,80,0|0,2:0|0:0,0:0:0:0:
362,315,42628,1,0,2:0:0:0:
353,219,42800,1,0,0:0:0:0:
274,273,42971,1,0,2:0:0:0:
98,193,43142,6,0,L|17:193,1,80,4|0,0:0|2:0,0:0:0:0:
181,145,43485,1,0,0:0:0:0:
181,241,43657,1,0,2:0:0:0:
264,97,43828,1,0,0:0:0:0:
404,293,44000,2,0,L|485:293,1,80,12|0,0:2|0:0,0:0:0:0:
181,65,44342,6,0,L|181:146,1,80,12|0,0:2|0:0,0:0:0:0:
331,145,44685,2,0,L|331:65,1,80,0|0,2:0|0:0,0:0:0:0:
28,293,45028,2,0,L|108:293,1,80,12|0,0:2|0:0,0:0:0:0:
182,231,45371,1,0,0:0:0:0:
256,293,45542,1,0,0:0:0:0:
256,21,45714,1,12,0:2:0:0:
94,139,45885,5,4,0:0:0:0:
355,329,46057,1,8,0:0:0:0:
256,21,46228,1,8,0:0:0:0:
156,329,46400,1,8,0:0:0:0:
417,139,46571,1,8,0:0:0:0:
94,139,46742,1,10,0:0:0:0:
94,139,47257,6,0,L|116:224,1,88.000002685547,4|0,0:2|2:0,0:0:0:0:
256,297,47600,2,0,L|256:209,1,88.000002685547,8|0,0:2|2:0,0:0:0:0:
418,139,47942,2,0,L|395:224,1,88.000002685547,0|0,0:3|2:3,0:3:0:0:
303,92,48285,1,8,0:0:0:0:
256,297,48457,6,0,B|243:351|212:370|212:370|181:351|167:296,1,176.000005371094,4|0,0:0|0:0,0:0:0:0:
215,126,48971,1,8,0:0:0:0:
135,195,49142,1,0,2:0:0:0:
256,297,49314,1,0,0:0:0:0:
336,228,49485,1,0,0:0:0:0:
215,126,49657,2,0,P|203:84|215:42,1,88.000002685547,8|0,0:0|2:0,0:0:0:0:
411,152,50000,5,0,3:0:0:0:
439,49,50171,1,0,2:0:0:0:
336,228,50342,1,8,3:0:0:0:
308,125,50513,1,0,2:0:0:0:
234,283,50685,2,0,P|221:241|233:199,1,88.000002685547
411,152,51028,1,8,0:0:0:0:
205,98,51200,6,0,B|155:70|145:35|145:35|171:10|227:11,1,176.000005371094,4|0,0:0|0:0,0:0:0:0:
308,125,51714,1,8,0:0:0:0:
233,199,51885,2,0,L|139:199,1,88.000002685547,0|0,2:0|0:0,0:0:0:0:
69,125,52228,1,0,0:0:0:0:
204,14,52400,2,0,P|216:56|205:98,1,88.000002685547,8|0,0:0|2:0,0:0:0:0:
44,231,52742,5,4,0:0:0:0:
44,337,52914,1,0,2:0:0:0:
207,284,53085,1,8,0:0:0:0:
145,370,53257,1,0,2:0:0:0:
145,199,53428,2,0,L|145:111,1,88.000002685547
258,26,53771,1,8,0:0:0:0:
342,266,53942,6,0,B|396:253|415:222|415:222|396:191|341:177,1,176.000005371094,4|0,0:0|0:0,0:0:0:0:
153,278,54457,1,8,0:0:0:0:
221,101,54628,1,0,2:0:0:0:
242,343,54800,1,0,0:0:0:0:
316,192,54971,1,0,0:0:0:0:
225,244,55142,1,8,0:0:0:0:
225,139,55314,1,0,0:0:0:0:
316,297,55485,5,4,0:0:0:0:
134,192,55657,1,0,0:0:0:0:
316,86,55828,1,8,0:0:0:0:
316,192,56000,1,0,2:0:0:0:
225,139,56171,2,0,P|213:97|224:55,1,88.000002685547,0|0,0:0|2:0,0:0:0:0:
316,192,56514,1,8,0:0:0:0:
138,67,56685,6,0,B|90:38|55:46|55:46|46:81|75:130,1,176.000005371094,4|0,0:0|0:0,0:0:0:0:
215,225,57200,1,8,0:0:0:0:
285,58,57371,1,0,0:0:0:0:
316,192,57542,1,2,0:0:0:0:
133,179,57714,1,8,0:0:0:0:
112,217,57800,1,8,0:0:0:0:
109,261,57885,1,8,0:0:0:0:
124,302,57971,1,8,0:0:0:0:
154,333,58057,1,8,0:0:0:0:
194,350,58142,1,8,0:0:0:0:
238,349,58228,6,0,B|292:335|311:305|311:305|293:274|238:259,1,176.000005371094,4|8,2:0|0:0,0:0:0:0:
132,215,58742,1,0,0:0:0:0:
217,138,58914,2,0,P|259:126|301:137,1,88.000002685547
173,302,59257,1,8,0:0:0:0:
132,215,59428,1,0,2:0:0:0:
260,260,59600,5,4,0:0:0:0:
254,365,59771,1,0,2:0:0:0:
217,138,59942,2,0,P|205:96|217:54,1,88.000002685547,8|0,0:0|2:0,0:0:0:0:
323,11,60285,1,0,0:0:0:0:
376,112,60457,1,0,0:0:0:0:
257,227,60628,1,8,0:0:0:0:
152,208,60800,1,0,2:0:0:0:
323,11,60971,6,0,B|378:25|396:56|396:56|377:86|323:100,2,176.000005371094,4|8|0,0:0|0:0|0:0,0:0:0:0:
218,58,61828,1,0,0:0:0:0:
287,186,62000,1,8,0:0:0:0:
392,184,62171,1,0,2:0:0:0:
199,147,62342,5,4,0:0:0:0:
200,252,62514,1,0,2:0:0:0:
393,278,62685,1,8,0:0:0:0:
199,147,62857,2,0,P|157:159|115:148,1,88.000002685547,0|0,2:0|0:0,0:0:0:0:
157,51,63200,1,0,0:0:0:0:
295,172,63371,1,8,0:0:0:0:
384,24,63542,1,0,2:0:0:0:
311,271,63714,6,0,B|283:320|248:330|248:330|223:304|224:247,1,176.000005371094,4|8,0:0|0:0,0:0:0:0:
242,134,64228,1,0,2:0:0:0:
140,186,64400,2,0,P|128:144|139:102,1,88.000002685547,0|0,2:0|0:0,0:0:0:0:
337,155,64742,1,8,0:0:0:0:
110,289,64914,1,0,2:0:0:0:
140,186,65085,6,0,P|161:148|199:127,1,88.000002685547,4|0,0:0|2:0,0:0:0:0:
333,248,65428,1,8,0:0:0:0:
262,326,65600,1,0,2:0:0:0:
199,126,65771,2,0,P|241:114|283:125,1,88.000002685547
139,269,66114,2,0,P|127:227|139:185,1,88.000002685547,8|0,0:0|2:0,0:0:0:0:
378,338,66457,6,0,P|432:305|450:253,1,120,4|0,0:2|2:0,0:0:0:0:
484,214,66800,2,0,P|466:153|456:139,1,80,0|0,0:0|2:0,0:0:0:0:
381,155,67142,2,0,P|319:169|269:145,1,120,8|0,0:0|2:0,0:0:0:0:
218,142,67485,1,0,0:0:0:0:
335,32,67657,1,4,0:0:0:0:
381,155,67828,5,0,0:0:0:0:
509,58,68000,1,4,0:0:0:0:
429,279,68171,2,0,P|393:296|353:298,1,80,4|0,0:0|2:0,0:0:0:0:
83,279,68514,2,0,P|118:296|158:298,1,80,8|0,0:0|2:0,0:0:0:0:
429,279,68857,1,4,0:0:0:0:
256,192,69028,1,8,0:0:0:0:
256,152,69114,1,8,0:0:0:0:
256,112,69200,6,0,P|223:58|171:40,1,120,4|0,0:2|2:0,0:0:0:0:
135,77,69542,2,0,P|100:94|60:96,1,80,0|0,0:0|2:0,0:0:0:0:
30,196,69885,2,0,P|48:257|94:288,1,120,8|0,0:0|2:0,0:0:0:0:
139,309,70228,1,0,0:0:0:0:
261,221,70400,1,0,0:0:0:0:
361,310,70571,5,0,0:0:0:0:
447,184,70742,1,0,0:0:0:0:
361,124,70914,2,0,P|344:89|342:49,1,80,0|0,0:0|2:0,0:0:0:0:
239,70,71257,2,0,L|81:103,1,160,8|0,0:0|0:0,0:0:0:0:
39,197,71771,1,8,0:0:0:0:
74,235,71857,1,8,0:0:0:0:
109,271,71942,6,0,P|170:286|220:262,1,120,4|0,0:2|2:0,0:0:0:0:
261,232,72285,2,0,P|300:233|336:250,1,80,0|0,0:0|2:0,0:0:0:0:
309,149,72628,2,0,P|294:87|318:37,1,120,8|0,0:0|2:0,0:0:0:0:
362,12,72971,1,0,0:0:0:0:
450,65,73142,1,0,0:0:0:0:
405,159,73314,5,0,0:0:0:0:
228,60,73485,1,0,0:0:0:0:
215,163,73657,2,0,L|212:278,1,80
117,93,74000,2,0,L|107:254,1,160,8|0,0:0|0:0,0:0:0:0:
212,242,74514,1,8,0:0:0:0:
247,204,74600,1,8,0:0:0:0:
282,168,74685,6,0,P|343:153|393:177,1,120,4|0,0:2|2:0,0:0:0:0:
390,228,75028,2,0,P|391:267|408:303,1,80,0|0,0:0|2:0,0:0:0:0:
506,267,75371,2,0,P|505:228|488:192,1,80,8|0,0:0|2:0,0:0:0:0:
437,109,75714,1,0,0:0:0:0:
255,213,75885,5,4,0:2:0:0:
196,136,76057,1,0,0:0:0:0:
355,329,76228,1,8,0:0:0:0:
256,21,76400,1,8,0:0:0:0:
156,329,76571,1,8,0:0:0:0:
417,139,76742,1,8,0:0:0:0:
94,139,76914,1,8,0:0:0:0:
355,329,77085,1,8,0:0:0:0:
256,21,77257,1,8,0:0:0:0:
256,352,77428,5,4,0:2:0:0:
