osu file format v14

[General]
AudioFilename: moment.mp3
AudioLeadIn: 0
PreviewTime: 60592
Countdown: 0
SampleSet: Drum
StackLeniency: 0.2
Mode: 0
LetterboxInBreaks: 0
WidescreenStoryboard: 0

[Editor]
DistanceSpacing: 0.4
BeatDivisor: 6
GridSize: 8
TimelineZoom: 1

[Metadata]
Title:Songs Compilation
TitleUnicode:Songs Compilation
Artist:Luck Life
ArtistUnicode:ラックライフ
Creator:Yahuri
Version:Moment (Instant)
Source:
Tags:atsushi nakajima dazai osamu bungou bungo stray dogs ブレイバー ラブリープリティーミュージック モーメント
BeatmapID:1332674
BeatmapSetID:620363

[Difficulty]
HPDrainRate:6
CircleSize:4
OverallDifficulty:7
ApproachRate:8
SliderMultiplier:2
SliderTickRate:1

[Events]
//Background and Video events
0,0,"moment.jpg",0,0
//Break Periods
//Storyboard Layer 0 (Background)
//Storyboard Layer 1 (Fail)
//Storyboard Layer 2 (Pass)
//Storyboard Layer 3 (Foreground)
//Storyboard Layer 4 (Overlay)
//Storyboard Sound Samples

[TimingPoints]
797,659.340659340659,4,3,2,50,1,0
60323,659.340659340659,4,3,2,50,1,0
61456,659.340659340659,4,3,2,50,1,0
61456,-83.3333333333333,4,3,2,70,0,1
82445,-83.3333333333333,4,3,2,70,0,0
82555,-83.3333333333333,4,3,2,70,0,1
104972,-100,4,3,2,70,0,0
111566,-100,4,3,2,50,0,0
143214,-83.3333333333333,4,3,2,70,0,1
165632,-100,4,3,2,70,0,0
166950,-100,4,3,2,60,0,0
188049,-83.3333333333333,4,3,2,70,0,1
209038,-83.3333333333333,4,3,2,70,0,0
209148,-83.3333333333333,4,3,2,70,0,1
232884,-100,4,3,2,60,0,0

[Colours]
Combo1 : 159,112,207
Combo2 : 207,112,207
Combo3 : 100,159,219
Combo4 : 120,199,120

[HitObjects]
281,218,797,6,0,L|147:218,1,133.333333333333,4|0,0:2|0:0,0:0:0:0:
60,169,1456,1,8,0:0:0:0:
88,299,1895,1,0,0:0:0:0:
88,299,2115,2,0,L|221:299,1,133.333333333333
281,218,2775,1,8,0:0:0:0:
430,351,3434,6,0,L|430:217,1,133.333333333333,4|0,0:0|0:0,0:0:0:0:
465,124,4093,1,8,0:0:0:0:
340,171,4533,1,0,0:0:0:0:
340,171,4753,2,0,L|340:304,1,133.333333333333,4|0,0:0|0:0,0:0:0:0:
256,359,5412,1,8,0:0:0:0:
256,159,6071,6,0,P|191:142|128:159,1,133.333333333333,4|0,0:2|0:0,0:0:0:0:
79,246,6731,1,8,0:0:0:0:
179,246,6950,1,4,0:0:0:0:
129,159,7170,1,4,0:0:0:0:
29,333,7390,6,0,P|66:346|131:332,1,100,4|0,0:2|0:0,0:0:0:0:
124,335,7829,1,4,0:0:0:0:
79,246,8049,1,8,0:0:0:0:
129,159,8269,1,4,0:0:0:0:
179,246,8489,1,4,0:0:0:0:
79,72,8709,5,4,0:2:0:0:
179,246,9148,1,8,3:0:0:0:
288,177,9368,1,8,3:0:0:0:
238,295,9588,1,8,3:0:0:0:
208,170,9807,1,8,3:0:0:0:
306,254,10027,5,8,0:0:0:0:
306,254,10137,1,8,0:0:0:0:
342,116,10357,1,8,3:0:0:0:
342,116,10467,1,8,3:0:0:0:
208,170,10687,1,8,0:0:0:0:
51,115,10906,1,4,0:2:0:0:
177,6,11126,1,4,0:2:0:0:
208,170,11346,6,0,L|208:238,2,66.6666666666667,4|0|0,0:2|2:0|2:0,0:0:0:0:
100,204,12005,2,0,L|100:272,1,66.6666666666667,8|0,0:0|2:0,0:0:0:0:
135,342,12445,1,0,0:0:0:0:
208,310,12665,2,0,L|274:310,1,66.6666666666667,0|0,0:0|2:0,0:0:0:0:
274,310,13104,1,0,0:0:0:0:
382,278,13324,2,0,L|448:278,2,66.6666666666667,8|0|0,0:0|2:0|2:0,0:0:0:0:
351,204,13983,6,0,L|351:137,2,66.6666666666667,0|0|0,0:0|2:0|2:0,0:0:0:0:
258,137,14643,2,0,L|258:70,1,66.6666666666667,8|0,0:0|2:0,0:0:0:0:
219,0,15082,1,0,0:0:0:0:
180,70,15302,2,0,L|180:136,1,66.6666666666667,0|0,0:0|2:0,0:0:0:0:
107,170,15742,1,0,0:0:0:0:
148,274,15961,2,0,L|148:340,2,66.6666666666667,8|0|0,0:0|2:0|2:0,0:0:0:0:
221,241,16621,6,0,L|288:241,2,66.6666666666667,0|0|0,0:0|2:0|2:0,0:0:0:0:
256,133,17280,2,0,L|322:133,1,66.6666666666667,8|0,0:0|2:0,0:0:0:0:
322,133,17720,1,0,0:0:0:0:
388,88,17939,2,0,L|388:22,1,66.6666666666667,0|0,0:0|2:0,0:0:0:0:
388,21,18379,1,0,0:0:0:0:
479,88,18599,2,0,L|479:22,2,66.6666666666667,8|0|0,0:0|2:0|2:0,0:0:0:0:
449,162,19258,6,0,L|449:229,2,66.6666666666667,0|0|0,0:0|2:0|2:0,0:0:0:0:
340,130,19917,2,0,L|274:130,1,66.6666666666667,8|0,0:0|2:0,0:0:0:0:
199,162,20357,1,0,0:0:0:0:
126,195,20577,2,0,L|126:261,1,66.6666666666667,0|0,0:0|2:0,0:0:0:0:
126,261,21016,1,0,0:0:0:0:
33,195,21236,2,0,L|33:129,2,66.6666666666667,8|0|0,0:0|2:0|2:0,0:0:0:0:
96,349,21895,6,0,L|164:349,2,66.6666666666667,4|0|0,0:2|2:0|2:0,0:0:0:0:
165,258,22555,2,0,L|231:258,1,66.6666666666667,8|0,0:0|2:0,0:0:0:0:
231,258,22994,1,0,0:0:0:0:
269,187,23214,2,0,L|269:121,1,66.6666666666667,0|0,0:0|2:0,0:0:0:0:
269,120,23654,1,0,0:0:0:0:
162,158,23873,2,0,L|162:92,2,66.6666666666667,8|0|0,0:0|2:0|2:0,0:0:0:0:
88,125,24533,6,0,L|88:58,2,66.6666666666667,0|0|0,0:0|2:0|2:0,0:0:0:0:
123,233,25192,2,0,L|190:233,1,66.6666666666667,8|0,0:0|2:0,0:0:0:0:
264,202,25632,1,0,0:0:0:0:
338,172,25851,2,0,L|405:172,1,66.6666666666667,0|0,0:0|2:0,0:0:0:0:
480,201,26291,1,0,0:0:0:0:
480,87,26511,1,8,0:0:0:0:
405,172,26731,1,8,0:0:0:0:
330,143,26950,1,0,0:0:0:0:
256,305,27170,6,0,L|256:167,1,133.333333333333,4|8,0:2|0:0,0:0:0:0:
256,76,27829,1,8,0:0:0:0:
339,221,28049,1,8,0:0:0:0:
173,221,28269,1,8,0:0:0:0:
339,124,28489,5,8,0:0:0:0:
256,269,28709,1,8,0:0:0:0:
173,124,28928,1,8,0:0:0:0:
339,221,29148,1,8,0:0:0:0:
256,269,29368,1,4,0:0:0:0:
173,221,29588,1,4,0:0:0:0:
256,76,29807,5,4,0:2:0:0:
256,76,32445,6,0,P|353:119|439:90,1,200,4|8,0:2|0:0,0:0:0:0:
476,246,33544,1,0,0:0:0:0:
476,246,33764,2,0,P|402:238|347:257,1,133.333333333333,0|0,0:3|2:0,0:3:0:0:
256,190,34423,2,0,P|182:197|127:178,1,133.333333333333,8|0,0:0|2:0,0:0:0:0:
139,49,35082,6,0,P|147:115|127:178,1,133.333333333333,0|0,0:0|2:0,0:0:0:0:
162,287,35742,2,0,P|233:266|290:275,1,133.333333333333,8|0,0:0|0:0,0:0:0:0:
364,242,36401,2,0,P|384:171|375:114,1,133.333333333333,0|0,0:3|2:0,0:3:0:0:
285,45,37060,2,0,P|211:52|156:33,1,133.333333333333,8|0,0:0|2:0,0:0:0:0:
71,136,37720,6,0,P|67:44|158:34,1,200,0|8,0:0|0:0,0:0:0:0:
224,178,38818,1,0,0:0:0:0:
224,178,39038,2,0,P|289:186|352:167,1,133.333333333333,0|0,0:0|2:0,0:0:0:0:
410,67,39698,2,0,P|344:58|281:77,1,133.333333333333,8|0,0:0|2:0,0:0:0:0:
152,65,40357,6,8,P|217:57|281:76,1,133.333333333333,0|0,0:0|2:0,0:0:0:0:
353,167,41016,2,0,P|350:201|359:234,1,66.6666666666667,8|0,0:0|2:0,0:0:0:0:
417,287,41456,1,0,0:0:0:0:
436,209,41676,2,0,P|468:200|501:203,2,66.6666666666667,0|0|0,0:0|2:0|2:0,0:0:0:0:
340,310,42335,2,0,P|276:330|211:322,1,133.333333333333,8|0,0:0|2:0,0:0:0:0:
83,335,42994,6,0,P|146:314|211:322,1,133.333333333333,0|0,0:0|2:0,0:0:0:0:
268,223,43654,2,0,P|270:188|261:155,1,66.6666666666667,8|0,0:0|2:0,0:0:0:0:
204,103,44093,1,0,0:0:0:0:
204,103,44313,2,0,P|139:95|76:114,1,133.333333333333,0|0,0:0|2:0,0:0:0:0:
17,212,44972,2,0,P|82:220|145:201,1,133.333333333333,8|0,0:0|2:0,0:0:0:0:
158,329,45632,6,0,P|138:265|146:200,1,133.333333333333,0|0,0:0|2:0,0:0:0:0:
204,103,46291,2,0,P|275:82|332:91,1,133.333333333333,8|0,0:0|0:0,0:0:0:0:
403,129,46950,2,0,P|411:195|392:258,1,133.333333333333,0|0,0:0|2:0,0:0:0:0:
303,328,47610,2,0,P|237:336|174:316,1,133.333333333333,8|0,0:0|2:0,0:0:0:0:
46,306,48269,6,0,P|109:325|174:316,1,133.333333333333,0|0,0:0|2:0,0:0:0:0:
118,218,48928,2,0,P|116:183|125:150,1,66.6666666666667,8|0,0:0|2:0,0:0:0:0:
182,98,49368,1,0,0:0:0:0:
256,129,49588,2,0,P|291:131|324:122,1,66.6666666666667,0|0,0:0|2:0,0:0:0:0:
376,65,50027,1,0,0:0:0:0:
481,107,50247,2,0,P|479:72|488:39,2,66.6666666666667,8|0|0,0:0|2:0|2:0,0:0:0:0:
449,271,50906,5,4,0:2:0:0:
354,135,51126,1,4,0:2:0:0:
284,285,51346,1,4,0:2:0:0:
354,135,51566,2,0,P|356:100|347:67,1,66.6666666666667,8|0,0:0|2:0,0:0:0:0:
268,60,52005,1,0,0:0:0:0:
268,60,52225,2,0,P|233:62|200:53,1,66.6666666666667,0|0,0:0|2:0,0:0:0:0:
130,88,52665,1,0,0:0:0:0:
203,174,52884,2,0,P|237:165|271:169,2,66.6666666666667,8|0|0,0:0|2:0|2:0,0:0:0:0:
108,310,53544,5,4,0:2:0:0:
273,324,53764,1,4,0:2:0:0:
203,174,53983,1,4,0:2:0:0:
273,324,54203,2,0,P|308:326|341:317,1,66.6666666666667,8|0,0:0|2:0,0:0:0:0:
411,351,54643,2,0,P|446:353|479:344,1,66.6666666666667,0|0,2:0|2:0,0:0:0:0:
422,174,55082,5,4,0:2:0:0:
338,318,55302,1,4,0:0:0:0:
256,173,55522,1,4,0:2:0:0:
174,318,55742,1,4,0:0:0:0:
90,174,55961,1,4,0:2:0:0:
245,44,56181,6,0,P|265:107|256:173,1,133.333333333333,4|0,0:2|2:0,0:0:0:0:
175,181,56840,2,0,P|155:117|164:52,1,133.333333333333,2|0,2:3|2:0,0:0:0:0:
82,59,57500,2,0,P|47:61|14:52,2,66.6666666666667,0|0|0,2:0|2:0|2:0,0:0:0:0:
216,47,58159,1,8,0:0:0:0:
293,156,58379,1,4,0:0:0:0:
159,168,58599,1,4,0:0:0:0:
350,35,58818,6,0,P|415:26|478:46,1,133.333333333333,4|8,0:2|0:0,0:0:0:0:
401,172,59478,1,8,0:0:0:0:
274,99,59698,1,8,0:0:0:0:
274,246,59917,1,8,0:0:0:0:
358,99,60137,1,8,0:0:0:0:
231,172,60323,1,8,0:0:0:0:
358,246,60542,1,8,0:0:0:0:
358,245,61456,6,0,B|318:315|318:315|280:322|235:303,1,159.999995117188,4|0,0:2|2:0,0:0:0:0:
132,222,62115,2,0,P|133:182|156:141,1,79.9999975585938,8|0,0:0|2:0,0:0:0:0:
227,208,62555,1,0,0:0:0:0:
301,147,62775,2,0,L|377:126,1,79.9999975585938,0|0,0:0|2:0,0:0:0:0:
460,178,63214,1,0,0:0:0:0:
395,297,63434,2,0,P|376:261|376:215,2,79.9999975585938,8|0|0,0:0|2:0|2:0,0:0:0:0:
241,341,64093,6,0,B|195:353|169:319|169:319|175:277|220:265,1,159.999995117188,4|0,0:0|2:0,0:0:0:0:
290,148,64753,2,0,P|288:108|265:67,1,79.9999975585938,8|0,0:0|2:0,0:0:0:0:
195,133,65192,1,0,0:0:0:0:
121,72,65412,2,0,L|44:92,1,79.9999975585938,0|0,0:0|2:0,0:0:0:0:
105,167,65851,1,0,0:0:0:0:
37,285,66071,2,0,P|18:320|18:366,2,79.9999975585938,8|0|0,0:0|2:0|2:0,0:0:0:0:
185,221,66731,6,0,B|229:232|250:264|250:264|283:247|327:259,1,159.999995117188,4|0,0:0|2:0,0:0:0:0:
407,370,67390,2,0,P|446:368|487:345,1,79.9999975585938,8|0,0:3|2:3,0:3:0:0:
422,275,67829,1,0,0:0:0:0:
313,354,68049,2,0,L|236:374,1,79.9999975585938,0|0,0:0|2:0,0:0:0:0:
141,358,68489,1,0,0:0:0:0:
252,279,68709,2,0,P|270:243|270:197,2,79.9999975585938,8|0|0,0:0|2:0|2:0,0:0:0:0:
224,121,69368,6,0,P|298:111|359:163,1,159.999995117188,4|0,0:0|2:0,0:0:0:0:
319,293,70027,2,0,P|245:303|184:251,1,159.999995117188,8|0,0:0|0:0,0:0:0:0:
224,121,70687,2,0,L|203:44,1,79.9999975585938,0|0,0:0|2:0,0:0:0:0:
129,105,71126,1,0,0:0:0:0:
184,251,71346,2,0,P|182:290|159:331,2,79.9999975585938,8|0|0,0:0|2:0|2:0,0:0:0:0:
319,103,72005,6,0,B|357:92|385:61|385:61|426:50|464:62,1,159.999995117188,4|0,0:2|2:0,0:0:0:0:
506,193,72665,2,0,B|467:203|439:234|439:234|398:245|360:233,1,159.999995117188,8|0,0:0|0:0,0:0:0:0:
319,103,73324,2,0,P|283:84|237:84,1,79.9999975585938,0|0,0:0|2:0,0:0:0:0:
169,143,73764,1,0,0:0:0:0:
238,251,73983,2,0,P|256:216|258:176,2,79.9999975585938,8|0|0,0:0|2:0|2:0,0:0:0:0:
119,360,74643,6,0,B|152:335|194:335|194:335|228:354|228:354|266:343,1,159.999995117188,4|0,0:0|2:0,0:0:0:0:
386,269,75302,2,0,B|353:244|311:244|311:244|277:263|277:263|239:252,1,159.999995117188,8|0,0:0|0:0,0:0:0:0:
119,186,75961,2,0,P|154:167|200:167,1,79.9999975585938,0|0,0:0|2:0,0:0:0:0:
239,80,76401,1,0,0:0:0:0:
369,121,76621,2,0,B|392:155|392:155|373:192|392:229|392:229|369:263,1,159.999995117188,8|0,0:0|2:0,0:0:0:0:
256,340,77280,5,4,0:0:0:0:
188,272,77500,1,4,0:0:0:0:
120,204,77720,1,4,0:0:0:0:
256,340,77939,2,0,B|314:366|372:340|372:340|384:300,1,159.999995117188,12|0,0:2|2:0,0:0:0:0:
256,204,78599,5,4,0:0:0:0:
324,136,78818,1,4,0:0:0:0:
392,68,79038,1,4,0:0:0:0:
256,204,79258,2,0,B|198:230|140:204|140:204|128:164,1,159.999995117188,12|0,0:2|2:0,0:0:0:0:
256,68,79917,6,0,B|314:42|372:68|372:68|384:108,1,159.999995117188,4|0,0:2|2:0,0:0:0:0:
400,242,80577,2,0,P|435:260|481:260,1,79.9999975585938,8|0,0:0|2:0,0:0:0:0:
460,166,81016,1,0,0:0:0:0:
324,183,81236,2,0,L|247:162,1,79.9999975585938,0|0,0:0|2:0,0:0:0:0:
262,257,81676,1,0,0:0:0:0:
137,184,81895,1,12,0:0:0:0:
65,309,82115,1,12,0:0:0:0:
190,381,82335,1,12,0:0:0:0:
137,184,82555,6,0,B|118:110|157:70|157:70|168:109,1,159.999995117188,4|0,0:2|2:0,0:0:0:0:
249,216,83214,2,0,P|289:215|329:192,1,79.9999975585938,8|0,0:0|2:0,0:0:0:0:
263,121,83654,1,0,0:0:0:0:
324,47,83873,2,0,L|400:26,1,79.9999975585938,0|0,0:0|2:0,0:0:0:0:
484,76,84313,1,0,0:0:0:0:
420,196,84533,2,0,P|401:160|401:114,2,79.9999975585938,8|0|0,0:0|2:0|2:0,0:0:0:0:
274,130,85192,6,0,B|233:113|195:123|195:123|159:133|146:161|172:179,1,159.999995117188,4|0,0:0|2:0,0:3:0:0:
301,223,85851,2,0,P|319:258|319:305,1,79.9999975585938,8|0,0:3|2:3,0:3:0:0:
261,373,86291,1,0,0:3:0:0:
227,283,86511,2,0,L|151:262,1,79.9999975585938,0|0,0:0|2:0,0:0:0:0:
69,315,86950,1,0,0:0:0:0:
96,182,87170,2,0,P|93:142|75:107,2,79.9999975585938,8|0|0,0:0|2:0|2:0,0:0:0:0:
228,91,87829,6,0,B|289:83|341:121|341:121|351:81,1,159.999995117188,4|0,3:0|2:0,3:0:0:0:
432,192,88489,2,0,P|472:191|513:168,1,79.9999975585938,8|0,0:0|2:0,0:0:0:0:
446,97,88928,1,0,0:0:0:0:
338,177,89148,2,0,L|316:254,1,79.9999975585938,0|0,0:0|2:0,3:0:0:0:
359,342,89588,1,0,0:0:0:0:
231,298,89807,2,0,P|190:300|150:323,2,79.9999975585938,8|0|0,0:0|2:0|2:0,0:0:0:0:
338,178,90467,6,0,P|348:104|296:43,1,159.999995117188,4|0,0:0|2:0,0:0:0:0:
166,83,91126,2,0,P|156:157|208:218,1,159.999995117188,8|0,0:0|0:0,0:0:0:0:
338,178,91786,2,0,L|415:199,1,79.9999975585938,0|0,0:0|2:0,0:0:0:0:
354,273,92225,1,0,0:0:0:0:
208,218,92445,2,0,P|169:220|128:243,2,79.9999975585938,8|0|0,0:0|2:0|2:0,0:0:0:0:
339,369,93104,6,0,B|422:382|404:315|487:329,1,159.999995117188,4|0,3:2|2:0,0:0:0:0:
455,196,93764,2,0,B|371:182|389:249|306:235,1,159.999995117188,8|0,0:0|0:0,0:0:0:0:
282,102,94423,2,0,P|246:83|199:83,1,79.9999975585938,0|0,0:0|2:0,0:0:0:0:
132,141,94862,1,0,0:0:0:0:
201,249,95082,2,0,P|219:214|220:173,2,79.9999975585938,8|0|0,0:0|2:0|2:0,0:0:0:0:
82,357,95742,6,0,B|124:358|157:332|157:332|191:351|191:351|229:340,1,159.999995117188,4|0,0:0|2:0,0:0:0:0:
349,266,96401,2,0,B|307:267|274:241|274:241|240:260|240:260|202:249,1,159.999995117188,8|0,0:0|0:0,0:0:0:0:
290,146,97060,2,0,P|309:110|309:65,1,79.9999975585938,0|0,0:0|2:0,0:0:0:0:
240,5,97500,1,0,0:3:0:0:
150,107,97720,2,0,B|127:141|127:141|115:178|115:178|127:215|127:215|150:249,1,159.999995117188,8|0,0:0|2:0,0:0:0:0:
256,335,98379,5,4,0:0:0:0:
324,267,98599,1,4,0:0:0:0:
392,199,98818,1,4,0:0:0:0:
256,335,99038,2,0,B|193:336|150:285|150:285|123:317,1,159.999995117188,12|0,0:2|2:0,0:0:0:0:
256,199,99698,5,4,0:0:0:0:
188,131,99917,1,4,0:0:0:0:
120,63,100137,1,4,0:0:0:0:
256,199,100357,2,0,B|318:200|361:149|361:149|388:181,1,159.999995117188,12|0,0:2|2:0,0:0:0:0:
256,27,101016,6,0,B|194:26|151:77|151:77|124:45,1,159.999995117188,4|0,0:2|2:0,0:0:0:0:
109,182,101676,2,0,P|74:200|28:200,1,79.9999975585938,8|0,0:0|2:0,0:0:0:0:
49,106,102115,1,0,0:0:0:0:
185,123,102335,2,0,L|262:143,1,79.9999975585938,0|0,0:3|2:3,0:3:0:0:
201,218,102775,1,0,0:3:0:0:
316,290,102994,2,0,P|334:254|334:208,2,79.9999975585938,8|0|0,0:0|2:0|2:0,0:0:0:0:
175,122,103654,6,0,B|150:91|150:91|204:59|264:91,1,159.999995117188,4|8,0:2|0:0,0:0:0:0:
336,215,104313,1,8,0:0:0:0:
461,143,104533,1,4,0:0:0:0:
389,19,104753,1,4,0:0:0:0:
336,215,104972,5,4,0:2:0:0:
336,215,108928,5,8,0:0:0:0:
406,174,109148,1,0,0:0:0:0:
406,254,109368,1,0,0:0:0:0:
336,135,109588,1,8,0:0:0:0:
406,94,109808,1,0,0:0:0:0:
476,213,110027,1,8,0:0:0:0:
336,55,110247,5,4,0:0:0:0:
313,58,110356,1,8,0:0:0:0:
292,68,110466,1,0,0:0:0:0:
274,84,110576,1,8,0:0:0:0:
263,104,110686,1,0,0:0:0:0:
257,127,110796,1,8,0:0:0:0:
259,150,110906,5,8,0:0:0:0:
259,183,111015,1,8,0:0:0:0:
249,214,111125,1,8,0:0:0:0:
228,239,111235,1,8,0:0:0:0:
200,256,111345,1,8,0:0:0:0:
167,262,111455,1,8,0:0:0:0:
134,256,111566,6,0,P|60:248|5:267,1,133.333333333333,4|0,0:2|2:0,0:0:0:0:
43,160,112225,2,0,P|64:89|55:32,1,133.333333333333,8|0,0:0|0:0,0:0:0:0:
134,42,112884,2,0,P|207:50|262:31,1,133.333333333333,0|0,0:0|2:0,0:0:0:0:
370,66,113544,2,0,P|402:57|435:60,2,66.6666666666667,8|0|0,0:0|2:0|2:0,0:0:0:0:
358,194,114203,6,0,B|381:131|381:131|370:66,1,133.333333333333,0|0,0:0|2:0,0:0:0:0:
271,121,114862,2,0,B|248:184|248:184|259:249,1,133.333333333333,8|0,0:0|0:0,0:0:0:0:
328,291,115522,2,0,P|255:283|200:302,1,133.333333333333,0|0,0:0|2:0,0:0:0:0:
90,272,116181,2,0,P|69:201|78:144,1,133.333333333333,8|0,0:0|2:0,0:0:0:0:
207,155,116840,6,0,P|134:163|79:144,1,133.333333333333,0|0,0:0|2:0,0:0:0:0:
93,30,117500,2,0,P|166:21|221:40,1,133.333333333333,8|0,0:3|2:0,0:0:0:0:
295,9,118159,2,0,P|368:1|423:20,1,133.333333333333,0|0,0:0|2:0,0:0:0:0:
351,108,118818,2,0,P|342:181|361:236,1,133.333333333333,8|0,0:3|2:0,0:0:0:0:
490,225,119478,6,0,B|427:248|427:248|362:237,1,133.333333333333,0|0,0:0|2:0,0:0:0:0:
251,213,120137,2,8,B|184:224|184:224|122:202,1,133.333333333333,8|0,0:0|0:0,0:0:0:0:
69,143,120796,2,0,P|89:213|80:270,1,133.333333333333,0|0,0:0|2:0,0:0:0:0:
165,348,121456,2,8,P|238:356|293:337,1,133.333333333333,8|0,0:0|2:0,0:0:0:0:
282,208,122115,6,0,P|302:270|293:336,1,133.333333333333,0|0,0:0|2:0,0:0:0:0:
194,280,122775,2,0,P|172:209|182:152,1,133.333333333333,8|0,0:3|0:0,0:0:0:0:
218,79,123434,2,0,P|227:47|224:14,2,66.6666666666667,0|0|0,0:0|2:0|2:0,0:0:0:0:
305,152,124093,2,0,P|376:173|433:164,1,133.333333333333,8|0,0:3|2:0,0:0:0:0:
444,292,124753,6,0,P|453:226|433:163,1,133.333333333333,0|0,0:0|2:0,0:0:0:0:
380,62,125412,2,0,P|348:71|315:68,1,66.6666666666667,8|0,0:0|2:0,0:0:0:0:
259,125,125851,1,0,0:0:0:0:
259,125,126071,2,0,P|266:197|247:251,1,133.333333333333,0|0,0:0|2:0,0:0:0:0:
159,180,126731,2,0,P|85:170|30:190,1,133.333333333333,8|0,0:3|2:0,0:0:0:0:
148,309,127390,6,0,P|168:246|159:180,1,133.333333333333,0|0,0:0|2:0,0:0:0:0:
194,73,128049,2,0,P|267:63|322:83,1,133.333333333333,8|0,0:3|0:0,0:0:0:0:
362,153,128709,2,0,P|369:225|350:279,1,133.333333333333,0|0,0:0|2:0,0:0:0:0:
237,266,129368,2,0,P|203:263|172:272,2,66.6666666666667,8|0|0,0:0|2:0|2:0,0:0:0:0:
249,138,130027,6,0,B|226:201|226:201|237:266,1,133.333333333333,0|0,0:0|2:0,0:0:0:0:
336,211,130687,2,0,P|368:202|401:205,1,66.6666666666667,8|0,0:0|2:0,0:0:0:0:
477,230,131126,1,0,0:0:0:0:
460,152,131346,2,0,B|449:87|449:87|472:24,1,133.333333333333,0|0,0:0|2:0,0:0:0:0:
365,62,132005,2,0,P|333:71|300:68,2,66.6666666666667,8|0|0,0:0|2:0|2:0,0:0:0:0:
384,140,132665,6,0,B|324:164|248:141|190:116|190:116|113:131|82:207|130:267|130:267|176:292|201:261|222:230|188:202,1,533.333333333333,0|0,2:0|2:0,2:0:0:0:
71,94,134643,2,0,B|35:132|22:181|27:215,1,133.333333333333,8|0,0:0|2:0,0:0:0:0:
53,290,135302,6,0,B|142:234|155:308|244:256|244:256|248:182|307:143,1,333.333333333333,0|0,2:0|2:0,2:0:0:0:
312,372,136621,1,12,0:2:0:0:
244,256,136840,1,4,0:0:0:0:
378,256,137060,1,4,0:0:0:0:
178,372,137280,1,12,0:2:0:0:
110,256,137499,1,4,0:0:0:0:
244,256,137719,1,4,0:0:0:0:
44,372,137939,6,0,P|23:308|32:242,1,133.333333333333,4|0,2:0|2:3,0:3:0:0:
114,235,138598,2,0,P|134:299|125:364,1,133.333333333333,2|0,2:3|2:3,0:3:0:0:
207,357,139258,2,0,P|242:355|275:364,2,66.6666666666667,2|0|0,2:3|2:3|2:3,0:3:0:0:
33,244,139917,1,8,0:0:0:0:
148,177,140137,1,4,0:0:0:0:
148,310,140357,1,4,0:0:0:0:
263,110,140577,5,12,0:2:0:0:
263,110,141016,1,12,0:0:0:0:
378,176,141236,1,12,0:0:0:0:
263,242,141456,1,12,0:0:0:0:
148,177,141676,1,12,0:0:0:0:
148,177,142555,5,8,0:0:0:0:
135,207,142664,1,8,0:0:0:0:
131,240,142774,1,4,0:0:0:0:
135,273,142884,1,4,0:0:0:0:
147,304,142994,1,0,0:0:0:0:
166,331,143104,1,0,0:0:0:0:
192,353,143214,6,0,B|234:374|267:346|267:346|269:304|228:283,1,159.999995117188,4|0,0:2|2:0,0:0:0:0:
132,162,143873,2,0,P|133:202|156:243,1,79.9999975585938,8|0,0:0|2:0,0:0:0:0:
227,176,144313,1,0,0:0:0:0:
301,237,144533,2,0,L|377:258,1,79.9999975585938,0|0,0:0|2:0,0:0:0:0:
460,206,144972,1,0,0:0:0:0:
395,87,145192,2,0,P|376:123|376:169,2,79.9999975585938,8|0|0,0:0|2:0|2:0,0:0:0:0:
241,43,145851,6,0,B|195:31|169:65|169:65|175:107|220:119,1,159.999995117188,4|0,0:0|2:0,0:0:0:0:
290,236,146511,2,0,P|288:276|265:317,1,79.9999975585938,8|0,0:0|2:0,0:0:0:0:
195,251,146950,1,0,0:0:0:0:
121,312,147170,2,0,L|44:292,1,79.9999975585938,0|0,0:0|2:0,0:0:0:0:
105,217,147609,1,0,0:0:0:0:
37,99,147829,2,0,P|18:64|18:18,2,79.9999975585938,8|0|0,0:0|2:0|2:0,0:0:0:0:
185,163,148489,6,0,B|229:152|250:120|250:120|283:137|327:125,1,159.999995117188,4|0,0:0|2:0,0:0:0:0:
407,14,149148,2,0,P|446:16|487:39,1,79.9999975585938,8|0,0:3|2:3,0:3:0:0:
422,109,149587,1,0,0:0:0:0:
313,30,149807,2,0,L|236:10,1,79.9999975585938,0|0,0:0|2:0,0:0:0:0:
141,26,150247,1,0,0:0:0:0:
252,105,150467,2,0,P|270:141|270:187,2,79.9999975585938,8|0|0,0:0|2:0|2:0,0:0:0:0:
224,263,151126,6,0,P|298:273|359:221,1,159.999995117188,4|0,0:0|2:0,0:0:0:0:
319,91,151785,2,0,P|245:81|184:133,1,159.999995117188,8|0,0:0|0:0,0:0:0:0:
224,263,152445,2,0,L|203:340,1,79.9999975585938,0|0,0:0|2:0,0:0:0:0:
129,279,152884,1,0,0:0:0:0:
184,133,153104,2,0,P|182:94|159:53,2,79.9999975585938,8|0|0,0:0|2:0|2:0,0:0:0:0:
319,281,153763,6,0,B|357:292|385:323|385:323|426:334|464:322,1,159.999995117188,4|0,0:2|2:0,0:0:0:0:
506,191,154423,2,0,B|467:181|439:150|439:150|398:139|360:151,1,159.999995117188,8|0,0:0|0:0,0:0:0:0:
319,281,155082,2,0,P|283:300|237:300,1,79.9999975585938,0|0,0:0|2:0,0:0:0:0:
169,241,155522,1,0,0:0:0:0:
238,133,155741,2,0,P|256:168|258:208,2,79.9999975585938,8|0|0,0:0|2:0|2:0,0:0:0:0:
119,24,156401,6,0,B|152:49|194:49|194:49|228:30|228:30|266:41,1,159.999995117188,4|0,0:0|2:0,0:0:0:0:
386,115,157060,2,0,B|353:140|311:140|311:140|277:121|277:121|239:132,1,159.999995117188,8|0,0:0|0:0,0:0:0:0:
119,198,157719,2,0,P|154:217|200:217,1,79.9999975585938,0|0,0:0|2:0,0:0:0:0:
239,304,158159,1,0,0:0:0:0:
369,263,158379,2,0,B|392:229|392:229|373:192|392:155|392:155|369:121,1,159.999995117188,8|0,0:0|2:0,0:0:0:0:
256,44,159038,5,4,0:0:0:0:
188,112,159258,1,4,0:0:0:0:
120,180,159478,1,4,0:0:0:0:
256,44,159697,2,0,B|314:18|372:44|372:44|384:84,1,159.999995117188,12|0,0:2|2:0,0:0:0:0:
256,180,160357,5,4,0:0:0:0:
324,248,160576,1,4,0:0:0:0:
392,316,160796,1,4,0:0:0:0:
256,180,161016,2,0,B|198:154|140:180|140:180|128:220,1,159.999995117188,12|0,0:2|2:0,0:0:0:0:
256,316,161675,6,0,B|314:342|372:316|372:316|384:276,1,159.999995117188,4|0,0:2|2:0,0:0:0:0:
400,142,162335,2,0,P|435:124|481:124,1,79.9999975585938,8|0,0:0|2:0,0:0:0:0:
460,218,162774,1,0,0:0:0:0:
324,201,162994,2,0,L|247:222,1,79.9999975585938,0|0,0:0|2:0,0:0:0:0:
262,127,163434,1,0,0:0:0:0:
137,200,163653,1,12,0:0:0:0:
65,75,163873,1,12,0:0:0:0:
190,3,164093,1,12,0:0:0:0:
137,200,164313,6,0,B|118:274|157:314|157:314|168:275,1,159.999995117188,4|8,0:2|2:0,0:0:0:0:
322,3,164972,1,12,0:0:0:0:
447,75,165192,1,12,0:0:0:0:
375,200,165412,1,12,0:0:0:0:
190,3,165631,5,4,0:2:0:0:
