osu file format v14

[General]
AudioFilename: lovely.mp3
AudioLeadIn: 0
PreviewTime: 49166
Countdown: 1
SampleSet: Drum
StackLeniency: 0.5
Mode: 0
LetterboxInBreaks: 0
WidescreenStoryboard: 0

[Editor]
DistanceSpacing: 1
BeatDivisor: 4
GridSize: 8
TimelineZoom: 1.5

[Metadata]
Title:Songs Compilation
TitleUnicode:Songs Compilation
Artist:Luck Life
ArtistUnicode:ラックライフ
Creator:Yahuri
Version:Lovely Pretty Music (Charming)
Source:
Tags:atsushi nakajima dazai osamu bungou bungo stray dogs ブレイバー ラブリープリティーミュージック モーメント
BeatmapID:1332673
BeatmapSetID:620363

[Difficulty]
HPDrainRate:6
CircleSize:4
OverallDifficulty:7
ApproachRate:8
SliderMultiplier:1.8
SliderTickRate:1

[Events]
//Background and Video events
0,0,"lovely.jpg",0,0
//Break Periods
2,120158,126243
//Storyboard Layer 0 (Background)
//Storyboard Layer 1 (Fail)
//Storyboard Layer 2 (Pass)
//Storyboard Layer 3 (Foreground)
//Storyboard Layer 4 (Overlay)
//Storyboard Sound Samples

[TimingPoints]
947,465.116279069767,4,3,1,60,1,0
49319,-83.3333333333333,4,3,1,80,0,1
66063,-83.3333333333333,4,3,1,80,0,0
67923,-100,4,3,1,60,0,0
86528,-50,4,3,1,60,0,0
90249,-100,4,3,1,35,0,0
93970,-100,4,3,1,40,0,0
97691,-100,4,3,1,45,0,0
101412,-100,4,3,1,50,0,0
103272,-100,4,3,1,55,0,0
105133,-100,4,3,1,60,0,0
127458,-83.3333333333333,4,3,1,80,0,1
144202,-83.3333333333333,4,3,1,80,0,0
146063,-100,4,3,1,60,0,0
168505,-83.3333333333333,4,3,1,60,0,0
168621,-83.3333333333333,4,3,1,5,0,0

[Colours]
Combo1 : 255,255,43
Combo2 : 255,122,43
Combo3 : 255,43,43
Combo4 : 224,130,73

[HitObjects]
255,50,714,5,0,2:0:0:0:
255,50,830,1,0,2:0:0:0:
255,50,947,6,0,P|265:117|255:184,1,135,4|0,0:2|2:0,0:0:0:0:
224,249,1412,2,0,P|231:293|220:348,1,90,8|0,0:0|2:0,0:0:0:0:
145,293,1877,2,0,P|138:249|149:194,1,90,0|0,0:0|2:0,0:0:0:0:
256,112,2342,2,0,P|300:119|355:108,1,90,8|0,0:0|2:0,0:0:0:0:
384,90,2691,1,0,2:0:0:0:
423,69,2807,6,0,P|432:135|423:202,1,135,4|0,0:0|2:0,0:0:0:0:
351,210,3272,2,0,P|307:203|252:214,1,90,8|0,0:0|2:0,0:0:0:0:
307,289,3737,2,0,P|351:296|406:285,1,90,0|0,0:0|2:0,0:0:0:0:
511,202,4202,2,0,P|466:194|422:201,1,90,8|0,0:0|2:0,0:0:0:0:
386,173,4551,1,0,2:0:0:0:
350,145,4667,6,0,P|283:135|216:145,1,135,4|0,0:0|2:0,0:0:0:0:
149,115,5133,2,0,P|141:70|148:26,1,90,8|0,0:0|2:0,0:0:0:0:
238,42,5598,2,0,P|282:49|337:38,1,90,0|0,0:0|2:0,0:0:0:0:
386,173,6063,2,0,P|379:217|386:261,1,90,8|0,0:0|2:0,0:0:0:0:
406,301,6412,1,0,2:0:0:0:
426,341,6528,6,0,P|360:326|293:329,1,135,4|0,0:2|2:0,0:0:0:0:
207,301,6993,2,0,P|241:242|218:168,1,135,4|0,0:2|2:0,0:0:0:0:
151,229,7458,2,0,P|91:236|66:170,1,135,4|0,0:2|2:0,0:0:0:0:
147,138,7923,1,8,0:0:0:0:
256,333,8156,1,0,2:0:0:0:
256,333,8272,1,0,2:0:0:0:
256,333,8388,6,0,P|246:266|256:200,1,135,4|0,0:2|2:0,0:0:0:0:
288,135,8853,2,0,P|281:91|292:36,1,90,8|0,0:0|2:0,0:0:0:0:
367,91,9319,2,0,P|374:135|363:190,1,90,0|0,0:0|2:0,0:0:0:0:
256,272,9784,2,0,P|212:265|157:276,1,90,8|0,0:0|2:0,0:0:0:0:
128,294,10133,1,0,2:0:0:0:
89,315,10249,6,0,P|79:248|88:181,1,135,4|0,0:0|2:0,0:0:0:0:
161,174,10714,2,0,P|205:181|260:170,1,90,8|0,0:0|2:0,0:0:0:0:
205,95,11179,2,0,P|161:88|106:99,1,90,0|0,0:0|2:0,0:0:0:0:
1,182,11644,2,0,P|45:189|89:182,1,90,8|0,0:0|2:0,0:0:0:0:
126,211,11993,1,0,2:0:0:0:
162,239,12109,6,0,P|228:248|295:238,1,135,4|0,0:0|2:0,0:0:0:0:
363,269,12574,2,0,P|370:313|363:357,1,90,8|0,0:0|2:0,0:0:0:0:
274,342,13040,2,0,P|230:335|175:346,1,90,0|0,0:0|2:0,0:0:0:0:
126,211,13505,2,0,P|132:166|125:122,1,90,8|0,0:0|2:0,0:0:0:0:
106,83,13853,1,0,2:0:0:0:
86,43,13970,6,0,P|151:57|218:54,1,135,4|0,0:2|2:0,0:0:0:0:
305,83,14435,2,0,P|267:141|293:215,1,135,4|0,0:2|2:0,0:0:0:0:
366,232,14900,2,0,P|426:232|443:300,1,135,4|0,0:2|0:0,0:0:0:0:
360,324,15365,2,0,B|292:335|296:292|226:313,1,135,8|0,0:0|2:0,0:0:0:0:
144,346,15830,6,0,P|147:276|121:191,1,135,4|0,0:2|0:0,0:0:0:0:
95,151,16295,1,8,0:0:0:0:
127,67,16528,2,0,P|170:56|214:59,1,90,0|0,0:0|2:0,0:0:0:0:
299,92,16993,1,0,0:0:0:0:
428,27,17226,2,0,P|417:70|420:114,1,90,8|0,0:0|2:0,0:0:0:0:
457,254,17691,6,0,P|387:251|302:277,1,135,4|0,0:0|2:0,0:0:0:0:
291,331,18156,1,8,0:0:0:0:
235,260,18388,2,0,P|190:256|146:267,1,90,0|0,0:0|2:0,0:0:0:0:
66,308,18853,1,0,0:0:0:0:
126,177,19086,2,0,B|143:133|140:88|140:88|109:56,1,135,8|0,0:0|2:0,0:0:0:0:
192,21,19551,6,0,B|259:0|255:43|323:32,1,135,4|0,0:0|2:0,0:0:0:0:
394,16,20016,1,8,0:0:0:0:
377,104,20249,2,0,P|373:148|384:192,1,90,0|0,0:0|2:0,0:0:0:0:
423,273,20714,1,0,0:0:0:0:
295,207,20946,1,8,0:0:0:0:
142,303,21179,1,8,0:0:0:0:
142,303,21295,1,8,0:0:0:0:
142,303,21412,5,4,0:2:0:0:
59,255,21644,1,0,2:0:0:0:
225,159,21877,1,4,0:2:0:0:
225,255,22109,1,0,2:0:0:0:
59,159,22342,1,4,2:0:0:0:
225,255,22574,1,0,2:0:0:0:
225,255,22691,1,0,0:0:0:0:
225,255,22807,2,0,B|269:272|314:269|314:269|346:238,1,135,12|0,0:0|2:0,0:0:0:0:
400,166,23272,6,0,P|397:236|423:321,1,135,4|0,0:2|2:0,0:0:0:0:
453,358,23737,1,8,0:0:0:0:
500,281,23970,2,0,P|511:238|508:193,1,90,0|0,0:0|2:0,0:0:0:0:
471,110,24435,1,0,0:0:0:0:
330,79,24667,2,0,P|286:90|241:86,1,90,8|0,0:0|2:0,0:0:0:0:
209,226,25133,6,0,P|139:229|54:203,1,135,4|0,0:0|2:0,0:0:0:0:
39,151,25598,1,8,0:0:0:0:
68,66,25830,2,0,P|111:55|156:58,1,90,0|0,0:0|2:0,0:0:0:0:
242,86,26295,1,0,0:0:0:0:
209,226,26528,2,0,B|199:272|210:316|210:316|246:342,1,135,8|0,0:0|2:0,0:0:0:0:
331,310,26993,6,0,B|398:289|394:332|462:321,1,135,4|0,0:0|2:0,0:0:0:0:
502,260,27458,1,8,0:0:0:0:
450,185,27691,2,0,P|438:142|441:97,1,90,0|0,0:0|2:0,0:0:0:0:
410,12,28156,1,0,0:0:0:0:
295,98,28388,2,0,P|251:109|206:105,1,90,8|0,0:0|2:0,0:0:0:0:
46,62,28853,5,4,0:2:0:0:
21,154,29086,1,0,2:0:0:0:
206,105,29319,1,4,0:2:0:0:
89,222,29551,1,0,2:0:0:0:
89,222,29667,1,8,0:0:0:0:
89,222,29784,1,12,0:0:0:0:
138,37,30016,1,4,0:0:0:0:
175,13,30133,1,8,0:0:0:0:
220,9,30249,1,12,0:0:0:0:
261,26,30365,1,4,0:0:0:0:
290,60,30481,1,4,0:0:0:0:
362,225,30714,6,0,B|384:162|384:162|388:128|369:96,1,135,4|0,0:2|2:0,0:0:0:0:
294,147,31179,2,0,B|272:210|272:210|268:244|287:276,1,135,8|8,0:0|0:0,0:0:0:0:
368,315,31644,1,0,0:0:0:0:
293,365,31877,1,0,0:0:0:0:
362,225,32109,1,8,0:0:0:0:
211,325,32342,6,0,B|173:348|173:348|139:319|139:319|100:343|100:343|67:311,1,180,4|0,0:0|0:0,0:0:0:0:
183,225,33040,2,0,P|194:182|191:137,1,90,8|0,0:0|2:0,0:0:0:0:
111,97,33505,1,0,0:0:0:0:
186,47,33737,1,0,0:0:0:0:
273,177,33970,1,8,0:0:0:0:
343,37,34202,1,8,0:0:0:0:
343,37,34319,1,8,0:0:0:0:
343,37,34435,6,0,P|385:25|430:28,1,90,4|0,0:2|2:0,0:0:0:0:
473,167,34900,2,0,P|430:178|385:175,1,90,8|0,0:0|2:0,0:0:0:0:
340,170,35249,1,8,0:0:0:0:
296,179,35365,1,0,0:0:0:0:
258,202,35481,1,8,0:0:0:0:
228,235,35598,1,0,0:0:0:0:
139,122,35830,2,0,P|96:110|51:113,1,90,8|0,0:0|2:0,0:0:0:0:
10,289,36295,6,0,P|52:300|97:297,1,90,4|0,0:0|2:0,0:0:0:0:
228,235,36760,2,0,P|270:223|315:226,1,90,8|0,0:0|2:0,0:0:0:0:
361,232,37109,1,8,0:0:0:0:
405,223,37226,1,0,0:0:0:0:
443,200,37342,1,8,0:0:0:0:
473,167,37458,1,0,0:0:0:0:
353,86,37691,2,0,P|310:74|265:77,1,90,8|0,0:0|2:0,0:0:0:0:
361,232,38156,6,0,B|365:298|365:298|361:332|334:358,1,135,4|0,0:2|2:0,0:0:0:0:
274,289,38621,2,0,B|269:222|269:222|273:188|300:162,1,135,8|8,0:0|0:0,0:0:0:0:
390,146,39086,1,0,0:0:0:0:
331,79,39319,1,0,0:0:0:0:
361,232,39551,1,8,0:0:0:0:
241,95,39784,6,0,B|207:65|207:65|169:88|169:88|134:57|134:57|96:83,1,180,4|0,0:0|0:0,0:0:0:0:
196,187,40481,2,0,P|199:257|173:342,1,135,8|8,0:0|0:0,0:0:0:0:
100,284,40946,1,0,0:0:0:0:
267,357,41179,2,0,L|320:352,1,45,8|8,0:0|0:0,0:0:0:0:
396,320,41412,1,12,0:0:0:0:
424,283,41528,1,8,0:0:0:0:
438,240,41644,1,8,0:0:0:0:
437,196,41760,1,8,0:0:0:0:
423,153,41877,6,0,P|380:141|335:144,1,90,4|0,0:2|0:0,0:0:0:0:
197,101,42342,2,0,P|209:143|206:188,1,90,8|0,0:0|2:0,0:0:0:0:
200,234,42691,1,8,0:0:0:0:
209,278,42807,1,0,0:0:0:0:
232,316,42923,1,8,0:0:0:0:
265,346,43040,1,0,0:0:0:0:
126,307,43272,2,0,P|82:302|38:313,1,90,8|0,0:0|2:0,0:0:0:0:
90,141,43737,6,0,P|93:96|81:53,1,90,4|0,0:0|2:0,0:0:0:0:
195,142,44202,2,0,P|237:154|282:151,1,90,8|0,0:0|2:0,0:0:0:0:
328,145,44551,1,8,0:0:0:0:
372,154,44667,1,0,0:0:0:0:
410,177,44784,1,8,0:0:0:0:
440,210,44900,1,0,0:0:0:0:
312,338,45133,1,8,0:0:0:0:
312,338,45249,1,8,0:0:0:0:
312,338,45365,1,4,0:0:0:0:
256,120,45598,6,0,L|256:269,1,135,4|0,0:2|2:0,0:0:0:0:
172,289,46063,1,8,0:0:0:0:
172,163,46295,1,0,0:0:0:0:
340,289,46528,1,8,0:0:0:0:
340,163,46760,1,0,0:0:0:0:
256,346,46993,1,8,0:0:0:0:
256,106,47226,6,0,B|227:67|186:51|186:51|145:67|116:106,1,180,4|8,0:2|0:0,0:0:0:0:
176,320,47923,1,8,0:3:0:0:
4,180,48156,1,8,0:3:0:0:
221,191,48388,1,8,0:3:0:0:
38,310,48621,1,8,0:3:0:0:
38,310,48737,1,4,0:3:0:0:
132,110,49319,6,0,B|174:75|174:75|224:80|256:138,1,161.999995056153,4|0,0:2|2:0,0:0:0:0:
380,110,49784,2,0,B|338:75|338:75|288:80|256:138,1,161.999995056153,8|8,0:0|0:0,0:0:0:0:
256,247,50249,2,0,L|256:303,2,53.9999983520508,0|8|0,0:0|0:0|2:0,0:0:0:0:
132,111,50714,1,8,0:0:0:0:
344,207,50946,1,0,2:0:0:0:
168,207,51179,6,0,P|128:241|147:290,1,107.999996704102,0|0,0:0|2:0,0:0:0:0:
367,288,51644,1,8,0:0:0:0:
256,137,51877,1,0,2:0:0:0:
256,137,51993,1,8,0:0:0:0:
256,137,52109,2,0,L|256:81,2,53.9999983520508,0|8|0,0:0|0:0|2:0,0:0:0:0:
256,301,52574,1,8,0:0:0:0:
256,83,52807,1,0,2:0:0:0:
256,355,53040,5,0,0:0:0:0:
256,29,53272,1,0,2:0:0:0:
408,111,53505,2,0,P|423:62|383:30,1,107.999996704102,8|0,0:0|2:0,0:0:0:0:
256,137,53853,1,8,0:0:0:0:
256,137,53970,2,0,L|255:193,2,53.9999983520508,0|8|0,0:0|0:0|2:0,0:0:0:0:
128,30,54435,2,0,P|88:62|104:111,1,107.999996704102,8|0,0:0|2:0,0:0:0:0:
383,353,54900,6,0,L|352:240,1,107.999996704102,0|0,0:0|2:0,0:0:0:0:
156,249,55365,2,0,L|128:353,1,107.999996704102,8|0,0:0|2:0,0:0:0:0:
256,247,55714,1,8,0:0:0:0:
256,247,55830,2,0,L|256:191,2,53.9999983520508,0|8|0,0:0|0:0|2:0,0:0:0:0:
325,88,56295,2,0,B|302:63|256:47|256:47|210:63|187:88,1,161.999995056153,12|0,0:2|2:0,0:0:0:0:
132,274,56760,6,0,B|174:309|174:309|224:304|256:246,1,161.999995056153,4|0,0:2|2:0,0:0:0:0:
380,274,57226,2,0,B|338:309|338:309|288:304|256:246,1,161.999995056153,8|8,0:0|0:0,0:0:0:0:
256,137,57691,2,0,L|256:81,2,53.9999983520508,0|8|0,0:0|0:0|2:0,0:0:0:0:
132,273,58156,1,8,0:0:0:0:
344,177,58388,1,0,2:0:0:0:
168,177,58621,6,0,P|128:143|147:94,1,107.999996704102,0|0,0:0|2:0,0:0:0:0:
367,96,59086,1,8,0:0:0:0:
256,247,59319,1,0,2:0:0:0:
256,247,59435,1,8,0:0:0:0:
256,247,59551,2,0,L|256:303,2,53.9999983520508,0|8|0,0:0|0:0|2:0,0:0:0:0:
256,83,60016,1,8,0:0:0:0:
256,301,60249,1,0,2:0:0:0:
256,29,60481,5,0,0:0:0:0:
256,355,60714,1,0,2:0:0:0:
408,273,60946,2,0,P|423:322|383:354,1,107.999996704102,8|0,0:0|2:0,0:0:0:0:
256,247,61295,1,8,0:0:0:0:
256,247,61412,2,0,L|255:191,2,53.9999983520508,0|8|0,0:0|0:0|2:0,0:0:0:0:
128,353,61877,2,0,P|88:321|104:273,1,107.999996704102,8|0,0:0|2:0,0:0:0:0:
383,30,62342,6,0,L|352:143,1,107.999996704102,4|0,0:2|2:0,0:0:0:0:
128,30,62807,2,0,L|156:134,1,107.999996704102,4|0,0:2|2:0,0:0:0:0:
256,18,63156,1,8,0:0:0:0:
256,18,63272,1,4,2:0:0:0:
344,292,63505,1,4,0:0:0:0:
307,330,63621,1,8,0:0:0:0:
255,344,63737,1,12,0:0:0:0:
204,330,63853,1,8,0:0:0:0:
167,291,63970,1,4,0:0:0:0:
256,18,64202,5,4,0:2:0:0:
256,248,64667,1,8,0:0:0:0:
256,136,64900,1,0,0:0:0:0:
256,288,65133,1,8,0:0:0:0:
256,96,65365,1,0,0:0:0:0:
256,320,65598,1,8,0:0:0:0:
256,64,65830,1,0,0:0:0:0:
256,352,66063,5,12,0:0:0:0:
256,32,66295,1,12,0:0:0:0:
200,128,66528,1,0,0:0:0:0:
312,128,66760,1,0,0:0:0:0:
144,224,66993,1,4,0:0:0:0:
368,224,67226,1,4,0:0:0:0:
256,32,67458,1,4,0:2:0:0:
256,352,67691,1,0,2:0:0:0:
256,352,67807,1,0,2:0:0:0:
256,352,67923,6,0,P|266:285|256:218,1,135,4|0,0:2|2:0,0:0:0:0:
225,153,68388,2,0,P|232:109|221:54,1,90,8|0,0:0|2:0,0:0:0:0:
146,109,68853,2,0,P|139:153|150:208,1,90,0|0,0:0|2:0,0:0:0:0:
257,290,69319,2,0,P|301:283|356:294,1,90,8|0,0:0|2:0,0:0:0:0:
385,312,69667,1,0,2:0:0:0:
424,333,69784,6,0,P|433:267|424:200,1,135,4|0,0:0|2:0,0:0:0:0:
352,192,70249,2,0,P|308:199|253:188,1,90,8|0,0:0|2:0,0:0:0:0:
308,113,70714,2,0,P|352:106|407:117,1,90,0|0,0:0|2:0,0:0:0:0:
512,200,71179,2,0,P|467:208|423:201,1,90,8|0,0:0|2:0,0:0:0:0:
387,229,71528,1,0,2:0:0:0:
351,257,71644,6,0,P|284:267|217:257,1,135,4|0,0:0|2:0,0:0:0:0:
150,287,72109,2,0,P|142:332|149:376,1,90,8|0,0:0|2:0,0:0:0:0:
239,360,72574,2,0,P|283:353|338:364,1,90,0|0,0:0|2:0,0:0:0:0:
387,229,73040,2,0,P|380:185|387:141,1,90,8|0,0:0|2:0,0:0:0:0:
407,101,73388,1,0,2:0:0:0:
427,61,73505,6,0,P|361:76|294:73,1,135,4|0,0:2|2:0,0:0:0:0:
208,101,73970,2,0,P|242:160|219:234,1,135,4|0,0:2|2:0,0:0:0:0:
152,173,74435,2,0,P|92:166|67:232,1,135,4|0,0:2|2:0,0:0:0:0:
148,264,74900,1,8,0:0:0:0:
255,72,75133,6,0,L|439:88,2,180,4|0|0,0:2|2:0|2:0,0:0:0:0:
173,106,76295,2,0,L|165:194,1,90,0|0,0:0|2:0,0:0:0:0:
200,279,76760,2,0,L|207:367,1,90,0|0,0:0|2:0,0:0:0:0:
298,361,77226,6,0,L|441:348,2,135,0|0|0,0:0|2:0|2:0,0:0:0:0:
307,271,78156,2,0,L|314:182,1,90,0|0,0:0|2:0,0:0:0:0:
231,147,78621,2,0,L|218:290,1,135,0|0,0:0|2:0,0:0:0:0:
184,310,79086,6,0,L|40:297,2,135,0|0|0,0:0|2:0|2:0,0:0:0:0:
256,255,80016,2,0,L|344:262,1,90,0|0,0:0|2:0,0:0:0:0:
417,207,80481,2,0,L|505:214,1,90,0|0,0:0|2:0,0:0:0:0:
355,40,80946,6,0,B|323:69|317:120|317:120|337:173,1,135,4|0,0:2|2:0,0:0:0:0:
455,184,81412,2,0,B|426:152|375:146|375:146|322:166,1,135,4|0,0:2|2:0,0:0:0:0:
311,284,81877,2,0,B|343:255|349:204|349:204|329:151,1,135,4|0,0:2|2:0,0:0:0:0:
212,140,82342,2,0,B|241:172|292:178|292:178|345:158,1,135,4|0,0:2|2:0,0:0:0:0:
407,111,82807,6,0,P|408:34|481:61,1,180,4|8,0:0|0:0,0:0:0:0:
333,162,83505,2,0,P|334:85|407:112,1,180,4|8,0:0|0:0,0:0:0:0:
260,213,84202,2,0,P|261:136|334:163,1,180,4|8,0:0|0:0,0:0:0:0:
186,264,84900,2,0,P|187:187|260:214,1,180,4|8,0:0|0:0,0:0:0:0:
112,315,85598,5,12,0:0:0:0:
42,259,85830,1,0,0:0:0:0:
186,264,86063,1,8,0:0:0:0:
116,208,86295,1,0,0:0:0:0:
256,320,86528,6,0,P|317:334|272:275,1,180,12|0,0:0|2:0,0:0:0:0:
389,261,90249,6,0,L|479:261,1,90,4|0,0:2|2:0,0:0:0:0:
389,261,90714,2,0,L|389:171,1,90,4|0,0:2|2:0,0:0:0:0:
389,261,91179,2,0,L|299:261,1,90,4|0,0:2|2:0,0:0:0:0:
389,261,91644,2,0,L|389:351,1,90,4|0,0:2|2:0,0:0:0:0:
299,351,92109,6,0,L|299:251,1,90,4|0,0:2|2:0,0:0:0:0:
209,261,92574,2,0,L|309:261,1,90,4|0,0:2|2:0,0:0:0:0:
299,171,93039,2,0,L|299:271,1,90,4|0,0:2|2:0,0:0:0:0:
389,261,93504,2,0,L|289:261,1,90,4|0,0:2|2:0,0:0:0:0:
200,160,93970,6,0,L|193:71,1,90,4|0,0:2|2:0,0:0:0:0:
153,215,94435,2,0,L|64:223,1,90,4|0,0:2|2:0,0:0:0:0:
209,261,94900,2,0,L|217:351,1,90,4|0,0:2|2:0,0:0:0:0:
254,206,95365,2,0,L|344:199,1,90,4|0,0:2|2:0,0:0:0:0:
328,9,95830,6,0,L|336:99,1,90,4|0,0:2|2:0,0:0:0:0:
479,136,96295,2,0,L|390:144,1,90,4|0,0:2|2:0,0:0:0:0:
351,288,96760,2,0,L|344:199,1,90,4|0,0:2|2:0,0:0:0:0:
199,159,97225,2,0,L|289:152,1,90,4|0,0:2|2:0,0:0:0:0:
167,346,97691,6,0,L|182:257,1,90,4|0,0:2|2:0,0:0:0:0:
51,185,98156,2,0,L|140:199,1,90,4|0,0:2|2:0,0:0:0:0:
214,70,98621,2,0,L|199:158,1,90,4|0,0:2|2:0,0:0:0:0:
328,232,99086,2,0,L|240:216,1,90,4|0,0:2|2:0,0:0:0:0:
156,101,99551,6,0,L|171:12,1,90,4|0,0:2|2:0,0:0:0:0:
99,142,100016,2,0,L|11:126,1,90,4|0,0:2|2:0,0:0:0:0:
140,200,100481,2,0,L|125:288,1,90,4|0,0:2|2:0,0:0:0:0:
199,159,100946,2,0,L|288:173,1,90,4|0,0:2|2:0,0:0:0:0:
436,344,101412,6,0,B|406:350|406:350|379:339|379:339|349:345|349:345|322:334|322:334|292:340,1,150,4|0,0:2|2:0,0:0:0:0:
299,265,101877,2,0,B|328:258|328:258|355:269|355:269|385:263|385:263|412:274|412:274|442:268,1,150,4|0,0:2|2:0,0:0:0:0:
448,192,102342,2,0,B|418:198|418:198|391:187|391:187|361:193|361:193|334:182|334:182|305:189,1,150,4|0,0:2|2:0,0:0:0:0:
311,113,102807,2,0,B|340:106|340:106|367:117|367:117|397:111|397:111|424:122|424:122|454:116,1,150,4|0,0:2|2:0,0:0:0:0:
448,192,103272,6,0,B|438:220|438:220|415:238|415:238|405:267|405:267|382:285|382:285|373:314,1,150,4|0,0:2|2:0,0:0:0:0:
306,350,103737,2,0,B|277:340|277:340|259:317|259:317|230:307|230:307|212:284|212:284|183:275,1,150,4|0,0:2|2:0,0:0:0:0:
148,208,104202,2,0,B|157:179|157:179|180:161|180:161|190:132|190:132|213:114|213:114|222:85,1,150,4|0,0:2|2:0,0:0:0:0:
290,50,104667,2,0,B|318:59|318:59|336:82|336:82|365:92|365:92|383:115|383:115,1,120,12|0,0:2|2:0,0:0:0:0:
432,227,105133,5,4,0:2:0:0:
301,195,105365,1,0,0:0:0:0:
400,358,105598,1,8,0:0:0:0:
269,326,105830,2,0,P|191:316|161:287,2,90,0|0|0,2:0|0:0|2:0,0:0:0:0:
432,227,106528,2,0,P|449:186|446:141,1,90,8|0,0:0|2:0,0:0:0:0:
329,74,106993,6,0,P|288:91|243:88,1,90
200,74,107342,1,0,0:0:0:0:
157,88,107458,1,8,0:0:0:0:
197,217,107691,2,0,P|199:261|181:302,1,90
62,238,108156,1,0,0:0:0:0:
157,88,108388,1,8,0:0:0:0:
276,276,108621,6,0,P|359:268|411:157,1,180,4|0,0:2|0:0,0:0:0:0:
436,108,109319,1,8,0:0:0:0:
347,122,109551,1,0,0:0:0:0:
436,108,109784,1,0,0:0:0:0:
347,122,110016,1,0,0:0:0:0:
436,108,110249,1,8,0:0:0:0:
347,122,110481,6,0,L|256:107,2,90
256,241,111179,1,8,0:0:0:0:
308,314,111412,1,0,0:0:0:0:
379,259,111644,1,0,0:0:0:0:
323,187,111877,2,0,P|312:131|336:85,1,90,0|8,0:0|0:0,0:0:0:0:
147,231,112342,6,0,P|91:203|80:78,1,180,4|0,0:2|0:0,0:0:0:0:
270,56,113040,1,8,0:0:0:0:
201,114,113272,1,0,0:0:0:0:
286,143,113505,1,0,0:0:0:0:
286,143,113621,1,0,0:0:0:0:
286,143,113737,1,0,0:0:0:0:
286,143,113853,1,0,0:0:0:0:
286,143,113970,1,8,0:0:0:0:
70,95,114202,6,0,P|75:182|147:231,1,180,4|0,0:2|0:0,0:0:0:0:
345,211,114900,1,8,0:0:0:0:
275,268,115133,1,0,0:0:0:0:
213,119,115365,1,0,0:0:0:0:
271,187,115598,1,0,0:0:0:0:
299,101,115830,1,8,0:0:0:0:
146,230,116063,6,0,P|75:182|70:95,1,180,12|8,0:2|0:0,0:0:0:0:
299,101,116760,1,8,0:0:0:0:
299,101,116993,1,8,0:0:0:0:
299,101,117226,1,8,0:0:0:0:
299,101,117458,1,8,0:0:0:0:
299,101,117691,1,8,0:0:0:0:
299,101,117923,1,8,0:0:0:0:
313,274,118156,5,8,0:0:0:0:
313,274,118272,1,8,0:0:0:0:
155,200,118505,1,8,0:0:0:0:
155,200,118621,1,8,0:0:0:0:
298,101,118853,1,8,0:0:0:0:
298,101,118969,1,8,0:0:0:0:
313,274,119164,1,8,0:0:0:0:
313,274,119280,1,8,0:0:0:0:
155,200,119493,5,8,0:0:0:0:
131,161,119609,1,4,0:0:0:0:
121,117,119725,1,4,0:0:0:0:
125,73,119841,1,0,0:0:0:0:
142,31,119958,5,4,0:2:0:0:
256,83,126993,5,10,0:0:0:0:
380,274,127458,6,0,B|338:309|338:309|288:304|256:246,1,161.999995056153,4|0,0:2|2:0,0:0:0:0:
132,274,127923,2,0,B|174:309|174:309|224:304|256:246,1,161.999995056153,8|8,0:0|0:0,0:0:0:0:
256,137,128388,2,0,L|256:81,2,53.9999983520508,0|8|0,0:0|0:0|2:0,0:0:0:0:
380,273,128853,1,8,0:0:0:0:
168,177,129085,1,0,2:0:0:0:
344,177,129318,6,0,P|384:143|365:94,1,107.999996704102,0|0,0:0|2:0,0:0:0:0:
145,96,129783,1,8,0:0:0:0:
256,247,130016,1,0,2:0:0:0:
256,247,130132,1,8,0:0:0:0:
256,247,130248,2,0,L|256:303,2,53.9999983520508,0|8|0,0:0|0:0|2:0,0:0:0:0:
256,83,130713,1,8,0:0:0:0:
256,301,130946,1,0,2:0:0:0:
256,29,131179,5,0,0:0:0:0:
256,355,131411,1,0,2:0:0:0:
104,273,131644,2,0,P|89:322|129:354,1,107.999996704102,8|0,0:0|2:0,0:0:0:0:
256,247,131992,1,8,0:0:0:0:
256,247,132109,2,0,L|257:191,2,53.9999983520508,0|8|0,0:0|0:0|2:0,0:0:0:0:
384,354,132574,2,0,P|424:322|408:273,1,107.999996704102,8|0,0:0|2:0,0:0:0:0:
157,135,133039,6,0,L|129:31,1,107.999996704102,4|0,0:2|2:0,0:0:0:0:
384,31,133504,2,0,L|356:135,1,107.999996704102,8|0,0:0|2:0,0:0:0:0:
256,137,133853,1,8,0:0:0:0:
256,137,133970,1,4,0:2:0:0:
187,296,134202,1,4,0:0:0:0:
187,296,134319,1,8,0:0:0:0:
187,296,134434,2,0,B|210:321|256:337|256:337|302:321|325:296,1,161.999995056153,12|0,0:2|2:0,0:0:0:0:
380,110,134899,6,0,B|338:75|338:75|288:80|256:138,1,161.999995056153,4|0,0:2|2:0,0:0:0:0:
256,219,135365,1,8,0:0:0:0:
325,296,135598,1,0,0:0:0:0:
256,219,135830,1,8,0:0:0:0:
187,296,136063,1,0,0:0:0:0:
256,219,136295,1,8,0:0:0:0:
187,142,136528,1,0,0:0:0:0:
256,219,136760,5,8,0:0:0:0:
325,142,136993,1,0,0:0:0:0:
256,219,137226,1,8,0:0:0:0:
325,296,137458,1,0,0:0:0:0:
256,219,137691,1,8,0:0:0:0:
187,296,137923,1,0,0:0:0:0:
256,219,138156,1,8,0:0:0:0:
325,142,138388,1,0,0:0:0:0:
256,219,138621,5,8,0:0:0:0:
256,219,139086,1,8,0:0:0:0:
187,142,139319,1,0,0:0:0:0:
256,219,139551,1,8,0:0:0:0:
187,296,139784,1,0,0:0:0:0:
256,219,140016,1,8,0:0:0:0:
325,296,140249,1,0,0:0:0:0:
256,219,140481,5,8,0:0:0:0:
325,142,140714,1,0,0:0:0:0:
256,219,140946,1,8,0:0:0:0:
187,296,141179,1,0,0:0:0:0:
256,219,141412,1,8,0:0:0:0:
168,92,141644,5,4,0:0:0:0:
205,54,141760,1,8,0:0:0:0:
257,40,141876,1,12,0:0:0:0:
308,54,141992,1,8,0:0:0:0:
345,93,142109,1,4,0:0:0:0:
256,366,142341,5,4,0:2:0:0:
256,136,142806,1,8,0:0:0:0:
256,248,143039,1,8,0:0:0:0:
256,96,143272,1,8,0:0:0:0:
256,288,143504,1,8,0:0:0:0:
256,64,143737,1,8,0:0:0:0:
256,320,143969,1,8,0:0:0:0:
256,32,144202,5,12,0:0:0:0:
256,352,144434,1,12,0:0:0:0:
312,256,144667,1,0,0:0:0:0:
200,255,144900,2,0,L|153:268,2,35.9999989013672,8|4|4,0:0|0:0|0:0,0:0:0:0:
368,160,145132,1,4,0:0:0:0:
144,160,145365,1,4,0:0:0:0:
256,352,145597,1,4,0:2:0:0:
256,32,145830,1,0,2:0:0:0:
256,32,145946,1,0,2:0:0:0:
256,32,146062,6,0,P|246:99|256:166,1,135,4|0,0:2|2:0,0:0:0:0:
287,231,146527,2,0,P|280:275|291:330,1,90,8|0,0:0|2:0,0:0:0:0:
366,275,146992,2,0,P|373:231|362:176,1,90,0|0,0:0|2:0,0:0:0:0:
255,94,147458,2,0,P|211:101|156:90,1,90,8|0,0:0|2:0,0:0:0:0:
127,72,147806,1,0,2:0:0:0:
88,51,147923,6,0,P|79:117|88:184,1,135,4|0,0:0|2:0,0:0:0:0:
160,192,148388,2,0,P|204:185|259:196,1,90,8|0,0:0|2:0,0:0:0:0:
204,271,148853,2,0,P|160:278|105:267,1,90,0|0,0:0|2:0,0:0:0:0:
0,184,149318,2,0,P|45:176|89:183,1,90,8|0,0:0|2:0,0:0:0:0:
125,155,149667,1,0,2:0:0:0:
161,127,149783,6,0,P|228:117|295:127,1,135,4|0,0:0|2:0,0:0:0:0:
362,97,150248,2,0,P|370:52|363:8,1,90,8|0,0:0|2:0,0:0:0:0:
273,24,150713,2,0,P|229:31|174:20,1,90,0|0,0:0|2:0,0:0:0:0:
125,155,151179,2,0,P|132:199|125:243,1,90,8|0,0:0|2:0,0:0:0:0:
105,283,151527,1,0,2:0:0:0:
85,323,151644,6,0,P|151:308|218:311,1,135,4|0,0:2|2:0,0:0:0:0:
304,283,152109,2,0,P|270:224|293:150,1,135,4|0,0:2|2:0,0:0:0:0:
360,211,152574,2,0,P|420:218|445:152,1,135,4|0,0:2|2:0,0:0:0:0:
364,120,153039,1,8,0:0:0:0:
256,352,153272,1,0,2:0:0:0:
256,352,153388,1,0,2:0:0:0:
256,352,153504,6,0,P|266:285|256:218,1,135,4|0,0:2|2:0,0:0:0:0:
225,153,153969,2,0,P|232:109|221:54,1,90,8|0,0:0|2:0,0:0:0:0:
146,109,154434,2,0,P|139:153|150:208,1,90,0|0,0:0|2:0,0:0:0:0:
257,290,154900,2,0,P|301:283|356:294,1,90,8|0,0:0|2:0,0:0:0:0:
385,312,155248,1,0,2:0:0:0:
424,333,155365,6,0,P|433:267|424:200,1,135,4|0,0:0|2:0,0:0:0:0:
352,192,155830,2,0,P|308:199|253:188,1,90,8|0,0:0|2:0,0:0:0:0:
308,113,156295,2,0,P|352:106|407:117,1,90,0|0,0:0|2:0,0:0:0:0:
512,200,156760,2,0,P|467:208|423:201,1,90,8|0,0:0|2:0,0:0:0:0:
387,229,157109,1,0,2:0:0:0:
351,257,157225,6,0,P|284:267|217:257,1,135,4|0,0:0|2:0,0:0:0:0:
150,287,157690,2,0,P|142:332|149:376,1,90,8|0,0:0|2:0,0:0:0:0:
239,360,158155,2,0,P|283:353|338:364,1,90,0|0,0:0|2:0,0:0:0:0:
387,229,158621,2,0,P|380:185|387:141,1,90,8|0,0:0|2:0,0:0:0:0:
407,101,158969,1,0,2:0:0:0:
427,61,159086,6,0,P|361:76|294:73,1,135,4|0,0:2|2:0,0:0:0:0:
208,101,159551,2,0,P|242:160|219:234,1,135,4|0,0:2|2:0,0:0:0:0:
152,173,160016,2,0,P|92:166|67:232,1,135,4|0,0:2|2:0,0:0:0:0:
148,264,160481,1,8,0:0:0:0:
35,79,160714,5,4,0:2:0:0:
256,192,160830,12,8,167342,0:0:0:0:
256,312,168272,5,4,0:2:0:0:
256,312,168505,2,0,B|285:266|285:266|285:212|285:212|244:177|244:177|278:129|271:75|271:75|376:48|423:100|423:100|396:157|434:219,1,539.999983520508,4|0,0:2|2:0,0:0:0:0:
