osu file format v14

[General]
AudioFilename: Braver.mp3
AudioLeadIn: 0
PreviewTime: 64345
Countdown: 0
SampleSet: Drum
StackLeniency: 0.4
Mode: 0
LetterboxInBreaks: 0
WidescreenStoryboard: 0

[Editor]
DistanceSpacing: 2
BeatDivisor: 4
GridSize: 8
TimelineZoom: 1.3

[Metadata]
Title:Songs Compilation
TitleUnicode:Songs Compilation
Artist:Luck Life
ArtistUnicode:ラックライフ
Creator:Yahuri
Version:Braver (Courage)
Source:
Tags:atsushi nakajima dazai osamu bungou bungo stray dogs ブレイバー ラブリープリティーミュージック モーメント
BeatmapID:1307476
BeatmapSetID:620363

[Difficulty]
HPDrainRate:6
CircleSize:4
OverallDifficulty:8
ApproachRate:8.5
SliderMultiplier:1.8
SliderTickRate:1

[Events]
//Background and Video events
0,0,"BEAST.jpg",0,0
//Break Periods
2,132044,137745
//Storyboard Layer 0 (Background)
//Storyboard Layer 1 (Fail)
//Storyboard Layer 2 (Pass)
//Storyboard Layer 3 (Foreground)
//Storyboard Layer 4 (Overlay)
//Storyboard Sound Samples

[TimingPoints]
-483,410.958904109589,4,3,1,60,1,0
749,-111.111111111111,4,3,1,60,0,0
1571,-200,4,3,1,60,0,0
2393,-111.111111111111,4,3,1,60,0,0
3215,-200,4,3,1,60,0,0
4037,-111.111111111111,4,3,1,60,0,0
4859,-200,4,3,1,60,0,0
5681,-111.111111111111,4,3,1,60,0,0
6503,-142.857142857143,4,3,1,60,0,0
6914,-111.111111111111,4,3,1,60,0,0
7325,-111.111111111111,4,3,1,20,0,0
7736,-111.111111111111,4,3,1,25,0,0
8558,-111.111111111111,4,3,1,30,0,0
9380,-111.111111111111,4,3,1,35,0,0
10201,-111.111111111111,4,3,1,40,0,0
11023,-111.111111111111,4,3,1,45,0,0
12667,-100,4,3,1,60,0,0
24996,-100,4,3,1,60,0,0
25818,-125,4,3,1,50,0,0
38969,-111.111111111111,4,3,1,60,0,0
50476,-111.111111111111,4,3,1,60,0,0
52119,-142.857142857143,4,2,5,50,0,0
63421,-111.111111111111,4,3,1,60,0,0
65270,-100,4,3,1,70,0,1
91572,-125,4,3,1,60,0,0
92393,410.958904109589,4,3,1,50,1,0
92393,-125,4,3,1,50,0,0
98968,-111.111111111111,4,3,1,60,0,0
102050,-111.111111111111,4,3,1,60,0,0
110269,-100,4,3,1,70,0,0
112529,-100,4,3,1,70,0,0
125269,-111.111111111111,4,3,1,60,0,0
138420,-100,4,3,1,60,0,0
158147,-100,4,3,1,70,0,1
187735,-111.111111111111,4,3,1,60,0,0
188557,-200,4,3,1,60,0,0
189379,-111.111111111111,4,3,1,60,0,0
190201,-200,4,3,1,60,0,0
191023,-111.111111111111,4,3,1,60,0,0
191845,-200,4,3,1,60,0,0
192666,-111.111111111111,4,3,1,60,0,0
193488,-142.857142857143,4,3,1,60,0,0
193899,-111.111111111111,4,3,1,60,0,0

[Colours]
Combo1 : 170,170,170
Combo2 : 202,43,255
Combo3 : 43,202,255
Combo4 : 237,237,61
Combo5 : 43,43,255

[HitObjects]
256,95,749,22,0,B|176:80|176:80|136:95,1,121.499996292114,4|0,0:2|2:0,0:0:0:0:
105,169,1160,2,0,B|116:208|116:208|103:249,1,80.9999975280763,0|0,0:0|2:0,0:0:0:0:
168,311,1571,38,0,B|212:316|212:316|255:303|255:303|329:312,1,157.5,0|0,0:3|2:3,0:3:0:0:
384,258,2393,22,0,B|383:213|398:179|398:179|383:138,1,121.499996292114,0|0,0:0|2:0,0:0:0:0:
310,108,2804,2,0,B|270:119|270:119|229:106,1,80.9999975280763,0|0,0:0|2:0,0:0:0:0:
168,171,3215,38,0,B|162:215|162:215|175:258|175:258|159:290|168:330,1,157.5,0|0,0:3|2:3,0:3:0:0:
242,356,4037,22,0,B|282:346|282:346|324:356|324:356|363:344,1,121.499996292114,0|0,0:0|2:0,0:0:0:0:
400,275,4448,2,0,B|388:235|388:235|401:194,1,80.9999975280763,0|0,0:0|2:0,0:0:0:0:
330,140,4859,38,0,B|285:134|285:134|242:147|242:147|199:138|199:138|167:144,1,157.5,0|0,0:3|2:3,0:3:0:0:
99,167,5681,22,0,B|83:205|83:205|84:246|84:246|101:283,1,121.499996292114,0|0,0:0|2:0,0:0:0:0:
173,318,6092,2,0,B|212:306|212:306|253:319,1,80.9999975280763,0|0,0:0|2:0,0:0:0:0:
372,285,6503,38,0,B|384:255|384:255|384:225|384:225|370:193,1,94.499997116089,2|0,0:3|2:3,0:3:0:0:
297,162,6914,22,0,B|217:176|217:176|177:161,1,121.499996292114,4|0,0:2|2:0,0:0:0:0:
104,130,7325,2,8,L|104:89,3,40.4999987640381
55,195,7736,38,8,L|14:195,3,40.4999987640381
130,226,8147,2,8,L|130:266,3,40.4999987640381
180,162,8558,2,8,L|180:121,3,40.4999987640381
210,237,8969,2,8,L|250:237,3,40.4999987640381
315,287,9380,22,8,L|315:327,3,40.4999987640381
346,212,9790,2,8,L|386:212,3,40.4999987640381
282,162,10201,2,8,L|241:162,3,40.4999987640381
357,132,10612,2,8,L|357:91,3,40.4999987640381
346,212,11023,37,8,0:0:0:0:
331,254,11126,1,8,0:0:0:0:
300,285,11229,1,8,0:0:0:0:
256,296,11332,1,8,0:0:0:0:
213,288,11434,54,0,B|173:276|173:276|132:289,1,80.9999975280763,4|8,0:2|0:0,0:0:0:0:
57,193,11743,2,0,B|96:181|96:181|137:194,1,80.9999975280763,4|8,0:2|0:0,0:0:0:0:
213,98,12051,1,4,0:2:0:0:
256,192,12667,22,0,L|256:80,1,90,4|0,0:2|2:0,0:0:0:0:
335,147,12975,1,0,2:0:0:0:
335,147,13078,2,0,L|335:35,1,90,8|0,0:0|2:0,0:0:0:0:
177,147,13489,2,0,B|134:159|88:147|88:147|66:151|51:176,1,135,0|0,0:0|2:0,0:0:0:0:
53,263,13900,2,0,L|53:375,1,90,8|0,0:0|2:0,0:0:0:0:
211,266,14311,6,0,L|323:266,1,90,0|0,0:0|2:0,0:0:0:0:
256,345,14619,1,0,2:0:0:0:
256,345,14722,2,0,L|368:345,1,90,8|0,0:0|2:0,0:0:0:0:
256,187,15133,2,0,B|244:144|256:98|256:98|278:88|301:97,1,135,0|0,0:0|2:0,0:0:0:0:
363,161,15544,2,0,P|409:174|457:153,1,90,8|0,0:0|2:0,0:0:0:0:
301,266,15955,6,0,L|189:266,1,90,0|0,0:0|2:0,0:0:0:0:
256,345,16263,1,0,2:0:0:0:
256,345,16366,2,0,L|144:345,1,90,8|0,0:0|2:0,0:0:0:0:
256,187,16777,2,0,B|268:144|256:98|256:98|260:76|285:61,1,135,0|0,0:0|2:0,0:0:0:0:
372,64,17188,2,0,L|484:64,1,90,8|0,0:0|2:0,0:0:0:0:
497,146,17599,5,0,0:0:0:0:
399,297,17804,1,0,2:0:0:0:
256,187,18010,2,0,L|144:187,1,90,8|0,0:0|2:0,0:0:0:0:
326,244,18421,2,0,B|347:188|347:188|328:130|328:130|276:99,1,180,0|8,0:0|0:0,0:0:0:0:
210,265,19037,1,0,2:0:0:0:
416,244,19243,22,0,L|304:244,1,90,4|0,0:2|2:0,0:0:0:0:
371,323,19551,1,0,2:0:0:0:
371,323,19653,2,0,L|259:323,1,90,8|0,0:0|2:0,0:0:0:0:
281,165,20064,2,0,B|281:120|257:79|257:79|256:56|276:35,1,135,0|0,0:0|2:0,0:0:0:0:
364,39,20475,2,0,L|476:39,1,90,8|0,0:0|2:0,0:0:0:0:
454,220,20886,6,0,L|342:220,1,90,0|0,0:0|2:0,0:0:0:0:
409,141,21195,1,0,2:0:0:0:
409,141,21297,2,0,L|297:141,1,90,8|0,0:0|2:0,0:0:0:0:
319,299,21708,2,0,B|319:343|295:384|295:384|272:388|252:374,1,135,0|0,0:0|2:0,0:0:0:0:
174,330,22119,2,0,P|128:317|80:338,1,90,8|0,0:0|2:0,0:0:0:0:
225,212,22530,6,0,L|225:100,1,90,0|0,0:0|2:0,0:0:0:0:
146,167,22838,1,0,2:0:0:0:
146,167,22941,2,0,L|146:55,1,90,8|0,0:0|2:0,0:0:0:0:
304,77,23352,2,0,B|348:77|389:53|389:53|412:52|433:72,1,135,0|0,0:0|2:0,0:0:0:0:
430,160,23763,2,0,L|430:272,1,90,8|0,0:0|2:0,0:0:0:0:
399,334,24174,5,0,0:0:0:0:
256,196,24380,1,12,0:2:0:0:
113,334,24585,2,0,P|45:318|47:257,1,135,12|0,0:2|2:0,0:0:0:0:
103,195,24996,21,8,0:0:0:0:
136,225,25099,1,0,0:0:0:0:
179,236,25201,1,0,0:0:0:0:
222,225,25304,1,0,0:0:0:0:
256,196,25407,1,4,0:0:0:0:
289,166,25510,1,4,0:0:0:0:
332,155,25612,1,4,0:0:0:0:
375,166,25715,1,4,0:0:0:0:
408,196,25818,6,0,P|418:252|416:302,1,108,4|0,0:2|2:0,0:0:0:0:
351,333,26229,2,8,P|314:331|279:339,1,72,0|0,0:0|2:0,0:0:0:0:
256,196,26640,2,0,P|266:139|264:89,1,108,0|0,0:0|2:0,0:0:0:0:
199,59,27051,2,8,P|162:60|127:52,1,72,0|0,0:0|2:0,0:0:0:0:
82,190,27462,38,0,P|71:246|73:296,1,108,0|0,0:0|2:0,0:0:0:0:
139,327,27873,2,8,P|175:325|210:333,1,72,0|0,0:0|2:0,0:0:0:0:
256,196,28284,2,0,L|263:111,1,72,0|0,0:0|2:0,0:0:0:0:
348,240,28695,2,0,L|354:168,1,72,0|0,0:0|2:0,0:0:0:0:
270,286,29106,22,0,P|214:297|164:295,1,108,0|0,0:0|2:0,0:0:0:0:
133,229,29516,2,8,P|135:193|127:158,1,72,0|0,0:0|2:0,0:0:0:0:
256,93,29927,2,0,P|312:82|362:84,1,108,0|0,0:0|2:0,0:0:0:0:
393,150,30338,2,8,P|391:186|399:221,1,72,0|0,0:0|2:0,0:0:0:0:
256,241,30749,38,0,P|200:230|150:232,1,108,0|0,0:0|2:0,0:0:0:0:
119,298,31160,2,8,P|121:334|113:369,1,72,0|0,0:0|2:0,0:0:0:0:
65,232,31571,2,0,B|52:199|52:199|58:162,1,72,0|0,0:0|2:0,0:0:0:0:
88,97,31880,1,0,2:0:0:0:
88,97,31982,2,0,B|94:60|94:60|81:27,1,72,0|0,0:0|2:0,0:0:0:0:
185,129,32393,21,0,0:0:0:0:
185,129,32804,2,0,B|188:166|188:166|183:199|183:199|188:256,1,108,0|0,0:0|2:0,0:0:0:0:
221,299,33215,2,0,B|258:293|258:293|291:306,1,72,0|0,0:0|2:0,0:0:0:0:
421,366,33626,1,0,0:0:0:0:
378,228,33832,38,0,L|372:299,1,72,0|0,2:0|0:0,0:0:0:0:
286,184,34243,2,0,L|280:256,1,72,0|0,2:0|0:0,0:0:0:0:
194,140,34653,1,0,2:0:0:0:
90,240,34859,2,0,L|96:168,1,72,0|0,0:0|2:0,0:0:0:0:
182,283,35270,2,0,L|188:211,1,72,0|0,0:0|2:0,0:0:0:0:
271,94,35681,21,0,0:0:0:0:
271,94,36092,1,0,0:0:0:0:
271,94,36503,2,0,P|307:102|342:100,1,72,0|0,0:0|2:0,0:0:0:0:
482,68,36914,1,0,0:0:0:0:
440,206,37119,38,0,L|434:277,1,72,0|0,2:0|0:0,0:0:0:0:
348,162,37530,2,0,L|342:234,1,72,0|0,2:0|0:0,0:0:0:0:
256,118,37941,1,0,2:0:0:0:
256,276,38147,21,8,0:0:0:0:
223,306,38249,1,0,0:0:0:0:
180,317,38352,1,0,0:0:0:0:
137,306,38455,1,0,0:0:0:0:
103,277,38558,2,0,L|99:233,1,36
133,177,38763,2,0,L|136:133,1,36,8|0,0:0|0:0,0:0:0:0:
100,67,38969,22,0,P|159:68|219:43,1,121.499996292114,0|0,0:0|2:0,0:0:0:0:
289,81,39380,2,0,B|306:118|306:118|301:160,1,80.9999975280763,8|0,0:0|2:0,0:0:0:0:
274,318,39790,2,8,B|350:289|350:289|392:297,2,121.499996292114
112,300,40612,38,8,P|90:244|92:179,1,121.499996292114,0|0,0:0|2:0,0:0:0:0:
126,111,41023,2,0,B|165:115|165:115|202:97,1,80.9999975280763,8|0,0:0|2:0,0:0:0:0:
351,163,41434,2,8,B|427:191|427:191|469:183,1,121.499996292114
505,112,41845,1,0,0:0:0:0:
431,273,42051,1,8,0:0:0:0:
283,204,42256,22,8,P|223:202|163:227,1,121.499996292114,0|0,0:0|2:0,0:0:0:0:
104,275,42667,2,0,B|108:235|108:235|90:198,1,80.9999975280763,8|0,0:0|2:0,0:0:0:0:
180,63,43078,2,8,B|256:91|256:91|298:83,2,121.499996292114
167,225,43900,38,8,P|227:223|283:245,1,121.499996292114,0|0,0:0|2:0,0:0:0:0:
347,295,44311,2,0,B|343:254|343:254|362:215,1,80.9999975280763,8|0,0:3|2:3,0:3:0:0:
473,101,44722,2,8,B|501:177|501:177|493:219,1,121.499996292114
459,289,45133,1,0,0:0:0:0:
396,139,45338,1,8,0:0:0:0:
256,220,45544,21,0,0:0:0:0:
256,220,45955,2,0,B|215:224|215:224|177:205,1,80.9999975280763,8|0,0:0|2:0,0:0:0:0:
32,138,46366,2,0,B|14:175|14:175|19:217,1,80.9999975280763,8|0,0:0|2:0,0:0:0:0:
55,287,46674,1,8,0:0:0:0:
55,287,46777,1,0,0:0:0:0:
121,139,46982,38,0,B|158:121|158:121|200:126,1,80.9999975280763,8|0,0:0|0:0,0:0:0:0:
217,47,47393,1,0,2:0:0:0:
62,39,47599,2,0,B|99:21|99:21|141:26,1,80.9999975280763,8|0,0:0|2:0,0:0:0:0:
181,238,48010,2,0,B|220:242|220:242|257:224,1,80.9999975280763,8|0,0:0|2:0,0:0:0:0:
312,166,48318,1,8,0:0:0:0:
312,166,48421,1,0,0:0:0:0:
402,300,48626,1,8,0:0:0:0:
258,224,48832,21,0,0:0:0:0:
258,224,49243,2,0,B|217:228|217:228|179:209,1,80.9999975280763,8|0,0:0|2:0,0:0:0:0:
32,138,49653,2,0,B|14:175|14:175|19:217,1,80.9999975280763,8|0,0:0|2:0,0:0:0:0:
56,293,49962,1,8,0:0:0:0:
56,293,50064,1,0,0:0:0:0:
139,108,50270,38,0,B|176:90|176:90|218:95,1,80.9999975280763,12|0,0:2|0:0,0:0:0:0:
212,297,50681,1,4,0:0:0:0:
172,204,50886,2,8,L|251:189,1,80.9999975280763,0|0,0:0|2:0,0:0:0:0:
327,219,51195,1,0,0:0:0:0:
327,219,51297,1,4,0:0:0:0:
306,42,51503,1,4,0:0:0:0:
139,108,51708,1,4,0:0:0:0:
256,331,52119,38,0,L|256:268,1,62.9999980773926,12|0,0:0|2:0,0:0:0:0:
289,179,52530,2,0,L|289:100,1,62.9999980773926,8|0,0:0|0:0,0:0:0:0:
322,27,52941,2,0,L|392:27,1,62.9999980773926,8|0,0:0|0:0,0:0:0:0:
474,58,53352,2,0,L|474:128,1,62.9999980773926,8|0,0:0|0:0,0:0:0:0:
443,210,53763,22,0,L|313:210,1,125.999996154785,8|8,0:0|0:0,0:0:0:0:
228,245,54380,1,0,0:0:0:0:
140,210,54585,2,0,P|135:179|140:148,2,62.9999980773926,8|0|8,0:0|0:0|0:0,0:0:0:0:
92,292,55201,1,0,3:0:0:0:
45,210,55407,38,0,L|45:140,1,62.9999980773926,0|0,3:0|2:0,0:0:0:0:
92,65,55818,2,0,L|162:65,1,62.9999980773926,8|0,0:0|0:0,0:0:0:0:
244,96,56229,2,0,L|322:96,1,62.9999980773926,8|0,0:0|0:0,0:0:0:0:
396,64,56640,2,0,L|466:64,1,62.9999980773926,8|0,0:0|0:0,0:0:0:0:
491,153,57051,22,0,L|491:283,1,125.999996154785,0|8,3:0|0:0,0:0:0:0:
443,361,57667,1,0,2:0:0:0:
363,310,57873,2,0,P|332:305|301:310,1,62.9999980773926,8|0,0:0|0:0,0:0:0:0:
219,358,58284,1,8,2:0:0:0:
138,310,58489,1,0,2:0:0:0:
219,261,58695,38,0,L|219:191,1,62.9999980773926,0|0,3:0|2:0,0:0:0:0:
187,109,59106,2,0,L|117:109,1,62.9999980773926,8|0,0:0|2:0,0:0:0:0:
92,20,59516,2,0,P|61:15|30:20,2,62.9999980773926,8|0|8,0:0|0:0|0:0,0:0:0:0:
124,109,60133,1,0,3:0:0:0:
156,198,60338,22,0,L|156:268,1,62.9999980773926,0|0,3:0|2:0,0:0:0:0:
246,231,60749,2,0,L|376:231,1,125.999996154785,8|8,0:0|0:0,0:0:0:0:
424,309,61366,1,0,2:0:0:0:
340,352,61571,2,0,P|309:347|278:352,1,62.9999980773926,8|0,0:0|0:0,0:0:0:0:
207,289,61982,38,0,P|215:242|205:192,2,94.499997116089,0|0|0,3:0|0:0|0:0,0:0:0:0:
117,320,62804,2,0,P|113:289|118:259,1,62.9999980773926,8|0,0:0|0:0,0:0:0:0:
27,232,63215,1,8,0:0:0:0:
207,289,63421,1,8,0:0:0:0:
207,289,63832,21,8,0:0:0:0:
196,101,64037,1,8,0:0:0:0:
364,185,64243,1,8,0:0:0:0:
147,198,64448,21,4,0:0:0:0:
305,95,64653,1,8,0:0:0:0:
342,79,64756,1,8,0:0:0:0:
382,79,64859,1,8,0:0:0:0:
420,93,64962,1,8,0:0:0:0:
450,120,65064,1,8,0:0:0:0:
468,155,65167,1,8,0:0:0:0:
472,196,65270,22,0,B|470:241|470:241|448:281,1,90,4|8,0:2|3:0,3:0:0:0:
364,252,65578,2,0,B|319:252|319:252|278:275,1,90,0|0,3:0|3:0,3:0:0:0:
341,340,65886,1,8,0:0:0:0:
298,165,66092,1,0,2:0:0:0:
254,360,66297,1,8,0:0:0:0:
211,185,66503,1,0,2:0:0:0:
341,340,66708,1,8,0:0:0:0:
160,341,66914,6,8,B|114:339|114:339|74:317,1,90,0|8,3:0|3:0,3:0:0:0:
104,233,67222,2,8,B|102:187|102:187|80:147,1,90,0|0,0:0|0:0,0:0:0:0:
20,82,67530,1,8,0:0:0:0:
141,83,67736,1,0,2:0:0:0:
16,212,67941,1,8,0:0:0:0:
16,212,68044,1,0,2:0:0:0:
16,212,68147,1,0,0:0:0:0:
191,254,68352,1,8,0:0:0:0:
269,91,68558,6,0,B|314:93|314:93|354:115,1,90,0|8,0:0|0:0,0:0:0:0:
325,199,68866,2,0,B|326:245|326:245|348:285,1,90,0|0,0:0|0:0,0:0:0:0:
413,220,69174,1,8,0:0:0:0:
281,346,69380,1,0,2:0:0:0:
239,175,69585,1,8,0:0:0:0:
195,322,69790,1,0,2:0:0:0:
325,199,69996,1,8,0:0:0:0:
481,277,70201,6,0,B|479:322|479:322|457:362,1,90,0|8,0:0|0:0,0:0:0:0:
367,362,70510,2,0,B|345:322|345:322|343:277,1,90
413,220,70818,1,8,0:0:0:0:
367,46,71023,1,0,2:0:0:0:
240,266,71229,1,8,0:0:0:0:
193,92,71434,1,0,2:0:0:0:
413,220,71640,1,8,0:0:0:0:
367,46,71845,22,8,B|321:47|321:47|281:70,1,90,0|8,0:0|0:0,0:0:0:0:
310,153,72153,2,8,B|308:199|308:199|286:239,1,90,0|0,0:0|0:0,0:0:0:0:
226,304,72461,1,8,0:3:0:0:
221,174,72667,1,0,2:0:0:0:
347,303,72873,1,8,0:0:0:0:
397,132,73078,1,0,2:0:0:0:
226,304,73284,1,8,2:3:0:0:
221,174,73489,6,8,B|223:128|223:128|245:88,1,90,0|8,0:0|0:0,0:0:0:0:
329,118,73797,2,8,B|375:116|375:116|415:94,1,90,0|0,3:0|3:0,3:0:0:0:
350,30,74106,1,8,0:0:0:0:
473,160,74311,1,0,2:0:0:0:
301,203,74517,1,8,0:0:0:0:
480,34,74722,1,8,0:0:0:0:
244,89,74927,1,8,0:0:0:0:
200,100,75030,1,8,0:0:0:0:
157,112,75133,6,0,B|135:71|135:71|134:25,1,90,4|8,0:2|0:0,0:0:0:0:
222,4,75441,2,0,B|243:44|243:44|244:88,1,90
220,176,75749,2,0,B|306:151|306:151|356:163,1,135,8|0,0:0|0:0,0:0:0:0:
375,250,76160,1,8,0:0:0:0:
507,192,76366,1,0,0:0:0:0:
422,76,76571,1,8,0:0:0:0:
375,250,76777,6,0,B|336:271|336:271|290:273,1,90,0|8,3:0|3:0,3:0:0:0:
266,185,77085,2,0,B|304:163|304:163|350:161,1,90,0|0,3:0|3:0,3:0:0:0:
438,185,77393,1,8,3:0:0:0:
203,250,77599,21,4,0:2:0:0:
207,95,77804,1,8,0:0:0:0:
170,79,77907,1,8,0:0:0:0:
130,79,78010,1,8,0:0:0:0:
92,93,78113,1,8,0:0:0:0:
62,120,78215,1,8,0:0:0:0:
44,155,78318,1,8,0:0:0:0:
40,196,78421,6,0,B|42:241|42:241|64:281,1,90,4|8,0:2|3:0,3:0:0:0:
148,252,78729,2,0,B|193:252|193:252|234:275,1,90,0|0,3:0|3:0,3:0:0:0:
258,360,79037,1,8,0:0:0:0:
301,185,79243,1,0,2:0:0:0:
171,340,79448,1,8,0:0:0:0:
214,165,79653,1,0,2:0:0:0:
258,360,79859,1,8,0:0:0:0:
385,322,80065,6,8,B|431:320|431:320|471:298,1,90,0|8,3:0|3:0,3:0:0:0:
408,233,80373,2,8,B|410:187|410:187|432:147,1,90,0|0,0:0|0:0,0:0:0:0:
492,82,80681,1,8,0:0:0:0:
371,83,80887,1,0,2:0:0:0:
496,212,81092,1,8,0:0:0:0:
492,82,81298,1,0,2:0:0:0:
321,254,81503,1,8,0:0:0:0:
243,91,81709,6,0,B|198:93|198:93|158:115,1,90,0|8,0:0|0:0,0:0:0:0:
187,199,82017,2,0,B|186:245|186:245|164:285,1,90,0|0,0:0|0:0,0:0:0:0:
99,220,82325,1,8,0:0:0:0:
231,346,82531,1,0,2:0:0:0:
273,175,82736,1,8,0:0:0:0:
273,175,82838,1,0,2:0:0:0:
273,175,82941,1,0,2:0:0:0:
99,126,83147,1,8,0:0:0:0:
31,277,83352,22,0,B|33:322|33:322|55:362,1,90,0|8,0:0|0:0,0:0:0:0:
145,362,83661,2,0,B|167:322|167:322|169:277,1,90
99,220,83969,1,8,0:0:0:0:
99,220,84071,1,0,2:0:0:0:
99,220,84174,1,0,2:0:0:0:
319,92,84380,1,8,0:0:0:0:
319,92,84482,1,0,2:0:0:0:
319,92,84585,1,0,0:0:0:0:
272,266,84791,1,8,0:0:0:0:
108,139,84996,6,8,B|148:116|148:116|194:116,1,90,0|8,0:0|0:0,0:0:0:0:
210,203,85304,2,8,B|234:241|234:241|272:265,1,90,0|0,0:0|0:0,0:0:0:0:
359,291,85612,1,8,0:3:0:0:
298,176,85818,1,0,2:0:0:0:
253,351,86024,1,8,0:0:0:0:
125,228,86229,1,0,2:0:0:0:
359,291,86434,1,8,2:0:0:0:
406,181,86640,22,8,B|404:135|404:135|382:95,1,90,0|8,3:0|3:0,3:0:0:0:
298,125,86948,2,8,B|252:123|252:123|212:101,1,90,0|0,3:0|3:0,3:0:0:0:
277,37,87256,1,8,0:0:0:0:
154,167,87462,1,0,2:0:0:0:
326,210,87667,1,8,0:0:0:0:
147,41,87873,1,8,0:0:0:0:
220,272,88078,1,8,0:0:0:0:
406,181,88284,22,0,B|428:140|428:140|428:41,1,135,4|0,0:2|0:0,0:0:0:0:
344,16,88695,1,8,0:0:0:0:
344,16,88900,1,0,0:0:0:0:
106,181,89106,6,0,B|85:140|85:140|84:41,1,135,4|0,0:2|0:0,0:0:0:0:
168,16,89517,1,8,0:0:0:0:
168,16,89722,1,0,0:0:0:0:
194,303,89927,6,0,B|154:324|154:324|54:325,1,135,4|0,0:2|0:0,0:0:0:0:
29,241,90338,1,8,0:0:0:0:
29,241,90544,1,0,0:0:0:0:
318,303,90749,5,4,0:2:0:0:
318,303,90955,1,0,0:0:0:0:
129,190,91160,1,4,0:2:0:0:
322,82,91366,1,4,0:2:0:0:
322,82,91777,5,0,0:0:0:0:
354,106,91880,1,0,0:0:0:0:
375,140,91982,1,0,0:0:0:0:
382,180,92085,1,0,0:0:0:0:
375,220,92188,1,4,0:0:0:0:
354,253,92290,1,4,0:0:0:0:
321,278,92393,22,0,P|265:288|215:286,1,108,4|0,0:2|2:0,0:0:0:0:
149,253,92803,2,0,P|151:216|143:181,1,72,0|0,0:0|2:0,0:0:0:0:
183,43,93214,2,0,P|239:33|289:35,1,108,0|0,0:0|2:0,0:0:0:0:
355,68,93625,2,0,P|353:105|361:140,1,72,0|0,0:0|2:0,0:0:0:0:
226,192,94036,22,0,P|170:182|120:184,1,108,0|0,0:0|2:0,0:0:0:0:
54,217,94447,2,0,P|56:254|48:289,1,72,0|0,0:0|2:0,0:0:0:0:
188,322,94858,2,0,L|273:329,1,72,0|0,0:0|2:0,0:0:0:0:
377,243,95269,2,0,L|305:249,1,72,0|0,0:0|2:0,0:0:0:0:
172,192,95680,38,0,P|162:136|164:86,1,108,0|0,0:0|2:0,0:0:0:0:
199,22,96091,2,0,P|234:29|269:27,1,72,0|0,0:0|2:0,0:0:0:0:
384,116,96502,2,0,P|327:115|278:126,1,108,0|0,0:0|2:0,0:0:0:0:
244,190,96913,2,0,P|257:223|261:258,1,72,0|0,0:0|2:0,0:0:0:0:
360,363,97324,22,0,P|416:363|465:352,1,108,0|0,0:0|2:0,0:0:0:0:
500,289,97735,2,0,P|486:255|482:220,1,72,0|0,0:0|2:0,0:0:0:0:
373,125,98146,2,0,L|288:118,1,72,0|0,0:0|2:0,0:0:0:0:
184,204,98557,2,0,L|256:198,1,72,0|0,0:0|2:0,0:0:0:0:
347,40,98968,37,8,0:0:0:0:
347,40,99379,1,8,0:0:0:0:
347,40,99790,1,8,0:0:0:0:
460,155,99995,1,8,0:0:0:0:
303,195,100201,1,8,0:0:0:0:
347,40,100406,21,8,0:0:0:0:
347,40,100817,1,8,0:0:0:0:
347,40,101228,1,8,0:0:0:0:
303,138,101434,2,0,P|291:172|296:217,2,80.9999975280763,0|0|0,2:0|2:0|2:0,0:0:0:0:
381,324,102050,22,8,B|305:296|305:296|263:304,1,121.499996292114,4|0,0:2|2:0,0:0:0:0:
192,340,102461,1,8,0:0:0:0:
136,188,102666,1,8,0:0:0:0:
296,216,102872,1,8,0:0:0:0:
192,340,103077,37,8,0:0:0:0:
151,340,103179,1,8,0:0:0:0:
116,322,103282,1,8,0:0:0:0:
93,289,103385,1,8,0:0:0:0:
89,249,103487,1,8,0:0:0:0:
104,212,103590,1,8,0:0:0:0:
136,188,103694,22,0,B|167:151|206:152|206:152|223:116|223:116|246:106|269:68,1,161.999995056153,4|8,0:2|0:0,0:0:0:0:
277,56,104208,1,8,0:0:0:0:
314,41,104310,1,8,0:0:0:0:
354,40,104413,1,8,0:0:0:0:
392,55,104516,1,10,0:0:0:0:
364,214,104721,38,0,L|348:299,1,80.9999975280763,8|0,0:0|2:0,0:0:0:0:
272,316,105029,2,0,L|205:260,1,80.9999975280763,8|0,0:0|2:0,0:0:0:0:
230,184,105338,1,8,0:0:0:0:
335,373,105543,5,4,0:2:0:0:
342,333,105954,1,0,0:0:0:0:
349,293,106365,1,0,0:0:0:0:
357,253,106776,2,0,L|371:170,1,80.9999975280763,0|0,0:0|2:0,0:0:0:0:
345,95,107187,21,0,0:0:0:0:
268,121,107393,1,0,2:0:0:0:
229,109,107495,1,0,2:0:0:0:
188,99,107598,1,0,0:0:0:0:
113,130,107803,1,0,2:0:0:0:
42,89,108009,2,0,P|33:147|122:212,1,161.999995056153
188,99,108625,1,0,2:0:0:0:
113,130,108831,37,0,0:0:0:0:
177,179,109036,2,0,P|216:174|249:150,2,80.9999975280763,0|0|0,2:0|0:0|2:0,0:0:0:0:
264,70,109653,2,0,P|323:120|314:197,1,161.999995056153
103,211,110269,54,0,B|83:253|83:253|87:296,1,90,10|0,0:3|2:0,0:3:0:0:
338,331,110680,1,8,0:0:0:0:
330,286,110782,1,8,0:0:0:0:
322,242,110885,1,8,0:0:0:0:
314,198,110988,1,10,0:0:0:0:
174,331,111297,37,8,0:0:0:0:
182,286,111399,1,8,0:0:0:0:
190,242,111502,1,8,0:0:0:0:
198,198,111605,1,10,0:0:0:0:
404,251,111810,1,10,0:0:0:0:
108,251,112050,22,0,B|61:212|61:212|61:97|61:97,1,165,6|0,0:2|2:0,0:0:0:0:
143,72,112529,2,0,B|211:78|211:78|272:48,1,135,8|0,0:0|2:0,0:0:0:0:
355,81,112940,2,0,B|375:122|375:122|369:169,1,90,0|0,0:0|2:0,0:0:0:0:
384,254,113249,1,0,2:0:0:0:
384,254,113351,1,8,0:0:0:0:
200,152,113557,22,0,B|241:131|241:131|285:137,1,90,0|0,2:0|0:0,0:0:0:0:
453,197,113968,1,0,2:0:0:0:
355,81,114173,1,8,0:0:0:0:
384,254,114379,1,0,2:0:0:0:
424,24,114584,1,0,0:0:0:0:
285,137,114790,1,0,2:0:0:0:
453,197,114995,1,8,0:0:0:0:
315,311,115201,6,0,B|275:330|275:330|230:325,1,90,0|0,2:0|0:0,0:0:0:0:
285,137,115612,1,0,2:0:0:0:
384,254,115817,1,8,2:0:0:0:
301,223,116023,1,0,2:0:0:0:
316,54,116228,1,0,0:0:0:0:
285,137,116433,1,0,2:0:0:0:
402,38,116639,1,8,2:0:0:0:
384,254,116845,6,0,B|378:297|378:297|399:338,1,90,0|0,2:0|0:0,0:0:0:0:
474,175,117256,1,0,2:0:0:0:
301,223,117461,1,8,0:0:0:0:
316,54,117666,1,0,2:0:0:0:
143,102,117872,2,0,B|184:122|184:122|227:117,1,90,0|0,0:0|2:0,0:0:0:0:
386,208,118283,2,0,B|344:228|344:228|301:223,1,90,8|0,0:0|2:0,0:0:0:0:
143,314,118694,6,0,B|184:334|184:334|227:329,1,90,4|0,0:2|2:0,0:0:0:0:
301,223,119002,1,0,2:0:0:0:
301,223,119105,2,0,B|259:202|259:202|216:207,1,90,8|0,0:0|2:0,0:0:0:0:
77,258,119413,1,0,2:0:0:0:
77,258,119516,2,0,B|102:296|102:296|142:313,1,90,0|0,0:0|2:0,0:0:0:0:
216,208,119824,1,0,2:0:0:0:
216,208,119927,2,0,B|190:169|190:169|150:152,1,90,8|0,0:0|2:0,0:0:0:0:
48,177,120235,1,0,2:0:0:0:
48,177,120338,22,0,B|50:222|50:222|77:258,1,90,0|0,0:0|2:0,0:0:0:0:
150,152,120646,1,0,2:0:0:0:
150,152,120749,2,0,B|147:106|147:106|120:70,1,90,8|0,0:0|2:0,0:0:0:0:
35,120,121057,1,0,2:0:0:0:
35,120,121160,2,0,B|35:150|35:150|49:179,2,60,0|0|0,0:0|2:0|2:0,0:0:0:0:
121,71,121571,2,0,B|121:41|121:41|107:12,2,60,8|0|0,0:0|2:0|2:0,0:0:0:0:
216,208,121982,6,0,B|255:230|255:230|344:214|344:214|382:168,1,180,0|8,3:0|3:0,3:0:0:0:
268,49,122598,2,0,B|263:92|263:92|284:134,1,90,0|0,2:0|0:0,0:0:0:0:
319,338,123009,2,0,B|324:294|324:294|303:253,1,90,0|0,2:0|0:0,0:0:0:0:
100,127,123420,6,0,B|143:132|143:132|184:111,1,90,12|0,0:2|0:0,0:0:0:0:
452,56,123831,2,0,B|408:50|408:50|367:71,1,90,8|0,0:0|0:0,0:0:0:0:
304,253,124242,1,0,2:0:0:0:
185,111,124447,2,8,B|155:105|155:105|116:126,2,60,8|8|8,3:0|3:0|3:0,3:0:0:0:
216,208,124858,2,8,B|189:221|189:221|159:216,2,60,8|8|8,3:0|3:0|3:0,3:0:0:0:
284,134,125269,21,4,0:2:0:0:
298,171,125680,1,0,0:0:0:0:
312,208,126091,1,0,0:0:0:0:
326,245,126502,1,0,0:0:0:0:
295,319,126913,21,0,0:0:0:0:
258,333,127324,1,0,0:0:0:0:
221,347,127735,1,0,0:0:0:0:
153,302,127940,1,0,2:0:0:0:
85,256,128146,1,0,0:0:0:0:
17,210,128351,1,0,2:0:0:0:
90,174,128557,37,0,0:0:0:0:
104,137,128968,1,0,0:0:0:0:
118,100,129379,1,0,0:0:0:0:
132,63,129790,1,0,0:0:0:0:
213,65,130201,21,0,0:0:0:0:
227,102,130612,1,0,0:0:0:0:
241,139,131023,1,0,0:0:0:0:
255,176,131434,1,0,0:0:0:0:
307,238,131639,38,0,B|267:235|267:235|224:256,1,80.9999975280763,8|0,0:0|0:0,0:0:0:0:
256,40,138420,5,12,0:2:0:0:
401,145,138625,1,4,0:0:0:0:
401,145,138728,1,4,0:0:0:0:
401,145,138831,2,0,P|409:175|396:220,1,45,4|0,0:0|0:0,0:0:0:0:
380,274,139036,1,8,0:0:0:0:
380,274,139139,1,8,0:0:0:0:
380,274,139242,6,0,L|324:283,1,45,4|4,0:0|0:0,0:0:0:0:
250,252,139447,2,0,L|194:242,1,45,4|0,0:0|0:0,0:0:0:0:
119,273,139653,2,0,L|109:328,1,45,8|8,0:0|0:0,0:0:0:0:
27,283,139858,2,0,L|36:227,1,45,4|4,3:0|0:0,0:0:0:0:
6,105,140064,5,12,0:2:0:0:
181,142,140269,1,4,0:0:0:0:
181,142,140372,1,4,0:0:0:0:
181,142,140475,2,0,P|212:139|250:111,1,45,4|0,0:0|0:0,0:0:0:0:
287,69,140680,1,8,0:0:0:0:
331,77,140782,1,8,0:0:0:0:
375,85,140885,1,4,0:0:0:0:
419,92,140988,1,4,0:0:0:0:
464,100,141091,6,0,L|473:155,1,45,4|4,0:0|0:0,0:0:0:0:
413,214,141297,2,0,L|360:194,1,45,8|8,0:0|0:0,0:0:0:0:
341,114,141502,2,0,L|375:85,1,45,4|4,0:0|0:0,0:0:0:0:
504,231,141708,21,12,0:2:0:0:
376,357,141913,1,4,0:0:0:0:
332,349,142015,1,4,0:0:0:0:
288,341,142118,1,4,0:0:0:0:
244,334,142221,1,4,0:0:0:0:
199,326,142324,6,0,L|189:270,1,45,8|8,0:0|0:0,0:0:0:0:
159,196,142530,1,4,0:0:0:0:
159,196,142633,1,4,0:0:0:0:
159,196,142735,2,0,L|168:140,1,45,4|0,0:0|0:0,0:0:0:0:
199,66,142941,2,0,L|189:10,1,45,4|0,0:0|0:0,0:0:0:0:
256,136,143146,5,8,0:0:0:0:
256,136,143557,1,8,0:0:0:0:
166,291,143762,1,8,0:0:0:0:
347,291,143968,1,8,0:0:0:0:
256,136,144173,1,2,2:3:0:0:
256,241,144584,1,2,2:3:0:0:
256,31,144995,6,0,B|217:54|217:54|124:54,1,135,4|0,0:2|2:0,0:0:0:0:
76,111,145406,2,0,P|57:153|59:202,1,90,0|0,0:0|2:0,0:0:0:0:
102,342,145817,2,0,P|101:297|120:256,1,90,0|0,0:0|2:0,0:0:0:0:
223,142,146228,2,0,P|203:182|203:227,1,90,0|0,0:0|2:0,0:0:0:0:
430,165,146639,38,0,B|391:142|391:142|298:142,1,135,4|0,0:2|2:0,0:0:0:0:
223,142,147050,2,0,L|207:51,1,90,0|0,0:0|2:0,0:0:0:0:
54,66,147461,2,0,P|53:137|79:197,1,135,0|0,0:0|2:0,0:0:0:0:
140,239,147872,2,0,P|182:220|231:222,1,90,0|0,0:0|2:0,0:0:0:0:
421,349,148283,22,0,B|398:310|398:310|398:217,1,135,4|0,0:2|2:0,0:0:0:0:
367,149,148694,2,0,P|325:130|276:132,1,90,0|0,0:0|2:0,0:0:0:0:
136,175,149105,2,0,P|180:174|221:193,1,90,0|0,0:0|2:0,0:0:0:0:
336,296,149516,2,0,P|295:276|250:276,1,90,0|0,0:0|2:0,0:0:0:0:
29,353,149927,38,0,B|52:314|52:314|52:221,1,135,4|0,0:2|2:0,0:0:0:0:
17,155,150338,2,0,L|33:63,1,90,0|0,0:0|2:0,0:0:0:0:
181,30,150749,2,0,P|225:29|266:48,1,90,0|0,0:0|2:0,0:0:0:0:
234,198,151160,2,0,P|189:198|148:179,1,90,0|0,0:0|2:0,0:0:0:0:
381,153,151571,22,0,B|404:192|404:192|404:285,1,135,4|0,0:2|2:0,0:0:0:0:
351,338,151982,2,0,P|309:357|260:355,1,90,0|0,0:0|2:0,0:0:0:0:
120,312,152393,2,0,P|164:312|205:293,1,90,0|0,0:0|2:0,0:0:0:0:
320,191,152804,2,0,P|279:210|234:210,1,90,0|0,0:0|2:0,0:0:0:0:
67,61,153214,38,0,B|106:38|106:38|199:38,1,135,4|0,0:2|2:0,0:0:0:0:
268,64,153625,2,0,P|310:45|359:47,1,90,0|0,0:0|2:0,0:0:0:0:
499,90,154036,2,0,P|454:89|413:108,1,90,0|0,0:0|2:0,0:0:0:0:
299,211,154447,2,0,P|339:191|384:191,1,90,0|0,0:0|2:0,0:0:0:0:
256,320,154858,21,4,0:2:0:0:
128,192,155064,1,8,0:0:0:0:
128,192,155166,1,4,0:2:0:0:
384,192,155373,1,8,0:0:0:0:
384,192,155475,1,4,0:2:0:0:
256,320,155886,1,8,0:0:0:0:
256,192,156091,1,8,0:0:0:0:
256,192,156194,1,8,0:0:0:0:
256,192,156297,1,2,0:0:0:0:
256,64,156502,37,8,0:2:0:0:
256,64,156810,1,8,0:2:0:0:
256,64,157119,1,8,0:2:0:0:
365,186,157324,21,4,0:2:0:0:
207,289,157529,1,8,0:0:0:0:
170,305,157632,1,8,0:0:0:0:
130,305,157735,1,8,0:0:0:0:
92,291,157838,1,8,0:0:0:0:
62,264,157940,1,8,0:0:0:0:
44,229,158043,1,8,0:0:0:0:
40,188,158146,22,0,B|42:143|42:143|64:103,1,90,4|8,0:2|3:0,3:0:0:0:
148,132,158454,2,0,B|193:132|193:132|234:109,1,90,0|0,3:0|3:0,3:0:0:0:
171,44,158762,1,8,0:0:0:0:
214,219,158968,1,0,2:0:0:0:
258,24,159173,1,8,0:0:0:0:
301,199,159379,1,0,2:0:0:0:
171,44,159584,1,8,0:0:0:0:
352,43,159790,6,8,B|398:45|398:45|438:67,1,90,0|8,3:0|3:0,3:0:0:0:
408,151,160098,2,8,B|410:197|410:197|432:237,1,90,0|0,0:0|0:0,0:0:0:0:
492,302,160406,1,8,0:0:0:0:
371,301,160612,1,0,2:0:0:0:
496,172,160817,1,8,0:0:0:0:
496,172,160920,1,0,2:0:0:0:
496,172,161023,1,0,0:0:0:0:
321,130,161228,1,8,0:0:0:0:
243,293,161434,6,0,B|198:291|198:291|158:269,1,90,0|8,0:0|0:0,0:0:0:0:
187,185,161742,2,0,B|186:139|186:139|164:99,1,90,0|0,0:0|0:0,0:0:0:0:
99,164,162050,1,8,0:0:0:0:
231,38,162256,1,0,2:0:0:0:
273,209,162461,1,8,0:0:0:0:
317,62,162666,1,0,2:0:0:0:
187,185,162872,1,8,0:0:0:0:
31,107,163077,6,0,B|33:62|33:62|55:22,1,90,0|8,0:0|0:0,0:0:0:0:
145,22,163386,2,0,B|167:62|167:62|169:107,1,90
99,164,163694,1,8,0:0:0:0:
145,338,163899,1,0,2:0:0:0:
272,118,164105,1,8,0:0:0:0:
319,292,164310,1,0,2:0:0:0:
99,164,164516,1,8,0:0:0:0:
145,338,164721,22,8,B|191:337|191:337|231:314,1,90,0|8,0:0|0:0,0:0:0:0:
202,231,165029,2,8,B|204:185|204:185|226:145,1,90,0|0,0:0|0:0,0:0:0:0:
286,80,165337,1,8,0:3:0:0:
291,210,165543,1,0,2:0:0:0:
165,81,165749,1,8,0:0:0:0:
115,252,165954,1,0,2:0:0:0:
286,80,166160,1,8,2:3:0:0:
291,210,166365,6,8,B|289:256|289:256|267:296,1,90,0|8,0:0|0:0,0:0:0:0:
183,266,166673,2,8,B|137:268|137:268|97:290,1,90,0|0,3:0|3:0,3:0:0:0:
162,354,166982,1,8,0:0:0:0:
39,224,167187,1,0,2:0:0:0:
211,181,167393,1,8,0:0:0:0:
32,350,167598,1,8,0:0:0:0:
268,295,167803,1,8,0:0:0:0:
312,284,167906,1,8,0:0:0:0:
355,272,168009,6,0,B|377:313|377:313|378:359,1,90,4|8,0:2|0:0,0:0:0:0:
290,380,168317,2,0,B|269:340|269:340|268:296,1,90
292,208,168625,2,0,B|206:233|206:233|156:221,1,135,8|0,0:0|0:0,0:0:0:0:
137,134,169036,1,8,0:0:0:0:
5,192,169242,1,0,0:0:0:0:
90,308,169447,1,8,0:0:0:0:
137,134,169653,6,0,B|176:113|176:113|222:111,1,90,0|8,3:0|3:0,3:0:0:0:
246,199,169961,2,0,B|208:221|208:221|162:223,1,90,0|0,3:0|3:0,3:0:0:0:
74,199,170269,1,8,3:0:0:0:
309,134,170475,21,4,0:2:0:0:
305,289,170680,1,8,0:0:0:0:
342,305,170783,1,8,0:0:0:0:
382,305,170886,1,8,0:0:0:0:
420,291,170989,1,8,0:0:0:0:
450,264,171091,1,8,0:0:0:0:
468,229,171194,1,8,0:0:0:0:
472,188,171297,6,0,B|470:143|470:143|448:103,1,90,4|8,0:2|3:0,3:0:0:0:
364,132,171605,2,0,B|319:132|319:132|278:109,1,90,0|0,3:0|3:0,3:0:0:0:
254,24,171913,1,8,0:0:0:0:
211,199,172119,1,0,2:0:0:0:
341,44,172324,1,8,0:0:0:0:
298,219,172529,1,0,2:0:0:0:
254,24,172735,1,8,0:0:0:0:
127,62,172941,6,8,B|81:64|81:64|41:86,1,90,0|8,3:0|3:0,3:0:0:0:
104,151,173249,2,8,B|102:197|102:197|80:237,1,90,0|0,0:0|0:0,0:0:0:0:
20,302,173557,1,8,0:0:0:0:
141,301,173763,1,0,2:0:0:0:
16,172,173968,1,8,0:0:0:0:
20,302,174174,1,0,2:0:0:0:
191,130,174379,1,8,0:0:0:0:
269,293,174585,6,0,B|314:291|314:291|354:269,1,90,0|8,0:0|0:0,0:0:0:0:
325,185,174893,2,0,B|326:139|326:139|348:99,1,90,0|0,0:0|0:0,0:0:0:0:
413,164,175201,1,8,0:0:0:0:
281,38,175407,1,0,2:0:0:0:
239,209,175612,1,8,0:0:0:0:
239,209,175714,1,0,2:0:0:0:
239,209,175817,1,0,2:0:0:0:
413,258,176023,1,8,0:0:0:0:
481,107,176228,22,0,B|479:62|479:62|457:22,1,90,0|8,0:0|0:0,0:0:0:0:
367,22,176537,2,0,B|345:62|345:62|343:107,1,90
413,164,176845,1,8,0:0:0:0:
413,164,176947,1,0,2:0:0:0:
413,164,177050,1,0,2:0:0:0:
193,292,177256,1,8,0:0:0:0:
193,292,177358,1,0,2:0:0:0:
193,292,177461,1,0,0:0:0:0:
240,118,177667,1,8,0:0:0:0:
404,245,177872,6,8,B|364:268|364:268|318:268,1,90,0|8,0:0|0:0,0:0:0:0:
302,181,178180,2,8,B|278:143|278:143|240:119,1,90,0|0,0:0|0:0,0:0:0:0:
153,93,178488,1,8,0:3:0:0:
214,208,178694,1,0,2:0:0:0:
259,33,178900,1,8,0:0:0:0:
387,156,179105,1,0,2:0:0:0:
153,93,179310,1,8,2:0:0:0:
106,203,179516,22,8,B|108:249|108:249|130:289,1,90,0|8,3:0|3:0,3:0:0:0:
214,259,179824,2,8,B|260:261|260:261|300:283,1,90,0|0,3:0|3:0,3:0:0:0:
235,347,180132,1,8,0:0:0:0:
358,217,180338,1,0,2:0:0:0:
186,174,180543,1,8,0:0:0:0:
365,343,180749,1,8,0:0:0:0:
292,112,180954,1,8,0:0:0:0:
106,203,181160,22,0,B|84:244|84:244|84:343,1,135,4|0,0:2|0:0,0:0:0:0:
168,368,181571,1,8,0:0:0:0:
168,368,181776,1,0,0:0:0:0:
406,203,181982,6,0,B|427:244|427:244|428:343,1,135,4|0,0:2|0:0,0:0:0:0:
344,368,182393,1,8,0:0:0:0:
344,368,182598,1,0,0:0:0:0:
318,81,182803,6,0,B|358:60|358:60|458:59,1,135,4|0,0:2|0:0,0:0:0:0:
483,143,183214,1,8,0:0:0:0:
483,143,183420,1,0,0:0:0:0:
194,81,183625,5,4,0:2:0:0:
194,81,183831,1,0,0:0:0:0:
383,194,184036,1,4,0:2:0:0:
190,302,184242,1,4,0:2:0:0:
406,181,184447,22,0,B|434:144|434:144|442:101|442:101|425:55,1,135,4|0,0:2|0:0,0:0:0:0:
344,16,184858,1,8,0:0:0:0:
344,16,185064,1,0,0:0:0:0:
106,181,185269,22,0,B|77:144|77:144|69:101|69:101|86:55,1,135,4|0,0:2|0:0,0:0:0:0:
168,16,185680,1,8,0:0:0:0:
168,16,185885,1,0,0:0:0:0:
194,303,186091,6,0,B|157:331|157:331|114:339|114:339|68:322,1,135,4|0,0:2|0:0,0:0:0:0:
25,247,186501,1,8,0:0:0:0:
25,247,186707,1,0,0:0:0:0:
318,303,186912,21,12,0:2:0:0:
318,303,187119,2,0,P|366:314|413:299,2,90,0|0|0,2:0|2:0|2:0,2:0:0:0:
256,95,187735,6,0,B|176:80|176:80|136:95,1,121.499996292114,4|0,0:2|2:0,0:0:0:0:
105,169,188146,2,0,B|116:208|116:208|103:249,1,80.9999975280763,0|0,0:0|2:0,0:0:0:0:
168,311,188557,38,0,B|212:316|212:316|255:303|255:303|329:312,1,157.5,0|0,0:3|2:3,0:3:0:0:
384,258,189379,22,0,B|383:213|398:179|398:179|383:138,1,121.499996292114,0|0,0:0|2:0,0:0:0:0:
310,108,189790,2,0,B|270:119|270:119|229:106,1,80.9999975280763,0|0,0:0|2:0,0:0:0:0:
168,171,190201,38,0,B|162:215|162:215|175:258|175:258|159:290|168:330,1,157.5,0|0,0:3|2:3,0:3:0:0:
242,356,191023,22,0,B|282:346|282:346|324:356|324:356|363:344,1,121.499996292114,0|0,0:0|2:0,0:0:0:0:
400,275,191434,2,0,B|388:235|388:235|401:194,1,80.9999975280763,0|0,0:0|2:0,0:0:0:0:
330,140,191845,38,0,B|285:134|285:134|242:147|242:147|199:138|199:138|167:144,1,157.5,0|0,0:3|2:3,0:3:0:0:
99,167,192667,22,0,B|83:205|83:205|84:246|84:246|101:283,1,121.499996292114,0|0,0:0|2:0,0:0:0:0:
173,318,193078,2,0,B|212:306|212:306|253:319,1,80.9999975280763,0|0,0:0|2:0,0:0:0:0:
372,285,193489,38,0,B|384:255|384:255|384:225|384:225|370:193,1,94.499997116089,10|0,0:3|2:3,0:3:0:0:
297,162,193899,54,0,B|257:174|257:174|216:161,1,80.9999975280763,4|8,0:2|0:0,0:0:0:0:
299,24,194208,2,0,B|327:50|327:50|337:91,1,80.9999975280763,4|8,0:2|0:0,0:0:0:0:
179,91,194516,2,0,B|188:50|188:50|220:21,1,80.9999975280763,4|8,0:2|0:0,0:0:0:0:
368,203,194927,1,8,0:0:0:0:
368,203,195029,1,8,0:0:0:0:
368,203,195132,38,0,B|380:243|380:243|367:284,1,80.9999975280763,4|8,0:2|0:0,0:0:0:0:
230,201,195441,2,0,B|256:172|256:172|297:162,1,80.9999975280763,4|8,0:2|0:0,0:0:0:0:
297,321,195749,2,0,B|256:311|256:311|227:279,1,80.9999975280763,4|8,0:2|0:0,0:0:0:0:
190,275,196057,1,8,0:0:0:0:
150,268,196160,1,8,0:0:0:0:
110,260,196263,1,8,0:0:0:0:
70,253,196365,22,0,B|45:219|45:219|43:176,1,80.9999975280763,4|8,0:2|0:0,0:0:0:0:
200,209,196674,2,0,B|185:245|185:245|150:268,1,80.9999975280763,4|8,0:2|0:0,0:0:0:0:
95,117,196982,2,0,B|136:112|136:112|175:132,1,80.9999975280763,4|8,0:2|0:0,0:0:0:0:
210,123,197290,1,4,0:0:0:0:
250,116,197393,1,4,0:0:0:0:
290,108,197496,1,4,0:0:0:0:
331,101,197598,38,0,B|355:67|355:67|357:24,1,80.9999975280763,4|8,0:2|0:0,0:0:0:0:
154,28,197906,2,0,B|156:67|156:67|181:101,1,80.9999975280763,4|8,0:2|0:0,0:0:0:0:
256,289,198214,1,4,0:2:0:0:
396,192,198420,22,0,B|358:203|358:203|318:191,1,80.9999975280763,4|8,0:2|0:0,0:0:0:0:
116,192,198728,2,0,B|153:203|153:203|193:191,1,80.9999975280763,4|8,0:2|0:0,0:0:0:0:
256,31,199037,1,4,0:2:0:0:
