osu file format v14

[General]
AudioFilename: audio.mp3
AudioLeadIn: 0
PreviewTime: 54382
Countdown: 1
SampleSet: Soft
StackLeniency: 0.7
Mode: 0
LetterboxInBreaks: 0
WidescreenStoryboard: 1

[Editor]
Bookmarks: 11090,88764
DistanceSpacing: 1
BeatDivisor: 8
GridSize: 4
TimelineZoom: 1.4

[Metadata]
Title:Refrain
TitleUnicode:リフレイン
Artist:Luck Life
ArtistUnicode:ラックライフ
Creator:jyu
Version:Insane
Source:最遊記RELOAD BLAST
Tags:Saiyuki ending tv size Yahuri alpacacokelat
BeatmapID:1395564
BeatmapSetID:646897

[Difficulty]
HPDrainRate:6
CircleSize:4
OverallDifficulty:7
ApproachRate:8
SliderMultiplier:1.5
SliderTickRate:1

[Events]
//Background and Video events
0,0,"756576.jpg",0,0
Video,0,"Saiyuuki Reload Blast Ending - Refrain Luck Life_mute.mp4"
//Break Periods
//Storyboard Layer 0 (Background)
//Storyboard Layer 1 (Fail)
//Storyboard Layer 2 (Pass)
//Storyboard Layer 3 (Foreground)
//Storyboard Sound Samples

[TimingPoints]
450.271001009916,337.078651685393,4,2,5,50,1,0
54382,-100,4,2,5,50,0,1
64832,-100,4,2,5,50,0,0
65169,-100,4,2,5,50,0,1
75955,-100,4,2,5,50,0,0

[Colours]
Combo1 : 255,125,190
Combo2 : 250,188,95
Combo3 : 179,0,89
Combo4 : 150,89,16

[HitObjects]
136,80,450,6,0,L|236:88,1,75
210,85,703,1,0,0:0:0:0:
210,85,787,1,0,0:0:0:0:
296,148,955,1,0,0:0:0:0:
376,95,1124,2,0,L|348:25,1,75
376,257,1630,6,0,L|348:327,1,75
297,245,1967,2,0,L|269:315,1,75
180,328,2304,1,0,0:0:0:0:
180,328,2641,2,0,B|203:266|203:266|156:236|168:168,1,150
164,92,3146,6,0,L|264:84,1,75
238,86,3399,1,0,0:0:0:0:
238,86,3483,1,0,0:0:0:0:
332,56,3652,1,0,0:0:0:0:
408,128,3821,2,0,L|444:62,1,75
373,257,4326,6,0,L|409:323,1,75
280,270,4663,2,0,L|316:336,1,75
208,324,5000,1,0,0:0:0:0:
208,324,5337,2,0,B|164:332|116:312|116:312|144:304|184:272,1,150
240,224,5843,6,0,P|216:180|184:164,1,75
308,144,6180,2,0,P|352:120|368:88,1,75
376,212,6517,2,0,P|400:256|432:272,1,75
308,280,6854,2,0,P|264:304|248:336,1,75
256,176,7191,6,0,P|221:139|186:132,1,75
332,92,7528,2,0,P|368:57|375:22,1,75
396,180,7866,2,0,P|430:216|465:223,1,75
308,244,8203,2,0,P|271:278|264:313,1,75
140,308,8540,6,0,L|128:256,3,37.5
132,224,8877,2,0,L|144:172,3,37.5
152,140,9214,1,0,0:0:0:0:
168,104,9298,1,0,0:0:0:0:
196,80,9382,1,0,0:0:0:0:
232,72,9467,1,0,0:0:0:0:
268,76,9551,1,0,0:0:0:0:
304,92,9635,1,0,0:0:0:0:
332,116,9719,5,0,0:0:0:0:
176,276,10057,1,0,0:0:0:0:
349,138,10394,5,0,0:0:0:0:
134,273,10731,1,0,0:0:0:0:
360,168,11068,6,0,B|380:208|376:240|376:240|360:268|316:288,1,150
284,300,11489,1,0,0:0:0:0:
248,300,11573,1,0,0:0:0:0:
152,324,11742,2,0,L|72:320,1,75
52,224,12079,1,0,0:0:0:0:
104,140,12248,1,0,0:0:0:0:
192,104,12416,6,0,P|244:108|320:40,1,150
412,32,12922,1,0,0:0:0:0:
420,128,13090,2,0,P|388:180|364:200,1,75
272,308,13427,2,0,P|304:256|328:236,1,75
256,152,13764,6,0,P|200:156|108:108,1,150
92,88,14186,1,0,0:0:0:0:
76,56,14270,1,0,0:0:0:0:
176,28,14439,2,0,L|252:44,1,75
332,96,14776,1,0,0:0:0:0:
404,28,14944,1,0,0:0:0:0:
256,176,15113,6,0,B|208:247|255:322,1,150
342,249,15618,1,0,0:0:0:0:
400,152,15787,1,0,0:0:0:0:
260,180,15955,1,0,0:0:0:0:
354,325,16124,1,0,0:0:0:0:
400,152,16292,1,0,0:0:0:0:
308,104,16461,6,0,P|252:92|176:152,1,150
172,180,16882,1,0,0:0:0:0:
164,216,16967,1,0,0:0:0:0:
212,300,17135,2,0,L|300:312,1,75
384,320,17472,1,0,0:0:0:0:
436,236,17641,1,0,0:0:0:0:
312,234,17809,6,0,L|149:214,1,150
86,155,18315,1,0,0:0:0:0:
156,88,18483,2,0,L|177:8,1,75
251,77,18821,2,0,L|280:156,1,75
489,163,19158,6,0,L|354:97,1,150
321,79,19579,1,0,0:0:0:0:
289,58,19663,1,0,0:0:0:0:
191,62,19832,2,0,P|131:95|118:130,1,75
165,188,20169,1,0,0:0:0:0:
246,135,20337,1,0,0:0:0:0:
188,278,20506,6,0,P|259:258|323:187,1,150
370,127,21012,1,0,0:0:0:0:
451,180,21180,1,0,0:0:0:0:
349,34,21349,1,0,0:0:0:0:
254,56,21517,1,0,0:0:0:0:
276,151,21686,1,0,0:0:0:0:
370,127,21854,1,0,0:0:0:0:
167,82,22023,6,0,P|103:128|92:215,1,150
121,283,22528,1,0,0:0:0:0:
220,152,22697,2,0,P|207:229|261:299,1,150
341,289,23203,1,0,0:0:0:0:
374,197,23371,6,0,L|356:109,1,75
432,32,23708,2,0,L|462:188,2,150
335,49,24551,1,0,0:0:0:0:
246,88,24719,6,0,P|211:101|170:99,1,75
68,166,25057,2,0,P|103:179|144:177,1,75
237,177,25394,2,0,P|162:211|147:273,1,150
220,336,25899,1,0,0:0:0:0:
312,300,26068,5,0,0:0:0:0:
380,228,26236,2,0,L|352:148,1,75
288,36,26573,2,0,L|260:116,1,75
400,212,26910,2,0,L|372:132,1,75
276,28,27248,1,0,0:0:0:0:
236,116,27416,6,0,P|168:128|100:60,1,150
28,28,27922,1,0,0:0:0:0:
147,211,28090,2,0,P|79:181|32:124,1,150
28,28,28596,1,0,0:0:0:0:
124,44,28764,6,0,L|224:60,1,75
388,44,29101,2,0,L|288:60,1,75
280,148,29439,2,0,L|436:124,1,150
464,36,29944,1,0,0:0:0:0:
400,220,30113,5,0,0:0:0:0:
336,292,30281,1,0,0:0:0:0:
324,196,30450,1,0,0:0:0:0:
428,125,30618,1,0,0:0:0:0:
356,60,30787,2,0,P|296:68|272:64,1,75
124,60,31124,2,0,P|184:68|208:64,1,75
240,152,31461,5,0,0:0:0:0:
308,240,31630,1,0,0:0:0:0:
308,240,31714,1,0,0:0:0:0:
308,240,31798,2,0,L|400:252,1,75
240,152,32135,1,0,0:0:0:0:
188,244,32304,1,0,0:0:0:0:
188,244,32388,1,0,0:0:0:0:
188,244,32472,2,0,L|96:256,1,75
28,176,32809,6,0,L|102:166,1,75
104,68,33146,2,0,L|178:58,1,75
330,110,33483,2,0,L|256:120,1,75
264,216,33821,2,0,L|190:226,1,75
104,272,34158,5,0,0:0:0:0:
172,340,34326,1,0,0:0:0:0:
264,216,34495,2,0,P|280:172|376:124,2,150
296,308,35337,1,0,0:0:0:0:
438,230,35506,6,0,L|364:224,1,75
264,216,35843,1,0,0:0:0:0:
172,252,36012,1,0,0:0:0:0:
64,144,36180,2,0,L|138:137,1,75
236,124,36517,1,0,0:0:0:0:
344,152,36686,1,0,0:0:0:0:
424,68,36854,5,0,0:0:0:0:
448,164,37023,2,0,L|420:248,1,75
360,344,37360,2,0,L|336:272,1,75
436,136,37697,2,0,L|408:220,1,75
336,272,38034,1,0,0:0:0:0:
240,268,38203,6,0,P|184:272|152:256,1,75
68,172,38540,2,0,P|124:168|156:184,1,75
336,160,38877,2,0,P|280:164|248:148,1,75
344,68,39214,2,0,P|400:64|432:80,1,75
452,160,39551,6,0,L|432:240,1,75
352,284,39888,1,0,0:0:0:0:
256,312,40057,1,0,0:0:0:0:
352,256,40225,2,0,L|370:183,1,75
320,100,40562,1,0,0:0:0:0:
224,128,40731,1,0,0:0:0:0:
132,92,40899,5,0,0:0:0:0:
92,180,41068,2,0,P|80:224|88:264,1,75
262,307,41405,2,0,P|226:244|156:224,2,150
164,320,42248,5,0,0:0:0:0:
280,180,42416,2,0,L|336:124,1,75
284,44,42753,2,0,L|230:97,1,75
316,192,43090,2,0,L|372:136,1,75
376,40,43427,1,0,0:0:0:0:
172,36,43596,5,0,0:0:0:0:
172,36,43933,1,0,0:0:0:0:
172,36,44270,1,0,0:0:0:0:
172,36,44607,1,0,0:0:0:0:
84,212,44944,6,0,P|140:192|208:268,1,150
428,212,45450,2,0,P|372:192|304:268,1,150
256,328,45955,1,0,0:0:0:0:
252,232,46124,1,0,0:0:0:0:
256,136,46292,6,0,L|160:60,1,112.5
136,44,46630,2,0,P|104:88|60:108,1,75
72,196,46967,2,0,P|108:252|180:272,1,112.5
192,252,47304,2,0,L|244:184,1,75
384,152,47641,6,0,L|300:260,1,112.5
328,288,47978,2,0,P|360:316|400:328,1,75
240,268,48315,2,0,P|208:240|116:228,1,112.5
96,240,48652,2,0,L|68:152,1,75
164,48,48989,5,0,0:0:0:0:
164,48,49326,1,0,0:0:0:0:
164,48,49663,1,0,0:0:0:0:
164,48,50000,1,0,0:0:0:0:
304,184,50337,6,0,P|352:216|460:240,1,150
208,200,50843,2,0,P|160:168|52:144,1,150
144,72,51349,2,0,P|192:88|224:116,1,75
332,184,51686,6,0,P|396:160|384:64,1,150
320,36,52191,1,0,0:0:0:0:
224,40,52360,1,0,0:0:0:0:
148,104,52528,1,0,0:0:0:0:
144,200,52697,1,0,0:0:0:0:
192,284,52866,1,0,0:0:0:0:
284,308,53034,5,0,0:0:0:0:
408,268,53203,1,0,0:0:0:0:
416,240,53287,1,0,0:0:0:0:
424,212,53371,1,0,0:0:0:0:
432,184,53455,1,0,0:0:0:0:
440,156,53540,1,0,0:0:0:0:
448,128,53624,1,0,0:0:0:0:
456,100,53708,5,0,0:0:0:0:
420,88,53792,1,0,0:0:0:0:
384,80,53877,2,0,L|288:68,1,75
116,168,54382,6,0,L|190:177,1,75
224,284,54719,2,0,L|298:293,1,75
446,217,55057,2,0,L|372:208,1,75
304,120,55394,1,0,0:0:0:0:
196,88,55562,6,0,P|152:72|128:40,1,75
236,192,55899,2,0,P|200:220|152:228,1,75
364,200,56236,2,0,P|396:248|400:280,1,75
312,332,56573,1,0,0:0:0:0:
200,344,56742,1,0,0:0:0:0:
97,230,56910,6,0,L|171:226,1,75
248,140,57248,1,0,0:0:0:0:
300,40,57416,1,0,0:0:0:0:
248,140,57585,2,0,L|173:143,1,75
89,47,57922,2,0,L|164:44,2,75
56,224,58427,5,0,0:0:0:0:
173,143,58596,1,0,0:0:0:0:
89,47,58764,1,0,0:0:0:0:
164,248,58933,1,0,0:0:0:0:
256,188,59101,2,0,P|292:172|392:244,1,150
416,324,59607,1,0,0:0:0:0:
424,144,59776,6,0,P|388:116|348:104,1,75
168,84,60113,2,0,P|196:60|231:46,1,75
476,68,60450,2,0,P|440:40|400:28,1,75
231,45,60787,1,0,0:0:0:0:
240,156,60955,1,0,0:0:0:0:
336,96,61124,5,0,0:0:0:0:
160,160,61292,2,0,L|76:164,1,75
168,244,61630,1,0,0:0:0:0:
168,244,61798,2,0,L|325:237,1,150
393,153,62304,6,0,P|392:111|375:69,2,75
360,312,62809,2,0,P|342:345|316:371,1,75
154,329,63146,2,0,P|187:311|224:304,1,75
164,208,63483,1,0,0:0:0:0:
52,192,63652,1,0,0:0:0:0:
128,80,63821,5,0,0:0:0:0:
160,216,63989,1,0,0:0:0:0:
144,80,64158,1,0,0:0:0:0:
44,200,64326,1,0,0:0:0:0:
164,80,64495,2,0,L|324:80,1,150
416,36,65000,1,0,0:0:0:0:
420,148,65169,6,0,P|432:200|404:276,1,112.5
408,280,65506,1,0,0:0:0:0:
256,348,65674,1,0,0:0:0:0:
256,348,65843,2,0,P|244:296|272:220,1,112.5
268,216,66180,1,0,0:0:0:0:
168,152,66349,1,0,0:0:0:0:
168,152,66518,2,0,P|126:188|71:200,1,112.5
47,197,66854,1,0,0:0:0:0:
16,88,67023,1,0,0:0:0:0:
120,48,67191,5,0,0:0:0:0:
228,76,67360,1,0,0:0:0:0:
196,184,67528,1,0,0:0:0:0:
92,160,67697,1,0,0:0:0:0:
244,76,67866,6,0,P|288:80|360:124,1,112.5
364,132,68203,1,0,0:0:0:0:
336,296,68371,1,0,0:0:0:0:
336,296,68540,2,0,P|304:249|256:221,1,112.5
236,212,68877,1,0,0:0:0:0:
100,112,69045,1,0,0:0:0:0:
100,112,69214,2,0,P|136:88|204:68,1,112.5
228,68,69551,1,0,0:0:0:0:
312,140,69719,1,0,0:0:0:0:
424,48,69888,5,0,0:0:0:0:
312,28,70057,1,0,0:0:0:0:
312,140,70225,2,0,B|284:172|316:224|316:224|344:196,1,112.5
344,192,70562,5,0,0:0:0:0:
312,28,70731,2,0,L|224:12,1,75
128,44,71068,1,0,0:0:0:0:
96,152,71236,1,0,0:0:0:0:
204,120,71405,1,0,0:0:0:0:
128,44,71573,2,0,L|48:80,1,75
44,256,71910,6,0,L|112:225,1,75
200,300,72248,1,0,0:0:0:0:
200,300,72416,2,0,P|256:280|360:304,1,150
456,304,72922,1,0,0:0:0:0:
480,196,73090,1,0,0:0:0:0:
372,160,73259,5,0,0:0:0:0:
260,180,73427,1,0,0:0:0:0:
156,48,73596,1,0,0:0:0:0:
260,92,73764,1,0,0:0:0:0:
172,208,73933,2,0,L|92:240,2,75
296,268,74439,1,0,0:0:0:0:
296,268,74776,5,0,0:0:0:0:
400,160,74945,1,0,0:0:0:0:
312,48,75113,1,0,0:0:0:0:
208,152,75281,1,0,0:0:0:0:
388,268,75450,5,0,0:0:0:0:
392,232,75534,1,0,0:0:0:0:
396,196,75618,1,0,0:0:0:0:
400,160,75703,1,0,0:0:0:0:
404,124,75787,6,0,P|356:84|256:76,1,150
236,80,76208,1,0,0:0:0:0:
200,88,76292,1,0,0:0:0:0:
112,132,76461,2,0,P|84:192|96:232,1,75
132,284,76798,1,0,0:0:0:0:
208,224,76967,1,0,0:0:0:0:
324,268,77135,6,0,P|376:256|412:172,1,150
380,80,77641,1,0,0:0:0:0:
284,84,77809,2,0,B|248:92|248:92|204:80,1,75
108,172,78146,2,0,B|144:164|144:164|188:176,1,75
384,260,78483,6,0,P|312:278|239:261,1,150
212,236,78905,1,0,0:0:0:0:
192,204,78989,1,0,0:0:0:0:
256,132,79158,2,0,L|348:144,1,75
280,36,79495,1,0,0:0:0:0:
184,28,79663,1,0,0:0:0:0:
256,132,79832,6,0,P|332:120|377:52,1,150
280,36,80337,1,0,0:0:0:0:
179,98,80506,1,0,0:0:0:0:
164,132,80590,1,0,0:0:0:0:
152,168,80674,5,0,0:0:0:0:
116,312,80843,1,0,0:0:0:0:
276,348,81012,1,0,0:0:0:0:
388,232,81180,6,0,B|428:168|428:168|384:76,1,150
376,68,81601,1,0,0:0:0:0:
356,36,81686,1,0,0:0:0:0:
244,48,81854,2,0,P|188:64|148:72,1,75
104,160,82191,1,0,0:0:0:0:
64,264,82360,1,0,0:0:0:0:
104,160,82528,6,0,P|172:180|272:192,1,150
348,184,83034,1,0,0:0:0:0:
364,88,83203,2,0,P|316:92|280:112,1,75
332,280,83540,2,0,P|380:276|416:256,1,75
250,191,83877,6,0,B|182:195|182:195|122:267,1,150
112,292,84298,1,0,0:0:0:0:
92,324,84382,1,0,0:0:0:0:
188,336,84551,2,0,L|236:268,2,75
312,320,85057,1,0,0:0:0:0:
312,320,85225,6,0,P|320:256|248:184,1,150
216,116,85731,2,0,P|216:68|236:36,1,75
152,184,86068,2,0,P|104:184|72:164,2,75
355,124,86573,6,0,P|286:95|215:115,1,150
152,184,87079,1,0,0:0:0:0:
132,288,87248,1,0,0:0:0:0:
340,288,87416,1,0,0:0:0:0:
320,184,87585,1,0,0:0:0:0:
240,40,87753,1,0,0:0:0:0:
132,288,87922,6,0,B|97:211|242:162|242:162|381:211|339:290,1,375
