osu file format v14

[General]
AudioFilename: audio.mp3
AudioLeadIn: 0
PreviewTime: 54382
Countdown: 1
SampleSet: Soft
StackLeniency: 0.7
Mode: 0
LetterboxInBreaks: 0
WidescreenStoryboard: 1

[Editor]
Bookmarks: 11090
DistanceSpacing: 1.5
BeatDivisor: 4
GridSize: 4
TimelineZoom: 1

[Metadata]
Title:Refrain
TitleUnicode:リフレイン
Artist:Luck Life
ArtistUnicode:ラックライフ
Creator:jyu
Version:Hard
Source:最遊記RELOAD BLAST
Tags:Saiyuki ending tv size Yahuri alpacacokelat
BeatmapID:1378072
BeatmapSetID:646897

[Difficulty]
HPDrainRate:5
CircleSize:3.8
OverallDifficulty:5
ApproachRate:7
SliderMultiplier:1.1
SliderTickRate:1

[Events]
//Background and Video events
0,0,"756576.jpg",0,0
Video,0,"Saiyuuki Reload Blast Ending - Refrain Luck Life_mute.mp4"
//Break Periods
2,78683,80280
//Storyboard Layer 0 (Background)
//Storyboard Layer 1 (Fail)
//Storyboard Layer 2 (Pass)
//Storyboard Layer 3 (Foreground)
//Storyboard Sound Samples

[TimingPoints]
450.271001009916,337.078651685393,4,2,5,50,1,0
54382,-100,4,2,5,50,0,1
64832,-100,4,2,5,50,0,0
65169,-100,4,2,5,50,0,1
75955,-100,4,2,5,50,0,0

[Colours]
Combo1 : 255,125,190
Combo2 : 250,188,95
Combo3 : 179,0,89
Combo4 : 150,89,16

[HitObjects]
100,92,450,5,4,0:0:0:0:
332,332,1630,2,0,L|396:332,1,55
448,276,1967,1,0,0:0:0:0:
100,292,3146,5,4,0:0:0:0:
444,40,4326,2,0,L|380:40,1,55
328,96,4663,1,0,0:0:0:0:
256,192,5843,12,4,8540,0:0:0:0:
256,88,9719,5,4,0:0:0:0:
160,220,10057,1,4,0:0:0:0:
288,324,10394,1,4,0:0:0:0:
364,180,10731,1,4,0:0:0:0:
232,80,11068,6,0,L|104:100,1,110,4|0,0:0|0:0,0:0:0:0:
48,68,11573,1,0,0:0:0:0:
60,232,11910,1,0,0:0:0:0:
104,300,12079,2,0,P|136:328|160:332,1,55
228,312,12416,6,0,B|284:304|284:304|344:316,1,110
416,332,12922,1,0,0:0:0:0:
440,252,13090,1,0,0:0:0:0:
408,88,13427,1,0,0:0:0:0:
244,88,13764,6,0,P|224:128|240:200,1,110,4|0,0:0|0:0,0:0:0:0:
296,244,14270,1,0,0:0:0:0:
448,312,14607,1,0,0:0:0:0:
448,312,14776,2,0,L|456:236,1,55
448,176,15113,6,0,B|444:136|444:136|392:72,1,110
324,48,15618,1,0,0:0:0:0:
240,56,15787,2,0,L|168:64,1,55
184,144,16124,2,0,L|112:152,1,55
92,240,16461,6,0,L|220:228,1,110,4|0,0:0|0:0,0:0:0:0:
284,224,16967,1,0,0:0:0:0:
424,136,17304,1,0,0:0:0:0:
372,72,17472,2,0,P|328:52|300:44,1,55
240,44,17809,6,0,P|192:56|108:48,1,110
56,92,18315,1,0,0:0:0:0:
84,172,18483,1,0,0:0:0:0:
56,336,18821,1,0,0:0:0:0:
220,304,19158,6,0,B|272:288|272:288|336:304,1,110,4|0,0:0|0:0,0:0:0:0:
404,324,19663,1,0,0:0:0:0:
416,160,20000,1,0,0:0:0:0:
416,160,20169,2,0,L|340:152,1,55
280,140,20506,6,0,B|244:120|244:120|208:48,1,110
132,60,21012,2,0,L|156:124,1,55
76,148,21349,2,0,L|100:212,1,55
152,260,21686,1,0,0:0:0:0:
228,224,21854,1,0,0:0:0:0:
300,268,22023,5,4,0:0:0:0:
416,48,22528,2,0,L|348:36,1,55
140,152,23203,2,0,L|208:140,1,55
360,144,23708,2,0,P|384:192|388:256,2,110
284,116,24551,1,0,0:0:0:0:
256,192,24719,6,0,L|248:268,1,55
172,216,25057,2,0,L|177:161,1,55
96,172,25394,2,0,L|84:296,1,110
160,320,25899,2,0,P|204:316|232:320,1,55
296,336,26236,5,0,0:0:0:0:
440,252,26573,1,0,0:0:0:0:
300,164,26910,1,0,0:0:0:0:
220,176,27079,2,0,L|200:236,1,55
132,272,27416,5,0,0:0:0:0:
208,36,27922,2,0,P|260:36|280:44,1,55
444,208,28596,2,0,P|416:203|389:207,1,55
252,296,29101,2,0,P|208:292|148:248,2,110
256,212,29944,1,0,0:0:0:0:
288,136,30113,6,0,L|352:152,1,55
336,68,30450,2,0,L|282:54,1,55
200,60,30787,1,0,0:0:0:0:
120,48,30955,1,0,0:0:0:0:
72,116,31124,1,0,0:0:0:0:
128,176,31292,1,0,0:0:0:0:
204,148,31461,5,0,0:0:0:0:
256,212,31630,2,0,P|260:252|252:288,2,55
176,236,32135,1,0,0:0:0:0:
96,260,32304,2,0,P|93:232|98:205,2,55
152,320,32809,6,0,L|224:332,1,55
284,300,33146,2,0,L|356:312,1,55
412,232,33483,2,0,L|280:212,1,110
244,160,33989,1,0,0:0:0:0:
200,92,34158,6,0,P|144:72|136:64,1,55
68,96,34495,2,0,P|52:140|56:212,1,110
164,312,35169,1,0,0:0:0:0:
240,276,35337,1,0,0:0:0:0:
320,292,35506,6,0,P|352:296|392:284,1,55
408,216,35843,2,0,P|400:176|384:152,1,55
316,136,36180,2,0,L|244:156,2,55
352,60,36686,1,0,0:0:0:0:
276,28,36854,5,0,0:0:0:0:
192,20,37023,2,0,B|140:48|140:48|108:104,2,110
252,76,37866,1,0,0:0:0:0:
252,160,38034,1,0,0:0:0:0:
252,244,38203,6,0,L|252:304,1,55
336,300,38540,2,0,L|336:245,1,55
252,160,38877,2,0,P|200:172|172:224,1,110
176,300,39382,1,0,0:0:0:0:
100,264,39551,6,0,P|96:196|124:144,1,110
168,100,40057,1,0,0:0:0:0:
240,56,40225,2,0,B|272:48|272:48|364:64,1,110
416,108,40731,1,0,0:0:0:0:
448,184,40899,5,0,0:0:0:0:
396,248,41068,2,0,B|376:268|344:272|344:272|312:324,2,110
232,232,42079,2,0,L|200:284,1,55
148,340,42416,5,0,0:0:0:0:
72,192,42753,1,0,0:0:0:0:
228,136,43090,1,0,0:0:0:0:
384,192,43427,1,0,0:0:0:0:
420,120,43596,5,4,0:0:0:0:
68,76,44944,2,0,P|80:140|56:248,2,165
232,64,46292,6,0,P|284:76|344:56,1,110
420,52,46798,1,0,0:0:0:0:
436,132,46967,2,0,L|452:248,1,110
400,304,47472,1,0,0:0:0:0:
344,244,47641,6,0,B|336:200|336:200|256:192,1,110
188,188,48146,1,0,0:0:0:0:
104,184,48315,2,0,B|39:177|39:177|31:133,1,110
72,60,48821,1,0,0:0:0:0:
152,48,48989,5,4,0:0:0:0:
444,48,50337,2,0,B|472:88|472:88|468:216,2,165
280,80,51686,6,0,P|232:76|160:48,1,110,4|0,0:0|0:0,0:0:0:0:
100,88,52191,2,0,L|112:148,1,55
44,188,52528,2,0,L|56:248,1,55
136,252,52866,2,0,L|148:312,1,55
224,332,53203,5,0,0:0:0:0:
240,328,53287,1,0,0:0:0:0:
256,324,53371,1,0,0:0:0:0:
272,320,53455,1,0,0:0:0:0:
288,316,53540,1,0,0:0:0:0:
304,312,53624,1,0,0:0:0:0:
320,308,53708,2,0,L|360:300,4,27.5
308,144,54382,6,0,P|340:124|360:92,1,55,4|0,0:0|0:0,0:0:0:0:
252,72,54719,2,0,P|220:92|200:124,1,55
220,201,55057,2,0,B|280:181|280:181|308:141,1,110
359,80,55562,1,0,0:0:0:0:
433,115,55731,1,0,0:0:0:0:
433,197,55899,6,0,L|421:260,1,55
372,316,56236,1,0,0:0:0:0:
293,290,56405,2,0,P|236:285|180:310,1,110
107,322,56910,6,0,L|93:248,1,55
58,194,57248,1,0,0:0:0:0:
104,128,57416,2,0,L|172:120,2,55
100,44,57922,2,0,L|168:36,1,55
224,80,58259,1,0,0:0:0:0:
304,64,58427,6,0,P|336:60|368:40,1,55
428,88,58764,2,0,L|440:152,1,55
372,240,59101,2,0,L|352:120,1,110
192,206,59776,6,0,P|160:230|124:242,1,55
100,158,60113,2,0,P|132:134|168:122,1,55
252,150,60450,2,0,P|284:158|364:118,1,110
416,76,60955,1,0,0:0:0:0:
468,140,61124,5,0,0:0:0:0:
436,216,61292,2,0,L|400:288,1,55
344,216,61630,1,0,0:0:0:0:
344,216,61798,2,0,L|288:320,1,110
184,336,62304,6,0,P|148:316|144:280,2,55
232,252,62809,1,0,0:0:0:0:
304,212,62978,1,0,0:0:0:0:
372,164,63146,2,0,P|392:140|396:104,1,55
344,52,63483,1,0,0:0:0:0:
264,28,63652,1,0,0:0:0:0:
184,52,63821,6,0,L|128:72,1,55
176,140,64158,2,0,L|228:160,1,55
168,220,64495,2,0,L|56:276,1,110
100,344,65000,1,0,0:0:0:0:
191,314,65169,6,0,P|244:301|296:315,1,110
396,316,65674,1,0,0:0:0:0:
451,215,65843,2,0,P|387:202|341:216,1,110
245,214,66349,1,0,0:0:0:0:
194,111,66518,2,0,P|247:99|300:113,1,110
398,124,67023,1,0,0:0:0:0:
337,45,67191,2,0,P|297:25|273:21,1,55
205,25,67528,2,0,P|178:33|155:47,1,55
188,152,67866,6,0,P|240:165|293:153,1,110
393,141,68371,1,0,0:0:0:0:
443,243,68540,2,0,P|390:255|338:242,1,110
241,221,69045,1,0,0:0:0:0:
190,323,69214,6,0,P|243:335|295:321,1,110
120,228,69888,1,0,0:0:0:0:
76,296,70057,2,0,L|64:368,2,55
120,228,70562,5,0,0:0:0:0:
184,176,70731,2,0,L|244:184,1,55
296,124,71068,2,0,L|356:132,2,55
256,52,71573,2,0,L|201:44,1,55
76,92,71910,6,0,L|130:99,1,55
164,176,72248,2,0,L|218:183,1,55
382,197,72753,1,0,0:0:0:0:
322,254,72922,2,0,P|307:284|308:323,1,55
207,305,73259,6,0,P|203:277|190:254,1,55
133,193,73596,2,0,P|119:169|115:141,1,55
148,65,73933,2,0,L|225:50,1,55
283,70,74270,1,0,0:0:0:0:
360,39,74439,1,0,0:0:0:0:
437,67,74607,6,0,B|450:120|450:120|427:186,1,110
360,213,75113,2,0,L|296:231,2,55
360,130,75618,1,0,0:0:0:0:
256,192,75787,12,4,78483,0:0:0:0:
141,103,81180,6,0,P|187:107|255:73,1,110,4|0,0:0|0:0,0:0:0:0:
316,42,81686,1,0,0:0:0:0:
425,165,82023,1,0,0:0:0:0:
368,224,82191,2,0,L|350:288,1,55
277,311,82528,6,0,P|243:296|159:317,1,110,4|4,0:0|0:0,0:0:0:0:
93,329,83034,1,0,0:0:0:0:
67,250,83203,2,0,L|51:185,1,55
116,107,83540,2,0,L|129:160,1,55
203,195,83877,6,0,P|252:186|320:224,1,110,4|0,0:0|0:0,0:0:0:0:
368,262,84382,1,0,0:0:0:0:
420,105,84719,1,0,0:0:0:0:
343,73,84888,2,0,P|308:62|278:62,1,55
208,76,85225,6,0,P|166:90|84:79,1,110,4|0,0:0|0:0,0:0:0:0:
44,145,85731,1,0,0:0:0:0:
75,220,85899,1,0,0:0:0:0:
156,204,86068,2,0,P|201:198|232:206,1,55
289,221,86405,1,0,0:0:0:0:
370,208,86573,6,0,B|393:182|393:182|400:99,1,110,4|0,0:0|0:0,0:0:0:0:
334,55,87079,2,0,L|279:49,1,55
219,126,87416,2,0,L|274:132,2,55
136,124,87922,1,4,0:0:0:0:
