osu file format v14

[General]
AudioFilename: audio.mp3
AudioLeadIn: 0
PreviewTime: 54300
Countdown: 1
SampleSet: Soft
StackLeniency: 0.7
Mode: 0
LetterboxInBreaks: 0
WidescreenStoryboard: 1

[Editor]
DistanceSpacing: 1.5
BeatDivisor: 4
GridSize: 32
TimelineZoom: 1

[Metadata]
Title:Namae wo Yobu yo (TV Size)
TitleUnicode:名前を呼ぶよ (TV Size)
Artist:Luck Life
ArtistUnicode:ラックライフ
Creator:Suzy-
Version:Hard
Source:文豪ストレイドッグス
Tags:anime dazai dgap
BeatmapID:1182539
BeatmapSetID:550896

[Difficulty]
HPDrainRate:5
CircleSize:4
OverallDifficulty:5
ApproachRate:7
SliderMultiplier:1.4
SliderTickRate:1

[Events]
//Background and Video events
0,0,"e9241f1d55ed2ff497e60bc0d40fe7a8012ff040_hq.jpg",0,0
//Break Periods
//Storyboard Layer 0 (Background)
//Storyboard Layer 1 (Fail)
//Storyboard Layer 2 (Pass)
//Storyboard Layer 3 (Foreground)
//Storyboard Sound Samples

[TimingPoints]
297,740.740740740741,4,2,0,70,1,0
19544,731.707317073171,4,2,0,70,1,0
54665,-100,4,2,0,70,0,1
101495,-100,4,2,0,70,0,0

[HitObjects]
61,99,297,6,0,P|123:68|194:58,1,140,0|0,2:0|2:0,2:0:0:0:
394,114,1778,2,0,P|427:142|445:193,2,70,0|0|0,2:0|2:0|2:0,2:0:0:0:
288,108,2889,2,0,P|233:124|175:196,1,140,0|0,2:0|2:0,2:0:0:0:
143,283,4000,1,0,2:0:0:0:
236,331,4371,1,0,2:0:0:0:
338,307,4741,6,0,B|392:292|426:267|426:267,2,70,0|0|0,2:0|2:0|2:0,2:0:0:0:
232,307,5852,2,0,P|177:291|119:219,1,140,0|0,2:0|2:0,2:0:0:0:
83,133,6963,1,0,2:0:0:0:
158,60,7334,1,0,2:0:0:0:
262,56,7704,6,0,P|331:100|341:114,2,70,0|0|0,2:0|2:0|2:0,2:0:0:0:
157,63,8815,2,0,P|105:109|86:175,1,140,0|0,2:0|2:0,2:0:0:0:
126,272,9926,1,0,2:0:0:0:
215,327,10297,1,0,2:0:0:0:
313,294,10667,6,0,P|346:263|361:210,2,70,0|0|0,2:0|2:0|2:0,2:0:0:0:
208,284,11778,2,0,P|178:216|182:134,1,140,0|0,2:0|2:0,2:0:0:0:
235,63,12889,1,0,2:0:0:0:
164,260,13630,6,0,L|95:321,2,70,0|0|0,2:0|2:0|2:0,2:0:0:0:
241,188,14741,6,0,L|310:127,2,70,0|0|0,2:0|2:0|2:0,2:0:0:0:
263,290,15852,6,0,P|318:291|356:265,1,70,0|0,2:0|2:0,2:0:0:0:
256,192,16593,12,0,18815,2:0:0:0:
414,107,19544,6,0,P|439:138|459:170,1,70
457,268,20275,2,0,P|434:308|400:341,1,70,0|0,2:0|2:0,2:0:0:0:
334,268,21007,1,0,2:0:0:0:
334,268,21373,1,0,2:0:0:0:
324,163,21739,2,0,P|302:108|284:93,1,70
193,125,22470,6,0,P|152:154|136:192,2,70,0|0|0,2:0|2:0|2:0,2:0:0:0:
292,97,23568,1,0,2:0:0:0:
292,97,23934,1,0,2:0:0:0:
292,97,24300,1,0,2:0:0:0:
384,47,24665,2,0,P|404:76|427:118,1,70
435,210,25397,2,0,P|476:245|507:249,2,70,0|0|0,2:0|2:0|2:0,2:0:0:0:
373,128,26495,1,0,2:0:0:0:
290,62,26861,2,0,P|241:85|220:107,2,70,0|0|0,2:0|2:0|2:0,2:0:0:0:
394,72,27958,1,0,2:0:0:0:
471,142,28324,6,0,L|450:239,1,70,0|0,2:0|2:0,2:0:0:0:
404,302,29056,2,0,L|337:362,1,70,0|0,2:0|2:0,2:0:0:0:
246,352,29787,2,0,L|153:352,1,70,0|0,2:0|2:0,2:0:0:0:
99,280,30519,1,0,2:0:0:0:
97,147,30885,5,0,2:0:0:0:
194,114,31251,2,0,P|222:158|221:194,1,70,0|0,2:0|2:0,2:0:0:0:
215,226,31800,1,0,2:0:0:0:
196,275,31983,1,0,2:0:0:0:
98,236,32348,1,0,2:0:0:0:
89,131,32714,6,0,P|115:108|148:96,1,70,0|0,2:0|2:0,2:0:0:0:
252,83,33446,2,0,P|286:81|316:97,1,70,0|0,2:0|2:0,2:0:0:0:
401,160,34178,5,0,2:0:0:0:
363,61,34544,1,0,2:0:0:0:
263,28,34909,2,0,P|228:27|197:43,1,70,0|0,2:0|2:0,2:0:0:0:
116,110,35641,1,0,2:0:0:0:
116,110,36007,1,0,2:0:0:0:
116,110,36373,1,0,2:0:0:0:
38,180,36739,5,0,2:0:0:0:
7,280,37104,2,0,P|-3:322|10:378,1,70,0|0,2:0|2:0,2:0:0:0:
50,356,37653,2,0,P|108:340|144:296,1,105,0|0,2:0|2:0,2:0:0:0:
189,216,38568,2,0,P|198:174|192:144,2,70,0|0|0,2:0|2:0|2:0,2:0:0:0:
147,312,39665,5,0,2:0:0:0:
74,236,40031,2,0,P|63:197|76:149,1,70,0|0,2:0|2:0,2:0:0:0:
157,114,40763,2,0,L|193:139,2,35,0|0|0,2:0|2:0|2:0,2:0:0:0:
70,53,41495,1,0,2:0:0:0:
70,53,41861,1,0,2:0:0:0:
174,50,42226,2,0,L|210:33,2,35,0|0|0,2:0|2:0|2:0,2:0:0:0:
118,139,42958,5,0,2:0:0:0:
125,243,43324,2,0,P|159:246|193:238,1,70,0|0,2:0|2:0,2:0:0:0:
262,159,44056,2,0,P|296:152|330:160,2,70,0|0|0,2:0|2:0|2:0,2:0:0:0:
202,245,45153,1,0,2:0:0:0:
257,334,45519,1,0,2:0:0:0:
361,320,45885,2,0,P|380:246|364:177,1,140,0|0,2:0|2:0,2:0:0:0:
311,96,46983,1,0,2:0:0:0:
212,131,47349,1,0,2:0:0:0:
150,216,47714,2,0,L|128:256,2,35,0|0|0,2:0|2:0|2:0,2:0:0:0:
197,122,48446,5,0,2:0:0:0:
300,138,48812,2,0,P|337:175|363:207,1,70,0|0,2:0|2:0,2:0:0:0:
385,226,49361,1,0,2:0:0:0:
400,276,49544,2,0,P|393:316|373:347,1,70,0|0,2:0|2:0,2:0:0:0:
273,342,50275,2,0,P|234:296|225:266,2,70,0|0|0,2:0|2:0|2:0,2:0:0:0:
325,334,51190,6,0,L|354:309,2,35,0|0|0,2:0|2:0|2:0,2:0:0:0:
273,342,51739,2,0,P|249:303|243:258,1,70,0|0,2:0|2:0,2:0:0:0:
281,181,52470,2,0,P|313:199|332:244,1,70,0|0,2:0|2:0,2:0:0:0:
264,251,53202,5,0,2:0:0:0:
347,187,53568,1,0,2:0:0:0:
302,91,53934,1,0,2:0:0:0:
100,148,54665,6,0,P|77:195|74:236,1,70
135,297,55397,6,0,L|167:317,2,35
87,273,55946,1,0,0:0:0:0:
44,242,56129,6,0,P|18:220|4:182,1,70
66,102,56861,6,0,L|24:124,2,35
113,80,57409,1,0,0:0:0:0:
161,59,57592,6,0,P|215:48|253:52,1,70
275,74,58141,2,0,P|328:73|370:84,1,70
383,111,58690,2,0,P|425:116|457:153,1,70
434,237,59422,1,0,0:0:0:0:
355,306,59787,1,0,0:0:0:0:
259,262,60153,5,0,0:0:0:0:
299,165,60519,2,0,P|367:184|381:196,1,70
407,279,61251,6,0,L|388:322,2,35
422,228,61800,6,0,P|402:202|359:187,1,70
316,200,62348,2,0,L|315:240,1,35
330,285,62715,6,0,L|343:322,2,35
315,234,63263,1,0,0:0:0:0:
299,183,63446,6,0,P|245:172|207:176,1,70
188,140,63995,2,0,P|135:139|93:150,1,70
70,162,64544,2,0,P|60:198|82:242,1,70
93,275,65092,1,0,0:0:0:0:
132,309,65275,1,0,0:0:0:0:
225,217,65641,6,0,L|265:182,2,35
126,302,66373,1,0,0:0:0:0:
94,201,66739,5,0,0:0:0:0:
55,103,67104,2,0,P|36:88|15:74,2,35
119,189,67836,1,0,0:0:0:0:
191,264,68202,1,0,0:0:0:0:
294,248,68568,5,0,0:0:0:0:
338,219,68751,1,0,0:0:0:0:
374,181,68934,2,0,B|351:71|300:171|265:92,1,140
169,116,70031,2,0,L|127:117,2,35
221,113,70580,1,0,0:0:0:0:
273,110,70763,1,0,0:0:0:0:
325,112,70946,6,0,L|374:123,1,35
452,168,71495,1,0,0:0:0:0:
428,270,71861,5,0,0:0:0:0:
383,298,72044,2,0,P|332:313|260:308,1,105
236,283,72775,2,0,P|185:297|141:324,1,105
89,313,73507,2,0,P|40:291|-11:241,1,105
24,210,74238,2,0,P|83:177|141:166,1,105
167,188,74970,2,0,P|219:188|269:173,1,105
308,136,75702,2,0,P|355:80|413:54,1,105
431,83,76434,1,0,0:0:0:0:
451,131,76617,6,0,L|491:172,1,35
475,208,76983,2,0,L|480:253,1,35
451,287,77348,2,0,L|433:320,1,35
382,327,77714,5,0,0:0:0:0:
329,331,77897,2,0,P|294:329|260:318,1,70
208,316,78446,2,0,P|181:324|161:348,2,35
255,292,78995,1,0,0:0:0:0:
304,310,79178,6,0,L|285:353,2,35
280,262,79727,6,0,P|251:248|229:242,2,35
326,286,80275,2,0,L|325:326,1,35
371,347,80642,6,0,L|405:341,1,35
451,315,81007,6,0,P|474:264|479:227,1,70
474,197,81556,2,0,P|447:151|416:121,1,70
405,95,82105,2,0,P|379:67|330:63,1,70
296,61,82653,1,0,0:0:0:0:
245,73,82836,1,0,0:0:0:0:
164,140,83202,1,0,0:0:0:0:
253,195,83568,5,0,0:0:0:0:
256,142,83751,2,0,P|215:130|185:130,1,70
140,134,84300,2,0,P|113:142|93:166,2,35
191,122,84849,1,0,0:0:0:0:
218,166,85032,6,0,L|237:209,2,35
219,113,85581,6,0,P|248:99|270:93,2,35
190,157,86129,2,0,L|191:197,1,35
224,233,86496,6,0,L|258:227,1,35
308,243,86861,6,0,P|360:224|390:201,1,70
418,191,87410,2,0,P|464:164|494:133,1,70
487,101,87959,2,0,P|477:65|436:38,1,70
404,24,88507,1,0,0:0:0:0:
352,15,88690,1,0,0:0:0:0:
249,36,89056,6,0,L|214:10,2,35
331,101,89787,1,0,0:0:0:0:
271,187,90153,5,0,0:0:0:0:
167,207,90519,2,0,P|130:209|114:215,2,35
259,257,91251,1,0,0:0:0:0:
348,312,91617,1,0,0:0:0:0:
422,238,91983,5,0,0:0:0:0:
405,188,92165,1,0,0:0:0:0:
379,141,92348,2,0,B|386:66|273:152|291:36,1,140
88,125,93812,6,0,P|124:169|139:179,1,70
48,236,94544,2,0,P|84:280|99:290,1,70
193,323,95275,5,0,0:0:0:0:
245,330,95458,2,0,P|316:328|356:291,1,105
389,286,96190,2,0,P|429:253|452:206,1,105
442,154,96922,2,0,P|371:156|331:193,1,105
300,203,97654,2,0,P|223:220|179:205,1,105
104,169,98568,5,0,0:0:0:0:
173,248,98934,1,0,0:0:0:0:
269,290,99300,1,0,0:0:0:0:
314,195,99665,6,0,L|299:156,2,35
112,89,101495,6,0,P|177:88|208:86,1,70
197,138,102044,2,0,P|132:137|101:135,1,70
80,160,102592,1,0,0:0:0:0:
262,286,103324,5,0,2:0:0:0:
344,221,103690,2,0,P|361:207|383:189,2,35,0|0|0,2:0|2:0|2:0,2:0:0:0:
256,279,104422,6,0,L|177:298,2,70,0|0|0,2:0|2:0|2:0,2:0:0:0:
361,278,105519,6,0,L|452:301,2,70,0|0|0,2:0|2:0|2:0,2:0:0:0:
299,192,106617,6,0,L|299:97,2,70,0|0|0,2:0|2:0|2:0,2:0:0:0:
