osu file format v14

[General]
AudioFilename: audio.mp3
AudioLeadIn: 0
PreviewTime: 61401
Countdown: 1
SampleSet: Soft
StackLeniency: 0.2
Mode: 0
LetterboxInBreaks: 0
WidescreenStoryboard: 0

[Editor]
DistanceSpacing: 0.3
BeatDivisor: 4
GridSize: 4
TimelineZoom: 0.6000011

[Metadata]
Title:Lily (TV Size)
TitleUnicode:Lily (TV Size)
Artist:Luck Life
ArtistUnicode:ラックライフ
Creator:kanor
Version:Hope
Source:文豪ストレイドッグス
Tags:bungo bungou stray dogs dazai osamu nakahara chuuya nakajima atsushi akutagawa ryuunosuke nao tomori papple104 pappl_e_104 ed ending Naotoshi anime japanese
BeatmapID:2132073
BeatmapSetID:1018856

[Difficulty]
HPDrainRate:6
CircleSize:4.5
OverallDifficulty:8
ApproachRate:9
SliderMultiplier:1.6
SliderTickRate:1

[Events]
//Background and Video events
0,0,"BG.jpg",0,0
//Break Periods
//Storyboard Layer 0 (Background)
//Storyboard Layer 1 (Fail)
//Storyboard Layer 2 (Pass)
//Storyboard Layer 3 (Foreground)
//Storyboard Layer 4 (Overlay)
//Storyboard Sound Samples

[TimingPoints]
2755,451.127819548872,4,2,1,30,1,0
2755,-133.333333333333,4,2,1,30,0,0
3657,-133.333333333333,4,2,1,5,0,0
4559,-133.333333333333,4,2,1,30,0,0
5461,-133.333333333333,4,2,1,5,0,0
6364,-133.333333333333,4,2,1,30,0,0
7266,-133.333333333333,4,2,1,5,0,0
8168,-133.333333333333,4,2,1,30,0,0
9070,-133.333333333333,4,2,1,5,0,0
9973,-133.333333333333,4,2,1,30,0,0
10875,-133.333333333333,4,2,1,5,0,0
11100,-133.333333333333,4,2,1,30,0,0
12679,-133.333333333333,4,2,1,5,0,0
12905,-133.333333333333,4,2,1,30,0,0
14484,-133.333333333333,4,2,1,5,0,0
14709,-133.333333333333,4,2,1,30,0,0
16288,-133.333333333333,4,2,1,5,0,0
16514,-133.333333333333,4,2,1,30,0,0
17191,-100,4,2,1,60,0,0
31627,-133.333333333333,4,2,1,45,0,0
58694,-133.333333333333,4,2,1,55,0,0
60499,-100,4,2,1,60,0,0
61401,-333.333333333333,4,2,1,30,0,0
62303,-83.3333333333333,4,2,1,70,0,0
68619,-200,4,2,1,30,0,0
69521,-83.3333333333333,4,2,1,70,0,0
90048,-133.333333333333,4,2,1,30,0,0
91176,-100,4,2,1,60,0,0
98394,-133.333333333333,4,2,1,30,0,0
99296,-133.333333333333,4,2,1,5,0,0
100198,-133.333333333333,4,2,1,30,0,0
101100,-133.333333333333,4,2,1,5,0,0
101551,-133.333333333333,4,2,1,60,0,0
101777,-133.333333333333,4,2,0,40,0,0
102003,-133.333333333333,4,2,1,30,0,0
109108,-133.333333333333,4,2,1,5,0,0

[Colours]
Combo1 : 214,186,239
Combo2 : 247,157,247
Combo3 : 239,186,213
Combo4 : 248,177,180

[HitObjects]
28,308,2755,6,0,P|48:296|88:300,1,60.0000022888184,0|0,3:0|3:0,3:0:0:0:
83,298,3093,2,0,P|83:321|59:353,1,60.0000022888184,0|0,3:0|3:0,3:0:0:0:
63,351,3431,2,0,P|42:339|26:303,1,60.0000022888184,0|0,3:0|3:0,3:0:0:0:
26,307,4559,6,0,P|37:334|62:350,1,60.0000022888184,0|0,3:0|3:0,3:0:0:0:
62,350,4897,2,0,P|80:326|82:297,1,60.0000022888184,0|0,3:0|3:0,3:0:0:0:
83,297,5236,2,0,P|53:293|27:307,1,60.0000022888184,0|0,3:0|3:0,3:0:0:0:
484,308,6364,6,0,P|464:296|424:300,1,60.0000022888184,0|0,3:0|3:0,3:0:0:0:
429,298,6702,2,0,P|429:321|453:353,1,60.0000022888184,0|0,3:0|3:0,3:0:0:0:
449,351,7040,2,0,P|470:339|486:303,1,60.0000022888184,0|0,3:0|3:0,3:0:0:0:
486,307,8168,6,0,P|474:334|449:350,1,60.0000022888184,0|0,3:0|3:0,3:0:0:0:
450,350,8506,2,0,P|431:326|429:297,1,60.0000022888184,0|0,3:0|3:0,3:0:0:0:
429,297,8845,2,0,P|458:293|484:307,1,60.0000022888184,0|0,3:0|3:0,3:0:0:0:
76,20,9973,6,0,P|96:8|136:12,1,60.0000022888184,0|0,3:0|3:0,3:0:0:0:
194,73,10311,2,0,P|194:96|170:128,1,60.0000022888184,0|0,3:0|3:0,3:0:0:0:
84,144,10649,2,0,P|63:132|47:96,1,60.0000022888184,0|0,3:0|3:0,3:0:0:0:
118,81,11100,1,8,3:3:0:0:
118,81,11551,1,8,3:3:0:0:
47,100,11777,6,0,P|59:127|84:144,1,60.0000022888184,0|0,3:0|3:0,3:0:0:0:
173,125,12115,2,0,P|191:102|194:73,1,60.0000022888184,0|0,3:0|3:0,3:0:0:0:
131,10,12454,2,0,P|101:6|75:20,1,60.0000022888184,0|0,3:0|3:0,3:0:0:0:
118,81,12905,1,8,3:3:0:0:
118,81,13356,1,8,3:3:0:0:
436,20,13582,6,0,P|416:8|376:12,1,60.0000022888184,0|0,3:0|3:0,3:0:0:0:
318,73,13920,2,0,P|318:96|342:128,1,60.0000022888184,0|0,3:0|3:0,3:0:0:0:
428,144,14258,2,0,P|449:132|465:96,1,60.0000022888184,0|0,3:0|3:0,3:0:0:0:
394,81,14709,1,8,3:3:0:0:
394,81,15161,1,8,3:3:0:0:
464,100,15386,6,0,P|452:127|428:144,1,60.0000022888184,0|0,3:0|3:0,3:0:0:0:
338,125,15724,2,0,P|320:102|318:73,1,60.0000022888184,0|0,3:0|3:0,3:0:0:0:
381,10,16063,2,0,P|410:6|436:20,1,60.0000022888184,0|0,3:0|3:0,3:0:0:0:
394,81,16514,1,8,3:3:0:0:
394,81,16739,2,0,L|402:157,1,60.0000022888184,4|8,0:3|0:3,0:0:0:0:
504,368,17191,6,0,L|492:268,1,80,6|0,0:0|0:0,0:0:0:0:
436,248,17529,1,2,0:0:0:0:
436,248,17642,2,0,P|460:224|528:224,1,80,8|2,0:0|0:0,0:0:0:0:
424,336,18093,1,0,0:0:0:0:
288,260,18318,1,8,0:1:0:0:
360,260,18544,1,10,0:0:0:0:
224,336,18770,1,8,0:1:0:0:
8,368,18995,6,0,L|20:268,1,80,2|0,0:0|0:0,0:0:0:0:
76,248,19333,1,2,0:0:0:0:
76,248,19446,2,0,P|51:224|-16:224,1,80,8|2,0:0|0:0,0:0:0:0:
128,336,19897,1,0,0:0:0:0:
164,192,20123,1,8,0:1:0:0:
148,264,20348,1,10,0:0:0:0:
120,128,20574,1,8,0:1:0:0:
224,232,20800,6,0,L|288:236,1,40,2|0,0:0|0:0,0:0:0:0:
236,160,21025,2,0,L|300:164,1,40,0|2,0:0|0:0,0:0:0:0:
352,264,21251,2,0,B|336:240|336:240|348:164,1,80,8|2,0:0|0:0,0:0:0:0:
466,48,21702,1,0,0:0:0:0:
416,156,21927,1,8,0:1:0:0:
384,88,22153,1,10,0:0:0:0:
512,176,22379,1,8,0:1:0:0:
352,20,22604,6,0,L|288:24,1,40,2|0,0:0|0:0,0:0:0:0:
176,44,22830,2,0,L|112:48,1,40,0|2,0:0|0:0,0:0:0:0:
240,13,23055,2,0,B|248:64|248:64|232:88,1,80,8|2,0:0|0:0,0:0:0:0:
220,248,23506,1,0,0:0:0:0:
180,168,23732,1,8,0:1:0:0:
256,336,23958,1,8,0:0:0:0:
332,168,24183,1,8,0:1:0:0:
184,312,24409,6,0,L|84:324,1,80,2|0,0:0|0:0,0:0:0:0:
104,321,24747,1,2,0:0:0:0:
52,364,24860,2,0,P|37:333|60:269,1,80,8|2,0:0|0:0,0:0:0:0:
120,80,25311,1,0,0:0:0:0:
44,216,25536,1,8,0:1:0:0:
16,148,25762,1,10,0:0:0:0:
172,216,25988,1,8,0:1:0:0:
304,104,26213,6,0,L|404:116,1,80,2|0,0:0|0:0,0:0:0:0:
384,113,26551,1,2,0:0:0:0:
440,160,26664,2,0,P|454:129|431:65,1,80,8|2,0:0|0:0,0:0:0:0:
376,208,27115,1,0,0:0:0:0:
504,200,27341,1,8,0:1:0:0:
440,160,27567,1,10,0:0:0:0:
496,344,27792,1,8,0:1:0:0:
512,276,28018,6,0,P|486:273|464:284,1,40,2|0,0:0|0:0,0:0:0:0:
336,356,28243,2,0,P|310:358|288:348,1,40,0|2,0:0|0:0,0:0:0:0:
400,280,28469,2,0,L|412:388,1,80,8|2,0:0|0:0,0:0:0:0:
256,192,28920,1,0,0:0:0:0:
184,348,29145,1,8,0:1:0:0:
184,348,29258,1,0,0:0:0:0:
184,348,29371,2,0,P|190:329|186:310,1,40,10|0,0:0|0:0,0:0:0:0:
112,280,29597,6,0,L|100:388,1,80,8|2,0:0|0:0,0:0:0:0:
64,196,30048,2,0,L|-23:131,1,80,12|2,0:0|0:0,0:0:0:0:
164,200,30499,2,0,L|263:156,1,80,2|0,0:0|0:0,0:0:0:0:
480,16,30950,6,0,P|456:26|442:46,1,40,8|0,0:0|0:0,0:0:0:0:
488,155,31176,2,0,P|490:129|480:107,1,40,8|0,0:0|0:0,0:0:0:0:
363,92,31401,2,0,P|383:106|408:109,1,40,8|0,0:0|0:0,0:0:0:0:
512,240,31627,6,0,P|460:232|440:248,1,60.0000022888184,4|0,0:0|0:0,0:0:0:0:
420,296,32078,1,0,3:0:0:0:
447,307,32529,1,0,3:0:0:0:
476,301,32980,1,0,3:0:0:0:
455,234,33206,1,2,0:0:0:0:
312,188,33431,6,0,P|304:240|320:260,1,60.0000022888184,2|0,0:0|0:0,0:0:0:0:
348,360,33882,1,0,3:0:0:0:
359,332,34333,1,0,3:0:0:0:
353,303,34785,1,0,3:0:0:0:
306,244,35010,1,2,0:0:0:0:
223,354,35236,6,0,P|171:362|151:346,1,60.0000022888184
188,292,35687,1,0,3:0:0:0:
215,281,36138,1,0,3:0:0:0:
244,287,36589,1,0,3:0:0:0:
223,354,36815,1,2,0:0:0:0:
124,252,37040,5,2,0:0:0:0:
113,225,37491,1,0,3:0:0:0:
119,196,37942,1,0,3:0:0:0:
16,244,38168,1,2,0:0:0:0:
64,300,38394,1,0,3:0:0:0:
44,176,38619,1,2,0:0:0:0:
24,44,38845,6,0,L|32:104,1,60.0000022888184,2|0,0:0|0:0,0:0:0:0:
96,32,39296,1,0,3:0:0:0:
99,61,39747,1,0,3:0:0:0:
103,91,40198,1,0,3:0:0:0:
180,116,40424,1,2,0:0:0:0:
332,104,40649,6,0,L|324:164,1,60.0000022888184,2|0,0:0|0:0,0:0:0:0:
260,92,41100,1,0,3:0:0:0:
257,121,41551,1,0,3:0:0:0:
253,151,42003,1,0,3:0:0:0:
264,232,42228,1,2,0:0:0:0:
336,360,42454,6,0,L|396:352,1,60.0000022888184,2|0,0:0|0:0,0:0:0:0:
512,308,42905,1,0,3:0:0:0:
483,305,43356,1,0,3:0:0:0:
453,301,43807,1,0,3:0:0:0:
395,352,44033,1,2,0:0:0:0:
336,244,44258,5,2,0:0:0:0:
365,241,44709,1,0,3:0:0:0:
395,237,45161,1,0,3:0:0:0:
453,301,45386,1,2,0:0:0:0:
456,100,45612,2,0,B|440:128|440:128|456:196,1,90.0000034332277,8|0,0:0|0:0,0:0:0:0:
453,184,46063,6,0,P|408:164|368:172,2,90.0000034332277,6|2|2,0:0|0:0|0:0,0:0:0:0:
504,240,46965,1,0,3:0:0:0:
508,256,47191,1,0,3:0:0:0:
512,328,47416,2,0,L|432:320,1,60.0000022888184,8|0,0:0|0:0,0:0:0:0:
304,360,47867,6,0,B|296:325|296:325|308:268,2,90.0000034332277,2|2|2,0:0|0:0|0:0,0:0:0:0:
232,284,48770,1,0,3:0:0:0:
216,280,48995,1,0,3:0:0:0:
148,312,49221,2,0,P|144:344|164:384,1,60.0000022888184,8|0,0:0|0:0,0:0:0:0:
96,256,49672,6,0,L|-4:264,2,90.0000034332277,2|2|2,0:0|0:0|0:0,0:0:0:0:
140,204,50574,1,0,3:0:0:0:
144,192,50800,1,0,3:0:0:0:
196,140,51025,2,0,L|184:76,1,60.0000022888184,8|0,0:0|0:0,0:0:0:0:
52,16,51476,6,0,L|40:80,1,60.0000022888184,2|0,0:0|0:0,0:0:0:0:
44,92,51815,1,2,0:0:0:0:
48,108,51927,1,0,0:0:0:0:
116,60,52153,1,2,0:0:0:0:
116,60,52604,1,0,3:0:0:0:
260,84,52830,2,0,L|248:20,1,60.0000022888184,8|0,0:0|0:0,0:0:0:0:
272,160,53281,6,0,L|252:256,2,90.0000034332277,2|2|2,0:0|0:0|0:0,0:0:0:0:
332,72,54183,1,0,3:0:0:0:
336,96,54409,1,0,3:0:0:0:
343,181,54634,2,0,L|332:240,1,60.0000022888184,8|0,0:0|0:0,0:0:0:0:
392,316,55085,6,0,B|344:304|360:340|296:308,2,90.0000034332277,2|2|2,0:0|0:0|0:0,0:0:0:0:
464,352,55988,1,0,3:0:0:0:
460,372,56213,1,0,3:0:0:0:
512,288,56439,2,0,L|500:229,1,60.0000022888184,8|0,0:0|0:0,0:0:0:0:
432,144,56890,6,0,P|480:148|512:120,2,90.0000034332277,2|2|2,0:0|0:0|0:0,0:0:0:0:
372,104,57792,1,0,3:0:0:0:
360,88,58018,1,0,3:0:0:0:
316,200,58243,2,0,P|284:188|244:196,1,60.0000022888184,8|0,0:0|0:0,0:0:0:0:
152,272,58694,6,0,P|178:250|191:211,1,60.0000022888184,2|0,0:0|0:0,0:0:0:0:
188,208,59033,1,2,0:0:0:0:
228,120,59258,1,0,0:0:0:0:
229,101,59371,1,2,0:0:0:0:
192,16,59597,5,0,3:0:0:0:
144,72,59822,1,2,0:0:0:0:
320,16,60048,1,8,0:0:0:0:
368,72,60273,1,8,0:0:0:0:
444,352,60499,6,0,P|425:336|418:314,1,40,10|0,0:0|0:0,0:0:0:0:
295,187,60724,2,0,P|318:188|337:202,1,40,2|0,0:0|0:0,0:0:0:0:
512,233,60950,2,0,P|491:245|468:245,1,40,10|0,0:0|0:0,0:0:0:0:
309,324,61176,2,0,P|317:301|337:288,1,40,2|0,0:0|0:0,0:0:0:0:
420,131,61401,6,0,P|425:154|420:176,1,41.9999987182618
396,244,62078,1,0,0:0:0:0:
260,112,62303,6,0,P|212:96|164:112,1,95.9999970703126,4|0,0:0|0:0,0:0:0:0:
4,268,62755,2,0,P|52:284|100:268,1,95.9999970703126,2|0,0:0|0:0,0:0:0:0:
128,192,63206,5,8,0:0:0:0:
196,220,63431,1,0,0:0:0:0:
200,204,63544,1,8,0:0:0:0:
268,240,63770,1,0,0:0:0:0:
272,224,63882,1,8,0:0:0:0:
390,276,64108,5,2,0:0:0:0:
507,310,64333,1,0,0:0:0:0:
432,352,64559,1,2,0:0:0:0:
465,234,64785,1,0,0:0:0:0:
448,104,65010,5,8,0:0:0:0:
492,164,65236,1,0,0:0:0:0:
508,168,65348,1,8,0:0:0:0:
496,40,65574,1,0,0:0:0:0:
512,44,65687,1,8,0:0:0:0:
372,84,65912,5,2,0:0:0:0:
360,8,66138,1,0,0:0:0:0:
336,152,66364,1,2,0:0:0:0:
248,112,66589,1,0,0:0:0:0:
348,224,66815,5,8,0:0:0:0:
276,236,67040,1,0,0:0:0:0:
280,248,67153,1,8,0:0:0:0:
208,252,67379,1,0,0:0:0:0:
212,264,67491,1,8,0:0:0:0:
47,234,67717,5,2,0:0:0:0:
80,352,67942,1,2,0:0:0:0:
5,310,68168,1,2,0:0:0:0:
122,276,68394,1,2,0:0:0:0:
256,376,68619,6,0,L|256:308,2,60
504,316,69521,6,0,B|444:316|471:341|404:331,1,95.9999970703126,6|0,0:0|0:0,0:0:0:0:
336,152,69973,2,0,B|396:152|369:177|436:167,1,95.9999970703126,8|2,0:0|0:0,0:0:0:0:
480,236,70311,1,0,0:0:0:0:
480,236,70424,1,0,0:0:0:0:
512,72,70649,1,8,0:1:0:0:
428,167,70875,1,10,0:0:0:0:
396,3,71100,1,8,0:1:0:0:
249,161,71326,6,0,P|297:173|343:142,1,95.9999970703126,2|0,0:0|0:0,0:0:0:0:
104,48,71777,2,0,P|56:36|10:67,1,95.9999970703126,8|2,0:0|0:0,0:0:0:0:
68,112,72115,1,0,0:0:0:0:
68,112,72228,1,0,0:0:0:0:
184,216,72454,1,8,0:1:0:0:
12,164,72679,1,10,0:0:0:0:
140,144,72905,1,8,0:1:0:0:
236,268,73130,6,0,P|192:288|128:260,1,95.9999970703126,2|0,0:0|0:0,0:0:0:0:
0,244,73582,1,8,0:0:0:0:
0,244,73807,2,0,P|39:272|47:341,1,95.9999970703126,2|0,0:0|0:0,0:0:0:0:
132,372,74258,1,0,0:0:0:0:
184,216,74484,2,0,P|188:167|244:126,1,95.9999970703126,10|0,0:0|0:0,0:0:0:0:
280,92,74822,1,0,0:0:0:0:
280,92,74935,5,2,0:0:0:0:
448,148,75161,1,0,0:0:0:0:
448,132,75386,5,10,0:0:0:0:
288,224,75612,1,0,0:0:0:0:
288,208,75724,1,8,0:0:0:0:
288,192,75837,1,2,0:0:0:0:
404,256,76063,5,2,0:0:0:0:
340,356,76288,2,0,P|332:332|340:300,1,47.9999985351563,8|8,0:0|0:0,0:0:0:0:
360,172,76514,2,0,P|368:148|360:116,1,47.9999985351563,8|8,0:0|0:0,0:0:0:0:
499,259,76739,6,0,L|375:255,1,95.9999970703126,4|0,0:0|0:0,0:0:0:0:
416,328,77078,1,2,0:0:0:0:
416,328,77191,2,0,L|512:332,1,95.9999970703126,8|2,0:0|0:0,0:0:0:0:
260,356,77642,1,0,0:0:0:0:
216,216,77867,1,8,0:1:0:0:
288,180,78093,1,10,0:0:0:0:
208,292,78318,5,8,0:1:0:0:
200,292,78431,1,0,0:0:0:0:
192,292,78544,2,0,P|136:312|88:284,2,95.9999970703126,2|0|8,0:0|0:0|0:0,0:0:0:0:
180,144,79221,1,2,0:0:0:0:
168,144,79333,1,0,0:0:0:0:
156,144,79446,1,0,0:0:0:0:
24,204,79672,1,2,0:0:0:0:
144,240,79897,1,10,0:0:0:0:
84,68,80123,2,0,L|88:120,1,47.9999985351563
256,184,80348,6,0,L|247:79,1,95.9999970703126,2|0,0:0|0:0,0:0:0:0:
244,20,80687,1,2,0:0:0:0:
244,20,80800,1,8,0:0:0:0:
368,240,81025,2,0,L|377:135,1,95.9999970703126,2|0,0:0|0:0,0:0:0:0:
384,76,81364,1,0,0:0:0:0:
384,76,81476,2,0,L|380:132,1,47.9999985351563,8|0,0:1|0:0,0:0:0:0:
512,140,81702,1,10,0:0:0:0:
504,20,81927,2,0,L|508:76,1,47.9999985351563,8|0,0:1|0:0,0:0:0:0:
480,212,82153,5,2,0:0:0:0:
428,272,82379,1,0,0:0:0:0:
444,344,82604,1,8,0:0:0:0:
512,376,82830,1,2,0:0:0:0:
512,368,82942,1,8,0:0:0:0:
512,360,83055,5,0,0:0:0:0:
360,236,83281,1,2,0:0:0:0:
188,248,83506,1,8,0:0:0:0:
56,384,83732,5,8,0:0:0:0:
68,380,83845,1,8,0:0:0:0:
80,376,83958,2,0,P|92:332|68:288,1,95.9999970703126,6|0,0:0|0:0,0:0:0:0:
28,56,84409,2,0,P|6:97|18:143,1,95.9999970703126,8|0,0:0|0:0,0:0:0:0:
82,107,84747,1,8,0:0:0:0:
82,107,84860,1,0,0:0:0:0:
208,48,85085,1,0,0:0:0:0:
192,216,85311,1,10,0:0:0:0:
168,140,85536,5,0,0:0:0:0:
184,140,85649,1,8,0:0:0:0:
200,140,85762,2,0,P|244:128|288:152,1,95.9999970703126,4|0,0:0|0:0,0:0:0:0:
512,172,86213,2,0,P|471:194|426:183,1,95.9999970703126
356,168,86551,1,8,0:0:0:0:
356,168,86664,1,0,0:0:0:0:
460,308,86890,1,2,0:0:0:0:
464,124,87115,1,10,0:0:0:0:
368,320,87341,5,8,0:0:0:0:
368,320,87454,1,8,0:0:0:0:
368,320,87567,1,4,0:0:0:0:
256,272,87792,1,0,0:0:0:0:
188,360,88018,1,10,0:0:0:0:
89,224,88243,5,0,0:0:0:0:
89,224,88356,1,8,0:0:0:0:
89,224,88469,1,0,0:0:0:0:
186,152,88694,1,2,0:0:0:0:
144,49,88920,1,10,0:0:0:0:
310,31,89145,5,2,0:0:0:0:
310,31,89258,1,0,0:0:0:0:
310,31,89371,2,0,L|320:84,1,47.9999985351563,2|0,0:0|0:0,0:0:0:0:
336,144,89597,2,0,L|346:197,1,47.9999985351563,2|0,0:0|0:0,0:0:0:0:
392,80,89822,1,10,0:0:0:0:
384,296,90048,6,0,P|324:296|372:216,1,180.000006866455,0|8,0:0|0:0,0:0:0:0:
330,66,91176,6,0,B|374:74|374:74|430:54,1,80,4|0,0:0|0:0,0:0:0:0:
468,24,91514,1,2,0:0:0:0:
468,24,91627,2,0,P|483:55|460:119,1,80,8|2,0:0|0:0,0:0:0:0:
361,222,92078,1,0,0:0:0:0:
497,298,92303,1,8,0:1:0:0:
429,326,92529,1,10,0:0:0:0:
497,170,92755,1,8,0:1:0:0:
356,300,92980,6,0,B|320:284|320:284|256:288,1,80,2|0,0:0|0:0,0:0:0:0:
279,286,93318,1,2,0:0:0:0:
208,308,93431,2,0,P|194:339|217:403,1,80,8|2,0:0|0:0,0:0:0:0:
140,276,93882,1,0,0:0:0:0:
12,284,94108,1,8,0:1:0:0:
76,324,94333,1,10,0:0:0:0:
140,204,94559,1,8,0:1:0:0:
0,108,94785,6,0,P|26:111|48:100,1,40,2|0,0:0|0:0,0:0:0:0:
140,204,95010,2,0,P|128:180|109:166,1,40,0|2,0:0|0:0,0:0:0:0:
148,0,95236,2,0,P|140:44|160:88,1,80,8|2,0:0|0:0,0:0:0:0:
256,192,95687,1,0,0:0:0:0:
352,16,95912,1,8,0:1:0:0:
352,16,96025,1,0,0:0:0:0:
352,16,96138,2,0,P|358:35|354:54,1,40,10|0,0:0|0:0,0:0:0:0:
312,140,96364,6,0,L|420:128,1,80,8|2,0:0|0:0,0:0:0:0:
316,264,96815,2,0,L|424:276,1,80,12|2,0:0|0:0,0:0:0:0:
512,192,97266,2,0,L|408:204,1,80,0|2,0:0|0:0,0:0:0:0:
220,256,97717,6,0,P|244:246|258:226,1,40,8|0,0:0|0:0,0:0:0:0:
212,117,97942,2,0,P|210:143|220:165,1,40,8|0,0:0|0:0,0:0:0:0:
337,180,98168,2,0,P|317:166|292:163,1,40,8|0,0:0|0:0,0:0:0:0:
76,88,98394,6,0,P|75:111|99:143,1,60.0000022888184,0|0,3:0|3:0,3:0:0:0:
94,140,98732,2,0,P|113:128|129:91,1,60.0000022888184,0|0,3:0|3:0,3:0:0:0:
130,96,99070,2,0,P|109:83|69:87,1,60.0000022888184,0|0,3:0|3:0,3:0:0:0:
74,86,100198,6,0,P|102:82|129:95,1,60.0000022888184,0|0,3:0|3:0,3:0:0:0:
129,96,100536,2,0,P|117:123|93:139,1,60.0000022888184,0|0,3:0|3:0,3:0:0:0:
93,141,100875,2,0,P|74:117|73:87,1,60.0000022888184,0|0,3:0|3:0,3:0:0:0:
73,88,101551,1,8,0:0:0:0:
256,192,101777,1,4,0:0:0:0:
256,192,101890,12,0,109221,0:0:0:0:
