osu file format v14

[General]
AudioFilename: DAKISHIMETE.mp3
AudioLeadIn: 0
PreviewTime: 68584
Countdown: 0
SampleSet: None
StackLeniency: 0.5
Mode: 0
LetterboxInBreaks: 0
EpilepsyWarning: 1
WidescreenStoryboard: 1

[Editor]
DistanceSpacing: 1
BeatDivisor: 4
GridSize: 8
TimelineZoom: 2.599999

[Metadata]
Title:Kaze ga Fuku Machi (TV size)
TitleUnicode:風が吹く街(TV size)
Artist:Luck Life
ArtistUnicode:ラックライフ
Creator:Yahuri
Version:The Hero's Journey
Source:文豪ストレイドッグス
Tags:bungo bungou stray dogs dazai osamu atsushi nakajima kafka asagiri sango 35 harukawa lantis bones seinen anime ed ending
BeatmapID:1219692
BeatmapSetID:576089

[Difficulty]
HPDrainRate:7
CircleSize:4.3
OverallDifficulty:8
ApproachRate:9
SliderMultiplier:1.6
SliderTickRate:1

[Events]
//Background and Video events
0,0,"SB/dazaibggud2.jpg",0,0
//Break Periods
//Storyboard Layer 0 (Background)
//Storyboard Layer 1 (Fail)
//Storyboard Layer 2 (Pass)
//Storyboard Layer 3 (Foreground)
//Storyboard Sound Samples

[TimingPoints]
19721,303.030303030303,4,3,1,100,1,0
20099,-133.333333333333,4,3,1,50,0,0
20933,-100,4,3,2,50,0,0
21387,-100,4,3,1,50,0,0
21539,-133.333333333333,4,2,1,50,0,0
22751,-133.333333333333,4,2,1,50,0,0
28054,-100,4,3,1,60,0,0
30024,-133.333333333333,4,2,1,60,0,0
30630,-100,4,3,2,70,0,0
30933,-100,4,3,1,70,0,0
37751,-100,4,3,2,70,0,0
38054,-100,4,3,1,70,0,0
40327,-100,4,3,2,70,0,0
40630,-100,4,3,1,70,0,0
50024,-100,4,3,2,70,0,0
50327,-100,4,3,1,70,0,0
57296,-100,4,3,2,70,0,0
57599,-100,4,3,1,70,0,0
58357,-100,4,3,2,70,0,0
58660,-100,4,3,1,70,0,0
68660,-133.333333333333,4,3,1,50,0,0
69417,-90.9090909090909,4,3,2,80,0,1
69720,-90.9090909090909,4,3,1,80,0,1
79039,-90.9090909090909,4,3,1,80,0,0
79114,-90.9090909090909,4,3,2,80,0,1
79417,-90.9090909090909,4,3,1,80,0,1
85478,-90.9090909090909,4,3,1,50,0,1
85781,-90.9090909090909,4,3,1,60,0,1
86084,-90.9090909090909,4,3,1,70,0,1
86311,-90.9090909090909,4,3,1,70,0,0
86387,-90.9090909090909,4,3,2,80,0,1
86690,-90.9090909090909,4,3,1,80,0,1
96008,-90.9090909090909,4,3,1,80,0,0
96084,-90.9090909090909,4,3,2,80,0,1
96236,-90.9090909090909,4,3,1,80,0,1
101236,-90.9090909090909,4,3,1,50,0,1
101539,-90.9090909090909,4,3,1,60,0,1
101842,-90.9090909090909,4,3,1,70,0,1
102145,-90.9090909090909,4,3,1,80,0,1
102751,-90.9090909090909,4,3,1,50,0,0
103130,-90.9090909090909,4,3,1,5,0,0
103205,-90.9090909090909,4,3,2,50,0,0
103357,-100,4,3,1,40,0,0
104569,-100,4,3,1,30,0,0
105781,-100,4,3,1,20,0,0
106993,-100,4,3,1,10,0,0
108205,-100,4,3,1,5,0,0

[Colours]
Combo1 : 148,148,148
Combo2 : 159,111,98
Combo3 : 218,194,152
Combo4 : 254,29,3
Combo5 : 223,72,240
Combo6 : 120,240,254
Combo7 : 239,245,109
Combo8 : 212,212,212
SliderBorder : 255,255,255

[HitObjects]
175,100,20099,101,0,2:0:0:0:
175,100,20327,2,0,P|136:80|92:85,2,90.0000034332277,0|0|0,2:0|2:0|2:0,2:0:0:0:
336,238,20933,53,6,0:0:0:0:
173,238,21084,1,6,0:0:0:0:
256,99,21236,2,0,L|256:20,1,80,6|0,0:0|2:0,0:0:0:0:
419,85,21539,70,0,P|374:80|335:101,2,90.0000034332277,0|0|0,2:0|2:0|2:0,2:0:0:0:
506,168,22145,2,0,B|513:229|469:217|474:280,1,120.000004577637
325,313,22751,102,0,P|364:334|408:328,2,90.0000034332277,0|0|0,2:0|2:0|2:0,2:0:0:0:
187,312,23357,2,0,P|148:333|104:329,2,90.0000034332277,0|0|0,2:0|2:0|2:0,2:0:0:0:
256,192,23963,2,0,L|256:96,2,90.0000034332277
256,272,24569,6,0,B|315:293|315:247|372:270,1,120.000004577637
443,306,25024,1,0,0:0:0:0:
398,195,25175,2,0,B|392:133|436:147|433:84,1,120.000004577637
433,84,25781,101,0,0:0:0:0:
273,95,26084,2,0,P|229:86|179:32,2,120.000004577637
398,195,26993,2,0,P|422:232|419:306,2,120.000004577637
273,95,27902,1,0,0:0:0:0:
256,265,28104,6,0,L|256:309,2,26.6666666666667,4|4|12,0:0|0:0|0:0,0:0:0:0:
256,16,28660,1,4,0:0:0:0:
112,266,28963,101,4,0:0:0:0:
184,141,29114,1,8,0:0:0:0:
400,266,29417,5,4,0:0:0:0:
328,141,29568,1,8,0:0:0:0:
256,291,29721,1,4,0:0:0:0:
184,141,30024,102,0,B|174:108|174:108|158:87|158:87|152:56,2,90.0000034332277,0|0|0,2:3|2:3|2:3,2:3:0:0:
256,291,30630,54,0,B|270:316|324:327|324:327|376:317|392:291,1,160,6|8,3:3|3:3,3:3:0:0:
426,218,31084,1,0,0:0:0:0:
324,170,31236,2,0,P|316:107|334:53,1,120,2|0,2:0|2:0,0:0:0:0:
272,17,31539,2,0,P|227:11|190:27,1,80,8|0,0:0|2:0,0:0:0:0:
84,139,31842,86,0,B|67:218|119:216|93:295,1,160,6|8,0:0|0:0,0:0:0:0:
61,368,32296,1,0,0:0:0:0:
166,327,32448,2,0,L|289:316,1,120,2|0,2:0|2:0,0:0:0:0:
260,249,32751,2,0,B|178:256,1,80,8|0,0:0|2:0,0:0:0:0:
34,190,33054,6,0,B|26:166|32:130|57:104|57:104|57:34,1,160,6|8,0:0|0:0,0:0:0:0:
157,85,33508,2,0,P|201:90|238:74,1,80,0|2,0:0|2:0,0:0:0:0:
335,31,33811,2,0,P|379:25|416:41,1,80,0|8,0:0|0:0,0:0:0:0:
478,128,34114,1,0,2:0:0:0:
379,255,34266,5,6,0:0:0:0:
280,202,34417,2,0,B|198:209,1,80,0|8,2:0|0:0,0:0:0:0:
113,280,34720,2,0,B|31:272,1,80,0|2,0:0|2:0,0:0:0:0:
85,172,35024,1,0,0:0:0:0:
193,289,35175,2,0,B|200:370,1,80,8|0,0:0|2:0,0:0:0:0:
357,334,35478,86,0,B|430:302|430:302|364:256,1,160,6|8,0:0|0:0,0:0:0:0:
291,289,35933,1,0,0:0:0:0:
251,185,36084,2,0,P|245:140|261:103,1,80,2|0,2:0|0:0,0:0:0:0:
418,109,36387,2,0,P|431:146|424:185,1,80,8|0,0:0|2:0,0:0:0:0:
251,185,36690,6,0,B|210:188|179:156|179:156|184:114|151:84,1,160,6|8,0:3|0:0,0:3:0:0:
100,146,37145,1,0,0:0:0:0:
0,77,37296,2,0,P|34:64|73:70,1,80,2|0,2:0|0:0,0:0:0:0:
41,228,37599,1,8,0:0:0:0:
152,85,37751,6,0,B|192:35|251:23|251:23|257:64,1,160,6|4,0:0|0:0,0:0:0:0:
363,158,38205,2,0,L|281:165,1,80,10|0,0:0|0:0,0:0:0:0:
149,217,38508,2,0,L|228:224,1,80,10|0,0:0|0:0,0:0:0:0:
363,276,38811,2,0,L|283:283,1,80,10|0,0:0|0:0,0:0:0:0:
149,335,39114,2,0,L|228:342,1,80,10|0,0:0|0:0,0:0:0:0:
306,206,39417,85,10,0:0:0:0:
283,283,39569,1,0,0:0:0:0:
205,147,39720,1,10,0:0:0:0:
229,224,39872,1,0,0:0:0:0:
306,88,40024,1,10,0:0:0:0:
283,165,40176,1,0,0:0:0:0:
108,71,40327,86,0,B|141:48|141:48|187:92|206:149,1,160,4|8,0:0|0:0,0:0:0:0:
229,224,40781,1,0,2:0:0:0:
150,205,40933,1,0,0:0:0:0:
150,205,41084,1,0,0:0:0:0:
128,347,41236,2,0,P|154:318|175:275,1,80,8|0,0:0|2:0,0:0:0:0:
113,131,41539,6,0,L|273:117,1,160,4|8,0:0|0:0,0:0:0:0:
351,130,41993,1,0,2:0:0:0:
301,193,42145,1,0,0:0:0:0:
301,193,42296,1,0,0:0:0:0:
410,287,42448,2,0,L|333:267,1,80,8|0,0:0|2:0,0:0:0:0:
183,327,42751,102,0,P|146:250|137:174,1,160,4|8,0:0|0:0,0:0:0:0:
149,98,43205,1,0,2:0:0:0:
211,149,43357,1,0,0:0:0:0:
211,149,43508,1,0,0:0:0:0:
270,17,43660,2,0,P|276:56|271:95,1,80,8|0,0:0|2:0,0:0:0:0:
205,242,43963,6,0,L|362:209,1,160,4|8,0:0|0:0,0:0:0:0:
420,155,44417,1,0,2:0:0:0:
344,130,44569,1,0,0:0:0:0:
344,130,44720,1,0,0:0:0:0:
454,37,44872,2,0,L|377:57,1,80,8|0,0:0|2:0,0:0:0:0:
281,186,45175,102,0,P|212:142|163:79,1,160,4|8,0:0|0:0,0:0:0:0:
136,5,45630,1,0,2:0:0:0:
214,17,45781,1,0,0:0:0:0:
214,17,45933,1,0,0:0:0:0:
185,157,46084,2,0,P|168:119|164:80,1,80,8|0,0:0|2:0,0:0:0:0:
281,186,46387,6,0,P|243:258|184:312,1,160,4|8,0:0|0:0,0:0:0:0:
116,348,46842,1,0,2:0:0:0:
119,268,46993,1,0,0:0:0:0:
119,268,47145,1,0,0:0:0:0:
262,290,47296,2,0,P|224:307|185:311,1,80,8|0,0:0|2:0,0:0:0:0:
80,199,47599,102,0,L|44:127,1,80,4|0,0:0|2:0,0:0:0:0:
189,125,47902,2,0,L|155:197,1,80,8|0,0:0|2:0,0:0:0:0:
119,268,48205,1,0,0:0:0:0:
119,268,48357,1,0,0:0:0:0:
243,196,48508,2,0,P|278:217|304:247,1,80,8|0,0:3|2:3,0:3:0:0:
303,325,48811,5,0,0:3:0:0:
303,325,48963,1,0,0:3:0:0:
446,313,49114,2,0,P|411:293|372:285,1,80,8|0,0:0|0:0,0:0:0:0:
304,246,49417,1,0,2:0:0:0:
305,166,49569,1,0,0:0:0:0:
427,213,49720,1,8,0:0:0:0:
383,146,49872,1,0,2:0:0:0:
303,325,50024,102,0,B|277:351|234:365|234:365|188:367|156:350,1,160,6|8,0:0|0:0,0:0:0:0:
86,312,50478,1,0,2:0:0:0:
154,270,50630,1,0,0:0:0:0:
154,270,50781,1,0,0:0:0:0:
110,132,50933,2,0,P|99:170|100:210,1,80,8|0,0:0|2:0,0:0:0:0:
217,319,51236,6,0,L|289:283,1,80,4|0,0:0|2:0,0:0:0:0:
377,169,51539,2,0,L|305:205,1,80,8|0,0:0|2:0,0:0:0:0:
269,186,51766,1,0,0:0:0:0:
233,168,51842,1,0,0:0:0:0:
192,99,51993,1,0,0:0:0:0:
106,197,52145,1,8,0:0:0:0:
180,228,52296,1,2,0:0:0:0:
117,72,52448,102,0,B|74:59|42:86|42:86|66:121|112:117,1,160,4|8,0:0|0:0,0:0:0:0:
192,99,52902,1,0,2:0:0:0:
227,80,52977,1,0,0:0:0:0:
263,62,53054,2,0,L|335:98,1,80
420,213,53357,1,8,0:0:0:0:
405,135,53508,1,0,0:0:0:0:
334,279,53660,6,0,P|294:279|256:267,1,80,4|0,0:0|2:0,0:0:0:0:
133,190,53963,2,0,P|172:189|210:201,1,80,8|0,0:0|2:0,0:0:0:0:
291,195,54266,1,0,0:0:0:0:
291,195,54417,1,0,0:0:0:0:
175,273,54569,2,0,P|162:310|163:350,1,80,8|0,0:0|2:0,0:0:0:0:
324,364,54872,102,0,L|403:370,1,80,4|0,0:0|2:0,0:0:0:0:
504,267,55175,2,0,L|424:273,1,80,8|0,0:0|2:0,0:0:0:0:
384,269,55402,1,0,0:0:0:0:
344,266,55478,2,0,L|264:259,1,80
164,154,55781,1,8,0:0:0:0:
190,230,55933,1,0,2:0:0:0:
256,85,56084,6,0,P|290:65|329:56,1,80,4|0,0:0|2:0,0:0:0:0:
428,160,56387,2,0,P|393:141|354:132,1,80,8|0,0:0|2:0,0:0:0:0:
315,140,56614,1,0,0:0:0:0:
280,160,56689,1,0,0:0:0:0:
282,240,56842,1,0,0:0:0:0:
423,312,56993,2,0,P|388:292|349:283,1,80,10|0,0:0|2:0,0:0:0:0:
204,352,57296,102,0,B|175:323|175:323|152:246|152:246|121:215,2,160,6|10|2,0:0|0:0|0:0,0:0:0:0:
278,320,58054,1,0,0:0:0:0:
210,193,58205,1,8,0:0:0:0:
47,245,58357,6,0,B|81:223|81:223|121:153|121:153|155:133,1,160,6|0,0:0|0:0,0:0:0:0:
288,175,58811,2,0,L|371:167,1,80,10|0,3:0|0:0,0:0:0:0:
234,116,59114,1,10,0:0:0:0:
210,193,59266,1,0,0:0:0:0:
312,98,59417,1,10,0:0:0:0:
154,133,59569,1,10,0:0:0:0:
264,252,59720,101,6,0:0:0:0:
264,252,59872,1,0,0:0:0:0:
366,156,60024,1,8,0:0:0:0:
441,299,60175,2,0,B|466:280|496:240|496:240|509:193|510:163,1,160,6|0,0:3|0:3,0:3:0:0:
366,156,60630,1,8,0:0:0:0:
436,338,60781,6,0,B|461:319|491:279|491:279|504:232|505:202,1,160,6|0,0:3|0:3,0:3:0:0:
510,162,61160,1,0,2:0:0:0:
511,122,61236,2,0,L|463:58,1,80,10|0,0:0|2:0,0:0:0:0:
386,79,61539,1,0,0:0:0:0:
386,79,61690,1,0,0:0:0:0:
414,220,61842,2,0,L|366:156,1,80,10|0,0:0|2:0,0:0:0:0:
256,273,62145,101,6,0:0:0:0:
256,273,62296,1,0,0:0:0:0:
154,177,62448,1,8,0:0:0:0:
77,316,62599,2,0,B|57:284|19:262|19:262|4:219|9:183,1,160,6|0,0:0|0:0,0:0:0:0:
154,177,63054,1,8,0:0:0:0:
78,357,63205,6,0,B|58:325|20:303|20:303|5:260|10:224,1,160,6|0,0:0|0:0,0:0:0:0:
9,184,63584,1,0,2:0:0:0:
9,143,63660,2,0,P|30:107|59:80,1,80,10|0,0:0|0:0,0:0:0:0:
134,100,63963,1,0,0:0:0:0:
134,100,64114,1,0,0:0:0:0:
104,238,64266,2,0,P|124:203|153:176,1,80,10|0,0:0|2:0,0:0:0:0:
256,301,64569,101,6,0:0:0:0:
256,301,64720,1,0,0:0:0:0:
345,193,64872,1,8,0:0:0:0:
444,325,65024,2,0,B|466:283|491:261|491:261|481:222|487:182,1,160,6|0,0:0|0:0,0:0:0:0:
345,193,65478,1,8,0:0:0:0:
442,364,65630,6,0,B|464:322|489:300|489:300|479:261|485:221,1,160,6|0,0:0|0:0,0:0:0:0:
487,182,66008,1,0,2:0:0:0:
485,142,66084,2,0,P|464:106|435:79,1,80,10|0,0:0|2:0,0:0:0:0:
345,193,66387,2,0,L|362:274,2,53.3333333333333,8|8|8,0:0|0:0|0:0,0:0:0:0:
255,145,66690,1,6,0:0:0:0:
255,145,66993,101,12,0:0:0:0:
138,240,67145,1,4,0:0:0:0:
282,288,67296,1,4,0:0:0:0:
168,156,67448,5,8,0:0:0:0:
196,308,67599,1,4,0:0:0:0:
310,205,67751,1,4,0:0:0:0:
168,156,67902,1,8,0:0:0:0:
256,374,68054,101,6,0:0:0:0:
334,58,68660,5,4,0:0:0:0:
334,58,68736,1,4,0:0:0:0:
334,58,68811,2,0,P|377:44|419:57,2,90.0000034332277,4|0|0,0:0|2:0|2:0,2:0:0:0:
256,255,69417,38,0,B|225:169|287:169|256:83,1,176.000005371094,6|8,0:0|0:0,0:0:0:0:
197,19,69872,1,0,2:0:0:0:
141,129,70024,1,2,0:0:0:0:
72,27,70175,1,0,0:0:0:0:
82,186,70327,2,0,P|118:207|162:208,1,88.000002685547,8|0,0:0|2:0,0:0:0:0:
288,84,70630,5,6,0:0:0:0:
373,106,70781,1,0,0:0:0:0:
293,243,70933,2,0,L|270:328,1,88.000002685547,8|0,0:0|2:0,0:0:0:0:
252,164,71236,2,0,B|173:129|173:129|127:131,1,132.00000402832,2|0,3:0|2:0,0:0:0:0:
75,191,71539,2,0,P|53:154|52:110,1,88.000002685547,8|0,0:0|2:0,0:0:0:0:
219,40,71842,6,0,B|254:118|254:118|252:164,1,132.00000402832,6|0,0:0|2:0,0:0:0:0:
193,218,72145,2,0,P|229:239|273:240,1,88.000002685547,8|0,0:0|2:0,0:0:0:0:
343,74,72448,2,0,B|264:38|264:38|218:40,1,132.00000402832,2|0,0:0|2:0,0:0:0:0:
166,100,72751,2,0,P|144:63|143:19,1,88.000002685547,8|0,0:0|2:0,0:0:0:0:
252,165,73054,5,6,0:0:0:0:
229,251,73205,1,0,0:0:0:0:
81,210,73357,2,0,P|38:210|0:231,1,88.000002685547,8|0,3:0|2:0,0:0:0:0:
144,273,73660,1,2,0:0:0:0:
171,192,73811,1,0,0:0:0:0:
314,273,73963,2,0,L|228:250,1,88.000002685547,8|0,0:0|2:0,0:0:0:0:
109,130,74266,69,6,0:0:0:0:
194,107,74417,1,0,0:0:0:0:
211,330,74569,2,8,B|170:313|170:313|125:248|171:192,1,176.000005371094,8|2,0:0|0:0,0:0:0:0:
229,250,75024,1,0,0:0:0:0:
109,130,75175,2,0,L|193:107,1,88.000002685547,8|0,0:0|2:0,0:0:0:0:
314,228,75478,5,6,0:0:0:0:
399,205,75629,1,0,0:0:0:0:
304,3,75781,2,8,B|276:39|276:39|270:117|337:142,1,176.000005371094,8|2,0:0|0:0,0:0:0:0:
358,64,76236,1,0,0:0:0:0:
314,228,76387,2,0,L|398:205,1,88.000002685547,8|0,0:0|2:0,0:0:0:0:
229,250,76690,5,6,0:0:0:0:
252,335,76841,1,0,0:0:0:0:
250,165,76993,2,0,P|206:165|168:187,1,88.000002685547,8|0,0:0|2:0,0:0:0:0:
314,228,77296,1,2,0:0:0:0:
337,143,77448,1,0,0:0:0:0:
169,187,77599,1,8,0:0:0:0:
252,335,77751,6,8,B|292:354|292:354|376:331|376:331|401:295,1,176.000005371094,4|0,0:0|0:0,0:3:0:0:
337,143,78205,2,0,P|336:99|357:61,1,88.000002685547,8|0,0:0|2:0,0:0:0:0:
175,143,78508,2,0,B|143:62|143:62|109:31,2,132.00000402832,2|0|0,3:0|2:0|2:0,0:0:0:0:
256,350,79114,69,6,0:0:0:0:
341,327,79266,1,0,0:0:0:0:
188,289,79417,2,0,P|166:327|167:370,1,88.000002685547,8|0,0:0|2:0,0:0:0:0:
279,265,79720,2,0,B|293:216|269:179|269:179|245:140,1,132.00000402832,2|0,3:0|2:0,0:0:0:0:
178,100,80024,2,8,P|177:56|198:18,1,88.000002685547,8|0,0:0|2:0,0:0:0:0:
330,118,80327,5,6,0:0:0:0:
414,94,80478,1,0,0:0:0:0:
415,253,80630,2,0,L|437:338,1,88.000002685547,8|0,0:0|2:0,0:0:0:0:
340,206,80933,2,0,B|291:192|254:216|254:216|215:240,1,132.00000402832,2|0,3:0|2:0,0:0:0:0:
164,296,81236,2,8,P|142:259|141:215,1,88.000002685547,8|0,3:0|2:0,0:0:0:0:
304,284,81539,6,0,B|353:298|390:274|390:274|429:250,1,132.00000402832,6|0,3:0|2:0,0:0:0:0:
480,194,81842,2,8,P|502:230|503:274,1,88.000002685547,8|0,0:0|2:0,0:0:0:0:
340,206,82145,2,0,B|291:192|254:216|254:216|215:240,1,132.00000402832,2|0,3:0|2:0,0:0:0:0:
164,296,82448,2,8,P|142:259|141:215,1,88.000002685547,8|0,3:0|2:0,0:0:0:0:
284,111,82751,5,6,0:0:0:0:
262,26,82902,1,0,0:0:0:0:
124,106,83054,2,8,P|81:106|43:85,1,88.000002685547,8|0,3:0|2:0,0:0:0:0:
203,148,83357,1,2,0:0:0:0:
181,233,83508,1,0,0:0:0:0:
340,228,83660,2,8,P|302:205|258:205,1,88.000002685547,8|0,3:0|2:0,0:0:0:0:
256,378,83963,69,6,0:0:0:0:
279,289,84114,1,0,0:0:0:0:
103,289,84266,1,10,0:0:0:0:
193,312,84417,1,0,2:0:0:0:
192,137,84568,5,6,0:0:0:0:
169,226,84720,1,0,0:0:0:0:
344,225,84872,1,10,0:0:0:0:
255,205,85024,1,0,0:0:0:0:
256,378,85175,6,0,P|177:334|175:251,1,176.000005371094,10|10,0:0|0:0,0:0:0:0:
194,218,85554,1,8,0:0:0:0:
233,197,85630,1,8,0:0:0:0:
277,197,85705,1,8,0:0:0:0:
316,217,85781,6,8,L|328:173,3,44.0000013427735,10|8|8|8,0:0|0:0|0:0|0:0,0:0:0:0:
341,253,86084,1,10,0:0:0:0:
347,297,86160,1,8,0:0:0:0:
331,338,86235,1,8,0:0:0:0:
299,368,86311,1,8,0:0:0:0:
256,378,86387,70,0,B|233:356|242:311|242:311|263:273|263:273|269:240|256:213,1,176.000005371094,6|8,0:0|0:0,0:0:0:0:
202,144,86842,1,0,2:0:0:0:
122,280,86993,2,0,B|104:239|112:194|112:194|88:155,1,132.00000402832,2|0,3:0|2:0,0:0:0:0:
8,135,87296,2,8,P|43:156|87:157,1,88.000002685547,8|0,0:0|2:0,0:0:0:0:
227,47,87599,5,6,0:0:0:0:
312,69,87750,1,0,0:0:0:0:
232,206,87902,2,0,L|209:291,1,88.000002685547,8|0,0:0|2:0,0:0:0:0:
307,158,88205,2,0,B|347:140|393:148|393:148|432:123,1,132.00000402832,2|0,3:0|2:0,0:0:0:0:
512,103,88508,2,0,P|474:124|430:124,1,88.000002685547,8|0,0:3|2:3,0:3:0:0:
274,35,88811,6,0,B|292:75|284:121|284:121|307:158,1,132.00000402832,6|0,0:0|2:0,0:0:0:0:
329,240,89114,2,0,P|307:202|307:158,1,88.000002685547,8|0,0:3|2:3,0:3:0:0:
398,2,89417,2,0,B|357:20|312:12|312:12|273:36,1,132.00000402832,2|0,3:0|2:0,0:0:0:0:
193,57,89720,2,0,P|230:35|274:35,1,88.000002685547,8|0,0:3|2:3,0:3:0:0:
432,125,90024,5,6,0:0:0:0:
409,211,90175,1,0,0:0:0:0:
261,170,90327,2,8,L|175:193,1,88.000002685547,8|0,0:0|2:0,0:0:0:0:
324,233,90630,1,2,0:0:0:0:
351,152,90781,1,0,0:0:0:0:
494,233,90933,2,0,L|408:210,1,88.000002685547,8|0,0:0|2:0,0:0:0:0:
284,86,91236,69,6,0:0:0:0:
199,109,91387,1,0,0:0:0:0:
217,307,91539,2,8,B|258:300|282:252|282:252|282:208|282:208|260:169,1,176.000005371094,8|2,0:0|0:0,0:0:0:0:
203,227,91993,1,0,0:0:0:0:
284,87,92145,2,0,L|199:109,1,88.000002685547,8|0,0:0|2:0,0:0:0:0:
118,251,92448,5,6,0:0:0:0:
203,227,92599,1,0,0:0:0:0:
183,30,92751,2,8,B|142:37|118:85|118:85|118:129|118:129|140:168,1,176.000005371094,8|2,0:0|0:0,0:0:0:0:
199,109,93206,1,0,0:0:0:0:
118,251,93357,2,0,L|202:227,1,88.000002685547,8|0,0:0|2:0,0:0:0:0:
97,337,93660,5,6,0:0:0:0:
181,314,93811,1,0,0:0:0:0:
140,167,93963,2,0,P|96:167|58:189,1,88.000002685547,8|0,0:0|2:0,0:0:0:0:
224,141,94266,1,2,0:0:0:0:
162,80,94417,1,0,0:0:0:0:
203,227,94569,1,8,0:0:0:0:
245,54,94720,6,8,B|285:35|285:35|369:58|369:58|394:94,1,176.000005371094,4|0,0:0|0:0,0:3:0:0:
298,221,95175,2,0,L|213:199,1,88.000002685547,8|0,0:0|2:0,0:0:0:0:
104,258,95478,2,0,B|86:217|94:172|94:172|70:133,2,132.00000402832,2|0|0,3:0|2:0|0:0,0:0:0:0:
213,199,96008,1,0,0:0:0:0:
213,199,96084,70,0,B|256:184|256:184|296:198,1,88.000002685547,14|0,0:0|2:0,0:0:0:0:
468,239,96387,2,0,B|424:253|424:253|384:239,1,88.000002685547,10|0,0:0|2:0,0:0:0:0:
262,78,96690,2,0,B|250:120|250:120|224:156|224:156|214:197,1,132.00000402832,10|0,0:0|2:0,0:0:0:0:
131,233,96993,2,0,B|87:247|87:247|47:233,1,88.000002685547,10|0,0:0|0:0,0:0:0:0:
203,288,97220,1,0,0:0:0:0:
203,288,97296,6,0,B|237:319|237:319|245:360,1,88.000002685547,10|0,0:0|2:0,0:0:0:0:
386,254,97599,2,0,B|351:222|351:222|344:181,1,88.000002685547,10|0,0:0|2:0,0:0:0:0:
503,54,97902,2,0,B|460:65|460:65|424:91|424:91|383:101,1,132.00000402832,10|0,0:0|2:0,0:0:0:0:
294,108,98205,2,0,B|280:63|280:63|294:23,1,88.000002685547,10|0,0:0|0:0,0:0:0:0:
256,188,98433,1,0,0:0:0:0:
256,188,98508,6,0,B|219:213|219:213|177:224|177:224|134:220,1,132.00000402832,10|0,0:0|2:0,0:0:0:0:
71,283,98811,2,0,B|67:325|67:325|92:364,1,88.000002685547,10|0,0:0|2:0,0:0:0:0:
256,253,99114,2,0,B|219:227|219:227|177:216|177:216|134:220,1,132.00000402832,10|0,0:0|2:0,0:0:0:0:
50,202,99417,2,0,B|47:248|47:248|71:283,1,88.000002685547,10|0,0:0|0:0,0:0:0:0:
215,144,99645,1,0,0:0:0:0:
215,144,99720,6,0,B|257:130|257:130|298:144,1,88.000002685547,10|0,0:0|2:0,0:0:0:0:
298,348,100024,2,0,B|257:361|257:361|215:347,1,88.000002685547,10|0,0:0|2:0,0:0:0:0:
352,203,100327,2,0,B|365:244|365:244|351:286,1,88.000002685547,10|0,0:0|0:0,0:0:0:0:
161,286,100630,2,0,B|147:244|147:244|160:203,1,88.000002685547,10|0,0:0|0:0,0:0:0:0:
297,348,100857,1,0,0:0:0:0:
297,348,100933,70,0,B|255:362|255:362|214:348,1,88.000002685547,10|0,0:0|2:0,0:0:0:0:
255,106,101236,1,10,0:0:0:0:
298,118,101311,1,8,0:0:0:0:
329,149,101387,1,8,0:0:0:0:
341,191,101463,1,8,0:0:0:0:
329,234,101539,6,8,L|367:273,3,44.0000013427735,10|8|8|8,0:0|0:0|0:0|0:0,0:0:0:0:
298,265,101842,1,10,0:0:0:0:
256,277,101918,1,8,0:0:0:0:
213,265,101994,1,8,0:0:0:0:
182,234,102070,1,8,0:0:0:0:
170,192,102145,6,8,P|135:195|96:219,2,58.6666684570313,10|8|8,0:0|0:0|0:0,0:0:0:0:
341,192,102448,2,8,P|376:189|415:165,2,58.6666684570313,10|8|8,0:0|0:0|0:0,0:0:0:0:
257,26,102751,6,0,B|247:71|274:109|274:109|237:133|237:133|266:171|256:216,1,220.000006713867,6|0,0:0|2:0,0:0:0:0:
256,356,103205,1,6,0:0:0:0:
256,192,103281,12,0,108205,2:0:0:0:
