osu file format v14

[General]
AudioFilename: DAKISHIMETE.mp3
AudioLeadIn: 0
PreviewTime: 68584
Countdown: 0
SampleSet: None
StackLeniency: 0.5
Mode: 0
LetterboxInBreaks: 0
EpilepsyWarning: 1
WidescreenStoryboard: 1

[Editor]
DistanceSpacing: 1
BeatDivisor: 4
GridSize: 8
TimelineZoom: 2.599999

[Metadata]
Title:Kaze ga Fuku Machi (TV size)
TitleUnicode:風が吹く街(TV size)
Artist:Luck Life
ArtistUnicode:ラックライフ
Creator:Yahuri
Version:Normal
Source:文豪ストレイドッグス
Tags:bungo bungou stray dogs dazai osamu atsushi nakajima kafka asagiri sango 35 harukawa lantis bones seinen anime ed ending
BeatmapID:1219691
BeatmapSetID:576089

[Difficulty]
HPDrainRate:3
CircleSize:3
OverallDifficulty:4
ApproachRate:5
SliderMultiplier:0.9
SliderTickRate:1

[Events]
//Background and Video events
0,0,"SB/dazaibggray.jpg",0,0
//Break Periods
//Storyboard Layer 0 (Background)
//Storyboard Layer 1 (Fail)
//Storyboard Layer 2 (Pass)
//Storyboard Layer 3 (Foreground)
//Storyboard Sound Samples

[TimingPoints]
19721,303.030303030303,4,3,1,100,1,0
20933,-100,4,3,2,50,0,0
21539,-100,4,2,1,50,0,0
28054,-100,4,3,1,60,0,0
30024,-100,4,2,1,60,0,0
30630,-100,4,3,2,70,0,0
30933,-100,4,3,1,70,0,0
37751,-100,4,3,2,70,0,0
38054,-100,4,3,1,70,0,0
40327,-100,4,3,2,70,0,0
40630,-100,4,3,1,70,0,0
50024,-100,4,3,2,70,0,0
50327,-100,4,3,1,70,0,0
57296,-100,4,3,2,70,0,0
57599,-100,4,3,1,70,0,0
58357,-100,4,3,2,70,0,0
58660,-100,4,3,1,70,0,0
68660,-100,4,3,1,50,0,0
69417,-100,4,3,2,80,0,1
69720,-100,4,3,1,80,0,1
79039,-100,4,3,1,80,0,0
79114,-100,4,3,2,80,0,1
79417,-100,4,3,1,80,0,1
85478,-100,4,3,1,50,0,1
85781,-100,4,3,1,60,0,1
86084,-100,4,3,1,70,0,1
86311,-100,4,3,1,70,0,0
86387,-100,4,3,2,80,0,1
86690,-100,4,3,1,80,0,1
96008,-100,4,3,1,80,0,0
96084,-100,4,3,2,80,0,1
96236,-100,4,3,1,80,0,1
101236,-100,4,3,1,50,0,1
101539,-100,4,3,1,60,0,1
101842,-100,4,3,1,70,0,1
102145,-100,4,3,1,80,0,1
102751,-100,4,3,1,50,0,0
103205,-100,4,3,2,50,0,0
103357,-100,4,3,1,40,0,0
104569,-100,4,3,1,30,0,0
105781,-100,4,3,1,20,0,0
106993,-100,4,3,1,10,0,0
108205,-100,4,3,1,5,0,0

[Colours]
Combo1 : 148,148,148
Combo2 : 159,111,98
Combo3 : 218,194,152
Combo4 : 254,29,3
Combo5 : 223,72,240
Combo6 : 120,240,254
Combo7 : 239,245,109
Combo8 : 212,212,212
SliderBorder : 255,255,255

[HitObjects]
256,102,20933,102,0,L|256:54,2,45,4|4|4,0:0|0:0|0:0,0:0:0:0:
256,192,21539,2,0,P|168:208|80:192,1,180
19,361,22751,2,0,P|63:354|108:360,1,90
190,324,23357,6,0,P|278:308|366:324,2,180
99,168,25175,2,0,P|143:174|188:169,1,90
256,110,25781,101,0,0:0:0:0:
323,169,26084,2,0,L|323:275,2,90
391,110,26993,2,0,L|391:20,1,90
481,20,27599,2,0,L|481:110,1,90
468,199,28205,6,0,B|468:245|468:245|468:306|426:323,1,135,8|4,0:0|0:0,0:0:0:0:
342,337,28963,2,0,L|298:337,1,45,4|8,0:0|0:0,0:0:0:0:
214,303,29417,102,0,L|169:303,2,45,4|8|4,0:0|0:0|0:0,0:0:0:0:
285,247,30024,2,0,B|291:202|291:202|274:160|274:160|281:113,1,135
256,78,30630,54,0,B|168:54|168:54|80:77,1,180,6|2,0:0|2:0,0:0:0:0:
22,144,31539,1,8,0:0:0:0:
82,211,31842,2,0,B|170:235|170:235|258:212,1,180,6|2,0:0|2:0,0:0:0:0:
314,144,32751,1,8,0:0:0:0:
372,213,33054,86,0,B|394:279|350:279|372:346,2,135,6|0|8,0:0|0:0|0:0,0:0:0:0:
314,144,34266,2,0,L|290:58,1,90,6|8,0:0|0:3,0:0:0:0:
201,57,34872,2,0,L|177:143,1,90,2|8,2:0|0:3,0:0:0:0:
116,210,35478,6,0,B|145:240|200:232|200:232|250:212|289:234,1,180,6|2,0:0|2:0,0:0:0:0:
362,280,36387,1,8,0:0:0:0:
438,232,36690,2,0,P|444:188|439:143,1,90,6|8,0:0|0:0,0:0:0:0:
382,72,37296,2,0,P|338:66|293:71,1,90,2|8,2:0|0:0,0:0:0:0:
256,97,37751,6,0,B|232:183|232:183|198:219,1,135,6|10,0:3|0:0,0:3:0:0:
240,298,38508,2,8,B|278:321|278:321|323:321,1,90,10|10,0:0|0:0,0:0:0:0:
375,247,39114,2,8,B|396:209|396:209|397:163,1,90,10|10,0:0|0:0,0:0:0:0:
360,80,39720,1,10,0:0:0:0:
270,70,40024,1,10,0:0:0:0:
201,128,40327,54,0,P|159:144|114:150,1,90,4|8,0:0|0:0,0:0:0:0:
31,114,40933,2,0,L|7:28,2,90,0|8|4,0:0|0:3|0:0,0:0:0:0:
41,203,41842,1,8,0:0:0:0:
123,239,42145,2,0,P|139:280|145:325,1,90,0|8,0:0|0:0,0:0:0:0:
226,363,42751,6,0,P|267:346|312:340,1,90,4|8,0:0|0:0,0:0:0:0:
358,263,43357,2,0,L|334:177,2,90,0|8|4,0:0|0:3|0:0,0:0:0:0:
402,342,44266,1,8,0:0:0:0:
446,263,44569,2,0,L|470:177,1,90,0|8,0:0|0:3,0:0:0:0:
431,95,45175,102,0,P|390:79|345:73,1,90,4|8,0:0|0:0,0:0:0:0:
263,112,45781,2,0,P|218:106|176:89,1,90,0|8,0:0|0:0,0:0:0:0:
95,51,46387,2,0,P|79:92|73:137,1,90,4|8,0:0|0:0,0:0:0:0:
111,219,46993,2,0,P|105:263|88:305,1,90,0|8,0:0|0:0,0:0:0:0:
135,382,47599,6,0,L|221:359,2,90,4|8|0,0:0|0:3|0:0,0:0:0:0:
88,305,48508,1,8,0:0:0:0:
135,228,48811,2,0,L|221:205,2,90,4|8|0,0:0|0:3|0:0,0:0:0:0:
88,150,49720,1,8,0:0:0:0:
135,73,50024,102,0,P|176:57|221:51,1,90,4|8,0:0|0:0,0:0:0:0:
275,122,50630,2,0,P|316:106|361:100,1,90,0|8,0:0|0:0,0:0:0:0:
415,171,51236,2,0,P|456:155|501:149,1,90,4|8,0:0|0:0,0:0:0:0:
502,238,51842,1,0,0:0:0:0:
416,264,52145,1,8,0:0:0:0:
326,260,52448,6,0,L|239:282,1,90,4|8,0:0|0:3,0:0:0:0:
156,245,53054,2,0,L|70:221,1,90,0|8,0:0|0:3,0:0:0:0:
69,131,53660,2,0,L|155:155,1,90,4|8,0:0|0:3,0:0:0:0:
239,192,54266,1,0,0:0:0:0:
325,168,54569,1,8,0:0:0:0:
415,169,54872,101,4,0:0:0:0:
370,90,55175,2,8,P|376:46|393:5,2,90,8|0|8,0:3|0:3|0:3,0:3:0:0:
280,91,56084,2,0,P|238:73|194:67,1,90,4|8,0:3|0:3,0:3:0:0:
104,68,56690,1,0,0:0:0:0:
150,145,56993,1,10,0:0:0:0:
121,230,57296,6,0,B|108:272|108:272|120:316,1,90,6|10,0:0|0:0,0:0:0:0:
209,331,57902,2,0,B|251:344|251:344|295:332,1,90,2|8,0:0|0:0,0:0:0:0:
334,308,58357,2,0,B|348:220|348:220|334:176,1,135,6|10,0:0|0:0,0:0:0:0:
301,92,59114,1,10,0:0:0:0:
211,93,59417,1,10,0:0:0:0:
179,177,59720,102,0,B|165:265|165:265|179:309,1,135,6|2,0:0|0:0,0:0:0:0:
256,356,60478,1,0,0:0:0:0:
333,309,60781,2,0,B|347:221|347:221|333:177,1,135,6|10,0:0|0:0,0:0:0:0:
302,92,61539,1,0,0:0:0:0:
302,2,61842,1,10,0:0:0:0:
225,48,62145,6,0,B|137:62|137:62|93:48,1,135,6|2,0:0|0:0,0:0:0:0:
56,129,62902,1,0,0:0:0:0:
93,210,63205,2,0,B|181:196|181:196|225:210,1,135,6|10,0:0|0:0,0:0:0:0:
299,260,63963,1,0,0:0:0:0:
373,209,64266,1,10,0:0:0:0:
447,158,64569,102,0,B|461:70|461:70|447:26,1,135,6|2,0:0|0:0,0:0:0:0:
365,63,65327,1,0,0:0:0:0:
282,99,65630,2,0,B|194:113|194:113|150:99,1,135,6|10,0:0|0:0,0:0:0:0:
69,137,66387,2,0,B|65:181|65:181|85:222,1,90,8|6,0:0|0:0,0:0:0:0:
148,287,66993,6,0,B|189:311|189:311|231:307|231:307|270:332,2,135,10|8|8,0:0|0:0|0:0,0:0:0:0:
112,259,68054,2,0,B|50:210|90:128|150:128|150:128|200:141,1,225,6|4,0:0|0:0,0:0:0:0:
256,308,69417,38,0,B|298:321|298:321|341:309,1,90,6|8,0:3|0:0,0:0:0:0:
423,270,70024,1,2,0:0:0:0:
424,180,70327,1,8,0:0:0:0:
344,137,70630,2,0,L|254:112,1,90,2|8,0:0|0:0,0:0:0:0:
175,152,71236,2,0,P|164:193|175:239,1,90,2|8,0:0|0:0,0:0:0:0:
218,318,71842,6,0,P|174:328|131:318,2,90,6|8|2,0:0|0:0|0:0,0:0:0:0:
294,270,72751,1,8,0:0:0:0:
369,318,73054,2,0,L|458:342,1,90,6|8,0:0|0:0,0:0:0:0:
480,254,73660,2,0,L|390:229,1,90,2|8,0:0|0:0,0:0:0:0:
348,152,74266,5,6,0:0:0:0:
303,230,74569,2,0,L|279:318,2,90,8|2|8,0:0|0:3|0:0,0:0:0:0:
258,152,75478,2,0,P|229:117|188:98,1,90,6|8,0:0|0:3,0:0:0:0:
152,17,76084,2,0,P|117:45|98:86,1,90,2|8,0:0|0:3,0:0:0:0:
135,168,76690,6,0,L|159:257,1,90,6|8,0:0|0:0,0:0:0:0:
199,334,77296,2,0,L|288:358,1,90,2|8,0:0|0:0,0:0:0:0:
331,357,77751,2,0,B|384:335|406:308|406:308|406:260,1,135,4|8,0:0|0:0,0:0:0:0:
406,174,78508,1,2,0:0:0:0:
316,174,78811,1,8,0:0:0:0:
256,241,79114,70,0,B|210:253|210:253|168:240,1,90,6|8,0:0|0:0,0:0:0:0:
84,213,79720,1,2,0:0:0:0:
84,123,80024,1,8,0:0:0:0:
160,75,80327,2,0,P|205:65|248:75,1,90,6|8,0:0|0:0,0:0:0:0:
326,118,80933,2,0,L|349:208,1,90,2|8,0:0|0:0,0:0:0:0:
435,183,81539,6,0,L|412:93,2,90,6|8|2,0:0|0:0|0:0,0:0:0:0:
411,270,82448,1,8,0:0:0:0:
381,355,82751,2,0,L|290:332,1,90,6|8,0:0|0:0,0:0:0:0:
204,332,83357,2,8,P|174:299|161:256,1,90,2|8,0:0|0:0,0:0:0:0:
213,183,83963,6,8,P|243:150|256:107,1,90,6|10,0:0|0:0,0:0:0:0:
292,20,84569,2,8,P|325:50|368:63,1,90,6|10,0:0|0:0,0:3:0:0:
458,74,85175,1,10,0:0:0:0:
426,158,85478,2,0,L|440:207,2,45,10|8|10,0:0|0:0|0:0,0:0:0:0:
336,146,86084,2,0,L|293:134,1,45,10|8,0:0|0:0,0:0:0:0:
256,107,86387,6,0,B|213:118|213:118|168:106,1,90,6|8,0:0|0:0,0:0:0:0:
83,77,86993,1,2,0:0:0:0:
51,161,87296,1,8,0:0:0:0:
73,248,87599,2,0,L|96:334,1,90,6|8,0:0|0:0,0:0:0:0:
178,298,88205,2,0,P|221:287|264:298,1,90,2|8,0:0|0:0,0:0:0:0:
342,253,88811,70,0,P|352:297|342:340,2,90,6|8|2,0:0|0:0|0:0,0:0:0:0:
264,208,89721,1,8,0:0:0:0:
290,122,90024,2,0,L|313:35,1,90,6|8,0:0|0:0,0:0:0:0:
403,34,90630,2,0,L|426:120,1,90,2|8,0:3|0:0,0:0:0:0:
450,207,91236,5,6,0:0:0:0:
368,245,91539,2,0,P|322:243|283:222,2,90,8|2|8,0:0|0:0|0:0,0:0:0:0:
441,297,92448,2,0,P|405:325|362:335,1,90,6|8,0:0|0:0,0:0:0:0:
274,322,93054,2,0,P|231:308|187:315,1,90,2|8,0:0|0:0,0:0:0:0:
105,278,93660,6,0,L|81:191,1,90,6|8,0:0|0:0,0:0:0:0:
162,150,94266,2,0,L|185:63,1,90,2|8,0:0|0:0,0:0:0:0:
220,35,94720,2,0,B|308:49|308:49|352:35,1,135,4|8,0:0|0:0,0:0:0:0:
431,77,95478,1,2,0:0:0:0:
382,153,95781,1,8,0:0:0:0:
301,192,96084,6,0,B|256:180|256:180|213:191,1,90,14|10,0:0|0:0,0:0:0:0:
211,281,96690,2,0,B|256:293|256:293|299:282,1,90,10|10,0:0|0:0,0:0:0:0:
378,242,97296,2,0,B|401:201|401:201|401:157,1,90,10|10,0:0|0:0,0:0:0:0:
364,76,97902,2,0,B|317:75|317:75|278:54,1,90,10|10,0:0|0:0,0:0:0:0:
198,94,98508,70,0,B|174:134|174:134|174:178,2,90,10|10|10,0:0|0:0|0:0,0:0:0:0:
262,157,99417,1,10,0:0:0:0:
326,220,99720,2,0,B|367:198|367:198|411:200,1,90,10|10,0:0|0:0,0:0:0:0:
423,289,100327,2,0,B|381:310|381:310|337:308,1,90,10|10,0:0|0:0,0:0:0:0:
256,268,100933,5,10,0:0:0:0:
183,214,101236,2,8,L|133:229,2,45,10|8|10,0:0|0:0|0:0,0:0:0:0:
211,130,101842,1,10,0:0:0:0:
301,130,102145,1,10,0:0:0:0:
328,215,102448,1,10,0:0:0:0:
256,268,102751,6,8,B|226:303|226:303|218:346|218:346|189:381,1,135,6|6,0:0|0:0,0:0:0:0:
256,192,103357,12,0,108205,2:0:0:0:
