osu file format v14

[General]
AudioFilename: DAKISHIMETE.mp3
AudioLeadIn: 0
PreviewTime: 68584
Countdown: 0
SampleSet: None
StackLeniency: 0.4
Mode: 0
LetterboxInBreaks: 0
EpilepsyWarning: 1
WidescreenStoryboard: 1

[Editor]
DistanceSpacing: 1.1
BeatDivisor: 4
GridSize: 8
TimelineZoom: 2.699999

[Metadata]
Title:Kaze ga Fuku Machi (TV size)
TitleUnicode:風が吹く街(TV size)
Artist:Luck Life
ArtistUnicode:ラックライフ
Creator:Yahuri
Version:Insane
Source:文豪ストレイドッグス
Tags:bungo bungou stray dogs dazai osamu atsushi nakajima kafka asagiri sango 35 harukawa lantis bones seinen anime ed ending
BeatmapID:1219690
BeatmapSetID:576089

[Difficulty]
HPDrainRate:6
CircleSize:4
OverallDifficulty:7
ApproachRate:8.5
SliderMultiplier:1.4
SliderTickRate:1

[Events]
//Background and Video events
0,0,"SB/dazaibggud.jpg",0,0
//Break Periods
//Storyboard Layer 0 (Background)
//Storyboard Layer 1 (Fail)
//Storyboard Layer 2 (Pass)
//Storyboard Layer 3 (Foreground)
//Storyboard Sound Samples

[TimingPoints]
19721,303.030303030303,4,3,1,100,1,0
20099,-133.333333333333,4,3,1,50,0,0
20933,-100,4,3,2,50,0,0
21387,-100,4,3,1,50,0,0
21539,-133.333333333333,4,2,1,50,0,0
28054,-100,4,3,1,60,0,0
30024,-133.333333333333,4,2,1,60,0,0
30630,-100,4,3,2,70,0,0
30933,-100,4,3,1,70,0,0
37751,-100,4,3,2,70,0,0
38054,-100,4,3,1,70,0,0
40327,-100,4,3,2,70,0,0
40630,-100,4,3,1,70,0,0
50024,-100,4,3,2,70,0,0
50327,-100,4,3,1,70,0,0
57296,-100,4,3,2,70,0,0
57599,-100,4,3,1,70,0,0
58357,-100,4,3,2,70,0,0
58660,-100,4,3,1,70,0,0
68660,-100,4,3,1,50,0,0
69417,-90.9090909090909,4,3,2,80,0,1
69720,-90.9090909090909,4,3,1,80,0,1
79039,-90.9090909090909,4,3,1,80,0,0
79114,-90.9090909090909,4,3,2,80,0,1
79417,-90.9090909090909,4,3,1,80,0,1
85478,-90.9090909090909,4,3,1,50,0,1
85781,-90.9090909090909,4,3,1,60,0,1
86084,-90.9090909090909,4,3,1,70,0,1
86311,-90.9090909090909,4,3,1,70,0,0
86387,-90.9090909090909,4,3,2,80,0,1
86690,-90.9090909090909,4,3,1,80,0,1
96008,-90.9090909090909,4,3,1,80,0,0
96084,-90.9090909090909,4,3,2,80,0,1
96236,-90.9090909090909,4,3,1,80,0,1
101236,-90.9090909090909,4,3,1,50,0,1
101539,-90.9090909090909,4,3,1,60,0,1
101842,-90.9090909090909,4,3,1,70,0,1
102145,-90.9090909090909,4,3,1,80,0,1
102751,-100,4,3,1,50,0,0
103130,-100,4,3,1,5,0,0
103205,-100,4,3,2,50,0,0
103357,-100,4,3,1,40,0,0
104569,-100,4,3,1,30,0,0
105781,-100,4,3,1,20,0,0
106993,-100,4,3,1,10,0,0
108205,-100,4,3,1,5,0,0

[Colours]
Combo1 : 148,148,148
Combo2 : 159,111,98
Combo3 : 218,194,152
Combo4 : 254,29,3
Combo5 : 223,72,240
Combo6 : 120,240,254
Combo7 : 239,245,109
Combo8 : 212,212,212
SliderBorder : 255,255,255

[HitObjects]
256,283,20099,101,0,2:0:0:0:
256,283,20327,2,0,L|256:362,2,78.7500030040742,0|0|0,2:0|2:0|2:0,2:0:0:0:
256,122,20933,53,4,0:0:0:0:
193,231,21084,1,4,0:0:0:0:
318,230,21236,2,0,P|353:231|388:223,1,70,4|0,0:0|2:0,0:0:0:0:
477,254,21539,70,0,P|484:288|482:333,2,78.7500030040742
450,185,22145,2,0,L|459:75,1,105.000004005432
322,27,22751,102,0,P|288:34|243:32,2,78.7500030040742
383,68,23357,2,0,P|385:107|377:145,2,78.7500030040742
413,3,23963,2,0,P|452:0|490:8,2,78.7500030040742
322,27,24569,6,0,L|212:36,1,105.000004005432
152,70,25024,1,0,0:0:0:0:
186,134,25175,2,0,P|189:189|176:238,1,105.000004005432
83,350,25781,101,0,0:0:0:0:
64,204,26084,2,0,P|40:156|4:119,2,105.000004005432
200,147,26993,2,0,P|155:117|105:103,2,105.000004005432,0|0|0,0:3|0:3|0:3,0:3:0:0:
319,247,27902,1,0,0:0:0:0:
256,360,28104,6,0,L|256:396,2,23.3333333333333,4|4|8,0:0|0:0|0:0,0:0:0:0:
256,34,28660,1,4,0:0:0:0:
146,223,28963,101,4,0:0:0:0:
146,96,29114,1,8,0:0:0:0:
365,97,29417,5,4,0:0:0:0:
256,160,29569,1,8,0:0:0:0:
256,19,29720,1,4,0:0:0:0:
256,301,30024,102,0,B|256:327|256:327|242:349|242:349|241:376,2,78.7500030040742
256,160,30630,54,0,B|217:128|196:123|196:123|175:128|138:161,1,140,6|8,0:0|0:0,0:0:0:0:
105,229,31084,1,0,0:0:0:0:
62,165,31236,2,0,L|50:95,1,70,2|0,2:0|0:0,0:0:0:0:
16,27,31539,1,8,0:0:0:0:
93,31,31690,1,0,2:0:0:0:
200,111,31842,86,0,B|271:123|264:84|335:85,1,140,6|8,0:0|0:0,0:0:0:0:
411,87,32296,1,0,0:0:0:0:
371,153,32448,2,0,L|359:225,1,70,2|0,2:0|0:3,0:3:0:0:
394,291,32751,1,8,0:0:0:0:
360,360,32902,1,0,2:0:0:0:
238,306,33054,6,0,B|188:284|134:290|134:290|146:323,1,140,6|8,0:0|0:0,0:0:0:0:
72,338,33508,2,0,L|48:268,1,70,0|2,0:0|2:0,0:0:0:0:
107,220,33811,2,0,L|84:152,1,70,0|8,0:0|0:0,0:0:0:0:
141,100,34114,1,0,2:0:0:0:
260,161,34266,6,0,B|295:168|325:149|325:149|365:138|397:161,1,140,6|8,0:0|0:0,0:0:0:0:
430,227,34721,2,0,L|419:297,1,70,0|2,0:0|2:0,0:0:0:0:
374,359,35024,1,0,0:0:0:0:
338,291,35175,2,0,L|350:222,1,70,8|0,0:0|2:0,0:0:0:0:
260,123,35478,86,0,B|194:99|194:99|125:99,1,140,6|8,0:0|0:0,0:0:0:0:
53,129,35933,1,0,0:0:0:0:
114,176,36084,2,0,L|125:245,1,70,2|0,2:0|0:0,0:0:0:0:
79,307,36387,2,0,L|67:376,1,70,8|0,0:0|2:0,0:0:0:0:
178,302,36690,6,0,B|210:282|246:289|246:289|316:303,1,140,6|8,0:0|0:0,0:0:0:0:
388,321,37145,1,0,0:0:0:0:
367,246,37296,2,0,L|356:177,1,70,2|0,2:0|0:0,0:0:0:0:
387,106,37599,1,8,0:0:0:0:
255,156,37751,6,0,P|208:111|259:77,1,140,6|4,0:0|0:0,0:0:0:0:
387,106,38205,2,0,L|370:173,1,70,10|0,0:0|0:0,0:0:0:0:
239,224,38508,2,0,L|255:156,1,70,10|0,0:0|0:0,0:0:0:0:
329,266,38811,2,0,L|312:333,1,70,10|0,0:0|0:0,0:0:0:0:
181,384,39114,2,0,L|197:316,1,70,10|0,0:0|0:0,0:0:0:0:
109,216,39417,86,0,B|143:207|143:207|177:217,1,70,10|0,0:0|0:0,0:0:0:0:
281,124,39721,2,0,B|271:157|271:157|246:182,1,70,10|0,0:0|0:0,0:0:0:0:
273,320,40024,2,0,B|248:295|248:295|239:260,1,70,10|0,0:0|0:0,0:0:0:0:
281,124,40327,86,0,P|317:92|251:56,1,140,4|8,0:3|0:3,0:3:0:0:
193,86,40781,1,0,2:0:0:0:
141,143,40933,2,0,L|135:215,1,70
165,284,41236,2,0,L|177:356,1,70,8|0,0:0|2:0,0:0:0:0:
304,314,41539,6,0,L|442:301,1,140,4|8,0:0|0:0,0:0:0:0:
510,264,41993,1,0,2:0:0:0:
444,223,42145,2,0,L|432:151,1,70
362,121,42448,2,0,L|331:54,1,70,8|0,0:0|2:0,0:0:0:0:
203,90,42751,102,0,L|65:103,1,140,4|8,0:0|0:0,0:0:0:0:
1,147,43205,1,0,2:0:0:0:
70,181,43357,2,0,L|82:253,1,70
150,284,43660,2,0,L|180:350,1,70,8|0,0:0|2:0,0:0:0:0:
302,296,43963,6,0,L|440:309,1,140,4|8,0:0|0:0,0:0:0:0:
506,268,44417,1,0,2:0:0:0:
492,191,44569,2,0,L|480:119,1,70
412,88,44872,2,0,L|382:22,1,70,8|0,0:0|2:0,0:0:0:0:
275,102,45175,102,0,P|204:107|134:87,1,140,4|8,0:0|0:0,0:0:0:0:
64,67,45630,1,0,2:0:0:0:
51,143,45781,2,0,L|39:215,1,70
107,248,46084,2,0,L|114:320,1,70,8|0,0:0|2:0,0:0:0:0:
230,253,46387,6,0,P|299:235|371:243,1,140,4|8,0:0|0:0,0:0:0:0:
440,265,46842,1,0,2:0:0:0:
423,190,46993,2,0,L|435:118,1,70
367,85,47296,2,0,L|359:12,1,70,8|0,0:0|2:0,0:0:0:0:
302,135,47599,102,0,L|229:142,1,70,4|0,0:0|2:0,0:0:0:0:
233,218,47902,2,0,L|302:225,1,70,8|0,0:0|2:0,0:0:0:0:
379,237,48205,1,0,0:0:0:0:
379,314,48357,1,0,0:0:0:0:
303,324,48508,2,0,L|233:330,1,70,8|0,0:0|2:0,0:0:0:0:
158,347,48811,5,0,0:0:0:0:
180,273,48963,1,0,0:0:0:0:
110,240,49114,2,0,L|40:246,1,70,8|0,0:0|0:0,0:0:0:0:
6,176,49417,2,0,L|0:106,1,70,0|0,2:0|0:0,0:0:0:0:
69,71,49721,2,0,L|139:65,1,70,8|0,0:0|2:0,0:0:0:0:
183,191,50024,102,0,L|321:204,1,140,4|8,0:0|0:0,0:0:0:0:
395,179,50478,1,0,2:0:0:0:
380,255,50630,2,0,L|368:327,1,70
299,359,50933,2,0,P|264:359|231:346,1,70,8|0,0:0|2:0,0:0:0:0:
114,285,51236,6,0,L|101:147,1,140,4|8,0:0|0:0,0:0:0:0:
135,77,51690,1,0,2:0:0:0:
166,100,51766,1,0,0:0:0:0:
197,123,51842,2,0,P|197:157|184:190,1,70
254,224,52145,2,0,P|254:258|241:291,1,70,8|2,0:0|0:0,0:0:0:0:
358,225,52448,102,0,L|345:87,1,140,4|8,0:0|0:0,0:0:0:0:
294,28,52902,1,0,2:0:0:0:
271,59,52978,1,0,0:0:0:0:
248,90,53054,2,0,L|179:102,1,70
109,69,53357,2,0,P|74:69|41:56,1,70,8|0,0:0|2:0,0:0:0:0:
108,173,53660,6,0,L|121:312,1,140,4|8,0:0|0:0,0:0:0:0:
185,355,54114,1,0,2:0:0:0:
249,312,54266,2,0,L|260:242,1,70
324,200,54569,2,0,L|335:130,1,70,8|0,0:0|2:0,0:0:0:0:
211,182,54872,102,0,P|141:188|74:170,1,140,4|8,0:0|0:0,0:0:0:0:
4,139,55327,1,0,2:0:0:0:
27,108,55402,1,0,0:0:0:0:
50,77,55478,2,0,L|119:65,1,70
187,98,55781,2,0,P|222:98|255:85,1,70,8|0,0:0|2:0,0:0:0:0:
373,25,56084,6,0,P|391:92|385:161,1,140,4|8,0:0|0:0,0:0:0:0:
361,235,56539,1,0,2:0:0:0:
328,214,56614,1,0,0:0:0:0:
296,192,56690,2,0,L|227:180,1,70
158,214,56993,2,0,L|88:225,1,70,10|0,0:0|2:0,0:0:0:0:
221,257,57296,102,0,B|255:263|255:263|296:363,2,140,6|10|2,0:0|0:0|0:0,0:0:0:0:
146,276,58054,1,0,0:0:0:0:
89,225,58205,1,8,0:0:0:0:
228,180,58357,6,0,B|262:183|262:183|327:97,1,140,6|0,0:0|0:0,0:0:0:0:
388,143,58811,2,0,L|346:200,1,70,10|0,0:0|0:0,0:0:0:0:
411,239,59114,2,0,L|369:296,1,70,10|0,0:0|0:0,0:0:0:0:
434,335,59417,1,10,0:0:0:0:
367,374,59569,1,10,0:0:0:0:
245,320,59721,102,0,L|175:309,1,70,6|0,0:0|0:0,0:0:0:0:
120,256,60024,1,8,0:0:0:0:
205,154,60175,2,0,B|234:116|234:116|262:79|243:27,1,140,6|0,0:0|0:0,0:0:0:0:
166,27,60630,1,8,0:0:0:0:
205,154,60781,6,0,B|242:183|242:183|279:211|331:192,1,140,6|0,0:0|0:0,0:0:0:0:
363,173,61160,1,0,2:0:0:0:
394,150,61236,2,0,P|426:138|462:138,1,70,10|0,0:0|2:0,0:0:0:0:
498,206,61539,2,0,P|509:238|509:274,1,70
442,310,61842,2,0,P|409:321|373:321,1,70,10|0,0:0|2:0,0:0:0:0:
256,245,62145,102,0,L|186:256,1,70,6|0,0:0|0:0,0:0:0:0:
116,223,62448,1,8,0:0:0:0:
236,169,62599,2,0,B|282:147|337:146|337:146|332:182,1,140,6|0,0:0|0:0,0:0:0:0:
334,258,63054,1,8,0:0:0:0:
236,169,63205,6,0,B|214:123|213:67|213:67|249:72,1,140,6|0,0:0|0:0,0:0:0:0:
286,78,63584,1,0,2:0:0:0:
324,84,63660,2,0,P|358:84|391:72,1,70,10|0,0:0|2:0,0:0:0:0:
459,108,63963,2,0,P|458:142|470:175,1,70
435,243,64266,2,0,P|400:242|367:254,1,70,10|0,0:0|2:0,0:0:0:0:
256,328,64569,102,0,L|186:317,1,70,6|0,0:0|0:0,0:0:0:0:
140,255,64872,1,8,0:0:0:0:
238,165,65024,2,0,B|264:147|301:137|301:137|332:160|352:186,1,140,6|0,0:0|0:0,0:0:0:0:
331,260,65478,1,8,0:3:0:0:
238,165,65630,6,0,B|220:138|210:101|210:101|233:70|259:50,1,140,6|0,0:0|0:0,0:0:0:0:
295,41,66008,1,0,2:0:0:0:
334,41,66084,2,0,P|368:41|401:53,1,70,10|0,0:0|2:0,0:0:0:0:
478,45,66387,2,8,L|486:-4,2,46.6666666666667
470,91,66690,1,6,0:0:0:0:
256,270,66993,101,8,0:0:0:0:
188,153,67145,2,0,L|112:153,1,70,4|4,0:0|0:0,0:0:0:0:
256,114,67448,5,8,0:0:0:0:
321,230,67599,2,0,L|419:230,1,70,4|4,0:0|0:0,0:0:0:0:
256,270,67902,101,8,0:0:0:0:
256,114,68054,1,6,0:0:0:0:
256,327,68660,5,4,0:0:0:0:
256,327,68736,1,4,0:0:0:0:
256,327,68811,2,0,P|310:335|359:327,2,105,4|0|0,0:0|2:0|2:0,0:0:0:0:
256,172,69417,38,0,B|228:138|196:125|196:125|161:138|136:171,1,154.000004699707,6|8,0:0|0:0,0:0:0:0:
96,246,69872,1,0,2:0:0:0:
12,230,70024,1,2,0:0:0:0:
1,145,70175,1,0,0:0:0:0:
78,108,70327,2,0,P|89:71|86:33,1,77.0000023498536,8|0,0:0|2:0,0:0:0:0:
228,68,70630,6,0,L|304:88,1,77.0000023498536,6|0,0:0|0:0,0:0:0:0:
368,141,70933,2,0,L|444:161,1,77.0000023498536,8|0,0:0|2:0,0:0:0:0:
508,214,71236,1,2,0:0:0:0:
475,291,71387,1,0,0:0:0:0:
396,258,71539,2,0,P|359:246|321:249,1,77.0000023498536,8|0,0:0|2:0,0:0:0:0:
209,344,71842,6,0,P|170:346|134:334,1,77.0000023498536,6|0,0:0|0:0,0:0:0:0:
54,363,72145,2,0,P|51:324|63:288,1,77.0000023498536,8|0,0:0|2:0,0:0:0:0:
34,208,72448,2,0,P|72:205|108:217,1,77.0000023498536,2|0,0:0|0:0,0:0:0:0:
188,188,72751,2,0,P|190:226|178:262,1,77.0000023498536,8|0,0:0|2:0,0:0:0:0:
120,128,73054,6,0,L|140:52,1,77.0000023498536,6|0,0:0|0:0,0:0:0:0:
217,87,73357,2,0,P|253:98|291:96,1,77.0000023498536,8|0,0:0|2:0,0:0:0:0:
369,62,73660,1,2,0:0:0:0:
401,140,73811,1,0,0:0:0:0:
324,176,73963,2,0,L|304:252,1,77.0000023498536,8|0,0:0|2:0,0:0:0:0:
184,335,74266,70,0,L|129:280,1,77.0000023498536,6|0,0:0|0:0,0:0:0:0:
203,239,74569,2,0,L|164:170,1,77.0000023498536,8|0,0:0|2:0,0:0:0:0:
246,151,74872,2,0,L|226:74,1,77.0000023498536,2|0,0:0|0:0,0:0:0:0:
309,76,75175,2,0,L|309:-2,1,77.0000023498536,8|0,0:0|2:0,0:0:0:0:
451,37,75478,6,0,L|505:91,1,77.0000023498536,6|0,0:0|0:0,0:0:0:0:
432,133,75781,2,0,L|470:201,1,77.0000023498536,8|0,0:0|2:0,0:0:0:0:
389,221,76084,2,0,L|409:297,1,77.0000023498536,2|0,0:0|0:0,0:0:0:0:
326,296,76387,2,0,L|325:374,1,77.0000023498536,8|0,0:0|2:0,0:0:0:0:
259,241,76690,6,0,L|237:316,1,77.0000023498536,6|0,0:0|0:0,0:0:0:0:
160,349,76993,2,0,P|121:345|87:329,1,77.0000023498536,8|0,0:0|2:0,0:0:0:0:
23,273,77296,1,2,0:0:0:0:
79,209,77448,1,0,0:0:0:0:
143,265,77599,1,8,0:0:0:0:
97,126,77751,6,0,B|97:82|129:61|129:61|166:73|208:60,1,154.000004699707,4|0,0:0|0:0,0:0:0:0:
269,4,78205,2,0,P|285:38|288:76,1,77.0000023498536,8|0,0:0|2:0,0:0:0:0:
233,141,78508,1,2,0:0:0:0:
289,204,78660,1,0,0:0:0:0:
233,267,78811,2,0,P|216:301|213:339,1,77.0000023498536,8|0,0:0|2:0,0:0:0:0:
348,265,79114,70,0,L|423:243,1,77.0000023498536,6|0,0:0|0:0,0:0:0:0:
485,300,79417,2,0,P|501:265|504:227,1,77.0000023498536,8|0,0:0|2:0,0:0:0:0:
449,163,79721,1,2,0:0:0:0:
479,83,79872,1,0,0:0:0:0:
410,32,80024,2,0,P|375:15|337:12,1,77.0000023498536,8|0,0:0|2:0,0:0:0:0:
256,134,80327,6,0,L|234:209,1,77.0000023498536,6|0,0:0|0:0,0:0:0:0:
181,274,80630,2,0,L|159:349,1,77.0000023498536,8|0,0:0|2:0,0:0:0:0:
85,306,80933,1,2,0:0:0:0:
11,263,81084,1,0,0:0:0:0:
84,220,81236,2,0,P|100:185|103:147,1,77.0000023498536,8|0,0:0|2:0,0:0:0:0:
235,208,81539,6,0,L|310:230,1,77.0000023498536,6|0,0:0|0:0,0:0:0:0:
371,288,81842,2,0,L|393:213,1,77.0000023498536,8|0,0:0|2:0,0:0:0:0:
451,152,82145,2,0,L|376:130,1,77.0000023498536,2|0,0:0|0:0,0:0:0:0:
315,72,82448,2,0,L|293:147,1,77.0000023498536,8|0,0:0|2:0,0:0:0:0:
222,273,82751,6,0,L|146:253,1,77.0000023498536,6|0,0:0|0:0,0:0:0:0:
83,309,83054,2,0,P|67:274|64:236,1,77.0000023498536,8|0,0:0|2:0,0:0:0:0:
121,173,83357,1,2,0:0:0:0:
177,110,83508,1,0,0:0:0:0:
259,131,83660,2,0,L|335:151,1,77.0000023498536,8|0,0:0|2:0,0:0:0:0:
431,259,83963,70,0,L|411:335,1,77.0000023498536,6|0,0:0|0:0,0:0:0:0:
344,280,84266,2,0,L|305:348,1,77.0000023498536,10|0,0:0|2:0,0:0:0:0:
254,277,84569,2,0,L|198:332,1,77.0000023498536,2|0,0:0|0:0,0:0:0:0:
167,250,84872,2,0,L|99:289,1,77.0000023498536,10|0,0:0|0:0,0:0:0:0:
89,201,85175,1,10,0:0:0:0:
189,80,85478,6,8,L|168:44,3,38.5000011749268,10|8|8|8,0:0|0:0|0:0|0:0,0:0:0:0:
256,41,85781,2,8,L|256:0,3,38.5000011749268,10|8|8|8,0:0|0:0|0:0|0:0,0:0:0:0:
323,80,86084,2,8,L|343:44,3,38.5000011749268,10|8|8|8,0:0|0:0|0:0|0:0,0:0:0:0:
256,119,86387,6,0,B|241:160|256:194|256:194|242:231|256:270,1,154.000004699707,4|8,0:0|0:0,0:0:0:0:
294,342,86842,1,0,2:0:0:0:
366,304,86993,1,2,0:0:0:0:
329,231,87145,1,0,0:0:0:0:
256,269,87296,2,0,P|217:265|183:248,1,77.0000023498536,8|0,0:0|2:0,0:0:0:0:
69,154,87599,6,0,L|49:230,1,77.0000023498536,6|0,0:0|0:0,0:0:0:0:
80,308,87902,2,0,P|118:311|152:328,1,77.0000023498536,8|0,0:0|2:0,0:0:0:0:
183,248,88205,2,0,P|220:241|258:248,1,77.0000023498536,2|0,0:0|0:0,0:0:0:0:
264,163,88508,2,0,P|298:146|337:144,1,77.0000023498536,8|0,0:0|2:0,0:0:0:0:
412,271,88811,70,0,P|404:308|383:340,1,77.0000023498536,6|0,0:0|0:0,0:0:0:0:
328,276,89114,2,0,P|290:268|258:247,1,77.0000023498536,8|0,0:0|2:0,0:0:0:0:
324,191,89417,2,0,P|331:153|352:121,1,77.0000023498536,2|0,0:0|0:0,0:0:0:0:
408,187,89721,2,0,P|445:194|477:215,1,77.0000023498536,8|0,0:0|2:0,0:0:0:0:
340,275,90024,6,0,L|264:255,1,77.0000023498536,6|0,0:0|0:0,0:0:0:0:
203,198,90327,2,0,P|185:232|182:270,1,77.0000023498536,8|0,0:0|2:0,0:0:0:0:
237,335,90630,1,2,0:0:0:0:
154,351,90781,1,0,0:0:0:0:
99,286,90933,2,0,L|23:266,1,77.0000023498536,8|0,0:0|2:0,0:0:0:0:
92,136,91236,6,0,L|112:60,1,77.0000023498536,6|0,0:0|0:0,0:0:0:0:
175,118,91539,2,0,L|195:42,1,77.0000023498536,8|0,0:0|2:0,0:0:0:0:
258,100,91842,2,0,L|278:24,1,77.0000023498536,2|0,0:0|0:0,0:0:0:0:
341,82,92145,2,0,L|361:6,1,77.0000023498536,8|0,0:0|2:0,0:0:0:0:
399,148,92448,6,0,L|379:224,1,77.0000023498536,6|0,0:0|0:0,0:0:0:0:
316,166,92751,2,0,L|296:242,1,77.0000023498536,8|0,0:0|2:0,0:0:0:0:
233,184,93054,2,0,L|213:260,1,77.0000023498536,2|0,0:0|0:0,0:0:0:0:
150,202,93357,2,0,L|130:278,1,77.0000023498536,8|0,0:0|2:0,0:0:0:0:
92,136,93660,70,0,P|90:97|74:63,1,77.0000023498536,2|0,3:0|0:0,0:0:0:0:
159,61,93963,2,0,P|197:59|231:43,1,77.0000023498536,8|0,0:0|2:0,0:0:0:0:
308,79,94266,1,2,0:0:0:0:
384,43,94417,1,0,0:0:0:0:
460,80,94569,1,8,0:0:0:0:
337,159,94721,6,0,B|311:186|311:186|311:264|311:264|283:292,1,154.000004699707,4|0,0:0|0:0,0:0:0:0:
200,306,95175,2,0,L|122:319,1,77.0000023498536,8|0,0:0|2:0,0:0:0:0:
45,286,95478,1,2,0:0:0:0:
30,202,95630,1,0,0:0:0:0:
93,145,95781,1,8,0:0:0:0:
176,165,95933,1,0,0:0:0:0:
216,175,96008,1,0,0:0:0:0:
256,186,96084,6,0,B|295:196|295:196|331:186,1,77.0000023498536,14|0,0:0|2:0,0:0:0:0:
411,159,96387,2,0,B|447:149|447:149|486:159,1,77.0000023498536,10|0,0:0|2:0,0:0:0:0:
446,234,96690,1,10,0:0:0:0:
486,308,96842,1,0,0:0:0:0:
405,334,96993,2,0,B|369:344|369:344|330:334,1,77.0000023498536,10|0,0:0|0:0,0:0:0:0:
288,325,97221,1,0,0:0:0:0:
245,316,97296,6,0,B|225:281|225:281|192:262,1,77.0000023498536,10|0,0:0|2:0,0:0:0:0:
108,264,97599,2,0,B|75:245|75:245|54:210,1,77.0000023498536,10|0,0:0|2:0,0:0:0:0:
136,186,97902,1,10,0:0:0:0:
108,106,98054,1,0,0:0:0:0:
136,26,98205,2,0,B|168:44|168:44|189:79,1,77.0000023498536,10|0,0:0|0:0,0:0:0:0:
209,116,98433,1,0,0:0:0:0:
229,152,98508,70,0,B|267:161|267:161|304:152,1,77.0000023498536,10|0,0:0|2:0,0:0:0:0:
380,115,98811,2,0,B|370:78|370:78|380:39,1,77.0000023498536,10|0,0:0|2:0,0:0:0:0:
456,78,99114,1,10,0:0:0:0:
449,163,99266,1,0,0:0:0:0:
373,201,99417,2,0,B|363:237|363:237|373:276,1,77.0000023498536,10|0,0:0|0:0,0:0:0:0:
384,316,99645,1,0,0:0:0:0:
396,356,99721,6,0,B|355:356|355:356|323:375,1,77.0000023498536,10|0,0:0|2:0,0:0:0:0:
256,322,100024,2,0,B|255:281|255:281|236:249,1,77.0000023498536,10|0,0:0|2:0,0:0:0:0:
162,209,100327,2,0,B|121:208|121:208|89:189,1,77.0000023498536,10|0,0:0|0:0,0:0:0:0:
112,108,100630,2,0,B|152:108|152:108|184:127,1,77.0000023498536,10|0,0:0|0:0,0:0:0:0:
220,149,100857,1,0,0:0:0:0:
256,171,100933,5,10,0:0:0:0:
275,342,101236,2,8,L|285:382,3,38.5000011749268,10|8|8|8,0:0|0:0|0:0|0:0,0:0:0:0:
238,306,101539,2,8,L|227:346,3,38.5000011749268,10|8|8|8,0:0|0:0|0:0|0:0,0:0:0:0:
256,264,101842,5,10,0:0:0:0:
256,222,101917,1,8,0:0:0:0:
256,179,101993,1,8,0:0:0:0:
256,136,102069,1,8,0:0:0:0:
238,94,102145,2,8,L|223:40,2,51.3333348999024,10|8|8,0:3|0:0|0:0,0:0:0:0:
275,58,102448,2,8,L|288:4,2,51.3333348999024,10|8|8,0:0|0:0|0:0,0:0:0:0:
256,179,102751,70,0,B|256:249|256:249|290:280|289:320|276:354,1,175,6|0,0:0|2:0,0:0:0:0:
202,313,103205,1,6,0:0:0:0:
256,192,103281,12,0,108205,2:0:0:0:
