osu file format v14

[General]
AudioFilename: DAKISHIMETE.mp3
AudioLeadIn: 0
PreviewTime: 68584
Countdown: 0
SampleSet: None
StackLeniency: 0.3
Mode: 0
LetterboxInBreaks: 0
EpilepsyWarning: 1
WidescreenStoryboard: 1

[Editor]
DistanceSpacing: 1.3
BeatDivisor: 4
GridSize: 8
TimelineZoom: 2.599999

[Metadata]
Title:Kaze ga Fuku Machi (TV size)
TitleUnicode:風が吹く街(TV size)
Artist:Luck Life
ArtistUnicode:ラックライフ
Creator:Yahuri
Version:Hard
Source:文豪ストレイドッグス
Tags:bungo bungou stray dogs dazai osamu atsushi nakajima kafka asagiri sango 35 harukawa lantis bones seinen anime ed ending
BeatmapID:1219689
BeatmapSetID:576089

[Difficulty]
HPDrainRate:4
CircleSize:3.5
OverallDifficulty:5.5
ApproachRate:7
SliderMultiplier:1.2
SliderTickRate:1

[Events]
//Background and Video events
0,0,"SB/dazaibg.jpg",0,0
//Break Periods
//Storyboard Layer 0 (Background)
//Storyboard Layer 1 (Fail)
//Storyboard Layer 2 (Pass)
//Storyboard Layer 3 (Foreground)
//Storyboard Sound Samples

[TimingPoints]
19721,303.030303030303,4,3,1,100,1,0
20933,-100,4,3,2,50,0,0
21387,-100,4,3,1,50,0,0
21539,-133.333333333333,4,2,1,50,0,0
28054,-100,4,3,1,60,0,0
30024,-100,4,2,1,60,0,0
30630,-100,4,3,2,70,0,0
30933,-100,4,3,1,70,0,0
37751,-100,4,3,2,70,0,0
38054,-100,4,3,1,70,0,0
40327,-100,4,3,2,70,0,0
40630,-100,4,3,1,70,0,0
50024,-100,4,3,2,70,0,0
50327,-100,4,3,1,70,0,0
57296,-100,4,3,2,70,0,0
57599,-100,4,3,1,70,0,0
58357,-100,4,3,2,70,0,0
58660,-100,4,3,1,70,0,0
68660,-100,4,3,1,50,0,0
69417,-90.9090909090909,4,3,2,80,0,1
69720,-90.9090909090909,4,3,1,80,0,1
79039,-90.9090909090909,4,3,1,80,0,0
79114,-90.9090909090909,4,3,2,80,0,1
79417,-90.9090909090909,4,3,1,80,0,1
85478,-90.9090909090909,4,3,1,50,0,1
85781,-90.9090909090909,4,3,1,60,0,1
86084,-90.9090909090909,4,3,1,70,0,1
86311,-90.9090909090909,4,3,1,70,0,0
86387,-90.9090909090909,4,3,2,80,0,1
86690,-90.9090909090909,4,3,1,80,0,1
96008,-90.9090909090909,4,3,1,80,0,0
96084,-90.9090909090909,4,3,2,80,0,1
96236,-90.9090909090909,4,3,1,80,0,1
101236,-90.9090909090909,4,3,1,50,0,1
101539,-90.9090909090909,4,3,1,60,0,1
101842,-90.9090909090909,4,3,1,70,0,1
102145,-90.9090909090909,4,3,1,80,0,1
102751,-100,4,3,1,50,0,0
103130,-100,4,3,1,5,0,0
103205,-100,4,3,2,50,0,0
103357,-100,4,3,1,40,0,0
104569,-100,4,3,1,30,0,0
105781,-100,4,3,1,20,0,0
106993,-100,4,3,1,10,0,0
108205,-100,4,3,1,5,0,0

[Colours]
Combo1 : 148,148,148
Combo2 : 159,111,98
Combo3 : 218,194,152
Combo4 : 254,29,3
Combo5 : 223,72,240
Combo6 : 120,240,254
Combo7 : 239,245,109
Combo8 : 212,212,212
SliderBorder : 255,255,255

[HitObjects]
256,36,20933,37,4,0:0:0:0:
256,114,21084,1,4,0:0:0:0:
256,192,21236,2,0,L|256:258,1,60,4|0,0:0|2:0,0:0:0:0:
208,312,21539,54,0,P|143:308|73:270,1,135.000005149841
48,229,22145,2,0,P|46:185|28:144,1,90.0000034332277
64,32,22751,2,0,P|130:35|200:73,1,135.000005149841
256,106,23357,6,0,P|287:92|322:89,2,67.5000025749207
209,141,23963,2,0,P|177:154|142:157,2,67.5000025749207
263,165,24569,2,0,P|292:222|294:302,1,135.000005149841
330,340,25175,2,0,P|377:342|420:328,1,90.0000034332277,0|0,0:3|0:0,0:0:0:0:
444,215,25781,102,0,P|446:167|432:124,1,90.0000034332277
343,51,26387,2,0,P|299:46|256:58,1,90.0000034332277
172,140,26993,2,0,P|126:151|81:146,1,90.0000034332277
57,33,27599,2,0,P|100:19|145:24,1,90.0000034332277
256,58,28205,6,0,B|280:98|280:137|256:171|256:171|256:230,1,180,8|4,0:0|0:0,0:0:0:0:
336,365,28963,2,0,L|318:299,1,60,4|8,0:0|0:0,0:0:0:0:
176,365,29417,102,0,L|193:299,2,60,4|8|4,0:0|0:0|0:0,0:0:0:0:
256,230,30024,2,0,B|265:171|265:171|248:113|248:113|257:46,1,180
314,1,30630,54,0,P|376:-2|424:49,1,120,6|8,0:0|0:0,0:0:0:0:
453,103,31084,1,0,0:0:0:0:
414,171,31236,2,0,B|386:220|386:220|385:283,1,120,2|8,2:0|0:0,0:0:0:0:
256,197,31842,86,0,P|197:190|151:225,1,120,6|8,0:0|0:0,0:0:0:0:
115,294,32296,1,0,0:0:0:0:
73,228,32448,2,0,B|52:168|52:168|62:108,1,120,2|8,2:0|0:0,0:0:0:0:
196,34,33054,6,0,B|256:50|256:18|314:35,1,120,6|8,0:0|0:0,0:0:0:0:
353,102,33508,2,0,L|383:216,1,120
384,296,33963,2,0,L|367:356,1,60,8|0,0:0|2:0,0:0:0:0:
296,323,34266,6,0,B|244:299|244:299|181:304,1,120,6|8,0:0|0:0,0:0:0:0:
111,269,34721,2,0,L|80:152,1,120
102,78,35175,1,8,0:0:0:0:
256,50,35478,86,0,L|372:80,1,120,6|8,0:0|0:0,0:0:0:0:
440,117,35933,1,0,0:0:0:0:
405,186,36084,2,0,B|374:239|404:248|373:299,1,120,2|8,2:0|0:0,0:0:0:0:
256,197,36690,6,0,B|204:165|196:196|142:165,1,120,6|8,0:0|0:0,0:0:0:0:
73,127,37145,1,0,0:0:0:0:
29,191,37296,2,0,B|0:239|0:239|0:302,1,120,2|8,2:0|3:0,3:0:0:0:
65,347,37751,6,0,B|95:354|95:354|153:347|153:347|185:356,1,120,6|0,0:0|0:0,0:0:0:0:
261,355,38205,2,0,L|244:294,1,60,10|0,0:0|0:0,0:0:0:0:
314,262,38508,2,0,L|297:201,1,60,10|0,0:0|0:0,0:0:0:0:
368,168,38811,2,0,L|351:107,1,60,10|0,0:0|0:0,0:0:0:0:
422,74,39114,2,0,L|405:13,1,60,10|0,0:0|0:0,0:0:0:0:
330,35,39417,86,0,L|269:18,1,60,10|0,0:0|0:0,0:0:0:0:
236,89,39720,2,0,L|175:72,1,60,10|0,0:0|0:0,0:0:0:0:
142,143,40024,2,0,L|81:126,1,60,10|0,0:0|0:0,0:0:0:0:
34,187,40327,86,0,L|85:298,1,120,4|8,0:0|0:0,0:0:0:0:
154,328,40781,1,0,2:0:0:0:
226,297,40933,2,0,L|341:265,1,120,0|8,0:0|0:0,0:0:0:0:
386,115,41539,6,0,L|271:147,1,120,4|8,0:0|0:0,0:0:0:0:
202,184,41993,1,0,2:0:0:0:
133,147,42145,2,0,L|72:130,1,60
12,85,42448,1,8,0:0:0:0:
17,240,42751,102,0,P|41:294|84:336,1,120,4|8,0:0|0:0,0:0:0:0:
153,371,43205,1,0,2:0:0:0:
223,337,43357,2,0,L|338:305,1,120,0|8,0:0|3:0,0:0:0:0:
474,228,43963,6,0,L|506:113,2,120,4|8|0,0:0|3:0|0:0,0:0:0:0:
408,270,44720,1,0,0:0:0:0:
342,228,44872,2,0,L|325:167,1,60,8|0,0:0|2:0,0:0:0:0:
256,135,45175,102,0,P|196:150|147:186,1,120,4|8,0:0|0:0,0:0:0:0:
71,319,45781,2,0,L|54:258,1,60
30,186,46084,1,8,0:0:0:0:
150,86,46387,6,0,P|210:101|259:137,1,120,4|8,0:0|0:0,0:0:0:0:
334,270,46993,2,0,L|351:209,1,60
375,137,47296,1,8,0:0:0:0:
220,117,47599,101,4,0:0:0:0:
192,190,47751,2,0,L|131:207,2,60,0|8|0,2:0|0:0|2:0,0:0:0:0:
247,245,48205,1,0,0:0:0:0:
191,300,48357,2,0,L|134:316,2,60,0|8|0,0:0|0:0|2:0,0:0:0:0:
247,356,48811,5,0,0:0:0:0:
302,300,48963,2,0,L|359:316,2,60,0|8|0,0:0|0:0|0:0,0:0:0:0:
247,245,49417,2,0,L|263:187,1,60,0|0,2:0|0:0,0:0:0:0:
311,125,49720,2,0,L|294:67,1,60,8|0,0:0|2:0,0:0:0:0:
215,70,50024,102,0,L|100:102,1,120,4|8,0:0|3:0,0:0:0:0:
107,259,50630,2,0,L|222:227,1,120,0|8,0:0|3:0,0:0:0:0:
295,257,51084,1,0,2:0:0:0:
367,287,51236,6,0,L|482:255,1,120,4|8,0:0|3:0,0:0:0:0:
512,183,51690,1,0,2:0:0:0:
484,109,51842,2,0,L|426:92,1,60
348,101,52145,2,0,L|290:84,1,60,8|2,0:0|0:0,0:0:0:0:
213,99,52448,102,0,L|181:214,1,120,4|8,0:0|3:0,0:0:0:0:
268,343,53054,2,0,L|300:228,1,120,0|8,0:0|3:0,0:0:0:0:
368,189,53508,1,0,2:0:0:0:
436,151,53660,6,0,L|468:36,1,120,4|8,0:0|3:0,0:0:0:0:
398,2,54114,1,0,2:0:0:0:
327,35,54266,2,0,P|268:52|208:45,1,120,0|8,0:0|0:0,0:0:0:0:
82,134,54872,102,0,L|99:192,1,60,4|0,0:0|2:0,0:0:0:0:
125,264,55175,2,0,P|73:294|14:303,2,120,8|0|8,0:0|0:0|0:0,0:0:0:0:
175,204,55933,1,0,2:0:0:0:
225,144,56084,6,0,P|276:113|335:104,1,120,4|8,0:0|0:0,0:0:0:0:
395,248,56690,2,0,L|412:306,1,60
461,365,56993,1,10,0:0:0:0:
311,320,57296,102,0,B|255:305|255:305|194:321,2,120,6|10|2,0:0|0:0|0:0,0:0:0:0:
380,284,58054,2,0,L|397:226,1,60,0|8,0:0|0:0,0:0:0:0:
359,157,58357,6,0,B|344:101|344:101|360:40,1,120,6|0,0:0|0:0,0:0:0:0:
290,4,58811,2,0,L|232:21,1,60,10|0,0:0|0:0,0:0:0:0:
172,71,59114,2,0,L|114:88,1,60,10|0,0:0|0:0,0:0:0:0:
79,158,59417,1,10,0:0:0:0:
4,182,59569,1,10,0:0:0:0:
27,256,59720,102,0,L|10:314,2,60,6|0|8,0:0|0:0|0:0,0:0:0:0:
102,232,60175,1,6,0:0:0:0:
226,326,60478,2,0,L|284:343,1,60,4|8,0:0|0:0,0:0:0:0:
362,351,60781,2,0,B|413:325|413:325|449:273,1,120,6|0,0:0|0:0,0:0:0:0:
405,209,61236,6,0,B|404:151|404:151|373:96,1,120,10|0,0:0|0:0,0:0:0:0:
305,61,61690,1,0,0:0:0:0:
236,97,61842,2,0,L|219:155,1,60,10|0,0:0|2:0,0:0:0:0:
158,205,62145,102,0,P|99:222|39:215,1,120,6|8,0:0|0:0,0:0:0:0:
6,146,62599,1,6,0:0:0:0:
135,57,62902,2,0,L|152:115,1,60,0|8,0:0|0:0,0:0:0:0:
219,155,63205,6,0,L|334:184,1,120,6|0,0:0|0:0,0:0:0:0:
315,260,63660,2,0,L|249:244,1,60,10|0,0:0|0:0,0:0:0:0:
220,315,63963,2,0,L|154:299,1,60
125,370,64266,2,0,L|59:354,1,60,10|0,0:0|2:0,0:0:0:0:
22,290,64569,102,0,P|5:231|12:171,1,120,6|8,0:0|0:0,0:0:0:0:
48,104,65024,1,6,0:0:0:0:
198,144,65327,2,0,L|256:127,1,60,0|8,0:0|0:0,0:0:0:0:
326,160,65630,6,0,L|357:280,1,120,6|0,0:0|0:0,0:0:0:0:
424,312,66084,2,0,L|482:295,1,60,8|0,0:0|2:0,0:0:0:0:
509,222,66387,2,8,B|493:185|493:185|464:159|464:159|447:120,1,120,8|6,0:0|0:3,0:0:0:0:
296,87,66993,102,0,L|313:29,2,60,12|4|4,0:0|0:0|0:0,0:0:0:0:
217,88,67448,2,0,L|200:30,2,60,8|4|4,0:0|0:0|0:0,0:0:0:0:
256,155,67902,1,8,0:0:0:0:
203,209,68054,2,0,B|184:232|181:264|181:264|256:352|331:264|331:264|328:232|309:208,1,300,6|4,0:0|0:0,0:0:0:0:
255,14,69417,54,0,B|246:45|246:45|264:109|264:109|256:141,1,132.00000402832,6|8,0:0|0:0,0:0:0:0:
203,209,69872,1,0,2:0:0:0:
256,277,70024,2,0,L|275:347,1,66.0000020141602,2|0,0:0|0:0,0:0:0:0:
360,340,70327,2,0,L|377:277,1,66.0000020141602,8|0,0:0|2:0,0:0:0:0:
430,209,70630,6,0,B|462:151|462:151|461:86,1,132.00000402832,6|8,0:0|0:0,0:0:0:0:
290,70,71236,2,0,L|226:87,1,66.0000020141602,2|0,0:0|0:0,0:0:0:0:
140,86,71539,2,0,L|76:68,1,66.0000020141602,8|0,0:0|2:0,0:0:0:0:
25,137,71842,6,0,B|11:202|11:202|35:263,1,132.00000402832,6|8,0:0|0:0,0:0:0:0:
70,340,72296,1,0,2:0:0:0:
121,271,72448,2,0,B|182:247|182:247|247:260,1,132.00000402832,2|8,0:0|0:0,0:0:0:0:
331,280,72902,1,0,2:0:0:0:
304,198,73054,6,0,B|280:136|280:136|293:71,1,132.00000402832,6|8,0:0|0:0,0:0:0:0:
453,133,73660,2,0,L|470:196,1,66.0000020141602,2|0,0:0|0:0,0:0:0:0:
436,276,73963,2,0,L|453:339,1,66.0000020141602,8|0,0:0|2:0,0:0:0:0:
367,351,74266,70,0,L|304:334,1,66.0000020141602,6|0,0:0|0:0,0:0:0:0:
217,333,74569,2,0,P|181:292|186:215,1,132.00000402832,8|2,0:0|0:0,0:0:0:0:
224,140,75024,1,0,0:0:0:0:
187,62,75175,1,8,0:0:0:0:
352,107,75478,6,0,L|415:124,1,66.0000020141602,6|0,0:0|0:0,0:0:0:0:
473,188,75781,2,0,P|469:241|411:292,1,132.00000402832,8|2,0:3|0:3,0:3:0:0:
334,256,76236,1,0,0:0:0:0:
256,292,76387,1,8,0:0:0:0:
137,167,76690,6,0,B|72:190|72:142|8:166,2,132.00000402832,6|8|2,0:3|0:3|0:3,0:3:0:0:
208,118,77448,2,0,L|271:101,1,66.0000020141602,0|8,0:0|0:0,0:0:0:0:
344,146,77751,6,0,B|321:211|368:211|344:275,1,132.00000402832,4|0,0:0|0:0,0:0:0:0:
271,319,78205,2,0,L|208:336,1,66.0000020141602,8|0,0:0|2:0,0:0:0:0:
129,300,78508,2,0,L|66:283,1,66.0000020141602,2|0,0:0|0:0,0:0:0:0:
65,196,78811,2,0,L|128:179,1,66.0000020141602,8|0,0:0|2:0,0:0:0:0:
142,94,79114,70,0,B|165:71|165:71|232:71|232:71|256:94,1,132.00000402832,6|8,0:0|0:0,0:0:0:0:
294,169,79569,1,0,2:0:0:0:
342,97,79720,2,0,L|412:78,1,66.0000020141602,2|0,0:0|0:0,0:0:0:0:
486,111,80024,2,0,L|505:181,1,66.0000020141602,8|0,0:0|2:0,0:0:0:0:
429,219,80327,6,0,B|411:281|411:281|429:345,1,132.00000402832,6|8,0:0|0:0,0:0:0:0:
283,257,80933,2,0,B|184:245|184:245|157:267,1,132.00000402832,2|8,0:0|0:0,0:0:0:0:
94,321,81387,1,0,2:0:0:0:
78,236,81539,6,0,B|66:137|66:137|88:110,1,132.00000402832,6|8,0:0|0:0,0:0:0:0:
146,51,81993,1,0,2:0:0:0:
225,83,82145,2,0,B|317:120|317:120|346:106,1,132.00000402832,2|8,0:0|0:0,0:0:0:0:
422,66,82599,1,0,2:0:0:0:
469,138,82751,6,0,B|493:199|493:199|481:264,1,132.00000402832,6|8,0:0|0:0,0:0:0:0:
463,347,83205,1,0,2:0:0:0:
398,290,83357,2,0,L|328:271,1,66.0000020141602,2|0,0:0|2:0,0:0:0:0:
256,309,83660,1,8,0:0:0:0:
88,344,83963,70,0,L|69:274,1,66.0000020141602,6|0,0:0|0:0,0:0:0:0:
148,244,84266,2,0,L|148:174,1,66.0000020141602,10|0,0:0|2:0,0:0:0:0:
231,162,84569,2,0,L|249:94,1,66.0000020141602,2|0,0:0|0:0,0:0:0:0:
332,104,84872,2,0,L|367:43,1,66.0000020141602,10|0,0:0|0:0,0:0:0:0:
444,74,85175,5,10,0:0:0:0:
512,229,85478,2,0,L|475:291,1,66.0000020141602,10|8,0:0|0:0,0:0:0:0:
395,308,85781,2,0,L|324:326,1,66.0000020141602,10|8,0:0|0:0,0:0:0:0:
256,281,86084,2,0,L|193:244,1,66.0000020141602,10|8,0:0|0:0,0:0:0:0:
256,183,86387,6,0,B|304:150|300:98|300:98|274:81,1,132.00000402832,6|8,0:0|0:0,0:0:0:0:
103,66,86993,2,0,L|86:130,1,66.0000020141602,2|0,0:0|0:0,0:0:0:0:
100,215,87296,2,0,L|83:279,1,66.0000020141602,8|0,0:0|2:0,0:0:0:0:
160,316,87599,6,0,B|190:300|224:300|224:300|253:316|270:345,1,132.00000402832,6|8,0:0|0:0,0:0:0:0:
437,308,88205,2,0,L|455:240,1,66.0000020141602,2|0,0:0|0:0,0:0:0:0:
417,166,88508,2,0,L|399:98,1,66.0000020141602,8|0,0:0|2:0,0:0:0:0:
322,64,88811,70,0,B|258:46|258:46|230:69|194:65,1,132.00000402832,6|8,0:0|0:0,0:0:0:0:
114,42,89266,1,0,2:0:0:0:
134,125,89417,2,0,B|116:188|116:188|139:216|135:252,1,132.00000402832,2|8,0:0|0:0,0:0:0:0:
120,334,89872,1,0,2:0:0:0:
201,306,90024,6,0,B|231:290|265:291|265:291|293:307|310:336,1,132.00000402832,6|8,0:0|0:0,0:0:0:0:
444,230,90630,2,0,B|456:198|441:165|441:165|470:142|475:111,1,132.00000402832,2|8,0:0|0:0,0:0:0:0:
443,31,91084,1,0,2:0:0:0:
362,61,91236,6,0,L|294:79,1,66.0000020141602,6|0,0:0|0:0,0:0:0:0:
263,156,91539,2,0,B|237:175|201:170|201:170|188:204|156:218,1,132.00000402832,8|2,0:0|0:0,0:0:0:0:
72,209,91993,1,0,0:0:0:0:
121,139,92145,1,8,0:0:0:0:
274,60,92448,6,0,L|337:76,1,66.0000020141602,6|0,0:0|0:0,0:0:0:0:
373,155,92751,2,0,B|392:180|387:216|387:216|421:229|435:261,1,132.00000402832,8|2,0:0|0:0,0:0:0:0:
429,346,93205,1,0,0:0:0:0:
358,298,93357,1,8,0:0:0:0:
222,192,93660,70,0,B|157:169|157:216|93:192,2,132.00000402832,6|8|2,0:3|0:3|0:3,0:3:0:0:
297,231,94417,2,0,L|313:167,1,66.0000020141602,0|8,0:0|0:0,0:0:0:0:
366,99,94720,6,0,B|430:76|430:123|495:99,1,132.00000402832,4|0,0:3|0:3,0:3:0:0:
493,185,95175,2,0,L|476:248,1,66.0000020141602,8|0,0:0|2:0,0:0:0:0:
440,327,95478,2,0,L|377:310,1,66.0000020141602,2|0,0:0|0:0,0:0:0:0:
298,274,95781,2,0,L|315:211,1,66.0000020141602,8|0,0:0|0:0,0:0:0:0:
256,148,96084,6,0,B|226:131|193:132|193:132|161:148|126:139,1,132.00000402832,14|10,0:0|0:0,0:0:0:0:
78,303,96690,2,0,L|94:366,1,66.0000020141602,10|0,0:0|0:0,0:0:0:0:
181,357,96993,2,0,L|244:340,1,66.0000020141602,10|0,0:0|0:0,0:0:0:0:
312,286,97296,6,0,B|376:268|376:268|404:291|440:287,1,132.00000402832,10|10,0:0|0:0,0:0:0:0:
475,120,97902,2,0,L|458:56,1,66.0000020141602,10|0,0:0|0:0,0:0:0:0:
378,23,98205,2,0,L|314:39,1,66.0000020141602,10|0,0:0|0:0,0:0:0:0:
243,87,98508,70,0,B|213:98|179:84|179:84|158:114|124:119,1,132.00000402832,10|10,0:0|0:0,0:0:0:0:
39,127,98963,1,0,2:0:0:0:
45,212,99114,2,0,L|27:275,1,66.0000020141602,10|0,0:0|0:0,0:0:0:0:
107,310,99417,2,0,L|170:327,1,66.0000020141602,10|0,0:0|0:0,0:0:0:0:
244,282,99720,6,0,B|272:262|305:261|305:261|335:276|355:303,1,132.00000402832,10|10,0:0|0:0,0:0:0:0:
500,209,100327,2,0,L|500:143,1,66.0000020141602,10|0,0:0|0:0,0:0:0:0:
415,128,100630,2,0,L|398:64,1,66.0000020141602,10|0,0:0|0:0,0:0:0:0:
312,71,100933,6,0,L|279:14,1,66.0000020141602,10|0,0:0|2:0,0:0:0:0:
205,58,101236,2,0,L|141:35,1,66.0000020141602,10|8,0:0|0:0,0:0:0:0:
59,60,101539,2,0,L|35:121,1,66.0000020141602,10|8,0:0|0:0,0:0:0:0:
61,203,101842,2,0,L|122:224,1,66.0000020141602,10|8,0:0|0:0,0:0:0:0:
207,200,102145,6,0,L|224:147,2,44.0000013427735,10|8|8,0:0|0:0|0:0,0:0:0:0:
205,257,102448,2,0,L|186:308,2,44.0000013427735,10|8|8,0:0|0:0|0:0,0:0:0:0:
256,230,102751,70,0,B|323:209|367:252|367:252|389:304,1,150,6|0,0:0|2:0,0:0:0:0:
396,316,103205,1,6,0:0:0:0:
256,192,103357,12,0,108205,2:0:0:0:
