osu file format v14

[General]
AudioFilename: audio.mp3
AudioLeadIn: 0
PreviewTime: 68655
Countdown: 0
SampleSet: Soft
StackLeniency: 0.4
Mode: 0
LetterboxInBreaks: 0
WidescreenStoryboard: 0

[Editor]
DistanceSpacing: 0.7
BeatDivisor: 4
GridSize: 4
TimelineZoom: 1.6

[Metadata]
Title:Kaze ga Fuku Machi (TV Size)
TitleUnicode:風が吹く街 (TV Size)
Artist:Luck Life
ArtistUnicode:ラックライフ
Creator:Smoke
Version:Departure
Source:文豪ストレイドッグス
Tags:rock jrock j-rock pop jpop j-pop japanese anime ending ed bungo bungou stray dogs Gabizon04 Nachmark -_Aqua Gouuh Asahina Oleshev melleganol Mizujin hausenberg season 2 two
BeatmapID:4008001
BeatmapSetID:1938781

[Difficulty]
HPDrainRate:6
CircleSize:3.8
OverallDifficulty:9
ApproachRate:9.3
SliderMultiplier:1.8
SliderTickRate:1

[Events]
//Background and Video events
0,0,"white.jpg",0,0
//Break Periods
//Storyboard Layer 0 (Background)
//Storyboard Layer 1 (Fail)
//Storyboard Layer 2 (Pass)
//Storyboard Layer 3 (Foreground)
//Storyboard Layer 4 (Overlay)
//Storyboard Sound Samples

[TimingPoints]
1553,303.030303030303,4,2,1,70,1,0
6401,301.507537688442,4,2,1,70,1,0
8813,303.030303030303,4,2,1,70,1,0
11237,303.030303030303,4,2,1,70,1,0
11237,-125,4,2,2,60,0,0
13358,309.278350515464,4,2,1,70,1,0
13358,-125,4,2,2,60,0,0
13589,-125,4,2,2,60,0,0
13667,304.568527918782,4,2,1,70,1,0
13667,-125,4,2,2,60,0,0
16103,292.682926829268,4,2,1,70,1,0
16103,-125,4,2,2,60,0,0
16395,306.122448979592,4,2,1,70,1,0
16395,-125,4,2,2,60,0,0
17313,301.507537688442,4,2,1,70,1,0
17313,-125,4,2,2,60,0,0
18443,-125,4,2,2,60,0,0
18519,297.029702970297,4,2,1,70,1,0
18519,-125,4,2,2,60,0,0
19558,304.568527918782,4,2,1,70,1,0
19558,-125,4,2,2,60,0,0
20319,310.880829015544,4,2,1,70,1,0
20319,-125,4,2,2,60,0,0
20940,303.030303030303,4,2,1,70,1,0
20940,-90.9090909090909,4,2,1,80,0,0
21470,-90.9090909090909,4,2,1,5,0,0
21546,-142.857142857143,4,2,1,50,0,0
24576,300,4,2,1,70,1,0
24576,-142.857142857143,4,2,1,50,0,0
25701,-142.857142857143,4,2,1,5,0,0
25776,302.267002518892,4,2,1,70,1,0
25776,-142.857142857143,4,2,1,50,0,0
26985,309.278350515464,4,2,1,50,1,0
26985,-142.857142857143,4,2,1,50,0,0
27216,-142.857142857143,4,2,1,50,0,0
27294,-142.857142857143,4,2,1,50,0,0
28100,269.058295964126,4,2,1,70,1,0
28100,-142.857142857143,4,2,1,70,0,0
28234,298.507462686567,4,2,1,70,1,0
28234,-111.111111111111,4,2,1,70,0,0
29129,303.030303030303,4,2,1,70,1,0
29129,-111.111111111111,4,2,1,70,0,0
29735,297.029702970297,4,2,1,70,1,0
29735,-111.111111111111,4,2,1,70,0,0
30032,-200,4,2,1,60,0,0
30626,301.507537688442,4,2,1,80,1,0
30626,-90.9090909090909,4,2,1,80,0,0
31229,-90.9090909090909,4,2,1,80,0,0
31379,309.278350515464,4,2,1,80,1,0
31379,-90.9090909090909,4,2,1,80,0,0
31842,297.029702970297,4,2,1,80,1,0
31842,-90.9090909090909,4,2,1,80,0,0
32139,313.971742543171,4,2,1,80,1,0
32139,-90.9090909090909,4,2,1,80,0,0
33080,291.26213592233,4,2,1,80,1,0
33080,-90.9090909090909,4,2,1,80,0,0
33298,-90.9090909090909,4,2,1,5,0,0
33371,301.507537688442,4,2,1,80,1,0
33371,-90.9090909090909,4,2,1,80,0,0
33823,309.597523219814,4,2,1,80,1,0
33823,-90.9090909090909,4,2,1,80,0,0
34287,297.029702970297,4,2,1,80,1,0
34287,-90.9090909090909,4,2,1,80,0,0
34732,303.030303030303,4,2,1,80,1,0
34732,-90.9090909090909,4,2,1,80,0,0
35186,315.126050420168,4,2,1,80,1,0
35186,-90.9090909090909,4,2,1,80,0,0
35422,-90.9090909090909,4,2,1,5,0,0
35501,285.714285714286,4,2,1,80,1,0
35501,-90.9090909090909,4,2,1,80,0,0
35786,300,4,2,1,80,1,0
35786,-90.9090909090909,4,2,1,80,0,0
36386,-90.9090909090909,4,2,1,80,0,0
36686,304.723209751143,4,2,1,80,1,0
36686,-90.9090909090909,4,2,1,80,0,0
36914,-90.9090909090909,4,2,1,5,0,0
36990,-90.9090909090909,4,2,1,80,0,0
37752,320.855614973262,4,2,1,80,1,0
37752,-90.9090909090909,4,2,1,80,0,0
38072,298.507462686567,4,2,1,80,1,0
38072,-90.9090909090909,4,2,1,80,0,0
39116,304.568527918782,4,2,1,80,1,0
39116,-90.9090909090909,4,2,1,80,0,0
39725,307.692307692308,4,2,1,80,1,0
39725,-90.9090909090909,4,2,1,80,0,0
40340,303.030303030303,4,2,1,80,1,0
40340,-125,4,2,1,60,0,0
41552,300.751879699248,4,2,1,80,1,0
41552,-125,4,2,1,60,0,0
42755,304.568527918782,4,2,1,80,1,0
42755,-125,4,2,1,60,0,0
43973,303.030303030303,4,2,1,80,1,0
43973,-125,4,2,1,60,0,0
45185,303.030303030303,4,2,1,80,1,0
45185,-125,4,2,1,60,0,0
50033,-111.111111111111,4,2,1,65,0,0
54797,-111.111111111111,4,2,1,5,0,0
54872,-111.111111111111,4,2,1,65,0,0
57230,-111.111111111111,4,2,1,5,0,0
57306,-100,4,2,1,70,0,0
62827,-99.9999999999999,4,2,1,5,0,0
62903,-100,4,2,1,70,0,0
65251,-99.9999999999999,4,2,1,5,0,0
65336,300,4,2,1,80,1,0
65336,-100,4,2,1,70,0,0
65936,314.13612565445,4,2,1,80,1,0
65936,-100,4,2,1,70,0,0
66093,303.030303030303,4,2,1,80,1,0
66093,-100,4,2,1,70,0,0
66396,280.373831775701,4,2,1,80,1,0
66396,-100,4,2,1,70,0,0
66676,319.148936170213,4,2,1,80,1,0
66676,-100,4,2,1,70,0,0
66915,-99.9999999999999,4,2,1,5,0,0
66996,303.030303030303,4,2,1,80,1,0
66996,-100,4,2,1,70,0,0
68814,297.029702970297,4,2,1,80,1,0
68814,-100,4,2,1,70,0,0
69408,306.122448979592,4,2,1,80,1,0
69408,-83.3333333333333,4,2,1,80,0,1
70632,303.030303030303,4,2,1,80,1,0
70632,-83.3333333333333,4,2,1,80,0,1
71541,294.117647058824,4,2,1,80,1,0
71541,-83.3333333333333,4,2,1,80,0,1
71835,303.030303030303,4,2,1,80,1,0
71835,-83.3333333333333,4,2,1,80,0,1
74191,-83.3333333333333,4,2,1,5,0,1
74259,303.030303030303,4,2,1,80,1,0
74259,-83.3333333333333,4,2,1,80,0,1
76683,304.568527918782,4,2,1,80,1,0
76683,-83.3333333333333,4,2,1,80,0,1
77748,303.030303030303,4,2,1,80,1,0
77748,-83.3333333333333,4,2,1,80,0,1
77899,303.030303030303,4,2,1,80,1,0
77899,-83.3333333333333,4,2,1,80,0,1
83887,-83.3333333333333,4,2,1,5,0,1
83959,306.122448979592,4,2,1,80,1,0
83959,-83.3333333333333,4,2,1,80,0,1
85183,303.030303030303,4,2,1,80,1,0
85183,-83.3333333333333,4,2,1,80,0,1
86395,303.030303030303,4,2,1,80,1,0
86395,-80,4,2,1,80,0,1
91167,-80,4,2,1,5,0,1
91243,-80,4,2,1,80,0,1
93895,-80,4,2,1,5,0,1
93970,-80,4,2,1,80,0,1
94198,-80,4,2,1,5,0,1
94273,-80,4,2,1,80,0,1
96091,301.507537688442,4,2,1,80,1,0
96091,-76.9230769230769,4,2,1,80,0,1
97297,303.030303030303,4,2,1,80,1,0
97297,-83.3333333333333,4,2,1,80,0,1
100933,303.030303030303,4,2,1,80,1,0
100933,-83.3333333333333,4,2,1,80,0,1
102145,297.029702970297,4,2,1,80,1,0
102145,-83.3333333333333,4,2,1,80,0,1
102739,307.692307692308,4,2,1,80,1,0
102739,-90.9090909090909,4,2,1,80,0,1
103124,-90.9090909090909,4,2,1,5,0,1
103200,303.030303030303,4,2,1,80,1,0
103200,-333.333333333333,4,2,1,80,0,0
103351,303.030303030303,4,2,1,80,1,0
103351,-86.9565217391304,4,2,1,80,0,0
103654,-86.9565217391304,4,2,1,75,0,0
103957,-86.9565217391304,4,2,1,70,0,0
104260,-86.9565217391304,4,2,1,65,0,0
104563,-86.9565217391304,4,2,1,60,0,0
104866,-86.9565217391304,4,2,1,55,0,0
105169,-86.9565217391304,4,2,1,50,0,0
105472,-86.9565217391304,4,2,1,45,0,0
105775,-86.9565217391304,4,2,1,40,0,0
106078,-86.9565217391304,4,2,1,36,0,0
106381,-86.9565217391304,4,2,1,32,0,0
106684,-86.9565217391304,4,2,1,28,0,0
106987,-86.9565217391304,4,2,1,23,0,0
107290,-86.9565217391304,4,2,1,18,0,0
107593,-86.9565217391304,4,2,1,15,0,0
107896,-86.9565217391304,4,2,1,12,0,0
108199,-86.9565217391304,4,2,1,8,0,0
108502,-86.9565217391304,4,2,1,5,0,0

[Colours]
Combo1 : 149,220,69
Combo2 : 131,179,237
Combo3 : 45,139,255
Combo4 : 220,224,52

[HitObjects]
157,212,11237,5,6,3:2:0:0:
6,271,11388,1,0,3:2:0:0:
111,345,11540,2,0,P|102:310|91:260,1,72,8|0,0:0|0:0,0:0:0:0:
201,320,11843,2,0,P|192:285|181:235,1,72,8|0,0:0|0:0,0:0:0:0:
299,192,12146,2,0,P|291:227|281:261,1,72,8|0,0:0|0:0,0:0:0:0:
389,217,12449,2,0,P|381:252|371:286,1,72,8|0,0:0|0:0,0:0:0:0:
366,124,12752,2,0,P|400:113|435:103,1,72,8|0,0:0|0:0,0:0:0:0:
299,192,13055,2,0,P|272:167|246:142,1,72,8|0,0:0|0:0,0:0:0:0:
115,26,13358,2,0,P|151:67|150:136,1,108,10|0,0:0|0:0,0:0:0:0:
80,167,13667,5,6,3:2:0:0:
214,234,13819,1,0,3:2:0:0:
86,305,13971,2,0,P|101:269|134:244,1,72,8|0,0:0|0:0,0:0:0:0:
242,330,14276,2,0,P|203:335|165:318,1,72,8|0,0:0|0:0,0:0:0:0:
300,263,14580,2,0,P|323:293|328:335,1,72,8|0,0:0|0:0,0:0:0:0:
410,376,14885,2,0,P|417:341|439:313,1,72,8|0,0:0|0:0,0:0:0:0:
502,248,15189,2,0,P|494:213|472:185,1,72,8|0,0:0|0:0,0:0:0:0:
512,55,15494,2,0,P|488:81|454:94,1,72,8|0,0:0|0:0,0:0:0:0:
329,3,15798,2,0,P|355:26|368:60,1,72,8|0,0:0|0:0,0:0:0:0:
256,184,16103,5,6,3:2:0:0:
196,30,16249,1,0,3:2:0:0:
92,160,16395,2,0,P|58:152|12:143,1,72,8|0,0:0|0:0,0:0:0:0:
135,242,16701,2,0,P|143:276|152:322,1,72,8|0,0:0|0:0,0:0:0:0:
41,378,17007,2,0,P|48:342|56:307,1,72,8|0,0:0|0:0,0:0:0:0:
230,364,17313,2,0,P|237:329|246:294,1,72,8|0,0:0|0:0,0:0:0:0:
314,234,17614,2,0,P|306:198|298:163,1,72,8|0,0:0|0:0,0:0:0:0:
370,109,17916,2,0,P|377:73|385:38,1,72,8|0,0:0|0:0,0:0:0:0:
512,161,18217,2,0,P|459:165|393:214,1,108,8|0,0:0|0:0,0:0:0:0:
350,252,18519,5,6,3:2:0:0:
502,324,18667,1,0,3:2:0:0:
312,384,18816,2,0,P|291:345|290:308,1,72,8|0,0:0|0:0,0:0:0:0:
217,264,19113,2,0,P|238:225|239:188,1,72,8|0,0:0|0:0,0:0:0:0:
288,124,19410,1,8,0:0:0:0:
133,292,19558,1,4,0:0:0:0:
133,292,20319,2,0,P|82:303|31:316,2,96,2|2|2,0:0|0:0|0:0,0:0:0:0:
398,185,20940,5,6,3:1:0:0:
252,384,21091,1,6,3:2:0:0:
174,149,21243,2,0,B|150:120|104:124|104:124|144:133|159:180,1,148.50000453186,6|0,3:2|0:0,0:0:0:0:
230,227,21546,6,0,P|269:206|328:210,2,83.9999974365235,2|2|2,0:0|0:0|0:0,0:0:0:0:
80,283,22152,6,0,B|187:287|149:327|263:332,1,188.999994232178,2|0,0:0|0:0,0:0:0:0:
345,281,22758,6,0,P|352:235|365:185,2,83.9999974365235,2|2|2,0:0|0:0|0:0,0:0:0:0:
156,182,23364,6,0,P|148:137|135:83,2,83.9999974365235,2|2|2,0:0|0:0|0:0,0:0:0:0:
309,111,23970,6,0,P|352:97|413:110,2,94.499997116089,2|2|2,0:0|0:0|0:0,0:0:0:0:
187,18,24576,6,0,B|73:39|154:88|8:116,1,188.999994232178,2|2,0:0|0:0,0:0:0:0:
0,199,25176,2,0,P|26:217|71:220,1,62.9999980773926,2|0,0:0|0:0,0:0:0:0:
176,280,25476,2,0,P|129:283|88:306,1,94.499997116089,2|0,0:0|0:0,0:0:0:0:
156,375,25776,5,2,0:0:0:0:
156,375,26078,2,0,P|191:368|239:361,1,62.9999980773926,2|0,0:0|0:0,0:0:0:0:
282,294,26380,2,0,P|312:300|343:305,1,62.9999980773926,2|0,0:0|0:0,0:0:0:0:
456,384,26682,2,0,P|439:360|432:322,1,62.9999980773926,2|0,0:0|0:0,0:0:0:0:
511,125,26985,6,0,B|455:137|455:137|451:142|451:142|382:157,1,125.999996154785,2|2,0:0|0:0,0:0:0:0:
242,34,27603,2,0,B|182:47|182:47|178:52|178:52|122:64,1,125.999996154785,2|2,0:0|0:0,0:0:0:0:
321,219,28100,5,0,3:2:0:0:
321,219,28167,1,0,3:2:0:0:
321,219,28234,2,0,P|268:188|168:196,1,161.999995056153,14|0,0:0|0:0,0:0:0:0:
101,251,28681,2,0,P|92:288|80:335,1,80.9999975280763,8|0,3:3|0:0,0:0:0:0:
61,166,28980,1,0,3:2:0:0:
157,384,29129,1,8,0:0:0:0:
81,329,29432,5,0,3:2:0:0:
330,267,29583,1,8,0:0:0:0:
167,114,29735,1,0,3:2:0:0:
167,114,30032,6,0,B|150:103|149:88|149:88|145:102|120:105,2,67.5,2|2|2,0:0|0:0|0:0,0:0:0:0:
499,35,30626,6,0,B|373:44|440:106|305:117,1,198.000006042481,6|8,3:1|0:0,0:0:0:0:
322,12,31078,1,0,3:2:0:0:
488,138,31229,2,0,P|485:187|461:229,1,99.0000030212403,2|2,0:0|3:2,0:0:0:0:
447,263,31456,1,2,0:0:0:0:
447,263,31533,1,8,0:0:0:0:
324,114,31688,1,2,0:0:0:0:
187,288,31842,6,0,P|77:294|-7:237,1,198.000006042481,6|8,3:2|0:0,0:0:0:0:
115,159,32295,1,0,3:2:0:0:
0,38,32452,2,0,P|56:29|115:18,1,99.0000030212403,2|2,0:0|3:2,0:0:0:0:
135,16,32688,1,2,0:0:0:0:
135,16,32766,1,8,0:0:0:0:
0,144,32923,1,2,0:0:0:0:
227,52,33080,6,0,B|282:62|331:68|331:68|304:79|294:103,1,148.50000453186,6|0,3:2|0:0,0:0:0:0:
375,145,33371,1,10,0:0:0:0:
145,110,33521,2,0,P|128:64|134:16,1,99.0000030212403,2|0,3:2|0:0,0:0:0:0:
375,145,33823,2,0,P|382:193|365:239,1,99.0000030212403,2|8,3:2|0:0,0:0:0:0:
208,364,34132,2,0,P|215:315|223:266,1,99.0000030212403,2|4,0:0|3:2,0:0:0:0:
68,117,34435,2,0,P|75:165|83:214,1,99.0000030212403,2|10,0:0|0:0,0:0:0:0:
278,36,34732,2,0,B|327:23|327:23|367:51,1,99.0000030212403,2|0,3:2|0:0,0:0:0:0:
234,161,35035,1,2,3:2:0:0:
88,8,35186,2,0,P|18:51|2:130,1,148.50000453186,10|0,0:0|0:0,0:0:0:0:
5,122,35501,5,4,3:2:0:0:
5,122,35786,2,0,P|56:136|103:151,1,99.0000030212403,10|0,0:0|3:2,0:0:0:0:
320,64,36086,2,0,P|278:91|237:119,1,99.0000030212403,2|0,0:0|3:2,0:0:0:0:
217,344,36386,2,0,P|204:296|193:248,1,99.0000030212403,10|0,0:0|0:0,0:0:0:0:
408,165,36686,6,0,P|432:196|394:294,1,148.50000453186,6|0,3:2|0:0,0:0:0:0:
311,319,36990,2,0,P|300:270|287:222,1,99.0000030212403,10|0,0:0|3:2,0:0:0:0:
124,56,37295,6,0,P|75:59|33:85,1,99.0000030212403,2|0,0:0|3:2,0:0:0:0:
116,211,37600,1,10,0:0:0:0:
336,0,37752,6,0,B|364:18|403:15|403:15|438:69|438:69|473:63|509:87,1,198.000006042481,6|0,3:1|3:2,0:0:0:0:
217,265,38221,5,12,0:0:0:0:
456,162,38370,1,0,3:2:0:0:
186,93,38519,5,12,0:0:0:0:
416,244,38669,1,0,3:2:0:0:
142,344,38818,5,12,0:0:0:0:
295,107,38967,1,0,3:2:0:0:
358,366,39116,5,12,0:0:0:0:
281,96,39268,1,0,3:2:0:0:
139,354,39420,5,10,0:0:0:0:
201,197,39572,1,2,3:2:0:0:
137,364,39725,5,10,0:0:0:0:
107,162,39878,1,2,3:2:0:0:
135,373,40032,5,10,0:0:0:0:
19,217,40186,1,2,3:2:0:0:
267,344,40340,6,0,B|336:330|336:330|340:323|340:323|419:308,1,144,6|8,3:1|0:0,0:0:0:0:
496,342,40794,1,2,0:0:0:0:
361,226,40946,2,0,P|360:190|372:156,1,72,2|0,3:2|3:2,0:0:0:0:
500,78,41249,2,0,P|506:113|512:148,1,72,10|0,0:0|0:0,0:0:0:0:
378,60,41552,2,0,B|320:68|320:68|303:89|303:89|239:99,1,144,0|8,3:2|0:0,0:0:0:0:
179,166,42003,1,2,0:0:0:0:
249,235,42153,1,2,3:2:0:0:
171,325,42303,1,2,3:2:0:0:
315,382,42454,2,0,P|293:349|246:325,1,72,10|0,0:0|0:0,0:0:0:0:
67,379,42755,6,0,B|93:294|45:320|73:232,1,144,2|8,3:2|0:0,0:0:0:0:
179,166,43211,1,2,0:0:0:0:
79,59,43364,2,0,P|60:96|63:135,1,72,2|0,3:2|3:2,0:0:0:0:
158,275,43668,2,0,P|199:267|240:262,1,72,10|0,0:0|0:0,0:0:0:0:
91,350,43973,2,0,B|36:343|-22:336|-22:336|-1:343|6:360,2,144,0|8|0,3:2|0:0|3:2,0:0:0:0:
185,369,44730,1,0,3:2:0:0:
260,216,44882,2,0,P|260:259|283:308,1,72,8|2,0:0|3:2,0:0:0:0:
422,353,45185,6,0,P|380:344|333:335,1,72,2|0,3:2|0:0,0:0:0:0:
189,231,45488,2,0,P|224:223|259:216,1,72,10|0,0:0|0:0,0:0:0:0:
398,140,45791,1,2,3:2:0:0:
398,140,45942,1,0,3:2:0:0:
292,58,46094,2,0,B|281:94|281:94|303:130,1,72,10|0,0:0|0:0,0:0:0:0:
471,249,46397,6,0,P|434:242|399:237,1,72,2|0,3:2|0:0,0:0:0:0:
217,370,46700,2,0,P|252:363|287:358,1,72,10|0,0:0|0:0,0:0:0:0:
116,288,47003,1,2,3:2:0:0:
116,288,47154,1,0,3:2:0:0:
230,197,47306,2,0,P|243:231|230:284,1,72,10|0,0:0|0:0,0:0:0:0:
78,377,47609,5,2,3:2:0:0:
8,315,47760,1,2,0:0:0:0:
26,222,47912,1,10,0:0:0:0:
112,187,48063,2,0,P|118:155|125:116,1,72,2|0,0:0|3:2,0:0:0:0:
65,41,48366,1,2,3:2:0:0:
217,130,48518,1,10,0:0:0:0:
295,79,48669,2,0,P|331:73|366:68,1,72,2|0,0:0|3:2,0:0:0:0:
459,56,48972,1,2,3:2:0:0:
348,169,49124,1,10,0:0:0:0:
434,203,49275,1,2,3:2:0:0:
366,68,49427,5,2,3:2:0:0:
251,168,49578,1,2,3:2:0:0:
167,10,49730,1,10,0:0:0:0:
261,67,49881,1,2,0:0:0:0:
65,214,50033,6,0,P|54:130|41:47,1,161.999995056153,6|8,3:1|0:0,0:0:0:0:
163,126,50488,1,2,0:0:0:0:
261,67,50639,2,0,P|328:63|412:134,1,161.999995056153,2|8,3:2|0:0,0:0:0:0:
456,225,51094,1,2,0:0:0:0:
355,292,51245,6,0,B|268:289|292:321|190:317,1,161.999995056153,2|8,3:2|0:0,0:0:0:0:
83,352,51700,1,0,3:2:0:0:
83,359,51775,1,0,3:2:0:0:
83,367,51851,1,2,3:2:0:0:
196,317,52003,1,2,3:2:0:0:
22,214,52154,1,10,0:0:0:0:
197,137,52306,1,2,0:0:0:0:
53,72,52457,6,0,B|66:170|108:112|121:215,1,161.999995056153,6|8,3:2|0:0,0:0:0:0:
299,215,52912,1,0,3:2:0:0:
299,215,52988,1,0,3:2:0:0:
299,215,53063,2,0,P|265:222|208:234,1,80.9999975280763,2|0,3:2|3:2,0:0:0:0:
372,145,53366,1,8,0:0:0:0:
258,319,53518,1,2,0:0:0:0:
168,70,53669,6,0,P|131:112|125:225,1,161.999995056153,6|8,3:2|0:0,0:0:0:0:
164,308,54124,1,2,0:0:0:0:
18,368,54275,1,2,3:2:0:0:
18,368,54427,1,0,3:2:0:0:
121,214,54578,2,0,P|186:210|244:247,1,121.499996292114,10|0,0:0|0:0,0:0:0:0:
288,315,54881,6,0,P|313:289|326:239,1,80.9999975280763,4|0,3:2|0:0,0:0:0:0:
485,114,55185,2,0,P|442:122|387:132,1,80.9999975280763,8|0,0:0|3:2,0:0:0:0:
382,164,55412,1,0,3:2:0:0:
382,164,55488,2,0,P|339:156|284:146,1,80.9999975280763,2|0,3:2|3:2,0:0:0:0:
144,125,55791,1,10,0:0:0:0:
309,40,55942,1,2,0:0:0:0:
132,130,56094,6,0,P|129:173|150:217,1,80.9999975280763,6|0,3:2|0:0,0:0:0:0:
307,362,56397,2,0,P|321:324|317:284,1,80.9999975280763,10|2,0:0|0:0,0:0:0:0:
290,253,56624,1,0,3:2:0:0:
290,253,56700,2,0,P|247:262|196:271,1,80.9999975280763,2|0,3:2|3:2,0:0:0:0:
13,305,57003,2,0,P|42:250|33:183,1,121.499996292114,12|0,0:0|0:0,0:0:0:0:
20,92,57306,6,0,P|98:111|209:135,2,180,6|10|2,3:1|0:0|3:2,0:0:0:0:
215,38,58063,1,2,3:2:0:0:
37,192,58215,1,8,0:0:0:0:
287,299,58366,6,0,B|397:311|335:361|449:375,1,180,6|0,3:1|3:2,0:0:0:0:
180,234,58821,5,10,0:0:0:0:
218,362,58972,1,0,3:2:0:0:
476,162,59124,5,10,0:0:0:0:
442,279,59275,1,0,3:2:0:0:
195,74,59427,5,10,0:0:0:0:
280,300,59578,1,10,0:0:0:0:
450,67,59730,5,6,3:2:0:0:
450,67,59881,2,0,P|402:77|348:84,1,90,2|8,3:2|0:0,0:0:0:0:
177,258,60185,2,0,P|132:265|88:274,1,90,6|0,3:2|0:0,0:0:0:0:
364,372,60488,2,0,P|385:333|384:270,1,90,2|8,3:2|0:0,0:0:0:0:
154,87,60791,6,0,P|145:175|177:258,1,180,6|2,3:2|3:2,0:0:0:0:
187,269,61169,1,2,0:0:0:0:
187,269,61245,1,10,0:0:0:0:
409,138,61397,2,0,P|364:131|320:122,1,90,2|2,0:0|3:2,0:0:0:0:
154,87,61700,1,2,3:2:0:0:
302,237,61851,1,10,0:0:0:0:
245,41,62003,1,2,0:0:0:0:
67,234,62154,6,0,P|56:282|48:335,1,90,6|0,3:2|3:2,0:0:0:0:
11,135,62457,1,10,0:0:0:0:
175,268,62609,6,0,P|236:238|323:242,1,135,6|0,3:2|0:0,0:0:0:0:
386,277,62912,1,2,3:2:0:0:
200,358,63063,1,8,0:0:0:0:
336,148,63215,6,0,B|474:183|474:183|452:192|445:210,1,180,6|2,3:2|3:2,0:0:0:0:
454,218,63594,1,2,0:0:0:0:
454,218,63669,1,10,0:0:0:0:
235,146,63821,1,2,3:2:0:0:
389,43,63972,1,2,3:2:0:0:
336,148,64124,1,2,3:2:0:0:
186,6,64275,1,10,0:0:0:0:
260,236,64427,1,2,0:0:0:0:
18,154,64578,6,0,P|29:110|41:66,1,90,6|0,3:2|3:2,0:0:0:0:
235,146,64881,1,10,0:0:0:0:
1,273,65033,6,0,P|65:243|154:269,1,135,6|0,3:2|0:0,0:0:0:0:
203,302,65336,1,2,3:2:0:0:
18,154,65486,1,8,0:0:0:0:
258,43,65636,6,0,B|360:34|330:73|437:63,1,180,6|2,3:2|3:2,0:0:0:0:
442,69,66014,1,2,0:0:0:0:
446,73,66093,2,0,B|472:112|472:112|458:152,1,90,10|2,0:0|0:0,0:0:0:0:
291,298,66396,5,10,0:0:0:0:
255,294,66489,5,8,0:0:0:0:
220,288,66582,5,8,0:0:0:0:
184,285,66676,6,0,B|144:278|103:273|103:273|126:255|131:210,1,135,2|0,3:2|0:0,0:0:0:0:
57,71,66996,5,14,0:0:0:0:
279,165,67147,1,0,3:2:0:0:
128,227,67299,1,2,3:2:0:0:
348,39,67450,5,14,0:0:0:0:
167,118,67602,1,0,3:2:0:0:
423,228,67753,1,2,3:2:0:0:
171,314,67905,5,8,0:0:0:0:
348,39,68056,2,0,B|404:34|428:101|428:101|383:163|294:148|294:148|340:187|327:245,1,360,6|2,3:1|3:2,0:0:0:0:
337,248,68738,1,0,3:2:0:0:
337,248,68814,1,10,3:3:0:0:
2,29,69408,6,0,B|106:49|237:77,1,215.999993408203,6|12,3:1|0:0,0:0:0:0:
339,40,69867,1,2,0:0:0:0:
148,178,70020,1,6,3:2:0:0:
399,291,70173,2,0,P|402:233|364:173,1,107.999996704102,2|12,3:2|0:0,0:0:0:0:
255,348,70479,1,2,0:0:0:0:
485,141,70632,6,0,B|380:157|247:181,1,215.999993408203,6|12,3:1|0:0,0:0:0:0:
67,288,71086,1,0,0:0:0:0:
207,384,71238,2,0,P|212:332|181:277,1,107.999996704102,6|0,3:2|3:2,0:0:0:0:
160,256,71465,1,2,0:0:0:0:
160,256,71541,2,0,P|171:206|182:142,1,107.999996704102,12|2,0:0|0:0,0:0:0:0:
19,1,71835,6,0,B|147:8|102:43|238:50,1,215.999993408203,6|12,3:1|0:0,0:0:0:0:
378,19,72289,1,2,0:0:0:0:
180,150,72441,1,6,3:2:0:0:
395,268,72592,2,0,B|418:222|418:222|400:166,1,107.999996704102,2|12,3:2|0:0,0:0:0:0:
317,99,72895,1,2,0:0:0:0:
479,351,73047,6,0,P|385:298|279:299,1,215.999993408203,6|12,3:1|0:0,0:0:0:0:
122,370,73501,1,2,0:0:0:0:
31,158,73653,2,0,B|82:139|82:139|130:162,1,107.999996704102,6|0,3:2|3:2,0:0:0:0:
381,83,73956,2,0,B|276:60|318:113|206:86,1,161.999995056153,14|0,0:2|0:0,0:0:0:0:
112,55,74259,6,0,P|120:108|129:161,1,107.999996704102,4|2,3:1|3:2,0:0:0:0:
327,282,74562,2,0,P|346:232|339:178,1,107.999996704102,14|0,0:0|0:0,0:0:0:0:
115,270,74865,2,0,P|108:323|127:373,1,107.999996704102,6|0,3:2|3:2,0:0:0:0:
245,182,75168,2,0,P|236:128|227:75,1,107.999996704102,14|0,0:0|0:0,0:0:0:0:
15,272,75471,5,6,3:1:0:0:
15,272,75622,1,0,3:2:0:0:
223,384,75774,2,0,P|230:330|240:277,1,107.999996704102,14|0,0:0|0:0,0:0:0:0:
79,171,76077,1,6,3:2:0:0:
79,171,76228,1,0,3:2:0:0:
116,366,76380,2,0,P|123:312|132:259,1,107.999996704102,14|0,0:0|0:0,0:0:0:0:
304,52,76683,6,0,B|345:16|396:28|396:28|424:67|424:67|465:60|500:87,2,215.999993408203,6|14|6,3:1|0:0|3:2,0:0:0:0:
230,118,77444,1,0,3:2:0:0:
405,218,77596,1,10,0:0:0:0:
155,357,77748,6,0,B|160:232|127:271|134:142,1,215.999993408203,6|2,3:1|3:2,0:0:0:0:
0,2,78202,2,0,P|52:12|105:23,1,107.999996704102,14|0,0:0|0:0,0:0:0:0:
6,178,78505,1,6,3:2:0:0:
230,118,78656,1,0,3:2:0:0:
240,121,78732,1,2,3:2:0:0:
250,124,78808,1,14,0:0:0:0:
105,23,78959,1,2,0:0:0:0:
53,284,79111,6,0,P|147:235|272:241,1,215.999993408203,6|12,3:1|0:0,0:0:0:0:
443,305,79565,1,2,0:0:0:0:
361,97,79717,2,0,B|329:139|329:139|345:192,1,107.999996704102,6|2,3:2|3:2,0:0:0:0:
381,231,79944,1,2,0:0:0:0:
381,231,80020,2,0,P|428:195|439:132,1,107.999996704102,12|2,0:0|0:0,0:0:0:0:
245,14,80323,6,0,P|138:37|9:62,1,215.999993408203,6|12,3:1|0:0,0:0:0:0:
191,157,80777,1,0,0:0:0:0:
23,273,80929,2,0,P|-1:320|0:374,1,107.999996704102,6|0,3:2|3:2,0:0:0:0:
77,170,81232,1,12,0:0:0:0:
185,328,81383,1,2,0:0:0:0:
330,99,81535,6,0,P|383:107|436:118,1,107.999996704102,6|0,3:1|3:2,0:0:0:0:
481,133,81762,1,2,0:0:0:0:
481,133,81838,2,0,B|494:185|494:185|458:241,1,107.999996704102,12|2,0:0|0:0,0:0:0:0:
296,373,82141,2,0,P|287:319|276:266,1,107.999996704102,6|2,3:2|3:2,0:0:0:0:
242,57,82444,1,12,0:0:0:0:
151,243,82595,1,2,0:0:0:0:
33,6,82747,6,0,B|157:13|116:48|258:58,1,215.999993408203,6|12,3:1|0:0,0:0:0:0:
376,141,83202,1,2,0:0:0:0:
151,243,83353,2,0,P|98:250|30:259,1,107.999996704102,6|0,3:2|3:2,0:0:0:0:
297,384,83656,2,0,B|262:296|326:313|287:218,1,161.999995056153,14|0,0:2|0:0,0:0:0:0:
262,143,83959,5,4,3:1:0:0:
262,143,84265,5,14,0:0:0:0:
177,254,84418,1,0,0:0:0:0:
105,51,84571,5,6,3:2:0:0:
193,342,84724,1,0,3:2:0:0:
361,156,84877,5,14,0:0:0:0:
177,254,85030,1,0,3:2:0:0:
394,384,85183,1,14,0:0:0:0:
402,380,85486,6,0,L|419:295,3,53.9999983520508,12|8|8|8,0:0|0:0|0:0|0:0,0:0:0:0:
477,264,85789,1,14,0:0:0:0:
439,243,85864,1,8,0:0:0:0:
394,240,85940,1,8,0:0:0:0:
355,259,86016,1,10,0:0:0:0:
329,293,86092,1,12,0:0:0:0:
292,316,86167,1,8,0:0:0:0:
248,317,86243,1,10,0:0:0:0:
209,297,86319,1,8,0:0:0:0:
186,258,86395,6,0,P|208:149|229:35,1,225,6|12,3:1|0:0,0:0:0:0:
92,196,86849,1,2,0:0:0:0:
319,105,87001,1,6,3:2:0:0:
46,5,87152,2,0,P|23:53|29:113,1,112.5,2|12,3:2|0:0,0:0:0:0:
104,289,87455,1,2,0:0:0:0:
319,105,87607,6,0,P|410:108|512:207,1,225,6|12,3:1|0:0,0:0:0:0:
378,310,88061,1,0,0:0:0:0:
217,113,88213,2,0,B|195:167|195:167|226:232,1,112.5,6|0,3:2|3:2,0:0:0:0:
262,240,88440,1,2,0:0:0:0:
262,240,88516,2,0,P|317:227|376:217,1,112.5,12|2,0:0|0:0,0:0:0:0:
231,7,88819,6,0,B|98:17|172:80|27:93,1,225,6|12,3:1|0:0,0:0:0:0:
0,234,89273,1,2,0:0:0:0:
217,113,89425,1,6,3:2:0:0:
114,325,89576,2,0,P|108:271|99:205,1,112.5,0|12,3:2|0:0,0:0:0:0:
30,92,89879,1,2,0:0:0:0:
243,296,90031,6,0,B|283:260|332:269|332:269|362:305|362:305|406:290|451:322,1,225,6|12,3:1|0:0,0:0:0:0:
298,377,90485,1,2,0:0:0:0:
449,174,90637,2,0,P|392:167|327:158,1,112.5,6|0,3:2|3:2,0:0:0:0:
154,36,90940,2,0,B|174:-4|217:-18|217:-18|255:11|253:65,1,168.75,14|0,0:2|0:0,0:0:0:0:
186,129,91243,6,0,P|132:135|60:144,1,112.5,4|0,3:1|3:2,0:0:0:0:
326,350,91546,2,0,B|352:300|352:300|329:248,1,112.5,14|0,0:0|0:0,0:0:0:0:
136,243,91849,2,0,B|111:292|111:292|134:344,1,112.5,6|0,3:2|3:2,0:0:0:0:
329,248,92152,2,0,P|335:192|343:136,1,112.5,14|0,0:0|0:0,0:0:0:0:
134,344,92455,5,6,3:1:0:0:
134,344,92607,1,0,3:2:0:0:
14,163,92758,2,0,P|69:154|125:146,1,112.5,14|0,0:0|0:0,0:0:0:0:
325,121,93061,5,6,3:2:0:0:
325,121,93213,1,0,3:2:0:0:
116,31,93364,2,0,P|174:39|229:48,1,112.5,14|0,0:0|0:0,0:0:0:0:
466,3,93667,6,0,P|424:75|433:157,1,168.75,4|0,3:1|0:0,0:0:0:0:
503,296,93970,2,0,P|431:254|348:261,1,168.75,14|0,0:0|0:0,0:0:0:0:
253,299,94273,1,6,3:2:0:0:
405,374,94425,1,2,3:2:0:0:
287,163,94576,1,12,0:0:0:0:
66,335,94728,6,0,B|40:205|103:238|77:113,1,225,6|0,3:1|3:2,0:0:0:0:
216,0,95182,2,0,P|205:55|195:111,1,112.5,14|0,0:0|0:0,0:0:0:0:
21,29,95485,1,6,3:2:0:0:
195,110,95637,1,0,3:2:0:0:
19,225,95788,1,12,0:0:0:0:
225,313,95940,1,2,3:2:0:0:
225,313,96016,1,0,3:2:0:0:
225,313,96091,6,0,P|285:318|336:298,1,116.999994644165,14|0,3:1|0:0,0:0:0:0:
476,100,96392,5,12,0:0:0:0:
324,157,96543,1,0,0:0:0:0:
495,295,96694,5,12,0:0:0:0:
394,46,96844,1,0,3:2:0:0:
225,313,96995,5,12,0:0:0:0:
274,61,97146,1,2,3:2:0:0:
274,61,97221,1,0,3:2:0:0:
274,61,97297,6,0,P|219:69|147:78,1,107.999996704102,14|0,3:1|0:0,0:0:0:0:
26,232,97600,5,12,0:0:0:0:
66,69,97751,1,0,0:0:0:0:
262,202,97903,5,12,0:0:0:0:
0,136,98054,1,0,3:2:0:0:
274,61,98206,5,12,0:0:0:0:
115,318,98357,1,2,3:2:0:0:
115,318,98433,1,0,3:2:0:0:
115,318,98509,6,0,P|121:261|126:202,1,107.999996704102,14|0,3:1|0:0,0:0:0:0:
330,127,98812,5,12,0:0:0:0:
181,60,98963,1,2,0:0:0:0:
330,290,99115,5,12,0:0:0:0:
411,54,99266,1,0,3:2:0:0:
226,278,99418,5,12,0:0:0:0:
512,200,99569,1,2,3:2:0:0:
512,200,99645,1,0,3:2:0:0:
512,200,99721,6,0,P|458:207|399:214,1,107.999996704102,14|0,3:1|0:0,0:0:0:0:
226,278,100024,5,12,0:0:0:0:
372,319,100175,1,0,0:0:0:0:
263,108,100327,5,14,0:0:0:0:
144,337,100478,1,0,3:2:0:0:
71,72,100630,5,14,0:0:0:0:
226,278,100781,1,0,3:2:0:0:
226,278,100857,1,0,3:2:0:0:
226,278,100933,6,0,P|286:281|343:285,1,107.999996704102,14|0,3:1|0:0,0:0:0:0:
303,40,101236,1,14,0:0:0:0:
256,46,101311,1,8,0:0:0:0:
222,79,101387,1,8,0:0:0:0:
214,125,101463,1,8,0:0:0:0:
238,166,101539,1,14,0:0:0:0:
277,190,101614,1,8,0:0:0:0:
323,187,101690,1,8,0:0:0:0:
357,156,101766,1,8,0:0:0:0:
373,112,101842,2,0,P|406:108|434:103,3,53.9999983520508,14|8|8|8,0:0|0:0|0:0|0:0,0:0:0:0:
199,259,102145,5,6,3:1:0:0:
186,269,102244,6,0,P|148:270|101:249,1,71.9999978027344,8|8,0:0|0:0,0:0:0:0:
18,118,102442,5,10,0:0:0:0:
35,110,102541,6,0,P|73:109|119:132,1,71.9999978027344,8|8,0:0|0:0,0:0:0:0:
59,365,102739,6,0,P|78:265|106:114,1,247.500007553101,14|0,3:2|0:0,0:0:0:0:
202,6,103200,6,0,B|261:-18|327:24|327:24|210:84|289:263|289:263|362:317|402:282|421:222|421:222|364:154|293:186|289:263|289:263|301:339|272:374|272:374|275:339|251:314,1,944.99997116089,14|0,3:1|0:0,0:0:0:0:
