osu file format v14

[General]
AudioFilename: audio.mp3
AudioLeadIn: 0
PreviewTime: 68654
Countdown: 0
SampleSet: Soft
StackLeniency: 0.3
Mode: 0
LetterboxInBreaks: 0
WidescreenStoryboard: 1

[Editor]
Bookmarks: 20926,68199
DistanceSpacing: 0.7
BeatDivisor: 4
GridSize: 8
TimelineZoom: 1.6

[Metadata]
Title:Kaze ga Fuku Machi (TV size)
TitleUnicode:風が吹く街(TV size)
Artist:Luck Life
ArtistUnicode:ラックライフ
Creator:Nevo
Version:Underdogs' Hard
Source:文豪ストレイドッグス
Tags:bungo bungou stray dogs ending underdogs shogunmoon armin A_r_M_i_N shiratoi bite you death byd
BeatmapID:1516101
BeatmapSetID:713944

[Difficulty]
HPDrainRate:5
CircleSize:3.7
OverallDifficulty:6
ApproachRate:8.1
SliderMultiplier:1.3
SliderTickRate:1

[Events]
//Background and Video events
0,0,"wp1973277.png",0,0
//Break Periods
2,21533,25041
//Storyboard Layer 0 (Background)
//Storyboard Layer 1 (Fail)
//Storyboard Layer 2 (Pass)
//Storyboard Layer 3 (Foreground)
//Storyboard Sound Samples

[TimingPoints]
11230,303.030303030303,4,2,1,50,1,0
20926,-100,4,2,1,60,0,0
21457,-100,4,2,1,5,0,0
21533,-100,4,2,2,50,0,0
25775,-133.333333333333,4,2,2,50,0,0
27896,-133.333333333333,4,2,1,50,0,0
29942,-100,4,2,1,5,0,0
30017,-100,4,2,1,50,0,0
30623,-100,4,2,1,60,0,0
32063,-100,4,2,1,5,0,0
32139,-100,4,2,1,60,0,0
33729,-100,4,2,1,5,0,0
33805,-100,4,2,1,60,0,0
34487,-100,4,2,1,5,0,0
34563,-100,4,2,1,60,0,0
35396,-100,4,2,1,5,0,0
35472,-100,4,2,1,60,0,0
38199,-100,4,2,1,70,0,0
40320,-100,4,2,1,50,0,0
50017,-100,4,2,1,50,0,0
50245,-100,4,2,1,5,0,0
50320,-100,4,2,1,50,0,0
57214,-100,4,2,1,5,0,0
57290,-100,4,2,1,50,0,0
61457,-100,4,2,1,5,0,0
61533,-100,4,2,1,50,0,0
69411,-100,4,2,1,70,0,1
85169,-100,4,2,1,70,0,0
85396,-100,4,2,1,5,0,0
85472,-100,4,2,1,70,0,0
85548,-100,4,2,1,71,0,0
85623,-100,4,2,1,73,0,0
85699,-100,4,2,1,74,0,0
85775,-100,4,2,1,75,0,0
85851,-100,4,2,1,76,0,0
85926,-100,4,2,1,77,0,0
86002,-100,4,2,1,78,0,0
86078,-100,4,2,1,80,0,0
86381,-100,4,2,1,80,0,1
93654,-100,4,2,1,80,0,0
96078,-100,4,2,1,80,0,1
102745,-200,4,2,1,60,0,0
103351,-200,4,2,1,60,0,0
104563,-200,4,2,1,50,0,0
105775,-200,4,2,1,40,0,0
106381,-200,4,2,1,30,0,0
106987,-200,4,2,1,25,0,0
107290,-200,4,2,1,20,0,0
107593,-200,4,2,1,15,0,0
107896,-200,4,2,1,10,0,0
108199,-200,4,2,1,5,0,0

[Colours]
Combo1 : 86,4,159
Combo2 : 160,80,80
Combo3 : 255,128,64
Combo4 : 128,128,128

[HitObjects]
256,192,19563,12,6,20926,0:0:0:0:
63,302,25775,6,0,B|116:262|185:301|185:301|159:186|159:186|228:169|228:169|261:308|261:308|331:310|331:310|335:242,1,585.00002231598,2|2,0:0|0:0,0:0:0:0:
334,257,28048,1,8,0:3:0:0:
342,250,28123,1,8,0:3:0:0:
349,240,28199,6,0,L|334:129,1,97.50000371933,6|0,0:0|0:0,0:0:0:0:
262,73,28654,2,0,L|248:169,1,97.50000371933,8|2,0:3|2:0,0:0:0:0:
204,239,29108,2,0,L|133:230,1,48.750001859665,0|0,1:0|0:0,0:0:0:0:
63,221,29411,5,2,0:0:0:0:
105,299,29563,1,0,1:0:0:0:
155,232,29714,1,6,0:0:0:0:
155,232,30017,6,0,B|138:182|138:182|152:115,2,97.5,2|0|0,0:0|0:0|0:0,0:0:0:0:
198,313,30623,6,0,L|337:288,1,130,6|0,0:0|1:0,0:0:0:0:
404,340,31078,1,2,2:0:0:0:
465,260,31229,2,0,P|472:218|459:184,1,65,0|2,0:0|2:0,0:0:0:0:
383,167,31533,2,0,P|376:125|389:91,1,65,0|0,1:0|0:0,0:0:0:0:
436,37,31836,6,0,P|393:17|310:53,1,130,2|0,0:0|1:0,0:0:0:0:
289,131,32290,1,2,2:0:0:0:
202,145,32442,2,0,L|133:139,1,65,0|2,0:0|2:0,0:0:0:0:
90,55,32745,2,0,L|159:49,1,65,0|0,1:0|0:0,0:0:0:0:
57,136,33048,6,0,B|51:183|51:183|63:206|63:206|56:277,1,130,2|0,0:0|1:0,0:0:0:0:
91,349,33502,2,0,B|144:375|144:375|241:351,1,130,2|2,2:0|2:0,0:0:0:0:
304,310,33957,2,0,L|387:315,1,65,0|0,1:0|2:0,0:0:0:0:
468,274,34260,6,0,P|488:230|424:159,1,130,2|0,0:0|1:0,0:0:0:0:
364,196,34714,1,2,2:0:0:0:
321,113,34866,2,0,L|175:108,1,130,0|0,0:0|1:0,0:0:0:0:
184,113,35472,6,0,L|177:197,1,65,2|0,0:0|0:0,0:0:0:0:
90,216,35775,2,0,L|84:151,1,65,0|2,1:0|2:0,0:0:0:0:
0,52,36078,2,0,B|37:75|37:75|132:54,1,130,0|0,0:0|1:0,0:0:0:0:
201,20,36533,1,0,0:0:0:0:
288,68,36684,6,0,L|288:149,1,65,2|0,0:0|0:0,0:0:0:0:
388,107,36987,2,0,L|360:183,1,65,0|2,1:0|2:0,0:0:0:0:
463,177,37290,2,0,L|410:239,1,65,0|2,0:0|2:0,0:0:0:0:
370,306,37593,1,0,1:0:0:0:
288,238,37745,6,0,P|247:224|161:285,1,130,4|0,0:0|0:0,0:0:0:0:
82,344,38199,2,0,L|167:335,1,65,4|2,1:2|2:0,0:0:0:0:
29,272,38502,2,0,L|114:263,1,65,4|2,1:2|2:0,0:0:0:0:
41,188,38805,2,0,L|126:179,1,65,4|2,1:2|2:0,0:0:0:0:
178,130,39108,6,0,B|188:102|188:102|179:53,1,65,4|2,1:2|2:0,0:0:0:0:
267,34,39411,2,0,B|257:62|257:62|266:111,1,65,4|2,1:2|0:0,0:0:0:0:
328,166,39714,2,0,L|405:158,1,65,4|2,1:2|0:0,0:0:0:0:
478,175,40017,1,4,1:2:0:0:
478,175,40169,1,2,0:0:0:0:
465,269,40320,6,0,L|321:260,1,130,6|0,0:0|1:0,0:0:0:0:
292,338,40775,1,0,0:0:0:0:
292,338,40926,2,0,L|148:347,1,130,2|0,0:0|1:0,0:0:0:0:
79,363,41381,1,0,0:0:0:0:
22,293,41533,6,0,P|12:248|25:214,1,65,2|0,0:0|0:0,0:0:0:0:
103,186,41836,2,0,P|107:217|97:248,1,65,0|0,1:0|0:0,0:0:0:0:
38,139,42139,2,0,L|-49:129,2,65,2|2|0,0:0|2:0|1:0,0:0:0:0:
171,80,42745,6,0,L|305:66,1,130,2|0,0:0|1:0,0:0:0:0:
380,27,43199,1,0,0:0:0:0:
453,80,43351,2,0,P|481:117|457:199,1,130,2|0,0:0|1:0,0:0:0:0:
315,241,43957,6,0,L|242:237,1,65,2|0,0:0|0:0,0:0:0:0:
231,333,44260,2,0,L|308:323,1,65,0|0,1:0|0:0,0:0:0:0:
379,310,44563,2,0,L|390:386,2,65,2|2|0,0:0|2:0|1:0,0:0:0:0:
427,235,45017,1,0,0:0:0:0:
373,165,45169,6,0,L|229:148,1,130,2|0,0:0|1:0,0:0:0:0:
172,214,45623,1,0,2:0:0:0:
88,168,45775,2,0,L|75:98,1,65,2|2,0:0|2:0,0:0:0:0:
34,28,46078,2,0,P|83:19|119:39,1,65,0|0,1:0|0:0,0:0:0:0:
176,71,46381,6,0,B|214:83|214:83|315:61,1,130,2|0,0:0|1:0,0:0:0:0:
408,237,46987,2,0,B|370:225|370:225|269:247,1,130,2|0,0:0|1:0,0:0:0:0:
214,315,47442,1,0,0:0:0:0:
146,245,47593,6,0,L|165:173,2,65,2|0|0,0:0|0:0|1:0,0:0:0:0:
209,110,48199,2,0,L|190:38,2,65,0|2|0,0:0|2:0|1:0,0:0:0:0:
276,162,48654,1,0,0:0:0:0:
323,87,48805,6,0,P|373:63|439:111,1,130,0|0,0:0|1:0,0:0:0:0:
468,184,49260,1,2,2:0:0:0:
430,259,49411,2,0,P|395:231|386:187,1,65,0|2,0:0|2:0,0:0:0:0:
510,253,49714,2,0,P|503:297|469:327,1,65,0|0,1:0|0:0,0:0:0:0:
393,343,50017,6,0,B|348:322|348:322|314:358|261:341,1,130,6|0,0:0|1:0,0:0:0:0:
194,307,50472,1,0,2:0:0:0:
281,263,50623,2,0,L|277:192,1,65,2|2,0:0|2:0,0:0:0:0:
187,143,50926,2,0,L|183:207,1,65,0|0,1:0|0:0,0:0:0:0:
255,86,51229,6,0,P|219:62|123:84,1,130,2|0,0:0|1:0,0:0:0:0:
187,143,51684,1,8,0:3:0:0:
287,165,51836,2,0,L|374:141,1,65,8|2,0:3|2:0,0:0:0:0:
396,68,52139,2,0,L|458:85,1,65,0|0,1:0|0:0,0:0:0:0:
503,163,52442,6,0,P|522:202|471:296,1,130,2|0,0:0|1:0,0:0:0:0:
431,338,52896,1,2,0:0:0:0:
348,320,53048,2,0,L|216:318,1,130,2|0,0:0|1:0,0:0:0:0:
137,363,53502,1,0,0:0:0:0:
80,298,53654,6,0,L|69:217,1,65,2|0,0:0|0:0,0:0:0:0:
162,259,53957,2,0,L|151:178,1,65,0|0,1:0|2:0,0:0:0:0:
171,102,54260,2,0,B|209:122|209:122|320:101,1,130,2|0,0:0|1:0,0:0:0:0:
359,37,54714,1,0,0:0:0:0:
419,110,54866,6,0,L|403:261,1,130,2|0,0:0|1:0,0:0:0:0:
453,318,55320,1,2,2:0:0:0:
355,348,55472,2,0,L|283:342,1,65,2|2,0:0|2:0,0:0:0:0:
205,287,55775,1,0,1:0:0:0:
287,259,55926,1,0,0:0:0:0:
212,365,56078,6,0,P|163:355|127:281,2,130,2|0|2,0:0|1:0|0:0,0:0:0:0:
205,287,56836,1,2,2:0:0:0:
164,202,56987,2,0,L|86:211,1,65,0|0,1:0|0:0,0:0:0:0:
42,136,57290,6,0,L|188:113,1,130,6|0,0:0|1:0,0:0:0:0:
233,37,57745,1,0,0:0:0:0:
312,106,57896,2,0,L|301:193,2,65,2|2|0,0:0|0:0|1:0,0:0:0:0:
387,38,58351,6,0,B|411:66|411:66|398:175,1,130,4|2,0:0|2:0,0:0:0:0:
394,255,58805,2,0,L|478:250,1,65,4|2,1:2|2:0,0:0:0:0:
486,347,59108,2,0,L|402:342,1,65,4|2,1:2|0:0,0:0:0:0:
327,318,59411,1,4,1:2:0:0:
254,366,59563,1,2,1:0:0:0:
185,304,59714,6,0,L|195:222,2,65,6|2|0,0:0|2:0|1:0,0:0:0:0:
122,366,60169,2,0,P|73:374|15:313,1,130,4|2,0:0|2:0,0:0:0:0:
68,250,60623,1,8,1:0:0:0:
68,250,60775,6,0,L|59:111,1,130,4|8,2:0|0:3,0:0:0:0:
150,51,61229,2,0,L|146:124,1,65,0|0,1:0|0:0,0:0:0:0:
190,189,61533,1,2,2:0:0:0:
190,189,61684,1,2,2:0:0:0:
261,130,61836,2,0,L|257:65,1,65,0|0,1:0|0:0,0:0:0:0:
341,24,62139,6,0,P|395:10|461:60,1,130,6|0,0:0|1:0,0:0:0:0:
442,142,62593,2,0,B|425:180|425:180|451:284,1,130,4|2,0:0|0:0,0:0:0:0:
458,352,63048,1,2,1:0:0:0:
345,345,63199,6,0,B|362:307|362:307|336:203,1,130,4|8,0:0|0:3,0:0:0:0:
247,177,63654,1,0,1:0:0:0:
194,255,63805,2,0,L|192:324,1,65,0|8,0:0|0:3,0:0:0:0:
96,352,64108,2,0,L|94:287,2,65,2|0|0,0:0|1:0|0:0,0:0:0:0:
16,266,64563,6,0,P|36:229|127:215,1,130,6|8,0:0|1:0,0:0:0:0:
189,162,65017,2,0,L|196:89,1,65,4|0,0:0|0:0,0:0:0:0:
98,62,65320,2,0,L|104:126,1,65,2|0,2:0|1:0,0:0:0:0:
189,162,65623,6,0,B|248:168|248:168|317:142,1,130,4|8,2:0|2:3,0:0:0:0:
359,62,66078,2,0,P|390:93|393:124,1,65,8|0,1:0|0:0,0:0:0:0:
431,195,66381,6,0,L|491:197,2,43.3333333333333,8|8|8,3:0|3:0|3:0,0:0:0:0:
368,255,66684,2,0,L|262:248,1,97.5,14|0,1:0|0:0,0:0:0:0:
246,258,66987,6,0,B|215:291|215:291|237:379,1,130,6|0,0:2|1:2,0:0:0:0:
151,380,67442,2,0,L|118:232,1,130,6|0,2:2|1:0,0:0:0:0:
55,182,67896,1,2,2:0:0:0:
79,104,68048,6,0,P|123:71|183:204,1,260,4|8,0:0|3:0,0:0:0:0:
186,201,69411,6,0,P|243:196|312:247,1,130,6|0,0:0|1:0,0:0:0:0:
362,301,69866,1,0,0:0:0:0:
296,355,70017,2,0,L|208:348,1,65,2|2,0:0|0:0,0:0:0:0:
172,282,70320,2,0,L|107:287,1,65,0|0,1:0|0:0,0:0:0:0:
35,235,70623,6,0,B|16:198|16:198|25:92,1,130,2|0,0:0|1:0,0:0:0:0:
77,40,71078,1,0,0:0:0:0:
141,117,71229,2,0,L|232:124,1,65,2|2,0:0|0:0,0:0:0:0:
273,72,71533,2,0,L|337:67,1,65,0|0,1:0|0:0,0:0:0:0:
425,38,71836,6,0,P|468:75|452:157,1,130,2|0,0:0|1:0,0:0:0:0:
403,210,72290,1,0,0:0:0:0:
324,184,72442,2,0,L|175:170,1,130,2|0,0:0|1:0,0:0:0:0:
126,232,72896,1,0,0:0:0:0:
164,312,73048,6,0,L|250:302,1,65,2|2,0:0|0:0,0:0:0:0:
319,286,73351,2,0,L|383:293,1,65,0|0,1:0|0:0,0:0:0:0:
452,355,73654,2,0,B|479:327|479:327|458:220,1,130,2|0,0:0|1:0,0:0:0:0:
377,42,74260,6,0,L|366:129,1,65,2|2,0:0|0:0,0:0:0:0:
337,181,74563,2,0,P|298:189|221:130,1,130,0|2,1:0|0:0,0:0:0:0:
206,52,75017,1,2,0:0:0:0:
117,30,75169,2,0,L|37:48,1,65,0|0,1:0|0:0,0:0:0:0:
46,139,75472,6,0,L|124:120,1,65,2|2,0:0|0:0,0:0:0:0:
145,207,75775,2,0,L|67:226,1,65,0|0,1:0|0:0,0:0:0:0:
106,314,76078,2,0,L|184:295,1,65,2|2,0:0|0:0,0:0:0:0:
268,287,76381,1,0,1:0:0:0:
229,202,76533,1,0,0:0:0:0:
242,360,76684,6,0,P|300:360|343:287,1,130,2|0,0:0|1:0,0:0:0:0:
346,227,77139,1,0,0:0:0:0:
423,272,77290,2,0,L|421:353,2,65,2|2|0,0:0|0:0|1:0,0:0:0:0:
483,177,77745,6,0,B|471:132|471:132|481:106|481:106|470:46,1,130,6|2,0:0|0:0,0:0:0:0:
386,17,78199,1,0,1:0:0:0:
356,98,78351,1,0,0:0:0:0:
265,56,78502,2,0,L|148:51,2,97.5,2|0|0,0:0|0:0|0:0,0:0:0:0:
273,180,79108,6,0,L|119:170,1,130,6|0,0:0|1:0,0:0:0:0:
88,93,79563,1,0,0:0:0:0:
25,155,79714,2,0,B|0:202|0:202|26:304,1,130,2|0,0:0|1:0,0:0:0:0:
103,331,80169,1,0,0:0:0:0:
187,293,80320,6,0,L|180:222,1,65,2|2,0:0|0:0,0:0:0:0:
269,259,80623,2,0,L|276:330,1,65,0|0,1:0|0:0,0:0:0:0:
359,343,80926,2,0,P|427:358|486:312,1,130,2|0,0:0|1:0,0:0:0:0:
409,266,81381,1,0,0:0:0:0:
460,190,81533,6,0,P|392:175|333:221,1,130,2|0,0:0|1:0,0:0:0:0:
278,265,81987,1,0,0:0:0:0:
215,200,82139,2,0,L|215:112,2,65,2|2|0,0:0|0:0|1:0,0:0:0:0:
196,302,82593,6,0,B|148:292|148:292|119:300|119:300|63:290,1,130,0|2,0:0|0:0,0:0:0:0:
25,217,83048,2,0,L|11:146,1,65,0|0,1:0|0:0,0:0:0:0:
57,78,83351,1,2,0:0:0:0:
122,139,83502,2,0,P|165:149|206:134,2,65,2|0|0,0:0|1:0|0:0,0:0:0:0:
161,45,83957,6,0,L|294:44,1,130,2|0,0:0|1:0,0:0:0:0:
378,18,84411,1,0,0:0:0:0:
450,71,84563,2,0,B|473:109|473:109|450:202,1,130,2|0,0:0|1:0,0:0:0:0:
432,282,85017,1,0,0:0:0:0:
343,334,85169,6,0,L|261:330,1,65,6|0,0:0|0:0,0:0:0:0:
327,256,85472,2,0,L|245:252,1,65,8|8,0:3|0:3,0:0:0:0:
315,176,85775,2,0,L|233:172,1,65,8|8,0:3|0:3,0:0:0:0:
301,95,86078,2,0,L|219:91,1,65,8|8,0:3|0:3,0:0:0:0:
170,35,86381,6,0,P|113:27|60:84,1,130,6|0,0:0|1:0,0:0:0:0:
56,158,86836,1,0,0:0:0:0:
131,225,86987,2,0,B|158:181|158:181|133:93,1,130,2|0,0:0|1:0,0:0:0:0:
170,34,87442,1,0,0:0:0:0:
239,89,87593,6,0,L|318:97,1,65,2|2,0:0|0:0,0:0:0:0:
363,171,87896,2,0,L|284:179,1,65,0|0,1:0|0:0,0:0:0:0:
242,253,88199,2,0,P|230:297|303:366,1,130,2|0,0:0|1:0,0:0:0:0:
318,288,88654,1,0,0:0:0:0:
297,178,88805,6,0,L|155:173,1,130,2|0,0:0|1:0,0:0:0:0:
107,107,89260,1,0,0:0:0:0:
191,86,89411,2,0,L|333:81,1,130,2|0,0:0|1:0,0:0:0:0:
405,55,89866,1,0,0:0:0:0:
475,122,90017,6,0,P|481:168|467:205,1,65,2|2,0:0|0:0,0:0:0:0:
426,259,90320,2,0,L|359:253,1,65,0|0,1:0|0:0,0:0:0:0:
294,202,90623,2,0,L|229:207,1,65,2|2,0:0|0:0,0:0:0:0:
157,281,90926,1,0,1:0:0:0:
237,311,91078,1,0,0:0:0:0:
230,206,91229,6,0,B|220:153|220:153|203:137|203:137|195:69,1,130,2|0,0:0|1:0,0:0:0:0:
262,27,91684,1,0,0:0:0:0:
315,98,91836,2,0,L|405:95,1,65,2|2,0:0|0:0,0:0:0:0:
413,186,92139,2,0,L|323:183,1,65,0|0,1:0|0:0,0:0:0:0:
300,301,92442,6,0,B|330:267|330:267|427:278,2,130,2|0|2,0:0|1:0|0:0,0:0:0:0:
239,358,93199,1,2,0:0:0:0:
168,312,93351,2,0,L|155:223,1,65,0|0,1:0|0:0,0:0:0:0:
83,188,93654,6,0,L|90:40,1,130,2|0,0:0|1:0,0:0:0:0:
173,29,94108,1,0,0:0:0:0:
221,102,94260,2,0,L|303:81,2,65,2|2|0,0:0|0:0|1:0,0:0:0:0:
191,187,94714,6,0,L|184:335,1,130,4|2,0:0|0:0,0:0:0:0:
266,363,95169,2,0,P|310:369|350:350,1,65,0|0,1:0|0:0,0:0:0:0:
410,313,95472,2,0,B|460:302|460:302|522:323,2,97.5,2|0|8,0:0|0:0|0:3,0:0:0:0:
326,279,96078,6,0,L|251:286,1,65,4|2,1:2|0:0,0:0:0:0:
184,321,96381,2,0,L|119:314,1,65,4|2,1:2|0:0,0:0:0:0:
39,269,96684,2,0,P|17:233|55:146,1,130,4|4,1:2|1:2,0:0:0:0:
127,180,97139,1,8,0:3:0:0:
199,117,97290,6,0,L|190:38,1,65,4|2,1:2|0:0,0:0:0:0:
293,29,97593,2,0,L|285:93,1,65,4|2,1:2|0:0,0:0:0:0:
272,180,97896,2,0,P|333:173|369:106,1,130,4|4,1:2|1:2,0:0:0:0:
284,93,98351,1,8,0:3:0:0:
272,181,98502,6,0,B|264:235|264:235|273:258|273:258|263:315,1,130,4|4,1:2|1:2,0:0:0:0:
328,369,98957,1,2,0:0:0:0:
391,308,99108,2,0,L|462:299,1,65,4|2,1:2|0:0,0:0:0:0:
489,219,99411,2,0,L|418:210,1,65,4|8,1:2|0:3,0:0:0:0:
366,150,99714,6,0,B|278:165|278:165|222:123,1,130,4|4,1:2|1:2,0:0:0:0:
187,61,100169,1,2,0:0:0:0:
117,128,100320,2,0,L|107:201,1,65,4|2,1:2|0:0,0:0:0:0:
196,286,100623,2,0,L|187:221,1,65,4|8,1:2|0:3,0:0:0:0:
130,333,100926,6,0,P|183:367|257:341,1,130,4|8,2:0|0:3,0:0:0:0:
319,314,101381,1,8,0:3:0:0:
282,235,101533,2,0,L|268:164,1,65,8|8,0:3|0:3,0:0:0:0:
194,116,101836,2,0,L|208:45,1,65,8|8,0:3|0:3,0:0:0:0:
297,23,102139,6,0,B|388:29|388:29|372:80,1,130,8|8,0:3|0:3,0:0:0:0:
376,214,102745,5,6,1:2:0:0:
34,198,103199,6,0,B|107:209|171:173|171:173|151:223|185:258|185:258|68:278|68:278|103:320|85:361|85:361|186:314|321:364|321:364|320:310|320:310|395:334|395:334|453:312|485:260|493:178|423:121,1,1072.5,6|0,0:0|0:0,0:0:0:0:
