osu file format v14

[General]
AudioFilename: audio.mp3
AudioLeadIn: 0
PreviewTime: 68654
Countdown: 0
SampleSet: Soft
StackLeniency: 0.3
Mode: 0
LetterboxInBreaks: 0
WidescreenStoryboard: 0

[Editor]
Bookmarks: 20926,68199
DistanceSpacing: 0.7
BeatDivisor: 4
GridSize: 8
TimelineZoom: 1.6

[Metadata]
Title:Kaze ga Fuku Machi (TV size)
TitleUnicode:風が吹く街(TV size)
Artist:Luck Life
ArtistUnicode:ラックライフ
Creator:Nevo
Version:Shira's Insane
Source:文豪ストレイドッグス
Tags:bungo bungou stray dogs ending underdogs shogunmoon armin A_r_M_i_N shiratoi bite you death byd
BeatmapID:1514197
BeatmapSetID:713944

[Difficulty]
HPDrainRate:6
CircleSize:4
OverallDifficulty:7
ApproachRate:9
SliderMultiplier:1.7
SliderTickRate:1

[Events]
//Background and Video events
0,0,"wp1973277.png",0,0
//Break Periods
2,21429,26987
//Storyboard Layer 0 (Background)
//Storyboard Layer 1 (Fail)
//Storyboard Layer 2 (Pass)
//Storyboard Layer 3 (Foreground)
//Storyboard Sound Samples

[TimingPoints]
11230,303.030303030303,4,2,1,30,1,0
20926,-125,4,2,1,60,0,0
21457,-125,4,2,1,5,0,0
21533,-125,4,2,1,30,0,0
29942,-125,4,2,1,5,0,0
30017,-166.666666666667,4,2,1,30,0,0
30623,-111.111111111111,4,2,1,60,0,0
32063,-111.111111111111,4,2,1,5,0,0
32139,-111.111111111111,4,2,1,60,0,0
33729,-111.111111111111,4,2,1,5,0,0
33805,-111.111111111111,4,2,1,60,0,0
34487,-111.111111111111,4,2,1,5,0,0
34563,-111.111111111111,4,2,1,60,0,0
35396,-111.111111111111,4,2,1,5,0,0
35472,-111.111111111111,4,2,1,60,0,0
40320,-125,4,2,1,50,0,0
50017,-117.647058823529,4,2,1,50,0,0
57214,-117.647058823529,4,2,1,5,0,0
57290,-111.111111111111,4,2,1,50,0,0
61457,-111.111111111111,4,2,1,5,0,0
61533,-111.111111111111,4,2,1,50,0,0
69411,-100,4,2,1,70,0,1
85169,-111.111111111111,4,2,1,70,0,0
85396,-111.111111111111,4,2,1,5,0,0
85472,-111.111111111111,4,2,1,70,0,0
85548,-111.111111111111,4,2,1,71,0,0
85623,-111.111111111111,4,2,1,73,0,0
85699,-111.111111111111,4,2,1,74,0,0
85775,-111.111111111111,4,2,1,75,0,0
85851,-111.111111111111,4,2,1,76,0,0
85926,-111.111111111111,4,2,1,77,0,0
86002,-111.111111111111,4,2,1,78,0,0
86078,-111.111111111111,4,2,1,80,0,0
86381,-100,4,2,1,80,0,1
93654,-100,4,2,1,80,0,0
96078,-90.9090909090909,4,2,1,80,0,1
102745,-111.111111111111,4,2,1,40,0,0
108199,-111.111111111111,4,2,1,5,0,0

[Colours]
Combo1 : 128,64,64
Combo2 : 255,0,66
Combo3 : 0,96,255

[HitObjects]
256,192,19563,12,0,20775,0:0:0:0:
160,158,20926,5,6,0:0:0:0:
211,327,21078,1,0,0:0:0:0:
256,216,21229,1,8,1:0:0:0:
252,193,28048,5,0,0:0:0:0:
265,188,28123,1,8,3:0:0:0:
279,183,28199,6,0,B|348:147|355:217|429:156,1,136,6|0,0:0|0:0,0:0:0:0:
320,265,28654,2,0,L|327:354,1,68,0|0,0:0|0:0,0:0:0:0:
409,170,28957,1,0,0:0:0:0:
266,70,29108,2,0,P|293:117|282:184,1,102,0|0,0:0|0:0,0:0:0:0:
279,183,29411,5,2,0:0:0:0:
354,21,29563,1,0,0:0:0:0:
196,141,29714,2,0,L|79:135,1,102,12|0,0:0|0:0,0:0:0:0:
69,129,30017,6,0,L|75:220,2,76.4999976654053,2|0|0,0:0|0:0|0:0,0:0:0:0:
34,293,30623,6,0,B|73:301|73:301|126:287,1,76.4999976654053,6|0,0:0|0:0,0:0:0:0:
270,139,30926,2,0,B|231:131|231:131|178:145,1,76.4999976654053,8|0,1:0|0:0,0:0:0:0:
334,239,31229,1,0,0:0:0:0:
338,72,31381,1,0,0:0:0:0:
248,229,31533,2,0,P|253:281|278:318,1,76.4999976654053,8|0,1:0|0:0,0:0:0:0:
482,244,31836,6,0,B|384:223|384:223|331:239,1,152.999995330811,2|8,0:0|1:0,0:0:0:0:
390,336,32290,1,0,0:0:0:0:
417,136,32442,1,0,0:0:0:0:
482,244,32593,1,0,0:0:0:0:
504,75,32745,2,0,P|469:40|413:32,1,76.4999976654053,8|0,1:0|0:0,0:0:0:0:
270,139,33048,6,0,L|127:131,1,114.749996498108,2|0,0:0|0:0,0:0:0:0:
131,137,33351,1,8,1:0:0:0:
239,236,33502,1,0,0:0:0:0:
245,55,33654,2,0,L|159:50,1,76.4999976654053,0|0,0:0|0:0,0:0:0:0:
39,186,33957,1,8,1:0:0:0:
65,30,34108,1,0,0:0:0:0:
39,186,34260,6,0,B|57:274|57:274|25:334,1,152.999995330811,2|8,0:0|1:0,0:0:0:0:
162,240,34714,2,0,L|238:235,1,76.4999976654053,0|0,0:0|0:0,0:0:0:0:
351,297,35017,1,0,0:0:0:0:
421,99,35169,2,0,P|406:166|433:221,1,114.749996498108,8|0,1:0|0:0,0:0:0:0:
391,217,35472,6,0,B|353:207|353:207|289:223,1,76.4999976654053,2|0,0:0|0:0,0:0:0:0:
172,340,35775,2,0,B|210:350|210:350|274:334,1,76.4999976654053,8|0,1:0|0:0,0:0:0:0:
166,163,36078,2,0,L|161:250,1,76.4999976654053,0|0,0:0|0:0,0:0:0:0:
288,130,36381,2,0,L|283:53,1,76.4999976654053,8|0,1:0|0:0,0:0:0:0:
19,177,36684,6,0,B|100:141|92:212|175:157,1,152.999995330811,2|8,0:0|1:0,0:0:0:0:
111,70,37139,1,0,0:0:0:0:
19,177,37290,2,0,P|10:227|23:273,1,76.4999976654053,0|0,0:0|0:0,0:0:0:0:
172,340,37593,1,8,1:0:0:0:
309,228,37745,6,0,B|206:218|206:218|150:244,1,152.999995330811,4|0,0:0|0:0,0:0:0:0:
368,318,38199,1,12,1:0:0:0:
372,145,38351,1,0,0:0:0:0:
449,283,38502,2,0,P|455:337|441:376,1,76.4999976654053,4|0,1:0|0:0,0:0:0:0:
372,145,38805,2,0,L|377:55,1,76.4999976654053,12|0,1:0|0:0,0:0:0:0:
213,65,39108,5,4,1:0:0:0:
309,228,39260,1,0,0:0:0:0:
289,60,39411,2,0,L|209:65,1,76.4999976654053,12|0,1:0|0:0,0:0:0:0:
84,234,39714,2,0,L|164:239,1,76.4999976654053,4|0,1:0|0:0,0:0:0:0:
36,128,40017,1,12,1:0:0:0:
26,332,40169,1,0,0:0:0:0:
123,152,40320,6,0,B|144:76|94:95|125:8,1,136,6|8,0:0|1:0,0:0:0:0:
36,128,40775,1,0,0:0:0:0:
121,19,40926,2,0,P|173:13|214:26,1,68,0|0,0:0|0:0,0:0:0:0:
260,115,41229,2,0,P|312:121|353:108,1,68,8|0,1:0|0:0,0:0:0:0:
431,32,41533,6,0,L|430:175,1,136,2|8,0:0|1:0,0:0:0:0:
435,282,41987,1,0,0:0:0:0:
497,163,42139,2,0,L|407:169,1,68,0|0,0:0|0:0,0:0:0:0:
311,260,42442,1,8,1:0:0:0:
311,260,42745,6,0,P|371:248|448:301,1,136,2|8,0:0|1:0,0:0:0:0:
351,359,43199,1,0,0:0:0:0:
309,192,43351,2,0,L|311:271,1,68,0|0,0:0|0:0,0:0:0:0:
187,348,43654,2,0,L|188:280,1,68,8|0,1:0|0:0,0:0:0:0:
71,138,43957,6,0,L|75:296,1,136,2|8,0:0|1:0,0:0:0:0:
74,273,44563,1,0,0:0:0:0:
160,185,44714,1,0,0:0:0:0:
187,348,44866,2,0,P|230:338|270:346,1,68,8|0,1:0|0:0,0:0:0:0:
440,200,45169,6,0,B|348:210|348:210|301:188,1,136,2|8,0:0|1:0,0:0:0:0:
308,191,45775,2,0,L|311:109,1,68,0|0,0:0|0:0,0:0:0:0:
440,200,46078,2,0,L|442:267,1,68,8|0,1:0|0:0,0:0:0:0:
308,191,46381,6,0,P|229:171|165:208,1,136,2|8,0:0|1:0,0:0:0:0:
181,191,46987,2,0,P|189:158|184:124,1,68,0|0,0:0|0:0,0:0:0:0:
245,276,47290,2,0,L|248:367,1,68,8|0,1:0|0:0,0:0:0:0:
308,191,47593,5,2,0:0:0:0:
152,287,47745,1,0,0:0:0:0:
340,274,47896,2,0,L|431:265,1,68,8|0,1:0|0:0,0:0:0:0:
364,88,48199,1,0,0:0:0:0:
340,274,48351,1,0,0:0:0:0:
296,81,48502,2,0,L|363:87,1,68,8|0,1:0|0:0,0:0:0:0:
496,220,48805,5,2,0:0:0:0:
308,191,48957,1,0,0:0:0:0:
332,340,49108,2,0,P|341:291|330:245,1,68,8|0,1:0|0:0,0:0:0:0:
203,131,49411,1,0,0:0:0:0:
152,287,49563,1,0,0:0:0:0:
101,140,49714,2,0,P|165:134|231:128,1,102,8|0,1:0|0:0,0:0:0:0:
214,105,50017,6,0,P|120:96|41:83,1,144.500002756119,6|8,0:0|1:0,0:0:0:0:
23,205,50472,1,0,0:0:0:0:
152,287,50623,2,0,P|154:344|155:384,1,72.2500013780594,0|0,0:0|0:0,0:0:0:0:
218,216,50926,1,8,1:0:0:0:
53,290,51078,1,0,0:0:0:0:
280,294,51229,6,0,P|308:246|281:145,1,144.500002756119,2|8,0:0|1:0,0:0:0:0:
443,156,51684,1,8,3:0:0:0:
457,169,51760,1,8,3:0:0:0:
471,183,51836,2,0,L|382:184,1,72.2500013780594,0|0,0:0|0:0,0:0:0:0:
257,72,52139,2,0,L|346:73,1,72.2500013780594,8|0,1:0|0:0,0:0:0:0:
471,183,52442,6,0,B|447:230|447:230|473:346,1,144.500002756119,2|8,0:0|0:0,0:0:0:0:
370,314,52896,1,8,3:0:0:0:
360,301,52972,1,8,3:0:0:0:
352,290,53048,2,0,L|259:294,1,72.2500013780594,8|0,3:0|0:0,0:0:0:0:
163,173,53351,2,0,L|256:177,1,72.2500013780594,8|0,1:0|0:0,0:0:0:0:
166,309,53654,6,0,B|186:219|186:219|162:172,1,144.500002756119,2|8,0:0|1:0,0:0:0:0:
58,329,54108,1,0,0:0:0:0:
90,173,54260,2,0,P|139:177|178:165,1,72.2500013780594,0|0,0:0|0:0,0:0:0:0:
237,307,54563,2,0,P|188:303|149:315,1,72.2500013780594,8|0,1:0|0:0,0:0:0:0:
316,187,54866,6,0,L|486:197,1,144.500002756119,2|8,0:0|1:0,0:0:0:0:
410,60,55320,1,0,0:0:0:0:
401,47,55396,1,8,3:0:0:0:
393,33,55472,2,0,L|396:119,1,72.2500013780594,0|0,0:0|0:0,0:0:0:0:
313,259,55775,2,0,L|315:186,1,72.2500013780594,8|0,1:0|0:0,0:0:0:0:
187,42,56078,6,0,L|17:52,1,144.500002756119,2|8,0:0|1:0,0:0:0:0:
125,148,56533,1,0,0:0:0:0:
259,37,56684,2,0,L|157:43,1,72.2500013780594,8|0,3:0|0:0,0:0:0:0:
52,143,56987,2,0,L|154:149,1,72.2500013780594,8|0,1:0|0:0,0:0:0:0:
235,319,57290,6,0,P|216:270|253:180,1,152.999995330811,6|8,0:0|1:0,0:0:0:0:
370,149,57745,1,0,0:0:0:0:
388,270,57896,2,0,L|296:256,1,76.4999976654053,0|0,0:0|0:0,0:0:0:0:
251,181,58199,1,8,1:0:0:0:
457,196,58351,6,0,B|475:93|475:93|455:43,1,152.999995330811,4|0,0:0|0:0,0:0:0:0:
329,23,58805,1,12,1:0:0:0:
370,149,58957,1,0,0:0:0:0:
252,25,59108,2,0,L|348:22,1,76.4999976654053,4|0,1:0|0:0,0:0:0:0:
251,181,59411,2,0,L|155:178,1,76.4999976654053,12|0,1:0|0:0,0:0:0:0:
40,60,59714,5,6,0:0:0:0:
83,227,59866,1,0,0:0:0:0:
152,78,60017,1,8,1:0:0:0:
258,255,60169,2,0,P|247:200|257:166,1,76.4999976654053,0|0,0:0|0:0,0:0:0:0:
83,227,60472,2,0,P|94:282|84:316,1,76.4999976654053,0|8,0:0|1:0,0:0:0:0:
209,360,60775,5,0,0:0:0:0:
209,360,61078,1,0,0:0:0:0:
222,356,61154,1,0,0:0:0:0:
233,352,61229,2,0,L|321:358,1,76.4999976654053,12|0,1:0|0:0,0:0:0:0:
418,212,61533,2,0,L|330:218,1,76.4999976654053,0|0,0:0|0:0,0:0:0:0:
398,301,61836,2,0,P|414:347|409:395,1,76.4999976654053,12|0,1:0|0:0,0:0:0:0:
258,255,62139,6,0,B|246:212|246:212|263:157,1,76.4999976654053,2|0,0:0|0:0,0:0:0:0:
363,87,62442,1,8,1:0:0:0:
215,97,62593,2,0,L|76:95,1,114.749996498108,0|0,0:0|0:0,0:0:0:0:
73,76,62896,1,0,0:0:0:0:
151,194,63048,1,8,1:0:0:0:
11,211,63199,6,0,P|96:176|167:207,1,152.999995330811,0|0,0:0|0:0,0:0:0:0:
197,348,63654,1,8,1:0:0:0:
247,183,63805,1,0,0:0:0:0:
93,270,63957,2,0,L|101:371,1,76.4999976654053,0|0,0:0|0:0,0:0:0:0:
240,259,64260,2,0,L|246:182,1,76.4999976654053,12|0,1:0|0:0,0:0:0:0:
363,284,64563,6,0,B|402:274|402:274|455:287,1,76.4999976654053,2|0,0:0|0:0,0:0:0:0:
289,344,64866,1,8,1:0:0:0:
373,186,65017,2,0,L|363:54,1,114.749996498108,0|0,0:0|0:0,0:0:0:0:
375,41,65320,1,0,0:0:0:0:
464,144,65472,1,8,1:0:0:0:
266,90,65623,6,0,P|202:88|97:84,1,152.999995330811,0|0,0:0|0:0,0:0:0:0:
30,185,66078,1,8,1:0:0:0:
31,19,66229,1,0,0:0:0:0:
130,175,66381,2,0,P|161:177|188:177,2,50.9999984436036,8|8|8,3:0|3:0|3:0,0:0:0:0:
118,200,66684,1,14,1:0:0:0:
118,200,66987,6,0,B|138:247|138:247|110:365,1,152.999995330811,4|8,0:0|1:0,0:0:0:0:
288,343,67442,2,0,B|264:243|264:243|284:196,1,152.999995330811,0|0,0:0|0:0,0:0:0:0:
204,70,67896,1,8,1:0:0:0:
118,200,68048,1,4,0:0:0:0:
118,200,68654,6,0,L|71:203,2,38.2499988327027,8|8|2,3:0|3:0|0:0,0:0:0:0:
288,343,69411,6,0,B|388:301|372:394|472:321,1,170,6|8,0:0|1:0,0:0:0:0:
332,235,69866,1,0,0:0:0:0:
450,335,70017,2,0,P|436:289|450:235,1,85,0|0,0:0|0:0,0:0:0:0:
323,153,70320,2,0,P|337:199|323:253,1,85,8|0,1:0|0:0,0:0:0:0:
90,203,70623,6,0,B|201:176|201:176|260:200,1,170,2|8,0:0|1:0,0:0:0:0:
161,295,71078,1,0,0:0:0:0:
94,118,71229,2,0,L|88:223,1,85,0|0,0:0|0:0,0:0:0:0:
192,75,71533,1,8,1:0:0:0:
252,197,71684,1,0,0:0:0:0:
408,64,71836,6,0,P|356:89|276:72,1,127.5,2|0,0:0|0:0,0:0:0:0:
307,115,72139,2,0,P|338:155|341:213,1,85,8|0,1:0|0:0,0:0:0:0:
261,357,72442,2,0,L|265:220,1,127.5,0|0,0:0|0:0,0:0:0:0:
252,197,72745,2,0,L|161:202,1,85,8|0,1:0|0:0,0:0:0:0:
261,357,73048,6,0,B|291:325|291:325|361:323|409:367,1,170,2|8,0:0|1:0,0:0:0:0:
482,293,73502,1,0,0:0:0:0:
401,174,73654,2,0,L|397:272,1,85,0|0,0:0|0:0,0:0:0:0:
496,128,73957,2,0,L|492:43,1,85,8|0,1:0|0:0,0:0:0:0:
401,174,74260,6,0,L|208:171,1,170,2|8,0:0|1:0,0:0:0:0:
106,114,74714,1,0,0:0:0:0:
135,299,74866,2,0,P|150:253|139:201,1,85,0|0,0:0|0:0,0:0:0:0:
220,89,75169,2,0,P|216:131|230:170,1,85,8|0,1:0|0:0,0:0:0:0:
286,326,75472,6,0,P|232:285|149:299,1,127.5,2|0,0:0|0:0,0:0:0:0:
135,299,75775,2,0,L|144:391,1,85,8|0,1:0|0:0,0:0:0:0:
41,261,76078,2,0,L|49:176,1,85,0|0,0:0|0:0,0:0:0:0:
97,29,76381,2,0,L|106:121,1,85,8|0,1:0|0:0,0:0:0:0:
135,299,76684,5,2,0:0:0:0:
212,183,76836,1,2,0:0:0:0:
286,326,76987,2,0,P|331:335|384:318,1,85,8|0,1:0|0:0,0:0:0:0:
467,188,77290,2,0,P|422:179|369:196,1,85,0|0,0:0|0:0,0:0:0:0:
286,326,77593,1,8,1:0:0:0:
306,169,77745,6,0,L|299:5,1,127.5,0|0,0:0|0:0,0:0:0:0:
281,23,78048,1,2,0:0:0:0:
392,82,78199,1,8,1:0:0:0:
183,80,78351,1,0,0:0:0:0:
215,267,78502,2,0,L|210:152,1,85,0|0,0:0|0:0,0:0:0:0:
91,40,78805,2,0,L|87:124,1,85,8|0,1:0|0:0,0:0:0:0:
215,267,79108,6,0,B|270:255|270:255|327:279|327:279|405:258,1,170,6|8,0:0|1:0,0:0:0:0:
263,358,79563,1,0,0:0:0:0:
377,265,79714,2,0,P|378:231|356:167,1,85,0|0,0:0|0:0,0:0:0:0:
131,285,80017,2,0,B|241:260,1,85,8|0,1:0|0:0,0:0:0:0:
54,154,80320,6,0,P|116:195|115:315,1,170,2|8,0:0|1:0,0:0:0:0:
25,257,80775,1,0,0:0:0:0:
118,94,80926,2,0,P|158:124|186:159,1,85,0|0,0:0|0:0,0:0:0:0:
67,341,81229,2,0,P|95:309|129:284,1,85,8|0,1:0|0:0,0:0:0:0:
377,265,81533,6,0,L|232:260,1,127.5,2|0,0:0|0:0,0:0:0:0:
243,227,81836,2,0,L|285:137,1,85,8|0,1:0|0:0,0:0:0:0:
463,81,82139,2,0,P|444:151|475:206,1,127.5,0|0,0:0|0:0,0:0:0:0:
434,199,82442,2,0,P|368:174|322:191,1,85,8|0,1:0|0:0,0:0:0:0:
204,366,82745,6,0,B|249:345|249:345|265:283|240:221,1,170,2|8,0:0|1:0,0:0:0:0:
112,145,83199,1,0,0:0:0:0:
67,286,83351,2,0,L|174:280,1,85,0|0,0:0|0:0,0:0:0:0:
196,149,83654,2,0,L|89:143,1,85,8|0,1:0|0:0,0:0:0:0:
318,24,83957,6,0,B|284:125|284:125|313:193,1,170,2|8,0:0|1:0,0:0:0:0:
422,219,84411,1,0,0:0:0:0:
467,118,84563,2,0,P|427:105|364:124,1,85,0|0,0:0|0:0,0:0:0:0:
262,259,84866,2,0,P|302:272|365:253,1,85,8|0,1:0|0:0,0:0:0:0:
467,118,85169,5,6,0:0:0:0:
262,259,85472,2,0,L|271:309,3,38.2499988327027,8|8|8|8,3:0|3:0|3:0|3:0,0:0:0:0:
259,344,85775,6,0,L|202:349,1,38.2499988327027,10|10,3:0|3:0,0:0:0:0:
119,257,85926,2,0,L|176:262,1,38.2499988327027,10|10,3:0|3:0,0:0:0:0:
246,173,86078,2,0,L|189:178,1,38.2499988327027,10|10,3:0|3:0,0:0:0:0:
106,86,86229,2,0,L|163:91,1,38.2499988327027,10|10,3:0|3:0,0:0:0:0:
309,41,86381,6,0,B|275:133|360:111|326:213,1,170,6|8,0:0|1:0,0:0:0:0:
395,73,86836,1,0,0:0:0:0:
329,201,86987,2,0,L|430:204,1,85,0|0,0:0|0:0,0:0:0:0:
343,341,87290,2,0,L|242:344,1,85,8|0,1:0|0:0,0:0:0:0:
86,240,87593,6,0,B|200:262|200:262|257:230,1,170,2|8,0:0|1:0,0:0:0:0:
175,145,88048,1,0,0:0:0:0:
86,240,88199,2,0,L|96:337,1,85,0|0,0:0|0:0,0:0:0:0:
175,145,88502,2,0,L|183:60,1,85,8|0,1:0|0:0,0:0:0:0:
305,177,88805,6,0,P|361:198|441:164,1,127.5,2|0,0:0|0:0,0:0:0:0:
412,218,89108,2,0,P|399:272|413:319,1,85,8|0,1:0|0:0,0:0:0:0:
305,177,89411,2,0,L|317:35,1,127.5,0|0,0:0|0:0,0:0:0:0:
350,42,89714,2,0,L|444:47,1,85,8|0,1:0|0:0,0:0:0:0:
305,177,90017,6,0,B|265:149|265:149|178:159|152:213,1,170,2|8,0:0|1:0,0:0:0:0:
72,305,90472,1,0,0:0:0:0:
159,200,90623,2,0,P|170:151|157:110,1,85,0|0,0:0|0:0,0:0:0:0:
247,268,90926,2,0,P|238:309|249:349,1,85,8|0,1:0|0:0,0:0:0:0:
488,310,91229,6,0,B|439:295|439:295|375:320|375:320|323:300,1,170,2|8,0:0|1:0,0:0:0:0:
379,194,91684,1,0,0:0:0:0:
488,310,91836,2,0,L|484:217,1,85,0|0,0:0|0:0,0:0:0:0:
382,109,92139,2,0,L|378:193,1,85,8|0,1:0|0:0,0:0:0:0:
247,268,92442,6,0,P|280:212|270:129,1,127.5,2|0,0:0|0:0,0:0:0:0:
299,106,92745,2,0,P|358:115|400:98,1,85,8|0,1:0|0:0,0:0:0:0:
194,192,93048,2,0,P|135:183|93:200,1,85,0|0,0:0|0:0,0:0:0:0:
23,72,93351,2,0,P|82:81|124:64,1,85,8|0,1:0|0:0,0:0:0:0:
299,106,93654,5,2,0:0:0:0:
194,192,93805,1,2,0:0:0:0:
314,305,93957,2,0,L|312:201,1,85,8|0,1:0|0:0,0:0:0:0:
195,107,94260,2,0,L|193:191,1,85,0|0,0:0|0:0,0:0:0:0:
201,345,94563,1,8,1:0:0:0:
10,265,94714,6,0,P|75:261|164:256,1,127.5,4|0,0:0|0:0,0:0:0:0:
168,269,95017,1,2,0:0:0:0:
23,174,95169,1,8,1:0:0:0:
80,354,95320,1,0,0:0:0:0:
107,169,95472,2,0,P|64:171|22:173,1,85,0|0,0:0|0:0,0:0:0:0:
195,107,95775,2,0,P|237:109|279:111,1,85,8|8,1:0|3:0,0:0:0:0:
397,189,96078,5,2,1:0:0:0:
376,51,96229,1,0,0:0:0:0:
306,205,96381,2,0,P|327:255|372:279,1,93.5000028533936,12|2,1:0|0:0,0:0:0:0:
469,45,96684,2,0,L|358:51,1,93.5000028533936,4|2,1:0|0:0,0:0:0:0:
212,199,96987,2,0,L|323:205,1,93.5000028533936,12|8,1:0|3:0,0:0:0:0:
130,107,97290,5,6,1:0:0:0:
127,285,97442,1,0,0:0:0:0:
223,107,97593,2,0,P|212:54|170:16,1,93.5000028533936,12|2,1:0|0:0,0:0:0:0:
13,189,97896,2,0,L|124:195,1,93.5000028533936,4|2,1:0|0:0,0:0:0:0:
310,299,98199,2,0,L|199:305,1,93.5000028533936,12|8,1:0|3:0,0:0:0:0:
392,182,98502,5,6,1:0:0:0:
406,363,98654,1,0,0:0:0:0:
299,204,98805,2,0,P|301:153|329:108,1,93.5000028533936,12|2,1:0|0:0,0:0:0:0:
501,266,99108,2,0,L|390:272,1,93.5000028533936,4|2,1:0|0:0,0:0:0:0:
205,198,99411,2,0,L|316:204,1,93.5000028533936,12|8,1:0|3:0,0:0:0:0:
452,93,99714,5,6,1:0:0:0:
501,266,99866,1,0,0:0:0:0:
362,123,100017,2,0,P|362:62|400:12,1,93.5000028533936,12|2,1:0|0:0,0:0:0:0:
225,95,100320,2,0,L|114:101,1,93.5000028533936,4|2,1:0|0:0,0:0:0:0:
20,221,100623,2,0,L|131:227,1,93.5000028533936,12|8,1:0|3:0,0:0:0:0:
242,309,100926,5,6,1:0:0:0:
242,309,101229,2,0,L|237:246,3,46.7500014266968,8|8|8|8,3:0|3:0|3:0|3:0,0:0:0:0:
259,220,101533,2,0,L|264:157,3,46.7500014266968,8|8|8|8,3:0|3:0|3:0|3:0,0:0:0:0:
228,141,101836,2,0,L|223:78,3,46.7500014266968,8|8|8|8,3:0|3:0|3:0|3:0,0:0:0:0:
253,50,102139,6,0,L|322:47,1,62.3333352355958,10|8,0:3|0:3,0:0:0:0:
393,135,102341,2,0,L|326:131,1,62.3333352355958,8|10,0:3|3:3,0:0:0:0:
259,220,102543,2,0,L|323:216,1,62.3333352355958,8|8,0:3|0:3,0:0:0:0:
399,267,102745,5,6,1:0:0:0:
399,267,103199,1,6,0:0:0:0:
256,192,103275,12,0,108199,0:0:0:0:
