osu file format v14

[General]
AudioFilename: audio.mp3
AudioLeadIn: 0
PreviewTime: 68654
Countdown: 0
SampleSet: Soft
StackLeniency: 0.7
Mode: 0
LetterboxInBreaks: 0
WidescreenStoryboard: 0

[Editor]
Bookmarks: 20914,30611,46975,57278,59702,61533,65687,85460,86369,96066,101229
DistanceSpacing: 0.7
BeatDivisor: 4
GridSize: 8
TimelineZoom: 2.4

[Metadata]
Title:Kaze ga Fuku Machi (TV size)
TitleUnicode:風が吹く街(TV size)
Artist:Luck Life
ArtistUnicode:ラックライフ
Creator:Nevo
Version:Dying Wind
Source:文豪ストレイドッグス
Tags:bungo bungou stray dogs ending underdogs shogunmoon armin A_r_M_i_N shiratoi bite you death byd
BeatmapID:1508874
BeatmapSetID:713944

[Difficulty]
HPDrainRate:6.5
CircleSize:4.2
OverallDifficulty:9
ApproachRate:9.3
SliderMultiplier:1.7
SliderTickRate:1

[Events]
//Background and Video events
0,0,"wp1973277.png",0,0
//Break Periods
//Storyboard Layer 0 (Background)
//Storyboard Layer 1 (Fail)
//Storyboard Layer 2 (Pass)
//Storyboard Layer 3 (Foreground)
//Storyboard Sound Samples

[TimingPoints]
11230,303.030303030303,4,2,1,50,1,0
20320,-133.333333333333,4,2,1,50,0,0
20926,-80,4,2,1,60,0,0
21457,-111.111111111111,4,2,1,5,0,0
21533,-111.111111111111,4,2,2,50,0,0
27896,-111.111111111111,4,2,1,50,0,0
29942,-111.111111111111,4,2,1,5,0,0
30017,-111.111111111111,4,2,2,50,0,0
30623,-100,4,2,1,60,0,1
30775,-100,4,2,1,60,0,0
32063,-100,4,2,1,5,0,0
32139,-100,4,2,1,60,0,0
33729,-100,4,2,1,5,0,0
33805,-100,4,2,1,60,0,0
34487,-100,4,2,1,5,0,0
34563,-100,4,2,1,60,0,0
35396,-100,4,2,1,5,0,0
35472,-100,4,2,1,60,0,0
38199,-100,4,2,1,65,0,1
40320,-111.111111111111,4,2,1,50,0,0
57214,-111.111111111111,4,2,1,5,0,0
57290,-111.111111111111,4,2,1,50,0,0
61457,-111.111111111111,4,2,1,5,0,0
61533,-111.111111111111,4,2,1,50,0,0
68048,-200,4,2,1,50,0,0
68654,-133.333333333333,4,2,1,50,0,0
69411,-90.9090909090909,4,2,1,70,0,1
78502,-90.9090909090909,4,2,1,70,0,0
79033,-90.9090909090909,4,2,1,5,0,0
79108,-83.3333333333333,4,2,1,70,0,1
85169,-181.818181818181,4,2,1,70,0,0
85396,-181.818181818181,4,2,1,5,0,0
85472,-181.818181818181,4,2,1,70,0,0
85548,-181.818181818181,4,2,1,71,0,0
85623,-181.818181818181,4,2,1,73,0,0
85699,-181.818181818181,4,2,1,74,0,0
85775,-100,4,2,1,75,0,0
85851,-100,4,2,1,76,0,0
85926,-100,4,2,1,77,0,0
86002,-100,4,2,1,78,0,0
86078,-100,4,2,1,80,0,0
86381,-80,4,2,1,80,0,1
102745,-125,4,2,1,60,0,0
103123,-125,4,2,1,5,0,0
103199,-125,4,2,1,60,0,0
104563,-90.9090909090909,4,2,1,50,0,0
105775,-90.9090909090909,4,2,1,40,0,0
106381,-90.9090909090909,4,2,1,30,0,0
106987,-90.9090909090909,4,2,1,25,0,0
107290,-90.9090909090909,4,2,1,20,0,0
107593,-90.9090909090909,4,2,1,15,0,0
107896,-90.9090909090909,4,2,1,10,0,0
108199,-90.9090909090909,4,2,1,5,0,0

[Colours]
Combo1 : 86,4,159
Combo2 : 160,80,80
Combo3 : 255,128,64
Combo4 : 128,128,128

[HitObjects]
251,373,20169,5,0,0:0:0:0:
251,373,20320,2,0,L|264:279,2,95.6250036478044,0|0|0,0:0|0:0|0:0,0:0:0:0:
368,254,20926,5,6,0:0:0:0:
205,149,21078,1,2,2:0:0:0:
354,148,21229,2,0,L|372:293,1,106.25,2|0,0:0|0:0,0:0:0:0:
317,316,21533,6,0,P|262:289|200:305,2,114.749996498108,2|0|0,0:0|0:0|0:0,0:0:0:0:
205,149,22139,2,0,B|223:192|223:192|211:301,1,152.999995330811,2|0,0:0|0:0,0:0:0:0:
163,83,22593,5,0,0:0:0:0:
163,83,22745,2,0,P|204:70|276:115,2,114.749996498108,2|0|0,0:0|0:0|0:0,0:0:0:0:
120,149,23351,6,0,L|102:294,2,114.749996498108,2|0|0,0:0|0:0|0:0,0:0:0:0:
47,116,23957,2,0,L|29:-29,2,114.749996498108,2|0|0,0:0|0:0|0:0,0:0:0:0:
120,149,24563,6,0,P|200:174|259:110,1,152.999995330811,2|0,0:0|0:0,0:0:0:0:
330,89,25017,1,0,0:0:0:0:
330,89,25169,2,0,L|324:176,1,76.4999976654053,2|0,0:0|0:0,0:0:0:0:
180,98,25472,2,0,L|174:11,1,76.4999976654053,0|0,0:0|0:0,0:0:0:0:
406,65,25775,5,2,0:0:0:0:
406,65,26078,2,0,L|394:229,2,152.999995330811,0|2|0,0:0|0:0|0:0,0:0:0:0:
249,135,26836,1,0,0:0:0:0:
249,135,26987,6,0,L|260:299,2,152.999995330811,2|0|2,0:0|0:0|0:0,0:0:0:0:
98,65,27896,2,0,L|92:152,1,76.4999976654053,0|8,0:0|0:3,0:0:0:0:
44,226,28123,1,8,0:3:0:0:
44,226,28199,6,0,P|106:173|176:195,1,152.999995330811,6|0,0:0|0:0,0:0:0:0:
124,327,28692,2,0,L|119:251,1,76.4999976654053,8|0,0:3|0:0,0:0:0:0:
257,213,28957,1,2,2:0:0:0:
257,213,29108,2,0,L|251:289,1,76.4999976654053,0|0,1:0|0:0,0:0:0:0:
224,131,29411,5,2,0:0:0:0:
339,201,29563,1,0,1:0:0:0:
339,201,29714,2,0,L|329:315,1,114.749996498108,6|0,0:0|0:0,0:0:0:0:
274,371,30017,2,0,P|219:344|157:360,2,114.749996498108,2|0|0,0:0|0:0|0:0,0:0:0:0:
168,353,30623,6,0,L|158:238,1,85,6|0,0:0|0:0,0:0:0:0:
202,103,30926,1,0,1:0:0:0:
257,213,31078,1,2,2:0:0:0:
63,182,31229,2,0,P|108:188|157:163,1,85,0|2,0:0|2:0,0:0:0:0:
244,306,31533,2,0,P|204:291|162:297,1,85,0|0,1:0|0:0,0:0:0:0:
93,110,31836,6,0,B|105:154|105:154|91:256,1,127.5,2|0,0:0|0:0,0:0:0:0:
26,277,32139,1,0,1:0:0:0:
178,215,32290,1,2,2:0:0:0:
24,160,32442,1,0,0:0:0:0:
87,328,32593,1,2,2:0:0:0:
146,142,32745,2,0,P|111:174|100:232,1,85,0|0,1:0|0:0,0:0:0:0:
26,30,33048,6,0,P|58:57|72:97,1,85,2|0,0:0|0:0,0:0:0:0:
266,91,33351,1,0,1:0:0:0:
266,91,33502,2,0,B|239:85|212:99|212:99|186:60|136:62,1,127.5,2|0,2:0|0:0,0:0:0:0:
146,142,33805,1,2,2:0:0:0:
246,252,33957,2,0,L|250:168,1,85,0|0,1:0|2:0,0:0:0:0:
151,333,34260,6,0,B|211:324|211:324|252:341|289:318,1,127.5,2|0,0:0|0:0,0:0:0:0:
246,252,34563,1,0,1:0:0:0:
146,142,34714,2,0,P|139:188|152:228,1,85,2|0,2:0|0:0,0:0:0:0:
344,180,35017,1,2,2:0:0:0:
344,180,35169,2,0,L|216:176,1,127.5,0|0,1:0|0:0,0:0:0:0:
215,98,35472,6,0,L|317:101,1,85,2|0,0:0|0:0,0:0:0:0:
169,34,35775,1,0,1:0:0:0:
216,176,35926,1,2,2:0:0:0:
250,29,36078,1,0,0:0:0:0:
146,142,36229,1,2,2:0:0:0:
334,31,36381,2,0,L|234:28,1,85,0|0,1:0|0:0,0:0:0:0:
346,173,36684,6,0,P|379:137|386:89,1,85,2|0,0:0|0:0,0:0:0:0:
324,250,36987,2,0,P|372:247|411:218,1,85,0|2,1:0|2:0,0:0:0:0:
253,288,37290,2,0,P|289:320|336:327,1,85,0|2,0:0|2:0,0:0:0:0:
249,186,37593,1,0,1:0:0:0:
161,266,37745,6,0,B|144:332|179:384|179:384|198:370|200:330,1,170,4|0,0:0|0:0,0:0:0:0:
201,95,38199,5,4,1:2:0:0:
253,288,38351,1,2,2:0:0:0:
280,77,38502,5,4,1:2:0:0:
161,266,38654,1,2,2:0:0:0:
219,18,38805,5,4,1:2:0:0:
340,252,38957,1,2,2:0:0:0:
296,1,39108,5,4,1:2:0:0:
161,266,39260,1,2,2:0:0:0:
98,58,39411,5,4,1:2:0:0:
340,252,39563,1,2,0:0:0:0:
68,148,39714,5,4,1:2:0:0:
362,161,39866,1,2,0:0:0:0:
93,237,40017,5,4,1:2:0:0:
325,75,40169,1,2,0:0:0:0:
15,210,40320,6,0,B|-11:171|-11:171|6:54,1,152.999995330811,6|0,0:0|1:0,0:0:0:0:
101,76,40775,1,0,0:0:0:0:
124,207,40926,1,2,0:0:0:0:
68,150,41078,1,2,2:0:0:0:
181,80,41229,2,0,L|292:74,1,76.4999976654053,0|0,1:0|0:0,0:0:0:0:
189,240,41533,6,0,P|138:222|114:187,1,76.4999976654053,2|0,0:0|0:0,0:0:0:0:
258,120,41836,2,0,P|268:156|261:193,1,76.4999976654053,0|0,1:0|0:0,0:0:0:0:
181,80,42139,1,2,0:0:0:0:
249,42,42290,1,2,2:0:0:0:
334,124,42442,2,0,L|223:118,1,76.4999976654053,0|0,1:0|0:0,0:0:0:0:
385,55,42745,6,0,P|419:85|426:144,1,76.4999976654053,2|0,0:0|0:0,0:0:0:0:
371,254,43048,2,0,P|376:216|399:186,1,76.4999976654053,0|0,1:0|0:0,0:0:0:0:
502,302,43351,1,2,0:0:0:0:
424,315,43502,1,2,2:0:0:0:
511,143,43654,2,0,L|506:219,1,76.4999976654053,0|0,1:0|0:0,0:0:0:0:
341,322,43957,6,0,B|338:259|338:259|347:235|347:235|343:161,1,152.999995330811,2|0,0:0|1:0,0:0:0:0:
268,222,44411,1,0,0:0:0:0:
415,292,44563,1,2,0:0:0:0:
343,170,44714,1,2,2:0:0:0:
341,322,44866,2,0,P|384:365|416:374,1,76.4999976654053,0|0,1:0|0:0,0:0:0:0:
512,214,45169,6,0,L|436:209,1,76.4999976654053,2|0,0:0|0:0,0:0:0:0:
264,327,45472,2,0,L|340:322,1,76.4999976654053,0|0,1:0|2:0,0:0:0:0:
258,177,45775,1,2,0:0:0:0:
234,253,45926,1,2,2:0:0:0:
334,187,46078,2,0,P|331:149|291:105,1,76.4999976654053,0|0,1:0|0:0,0:0:0:0:
163,86,46381,6,0,P|197:102|234:100,1,76.4999976654053,2|0,0:0|0:0,0:0:0:0:
102,37,46684,2,0,P|85:71|87:108,1,76.4999976654053,0|0,1:0|2:0,0:0:0:0:
183,193,46987,1,2,0:0:0:0:
163,86,47139,1,2,2:0:0:0:
25,194,47290,2,0,L|101:188,1,76.4999976654053,0|0,1:0|0:0,0:0:0:0:
252,74,47593,5,2,0:0:0:0:
224,148,47745,1,0,0:0:0:0:
331,63,47896,1,0,1:0:0:0:
275,213,48048,1,0,2:0:0:0:
282,3,48199,1,0,0:0:0:0:
172,88,48351,1,2,2:0:0:0:
381,126,48502,2,0,P|407:82|405:33,1,76.4999976654053,0|0,1:0|0:0,0:0:0:0:
302,136,48805,5,0,0:0:0:0:
353,201,48957,1,2,2:0:0:0:
331,63,49108,1,0,1:0:0:0:
275,213,49260,1,2,2:0:0:0:
431,189,49411,1,0,0:0:0:0:
254,76,49563,1,2,2:0:0:0:
328,270,49714,2,0,P|348:238|352:200,1,76.4999976654053,0|0,1:0|0:0,0:0:0:0:
186,117,50017,6,0,B|200:206|200:206|214:174,1,114.749996498108,6|0,0:0|0:0,0:0:0:0:
254,76,50320,2,0,L|269:-18,1,76.4999976654053,0|0,1:0|2:0,0:0:0:0:
116,79,50623,1,2,0:0:0:0:
186,117,50775,1,2,2:0:0:0:
129,2,50926,2,0,P|87:6|46:43,1,76.4999976654053,0|0,1:0|0:0,0:0:0:0:
109,231,51229,6,0,L|116:72,1,152.999995330811,2|0,0:0|1:0,0:0:0:0:
197,170,51684,1,8,0:3:0:0:
197,170,51760,1,8,0:3:0:0:
197,170,51836,2,0,L|193:246,1,76.4999976654053,8|2,0:3|2:0,0:0:0:0:
58,292,52139,1,0,1:0:0:0:
109,231,52290,1,0,0:0:0:0:
115,347,52442,6,0,P|85:366|20:358,1,76.4999976654053,2|0,0:0|0:0,0:0:0:0:
166,287,52745,1,0,1:0:0:0:
229,351,52896,1,2,0:0:0:0:
229,351,52972,1,8,0:3:0:0:
229,351,53048,1,2,0:0:0:0:
219,228,53199,1,2,2:0:0:0:
115,347,53351,1,0,1:0:0:0:
109,231,53502,1,0,0:0:0:0:
274,285,53654,6,0,P|298:231|245:154,1,152.999995330811,2|0,0:0|1:0,0:0:0:0:
219,228,54108,1,0,2:0:0:0:
360,295,54260,2,0,L|448:290,1,76.4999976654053,2|2,0:0|2:0,0:0:0:0:
356,154,54563,2,0,L|322:223,1,76.4999976654053,0|0,1:0|0:0,0:0:0:0:
479,221,54866,5,2,0:0:0:0:
438,154,55017,1,0,0:0:0:0:
400,226,55169,2,0,P|424:281|468:302,1,76.4999976654053,0|2,1:0|2:0,0:0:0:0:
479,221,55396,1,8,0:3:0:0:
479,221,55472,2,0,L|483:131,1,76.4999976654053,2|2,0:0|2:0,0:0:0:0:
353,78,55775,2,0,L|357:168,1,76.4999976654053,0|0,1:0|0:0,0:0:0:0:
414,26,56078,6,0,P|377:3|323:3,1,76.4999976654053,2|0,0:0|0:0,0:0:0:0:
221,85,56381,2,0,P|255:68|278:38,1,76.4999976654053,0|2,1:0|2:0,0:0:0:0:
278,38,56608,1,8,0:3:0:0:
278,38,56684,1,2,0:0:0:0:
158,39,56836,1,2,2:0:0:0:
213,194,56987,2,0,B|231:163|231:163|218:70,1,114.749996498108,0|0,1:0|0:0,0:0:0:0:
72,147,57290,6,0,P|110:149|146:137,1,76.4999976654053,6|0,0:0|0:0,0:0:0:0:
221,285,57593,2,0,P|185:272|147:274,1,76.4999976654053,0|0,1:0|0:0,0:0:0:0:
97,72,57896,1,2,0:0:0:0:
79,230,58048,1,2,0:0:0:0:
17,63,58199,1,0,1:0:0:0:
206,209,58351,6,0,P|276:171|358:210,1,152.999995330811,4|2,0:0|2:0,0:0:0:0:
478,335,58805,5,4,1:2:0:0:
281,263,58957,1,2,2:0:0:0:
508,261,59108,5,4,1:2:0:0:
270,277,59260,1,2,0:0:0:0:
500,182,59411,5,4,1:2:0:0:
259,291,59563,1,2,1:0:0:0:
408,117,59714,5,6,0:0:0:0:
387,347,59866,1,2,2:0:0:0:
261,170,60017,1,0,1:0:0:0:
446,251,60169,6,0,P|410:268|369:269,1,76.4999976654053,4|0,0:0|0:0,0:0:0:0:
408,117,60472,2,0,P|440:139|462:174,1,76.4999976654053,2|8,2:0|1:0,0:0:0:0:
311,217,60775,2,0,P|314:177|333:141,1,76.4999976654053,4|0,2:0|0:0,0:0:0:0:
259,291,61078,1,8,0:3:0:0:
259,291,61154,1,8,0:3:0:0:
259,291,61229,6,0,L|166:287,1,76.4999976654053,0|0,1:0|0:0,0:0:0:0:
63,289,61533,1,2,2:0:0:0:
141,363,61684,1,2,2:0:0:0:
97,223,61836,2,0,P|73:252|64:289,1,76.4999976654053,0|0,1:0|0:0,0:0:0:0:
259,291,62139,5,6,0:0:0:0:
212,87,62290,1,2,0:0:0:0:
144,287,62442,1,0,1:0:0:0:
317,171,62593,6,0,L|225:166,1,76.4999976654053,4|0,0:0|0:0,0:0:0:0:
346,259,62896,2,0,L|438:254,1,76.4999976654053,2|2,0:0|1:0,0:0:0:0:
317,347,63199,2,0,L|225:342,1,76.4999976654053,4|0,0:0|0:0,0:0:0:0:
317,171,63502,5,8,0:3:0:0:
317,171,63578,1,8,0:3:0:0:
317,171,63654,1,0,1:0:0:0:
346,259,63805,1,0,0:0:0:0:
224,180,63957,1,8,0:3:0:0:
351,98,64108,1,2,0:0:0:0:
196,255,64260,2,0,P|246:256|287:228,1,76.4999976654053,0|0,1:0|0:0,0:0:0:0:
215,34,64563,5,6,0:0:0:0:
145,194,64714,1,2,2:0:0:0:
312,158,64866,1,8,1:0:0:0:
137,53,65017,6,0,P|154:87|193:111,1,76.4999976654053,4|0,0:0|0:0,0:0:0:0:
334,82,65320,2,0,P|296:79|262:96,1,76.4999976654053,2|0,2:0|1:0,0:0:0:0:
210,238,65623,2,0,P|230:206|234:168,1,76.4999976654053,4|0,2:0|0:0,0:0:0:0:
90,135,65926,1,8,2:3:0:0:
90,135,66002,1,8,0:3:0:0:
90,135,66078,1,8,1:0:0:0:
167,98,66229,1,0,0:0:0:0:
72,229,66381,5,8,3:0:0:0:
78,267,66482,5,8,3:0:0:0:
85,305,66583,5,8,3:0:0:0:
91,342,66684,6,0,P|145:340|178:310,1,76.4999976654053,14|0,1:0|0:0,0:0:0:0:
223,95,66987,5,6,0:2:0:0:
113,267,67139,1,0,2:0:0:0:
317,277,67290,1,0,1:2:0:0:
191,93,67442,5,6,2:2:0:0:
125,296,67594,1,0,2:0:0:0:
334,251,67745,1,0,1:0:0:0:
104,164,67896,5,2,2:0:0:0:
229,380,68048,2,0,B|234:284|234:284|213:323,1,127.5,4|0,0:0|0:0,0:0:0:0:
321,334,68654,6,0,L|324:296,1,31.8750012159348,8|8,3:0|3:0,0:0:0:0:
309,346,68805,2,0,L|314:245,2,95.6250036478044,2|0|0,0:0|0:0|0:0,0:0:0:0:
227,269,69411,6,0,L|232:168,1,93.5000028533936,6|0,0:0|0:0,0:0:0:0:
398,114,69714,2,0,L|403:215,1,93.5000028533936,0|0,1:0|0:0,0:0:0:0:
231,175,70017,1,2,0:0:0:0:
314,144,70169,1,2,0:0:0:0:
275,258,70320,2,0,P|229:268|173:247,1,93.5000028533936,0|0,1:0|0:0,0:0:0:0:
47,104,70623,5,2,0:0:0:0:
231,175,70775,1,2,0:0:0:0:
26,272,70926,2,0,L|21:178,1,93.5000028533936,0|0,1:0|0:0,0:0:0:0:
158,34,71229,1,2,0:0:0:0:
140,123,71381,1,2,0:0:0:0:
66,14,71533,1,0,1:0:0:0:
47,104,71685,1,0,0:0:0:0:
228,99,71836,6,0,P|227:219|195:249,1,140.25000428009,2|0,0:0|0:0,0:0:0:0:
161,283,72139,2,0,L|55:280,1,93.5000028533936,0|0,1:0|0:0,0:0:0:0:
140,158,72442,6,0,L|289:153,1,140.25000428009,2|0,0:0|0:0,0:0:0:0:
333,234,72745,2,0,L|220:237,1,93.5000028533936,0|0,1:0|0:0,0:0:0:0:
214,355,73048,6,0,L|322:351,1,93.5000028533936,2|2,0:0|0:0,0:0:0:0:
239,236,73351,2,0,L|145:232,1,93.5000028533936,0|0,1:0|0:0,0:0:0:0:
19,296,73654,1,2,0:0:0:0:
61,206,73805,1,2,0:0:0:0:
97,384,73957,2,0,L|94:291,1,93.5000028533936,0|0,1:0|0:0,0:0:0:0:
20,112,74260,5,2,0:0:0:0:
191,185,74411,1,2,0:0:0:0:
19,297,74563,2,0,L|15:203,1,93.5000028533936,0|0,1:0|0:0,0:0:0:0:
195,92,74866,2,0,L|191:185,1,93.5000028533936,2|2,0:0|0:0,0:0:0:0:
3,310,75169,2,0,L|-1:212,1,93.5000028533936,0|0,1:0|0:0,0:0:0:0:
131,25,75472,5,2,0:0:0:0:
336,111,75623,1,2,0:0:0:0:
190,185,75775,2,0,P|134:175|96:128,1,93.5000028533936,0|0,1:0|0:0,0:0:0:0:
274,51,76078,1,2,0:0:0:0:
266,238,76229,1,2,0:0:0:0:
192,96,76381,2,0,L|188:2,1,93.5000028533936,0|0,1:0|0:0,0:0:0:0:
349,153,76684,5,2,0:0:0:0:
190,185,76836,1,2,0:0:0:0:
358,324,76987,2,0,L|362:226,1,93.5000028533936,0|0,1:0|0:0,0:0:0:0:
417,88,77290,1,2,0:0:0:0:
295,79,77442,1,2,0:0:0:0:
436,177,77593,1,0,1:0:0:0:
257,353,77745,6,0,L|266:160,1,187.000005706787,6|2,0:0|0:0,0:0:0:0:
361,230,78199,1,0,1:0:0:0:
357,323,78351,1,0,0:0:0:0:
265,166,78502,5,2,0:0:0:0:
400,146,78654,1,2,0:0:0:0:
274,262,78805,2,0,P|206:237|126:248,1,140.25000428009,0|0,1:0|0:0,0:0:0:0:
81,296,79108,5,6,0:0:0:0:
49,172,79260,1,0,0:0:0:0:
252,121,79411,2,0,L|244:222,1,101.999996887207,0|0,1:0|0:0,0:0:0:0:
187,56,79714,1,2,0:0:0:0:
352,108,79866,1,2,0:0:0:0:
173,149,80017,2,0,P|127:127|98:80,1,101.999996887207,0|0,1:0|0:0,0:0:0:0:
288,50,80320,5,2,0:0:0:0:
251,217,80472,1,2,0:0:0:0:
187,56,80623,2,0,L|291:50,1,101.999996887207,0|0,1:0|0:0,0:0:0:0:
457,85,80926,1,2,0:0:0:0:
352,108,81078,1,2,0:0:0:0:
406,8,81230,1,0,1:0:0:0:
423,172,81381,1,0,0:0:0:0:
288,50,81533,5,2,0:0:0:0:
500,4,81684,1,2,0:0:0:0:
338,217,81836,1,0,1:0:0:0:
352,108,81987,1,0,0:0:0:0:
496,222,82139,1,2,0:0:0:0:
286,157,82290,1,2,0:0:0:0:
494,76,82442,2,0,B|513:108|513:108|496:227,1,152.999995330811,0|0,1:0|0:0,0:0:0:0:
413,255,82745,6,0,L|428:144,1,101.999996887207,2|2,0:0|0:0,0:0:0:0:
462,333,83048,2,0,P|403:346|354:329,1,101.999996887207,0|0,1:0|0:0,0:0:0:0:
240,262,83351,1,2,0:0:0:0:
324,224,83502,1,2,0:0:0:0:
176,330,83654,2,0,P|109:312|87:282,1,101.999996887207,0|0,1:0|0:0,0:0:0:0:
182,133,83957,5,2,0:0:0:0:
168,239,84108,1,2,0:0:0:0:
92,169,84260,2,0,P|146:133|216:147,1,101.999996887207,0|0,1:0|0:0,0:0:0:0:
326,252,84563,2,0,P|279:233|250:193,1,101.999996887207,2|2,0:0|0:0,0:0:0:0:
282,8,84866,2,0,P|286:72|239:126,1,101.999996887207,0|0,1:0|0:0,0:0:0:0:
128,53,85169,6,0,L|198:46,1,70.1250021400452,6|0,0:0|0:0,0:0:0:0:
268,103,85472,5,8,0:3:0:0:
287,115,85547,1,8,0:3:0:0:
310,120,85623,1,8,0:3:0:0:
333,116,85699,1,8,0:3:0:0:
354,106,85775,5,8,0:3:0:0:
389,83,85850,1,8,0:3:0:0:
430,72,85926,1,8,0:3:0:0:
472,75,86002,1,8,0:3:0:0:
512,91,86078,2,0,L|504:146,1,42.5,8|8,0:3|0:3,0:0:0:0:
441,199,86229,2,0,L|447:241,1,42.5,8|8,0:3|0:3,0:0:0:0:
512,306,86381,6,0,P|462:333|394:315,1,106.25,6|0,0:0|0:0,0:0:0:0:
188,210,86684,2,0,P|238:183|306:201,1,106.25,0|0,1:0|0:0,0:0:0:0:
153,314,86987,1,2,0:0:0:0:
151,125,87139,1,2,0:0:0:0:
250,277,87290,1,0,1:0:0:0:
258,79,87442,1,0,0:0:0:0:
90,188,87593,6,0,P|140:215|208:197,1,106.25,2|2,0:0|0:0,0:0:0:0:
123,37,87896,2,0,P|74:66|56:134,1,106.25,0|0,1:0|0:0,0:0:0:0:
263,158,88199,1,2,0:0:0:0:
195,8,88351,1,2,0:0:0:0:
151,125,88502,1,0,1:0:0:0:
310,46,88654,1,0,0:0:0:0:
123,37,88805,6,0,P|68:83|91:192,1,159.375,2|0,0:0|0:0,0:0:0:0:
146,231,89108,2,0,L|151:102,1,106.25,0|0,1:0|0:0,0:0:0:0:
361,124,89411,2,0,P|292:137|219:58,1,159.375,2|0,0:0|0:0,0:0:0:0:
310,46,89714,2,0,L|418:42,1,106.25,0|0,1:0|0:0,0:0:0:0:
443,271,90017,5,2,0:0:0:0:
361,124,90169,1,2,0:0:0:0:
504,202,90320,2,0,P|534:267|521:323,1,106.25,0|0,1:0|0:0,0:0:0:0:
353,255,90623,1,2,0:0:0:0:
444,150,90775,1,2,0:0:0:0:
385,342,90926,2,0,L|253:337,1,106.25,0|0,1:0|0:0,0:0:0:0:
193,174,91229,6,0,P|250:222|256:280,1,106.25,2|2,0:0|0:0,0:0:0:0:
71,293,91533,2,0,P|84:219|131:185,1,106.25,0|0,1:0|0:0,0:0:0:0:
291,155,91836,2,0,P|220:180|167:156,1,106.25,2|2,0:0|0:0,0:0:0:0:
62,34,92139,2,0,P|118:82|125:140,1,106.25,0|0,1:0|0:0,0:0:0:0:
172,279,92442,5,2,0:0:0:0:
6,225,92593,1,2,0:0:0:0:
192,173,92745,1,0,1:0:0:0:
93,331,92896,1,0,0:0:0:0:
126,110,93048,1,2,0:0:0:0:
172,279,93199,1,2,0:0:0:0:
62,34,93351,2,0,P|121:13|174:27,1,106.25,0|0,1:0|0:0,0:0:0:0:
289,185,93654,5,2,0:0:0:0:
126,110,93805,1,2,0:0:0:0:
298,0,93957,2,0,L|292:156,1,106.25,0|0,1:0|0:0,0:0:0:0:
229,275,94260,1,2,0:0:0:0:
208,141,94411,1,2,0:0:0:0:
395,187,94563,1,0,1:0:0:0:
279,354,94714,6,0,P|209:366|141:252,1,212.5,4|2,0:0|0:0,0:0:0:0:
234,168,95169,2,0,L|227:308,1,106.25,0|0,1:0|0:0,0:0:0:0:
313,122,95472,1,2,0:0:0:0:
154,122,95623,1,2,0:0:0:0:
317,215,95775,1,0,1:0:0:0:
233,74,95926,1,8,0:3:0:0:
233,74,96002,1,8,0:3:0:0:
233,74,96078,6,0,P|176:31|98:47,1,106.25,4|2,1:2|0:0,0:0:0:0:
53,351,96381,5,4,1:2:0:0:
154,122,96533,1,2,0:0:0:0:
189,384,96684,5,4,1:2:0:0:
227,154,96836,1,2,0:0:0:0:
349,381,96987,5,4,1:2:0:0:
299,121,97139,1,8,0:3:0:0:
301,105,97214,1,8,0:3:0:0:
304,88,97290,6,0,P|361:45|439:61,1,106.25,4|2,1:2|0:0,0:0:0:0:
512,178,97593,5,4,1:2:0:0:
277,212,97745,1,2,0:0:0:0:
512,281,97896,5,4,1:2:0:0:
242,300,98048,1,2,0:0:0:0:
505,383,98200,5,4,1:2:0:0:
208,384,98351,1,8,0:3:0:0:
188,373,98426,1,8,0:3:0:0:
168,357,98502,6,0,P|149:288|181:225,1,106.25,4|2,1:2|0:0,0:0:0:0:
321,95,98805,5,4,1:2:0:0:
242,300,98957,1,2,0:0:0:0:
230,59,99108,5,4,1:2:0:0:
334,346,99260,1,2,0:0:0:0:
311,0,99411,5,4,1:2:0:0:
157,256,99563,1,8,0:3:0:0:
148,271,99639,1,8,0:3:0:0:
139,287,99714,6,0,P|90:316|24:305,1,106.25,4|2,1:2|0:0,0:0:0:0:
46,18,100017,5,4,1:2:0:0:
70,224,100169,1,2,0:0:0:0:
192,0,100320,5,4,1:2:0:0:
157,256,100472,1,2,0:0:0:0:
331,148,100623,5,4,1:2:0:0:
63,49,100775,1,8,0:3:0:0:
54,34,100851,1,8,0:3:0:0:
46,18,100926,6,0,L|179:12,1,106.25,4|0,2:0|0:3,0:0:0:0:
344,19,101229,5,8,0:3:0:0:
344,19,101305,1,8,0:3:0:0:
344,19,101381,2,0,L|336:86,1,53.125,8|8,0:3|0:3,0:0:0:0:
252,136,101533,1,8,0:3:0:0:
252,136,101609,1,8,0:3:0:0:
252,136,101685,2,0,L|260:203,1,53.125,8|8,0:3|0:3,0:0:0:0:
356,238,101836,1,8,0:3:0:0:
356,238,101912,1,8,0:3:0:0:
356,238,101988,2,0,L|348:305,1,53.125,8|8,0:3|0:3,0:0:0:0:
262,342,102139,5,8,0:3:0:0:
262,342,102240,2,0,L|252:263,1,70.8333333333333,8|8,0:3|0:3,0:3:0:0:
170,233,102442,5,8,0:3:0:0:
170,233,102543,2,0,L|160:311,1,70.8333333333333,8|8,0:3|0:3,0:3:0:0:
81,356,102745,6,0,B|29:308|49:227|49:227|89:268,1,170,6|0,1:2|0:0,0:0:0:0:
171,322,103199,5,6,0:0:0:0:
256,192,103275,12,0,108199,0:0:0:0:
