osu file format v14

[General]
AudioFilename: audio.mp3
AudioLeadIn: 0
PreviewTime: 68654
Countdown: 0
SampleSet: Soft
StackLeniency: 0.7
Mode: 0
LetterboxInBreaks: 0
WidescreenStoryboard: 1

[Editor]
DistanceSpacing: 0.4
BeatDivisor: 4
GridSize: 8
TimelineZoom: 1.6

[Metadata]
Title:Kaze ga Fuku Machi (TV size)
TitleUnicode:風が吹く街(TV size)
Artist:Luck Life
ArtistUnicode:ラックライフ
Creator:Nevo
Version:A r M i N's Extra
Source:文豪ストレイドッグス
Tags:bungo bungou stray dogs ending underdogs shogunmoon armin A_r_M_i_N shiratoi bite you death byd
BeatmapID:1509590
BeatmapSetID:713944

[Difficulty]
HPDrainRate:6
CircleSize:4
OverallDifficulty:8.5
ApproachRate:9.2
SliderMultiplier:1.8
SliderTickRate:1

[Events]
//Background and Video events
0,0,"wp1973277.png",0,0
//Break Periods
//Storyboard Layer 0 (Background)
//Storyboard Layer 1 (Fail)
//Storyboard Layer 2 (Pass)
//Storyboard Layer 3 (Foreground)
//Storyboard Sound Samples

[TimingPoints]
11230,303.030303030303,4,2,3,40,1,0
11230,-166.666666666667,4,2,3,40,0,0
19563,-100,4,2,1,15,0,0
20169,-100,4,2,1,40,0,0
20320,-300,4,2,1,50,0,0
20851,-300,4,2,1,50,0,0
20926,-300,4,2,1,60,0,0
21457,-300,4,2,1,5,0,0
21533,-166.666666666667,4,2,2,50,0,0
28199,-166.666666666667,4,2,1,50,0,0
29942,-166.666666666667,4,2,1,5,0,0
30017,-166.666666666667,4,2,1,50,0,0
30623,-100,4,2,1,60,0,0
32063,-100,4,2,1,5,0,0
32139,-100,4,2,1,60,0,0
33729,-100,4,2,1,5,0,0
33805,-100,4,2,1,60,0,0
34487,-100,4,2,1,5,0,0
34563,-100,4,2,1,60,0,0
35396,-100,4,2,1,5,0,0
35472,-100,4,2,1,60,0,0
38199,-100,4,2,1,70,0,0
40320,-133.333333333333,4,2,1,50,0,0
50245,-133.333333333333,4,2,1,5,0,0
50320,-133.333333333333,4,2,1,50,0,0
57214,-133.333333333333,4,2,1,5,0,0
57290,-133.333333333333,4,2,1,50,0,0
58805,-100,4,2,1,50,0,0
61457,-100,4,2,1,5,0,0
61533,-100,4,2,1,50,0,0
68805,-300,4,2,1,50,0,0
69336,-300,4,2,1,50,0,0
69411,-90.9090909090909,4,2,1,70,0,1
72063,-90.9090909090909,4,2,1,5,0,1
72139,-90.9090909090909,4,2,1,70,0,1
72669,-90.9090909090909,4,2,1,5,0,1
72745,-90.9090909090909,4,2,1,70,0,1
78426,-90.9090909090909,4,2,1,5,0,1
78502,-90.9090909090909,4,2,1,70,0,1
79033,-90.9090909090909,4,2,1,5,0,1
79108,-90.9090909090909,4,2,1,70,0,1
81760,-90.9090909090909,4,2,1,70,0,1
81836,-90.9090909090909,4,2,1,70,0,1
82366,-90.9090909090909,4,2,1,70,0,1
82442,-90.9090909090909,4,2,1,70,0,1
82669,-90.9090909090909,4,2,1,5,0,1
82745,-90.9090909090909,4,2,1,70,0,1
85169,-90.9090909090909,4,2,1,70,0,0
85396,-90.9090909090909,4,2,1,5,0,0
85472,-90.9090909090909,4,2,1,70,0,0
85548,-90.9090909090909,4,2,1,71,0,0
85623,-90.9090909090909,4,2,1,73,0,0
85699,-90.9090909090909,4,2,1,74,0,0
85775,-90.9090909090909,4,2,1,75,0,0
85851,-90.9090909090909,4,2,1,76,0,0
85926,-90.9090909090909,4,2,1,77,0,0
86002,-90.9090909090909,4,2,1,78,0,0
86078,-90.9090909090909,4,2,1,80,0,0
86381,-90.9090909090909,4,2,1,80,0,1
89033,-90.9090909090909,4,2,1,5,0,1
89108,-90.9090909090909,4,2,1,80,0,1
89639,-90.9090909090909,4,2,1,5,0,1
89714,-90.9090909090909,4,2,1,80,0,1
96002,-90.9090909090909,4,2,1,80,0,0
96078,-90.9090909090909,4,2,1,80,0,1
102745,-74.0740740740741,4,2,1,60,0,1
103123,-74.0740740740741,4,2,1,5,0,1
103199,-100,4,2,1,60,0,0
104563,-100,4,2,1,50,0,0
105775,-100,4,2,1,40,0,0
106381,-100,4,2,1,30,0,0
106987,-100,4,2,1,25,0,0
107290,-100,4,2,1,20,0,0
107593,-100,4,2,1,15,0,0
107896,-100,4,2,1,10,0,0
108199,-100,4,2,1,5,0,0

[Colours]
Combo1 : 86,4,159
Combo2 : 160,80,80
Combo3 : 255,128,64
Combo4 : 128,128,128

[HitObjects]
82,186,11229,5,6,3:2:0:0:
4,216,11381,1,0,3:0:0:0:
60,321,11533,2,0,L|68:268,1,53.9999983520508,0|2,1:0|0:0,0:0:0:0:
139,351,11836,2,0,L|147:298,1,53.9999983520508,0|0,1:0|0:0,0:0:0:0:
217,380,12139,2,0,L|225:327,1,53.9999983520508,0|0,1:0|0:0,0:0:0:0:
229,194,12442,6,0,P|215:217|211:243,1,53.9999983520508,0|0,1:0|0:0,0:0:0:0:
295,245,12745,2,0,P|295:271|304:297,1,53.9999983520508,0|0,1:0|0:0,0:0:0:0:
378,257,13048,2,0,P|391:280|412:297,1,53.9999983520508,0|0,1:0|0:0,0:0:0:0:
504,242,13351,2,0,P|477:237|454:224,1,53.9999983520508,2|0,1:2|0:0,0:0:0:0:
418,96,13654,5,6,3:2:0:0:
388,174,13806,1,0,3:0:0:0:
283,118,13958,2,0,L|335:109,1,53.9999983520508,0|0,1:0|0:0,0:0:0:0:
244,192,14260,2,0,L|296:200,1,53.9999983520508,0|0,1:0|0:0,0:0:0:0:
205,282,14563,2,0,L|258:274,1,53.9999983520508,0|0,1:0|0:0,0:0:0:0:
363,355,14866,6,0,P|336:350|313:337,1,53.9999983520508,0|0,1:0|0:0,0:0:0:0:
330,230,15169,2,0,P|344:253|365:270,1,53.9999983520508,0|0,1:0|0:0,0:0:0:0:
408,198,15472,2,0,P|398:172|398:145,1,53.9999983520508,0|0,1:0|0:0,0:0:0:0:
498,106,15775,2,0,P|485:129|481:156,1,53.9999983520508,0|0,1:0|0:0,0:0:0:0:
510,318,16078,5,6,3:2:0:0:
480,240,16230,1,0,3:0:0:0:
375,296,16382,2,0,L|428:304,1,53.9999983520508,0|0,1:0|0:0,0:0:0:0:
347,209,16684,2,0,L|400:217,1,53.9999983520508,0|0,1:0|0:0,0:0:0:0:
319,122,16987,2,0,L|372:130,1,53.9999983520508,0|2,1:0|0:0,0:0:0:0:
256,177,17290,6,0,L|236:127,1,53.9999983520508,0|0,1:0|0:0,0:0:0:0:
306,10,17593,2,0,L|273:52,1,53.9999983520508,0|0,1:0|0:0,0:0:0:0:
137,48,17896,2,0,L|190:56,1,53.9999983520508,0|0,1:0|0:0,0:0:0:0:
173,181,18199,2,0,L|120:173,1,53.9999983520508,0|0,1:0|0:0,0:0:0:0:
236,126,18502,5,2,3:2:0:0:
252,209,18654,1,0,3:0:0:0:
172,234,18805,2,0,P|168:207|173:181,1,53.9999983520508,0|0,1:0|0:0,0:0:0:0:
332,184,19108,2,0,P|336:211|331:237,1,53.9999983520508,0|0,1:0|0:0,0:0:0:0:
203,312,19411,1,0,1:0:0:0:
252,209,19563,1,4,0:0:0:0:
252,209,20169,5,0,0:0:0:0:
252,209,20320,2,0,P|233:241|241:307,1,105,0|0,0:0|0:0,0:0:0:0:
253,318,20926,5,6,0:0:0:0:
422,213,21078,1,2,2:0:0:0:
206,139,21229,1,2,0:0:0:0:
206,139,21533,6,0,B|198:99|198:99|206:60,2,80.9999975280763,2|0|0,0:0|0:0|0:0,0:0:0:0:
252,209,22139,6,0,P|203:190|141:207,1,107.999996704102,2|0,0:0|0:0,0:0:0:0:
150,201,22745,6,0,L|137:286,2,80.9999975280763,2|0|0,0:0|0:0|0:0,0:0:0:0:
331,238,23351,2,0,L|318:157,2,80.9999975280763,2|0|0,0:0|0:0|0:0,0:0:0:0:
512,201,23957,2,0,L|499:281,2,80.9999975280763,2|0|0,0:0|0:0|0:0,0:0:0:0:
479,123,24563,6,0,P|429:110|374:135,1,107.999996704102,2|0,0:0|0:0,0:0:0:0:
332,200,25017,1,0,0:0:0:0:
304,72,25169,2,0,L|296:125,1,53.9999983520508,2|0,0:0|0:0,0:0:0:0:
225,42,25472,2,0,L|217:95,1,53.9999983520508,0|0,0:0|0:0,0:0:0:0:
178,186,25775,6,0,L|231:178,1,53.9999983520508,2|0,0:0|0:0,0:0:0:0:
208,265,26078,2,0,L|261:257,1,53.9999983520508,0|0,0:0|0:0,0:0:0:0:
296,357,26381,2,0,P|270:352|247:339,1,53.9999983520508,2|0,0:0|0:0,0:0:0:0:
314,191,26684,2,0,L|367:183,1,53.9999983520508,0|0,0:0|0:0,0:0:0:0:
261,256,26987,6,0,L|208:248,1,53.9999983520508,2|0,0:0|0:0,0:0:0:0:
234,168,27290,2,0,L|181:160,1,53.9999983520508,0|0,0:0|0:0,0:0:0:0:
207,80,27593,2,0,L|154:72,1,53.9999983520508,2|0,0:0|0:0,0:0:0:0:
72,58,27896,1,0,0:0:0:0:
50,224,28048,1,8,0:3:0:0:
50,224,28123,1,8,0:3:0:0:
50,224,28199,6,0,P|90:189|100:137,1,107.999996704102,6|0,0:0|0:0,0:0:0:0:
46,55,28654,2,0,L|152:71,1,107.999996704102,8|2,0:3|2:0,0:0:0:0:
287,134,29108,2,0,L|181:150,1,107.999996704102,0|2,1:0|0:0,0:0:0:0:
304,52,29563,5,0,1:0:0:0:
365,160,29714,2,0,P|370:134|366:108,1,53.9999983520508,6|0,0:0|0:0,0:0:0:0:
227,83,30017,2,0,P|251:116|287:134,2,80.9999975280763,2|0|0,0:0|0:0|0:0,0:0:0:0:
383,25,30623,6,0,L|472:38,1,90,6|0,0:0|0:0,0:0:0:0:
354,218,30926,1,0,1:0:0:0:
304,52,31078,2,0,L|214:65,1,90,2|0,2:0|0:0,0:0:0:0:
365,107,31381,1,2,2:0:0:0:
273,238,31533,2,0,P|274:193|298:156,1,90,0|0,1:0|0:0,0:0:0:0:
420,312,31836,6,0,L|331:299,1,90,2|0,0:0|0:0,0:0:0:0:
143,325,32139,1,0,1:0:0:0:
273,238,32290,2,0,L|183:251,1,90,2|0,2:0|0:0,0:0:0:0:
88,135,32593,1,2,2:0:0:0:
143,325,32745,2,0,P|189:337|228:324,1,90,0|0,1:0|0:0,0:0:0:0:
75,218,33048,6,0,L|61:307,1,90,2|0,0:0|0:0,0:0:0:0:
311,313,33351,1,0,1:0:0:0:
183,162,33502,2,0,B|175:206|175:206|183:250,1,90,2|0,2:0|0:0,0:0:0:0:
384,273,33805,1,2,2:0:0:0:
260,207,33957,1,0,1:0:0:0:
176,370,34108,6,0,L|266:384,1,90,0|2,2:0|0:0,0:0:0:0:
183,162,34411,2,0,L|94:148,1,90,0|0,0:0|1:0,0:0:0:0:
61,306,34714,2,0,P|103:293|132:260,1,90,2|0,2:0|0:0,0:0:0:0:
65,70,35017,1,2,2:0:0:0:
183,162,35169,2,0,L|272:148,1,90,0|0,1:0|0:0,0:0:0:0:
401,242,35472,6,0,L|312:228,1,90,2|0,0:0|0:0,0:0:0:0:
275,34,35775,1,0,1:0:0:0:
355,156,35926,1,2,2:0:0:0:
223,219,36078,2,0,P|237:177|271:148,1,90,0|2,0:0|2:0,0:0:0:0:
485,246,36381,2,0,P|470:288|437:317,1,90,0|0,1:0|0:0,0:0:0:0:
355,156,36684,6,0,L|444:142,1,90,2|0,0:0|0:0,0:0:0:0:
354,311,36987,2,0,L|265:297,1,90,0|2,1:0|2:0,0:0:0:0:
355,156,37290,1,0,0:0:0:0:
401,242,37442,1,2,2:0:0:0:
381,23,37593,1,0,1:0:0:0:
183,153,37745,6,0,B|241:180|241:180|356:155,1,180,4|0,0:0|0:0,0:0:0:0:
464,33,38199,5,4,1:2:0:0:
401,242,38351,1,2,2:0:0:0:
381,23,38502,5,4,1:2:0:0:
404,259,38654,1,2,2:0:0:0:
300,44,38805,5,4,1:2:0:0:
407,276,38957,1,2,2:0:0:0:
238,100,39108,5,4,1:2:0:0:
410,293,39260,1,2,2:0:0:0:
464,33,39411,5,4,1:2:0:0:
251,183,39563,1,2,0:0:0:0:
494,111,39714,1,4,1:2:0:0:
300,44,39866,1,2,0:0:0:0:
464,189,40017,1,4,1:2:0:0:
238,100,40169,1,2,0:0:0:0:
373,242,40320,6,0,L|239:263,2,135.000005149842,6|0|2,0:0|1:0|0:0,0:0:0:0:
298,113,41077,1,2,2:0:0:0:
251,183,41229,1,0,1:0:0:0:
108,263,41533,6,0,B|173:278|173:278|239:263,2,135.000005149842,2|0|2,0:0|1:0|0:0,0:0:0:0:
52,143,42290,1,2,2:0:0:0:
34,225,42442,1,0,1:0:0:0:
219,182,42745,6,0,L|198:48,2,135.000005149842,2|0|2,0:0|1:0|0:0,0:0:0:0:
178,319,43502,1,2,2:0:0:0:
239,262,43654,1,0,1:0:0:0:
99,182,43957,6,0,B|139:178|159:154|159:154|179:178|219:182,2,135.000005149842,2|0|2,0:0|1:0|0:0,0:0:0:0:
22,63,44714,1,2,2:0:0:0:
98,98,44866,1,0,1:0:0:0:
21,212,45169,6,0,P|15:179|23:147,1,67.5000025749208,2|0,0:0|0:0,0:0:0:0:
99,182,45472,2,0,P|105:214|96:247,1,67.5000025749208,0|0,1:0|2:0,0:0:0:0:
29,296,45775,1,2,0:0:0:0:
21,212,45926,1,2,2:0:0:0:
99,182,46078,2,0,L|165:192,1,67.5000025749208,0|0,1:0|0:0,0:0:0:0:
238,289,46381,6,0,P|205:290|175:276,1,67.5000025749208,2|0,0:0|0:0,0:0:0:0:
229,138,46684,2,0,P|262:137|292:151,1,67.5000025749208,0|0,1:0|2:0,0:0:0:0:
165,192,46987,1,2,0:0:0:0:
150,109,47139,1,2,2:0:0:0:
19,153,47290,2,0,L|86:164,1,67.5000025749208,0|0,1:0|0:0,0:0:0:0:
165,192,47593,5,2,0:0:0:0:
175,275,47745,1,0,0:0:0:0:
101,314,47896,1,0,1:0:0:0:
43,253,48048,1,0,2:0:0:0:
80,177,48351,5,2,2:0:0:0:
162,162,48502,1,0,1:0:0:0:
175,79,48654,1,0,0:0:0:0:
101,40,48956,5,2,2:0:0:0:
40,102,49108,1,0,1:0:0:0:
80,177,49260,1,2,2:0:0:0:
175,79,49411,5,0,0:0:0:0:
40,102,49563,1,2,2:0:0:0:
162,162,49714,1,0,1:0:0:0:
101,40,49866,1,0,0:0:0:0:
80,177,50017,6,0,P|111:229|186:242,1,135.000005149842,6|0,0:0|1:0,0:0:0:0:
242,187,50472,1,0,2:0:0:0:
312,231,50623,2,0,P|289:255|259:269,1,67.5000025749208,2|2,0:0|2:0,0:0:0:0:
316,148,50926,1,0,1:0:0:0:
387,192,51078,1,0,0:0:0:0:
373,335,51229,6,0,P|319:296|312:231,1,135.000005149842,2|0,0:0|1:0,0:0:0:0:
390,108,51684,1,8,0:3:0:0:
390,108,51760,1,8,0:3:0:0:
390,108,51836,2,0,P|428:119|458:147,1,67.5000025749208,8|2,0:3|2:0,0:0:0:0:
424,268,52139,1,0,1:0:0:0:
387,192,52290,1,0,0:0:0:0:
373,335,52442,6,0,L|239:314,1,135.000005149842,2|0,0:0|1:0,0:0:0:0:
165,275,52896,1,2,0:0:0:0:
103,370,53048,2,0,L|170:359,1,67.5000025749208,2|2,0:0|2:0,0:0:0:0:
235,230,53351,1,0,1:0:0:0:
83,289,53502,1,0,0:0:0:0:
239,314,53654,6,0,P|282:299|317:218,1,135.000005149842,2|0,0:0|1:0,0:0:0:0:
269,154,54108,1,0,2:0:0:0:
190,181,54260,2,0,P|207:210|235:230,1,67.5000025749208,2|2,0:0|2:0,0:0:0:0:
347,125,54563,2,0,P|329:96|302:76,1,67.5000025749208,0|0,1:0|0:0,0:0:0:0:
317,221,54866,6,0,L|384:210,1,67.5000025749208,2|0,0:0|0:0,0:0:0:0:
351,309,55169,2,0,L|284:298,1,67.5000025749208,0|2,1:0|2:0,0:0:0:0:
202,164,55472,2,0,L|269:153,1,67.5000025749208,2|2,0:0|2:0,0:0:0:0:
372,45,55775,1,0,1:0:0:0:
347,125,55926,1,0,0:0:0:0:
255,8,56078,6,0,L|188:19,1,67.5000025749208,2|0,0:0|0:0,0:0:0:0:
92,117,56381,2,0,P|125:112|154:95,1,67.5000025749208,0|2,1:0|2:0,0:0:0:0:
46,47,56684,1,2,0:0:0:0:
9,122,56836,1,2,2:0:0:0:
55,192,56987,2,0,L|122:203,1,67.5000025749208,0|0,1:0|0:0,0:0:0:0:
282,217,57290,6,0,P|216:220|173:270,2,135.000005149842,6|0|2,0:0|1:0|0:0,0:0:0:0:
252,297,58048,1,2,0:0:0:0:
182,145,58199,1,0,1:0:0:0:
391,164,58351,6,0,P|347:214|282:217,1,135.000005149842,4|2,0:0|2:0,0:0:0:0:
182,61,58805,5,4,1:2:0:0:
173,269,58957,1,2,2:0:0:0:
280,91,59108,5,4,1:2:0:0:
252,297,59260,1,2,0:0:0:0:
375,129,59411,5,4,1:2:0:0:
122,203,59563,1,2,1:0:0:0:
334,283,59714,5,6,0:0:0:0:
280,91,59866,1,2,2:0:0:0:
429,193,60017,1,0,1:0:0:0:
252,297,60169,2,0,P|257:253|288:213,1,90,4|0,0:0|0:0,0:0:0:0:
422,297,60472,2,0,L|333:282,1,90,2|8,2:0|1:0,0:0:0:0:
457,113,60775,2,0,P|501:151|512:192,1,90,4|0,2:0|0:0,0:0:0:0:
350,166,61078,5,8,0:3:0:0:
350,166,61154,1,8,0:3:0:0:
350,166,61229,1,0,1:0:0:0:
443,25,61381,2,0,L|457:113,1,90,0|2,0:0|2:0,0:0:0:0:
422,297,61684,1,2,2:0:0:0:
510,179,61836,1,0,1:0:0:0:
475,363,61987,1,0,0:0:0:0:
283,216,62139,5,6,0:0:0:0:
499,263,62290,1,2,0:0:0:0:
333,282,62442,1,0,1:0:0:0:
457,113,62593,2,0,L|442:201,1,90,4|0,0:0|0:0,0:0:0:0:
263,135,62896,2,0,P|290:94|338:75,1,90,2|2,0:0|1:0,0:0:0:0:
333,282,63199,6,0,B|245:318|245:246|157:282,1,180,4|8,0:0|0:3,0:0:0:0:
146,294,63578,1,0,0:0:0:0:
146,294,63654,1,0,1:0:0:0:
288,209,63805,1,0,0:0:0:0:
68,255,63957,1,8,0:3:0:0:
203,355,64108,1,2,0:0:0:0:
95,175,64260,1,0,1:0:0:0:
41,335,64411,1,0,0:0:0:0:
122,95,64563,6,0,L|210:110,1,90,6|2,0:0|2:0,0:0:0:0:
333,282,64866,1,8,1:0:0:0:
381,110,65017,2,0,L|293:125,1,90,4|0,0:0|0:0,0:0:0:0:
286,351,65320,2,0,P|332:366|372:356,1,90,2|0,2:0|1:0,0:0:0:0:
288,209,65623,6,0,B|240:201|240:201|200:217|200:217|152:209|152:209|193:183,1,180,4|8,2:0|2:3,0:0:0:0:
197,174,66002,1,0,0:0:0:0:
197,174,66078,1,8,1:0:0:0:
209,384,66229,1,0,0:0:0:0:
403,294,66381,6,0,L|341:284,2,60,8|8|8,3:0|3:0|3:0,0:0:0:0:
439,300,66684,6,0,P|481:262|481:183,1,135,14|0,1:0|0:0,0:0:0:0:
472,173,66987,5,6,0:2:0:0:
260,241,67139,1,0,2:0:0:0:
403,294,67290,1,0,1:2:0:0:
260,97,67442,5,6,2:2:0:0:
311,325,67593,1,0,2:0:0:0:
327,169,67745,1,0,1:0:0:0:
214,329,67896,1,2,2:0:0:0:
260,97,68048,6,0,B|285:58|285:58|391:113|391:251|304:332,1,360,4|8,0:0|3:0,0:0:0:0:
298,334,68729,1,8,3:0:0:0:
284,341,68805,6,0,P|257:298|263:238,1,105,2|0,0:0|0:0,0:0:0:0:
273,230,69411,6,0,L|172:212,1,99.0000030212403,6|0,0:0|0:0,0:0:0:0:
20,308,69714,2,0,L|118:292,1,99.0000030212403,0|0,1:0|0:0,0:0:0:0:
207,120,70017,1,2,0:0:0:0:
79,201,70169,1,2,0:0:0:0:
303,137,70320,2,0,P|299:88|271:46,1,99.0000030212403,0|0,1:0|0:0,0:0:0:0:
175,213,70623,6,0,L|273:230,1,99.0000030212403,2|2,0:0|0:0,0:0:0:0:
465,193,70926,2,0,L|368:210,1,99.0000030212403,0|0,1:0|0:0,0:0:0:0:
238,321,71229,1,2,0:0:0:0:
303,137,71381,1,2,0:0:0:0:
435,320,71533,2,0,L|338:304,1,99.0000030212403,0|0,1:0|0:0,0:0:0:0:
207,120,71836,6,0,P|227:75|321:40,1,148.50000453186,2|0,0:0|0:0,0:0:0:0:
401,121,72139,2,0,L|303:137,1,99.0000030212403,0|0,1:0|0:0,0:0:0:0:
205,284,72442,2,0,B|303:268|303:268|322:278|338:305,1,148.50000453186,2|0,0:0|0:0,0:0:0:0:
224,381,72745,2,0,P|174:378|131:348,1,99.0000030212403,0|0,1:0|0:0,0:0:0:0:
207,120,73048,5,2,0:0:0:0:
205,284,73199,1,2,0:0:0:0:
303,137,73351,2,0,P|299:88|272:47,1,99.0000030212403,0|0,1:0|0:0,0:0:0:0:
143,196,73654,2,0,L|241:213,1,99.0000030212403,2|2,0:0|0:0,0:0:0:0:
177,26,73957,2,0,L|79:42,1,99.0000030212403,0|0,1:0|0:0,0:0:0:0:
62,251,74260,5,2,0:0:0:0:
207,120,74411,1,2,0:0:0:0:
249,304,74563,2,0,L|151:287,1,99.0000030212403,0|0,1:0|0:0,0:0:0:0:
303,137,74866,2,0,L|400:153,1,99.0000030212403,2|2,0:0|0:0,0:0:0:0:
206,216,75169,2,0,B|194:168|194:168|206:120,1,99.0000030212403,0|0,1:0|0:0,0:0:0:0:
400,57,75472,6,0,B|412:105|412:105|400:153,1,99.0000030212403,2|2,0:0|0:0,0:0:0:0:
176,26,75775,2,0,P|224:23|269:45,1,99.0000030212403,0|0,1:0|0:0,0:0:0:0:
206,216,76078,2,0,P|157:219|113:197,1,99.0000030212403,2|2,0:0|0:0,0:0:0:0:
303,137,76381,2,0,L|319:234,1,99.0000030212403,0|0,1:0|0:0,0:0:0:0:
172,370,76684,5,2,0:0:0:0:
206,216,76836,1,2,0:0:0:0:
368,319,76987,2,0,B|320:331|320:331|272:319,1,99.0000030212403,0|0,1:0|0:0,0:0:0:0:
208,118,77290,1,2,0:0:0:0:
319,234,77442,1,2,0:0:0:0:
256,34,77593,1,0,1:0:0:0:
124,168,77745,6,0,P|158:202|205:216,1,99.0000030212403,6|0,0:0|0:0,0:0:0:0:
352,51,78048,1,2,0:0:0:0:
208,118,78199,1,0,1:0:0:0:
319,234,78351,1,0,0:0:0:0:
256,34,78502,2,0,P|210:20|158:34,1,99.0000030212403,2|2,0:0|0:0,0:0:0:0:
108,232,78805,2,0,L|205:216,1,99.0000030212403,0|0,1:0|0:0,0:0:0:0:
66,47,79108,6,0,B|54:95|54:95|66:143,1,99.0000030212403,6|0,0:0|0:0,0:0:0:0:
290,165,79411,2,0,P|255:131|208:118,1,99.0000030212403,0|0,1:0|0:0,0:0:0:0:
146,323,79714,1,2,0:0:0:0:
205,215,79866,1,2,0:0:0:0:
55,287,80017,2,0,L|71:384,1,99.0000030212403,0|0,1:0|0:0,0:0:0:0:
306,360,80320,6,0,L|290:263,1,99.0000030212403,2|2,0:0|0:0,0:0:0:0:
375,119,80623,2,0,B|387:167|387:167|375:215,1,99.0000030212403,0|0,1:0|0:0,0:0:0:0:
204,311,80926,1,2,0:0:0:0:
277,135,81078,1,2,0:0:0:0:
389,315,81229,2,0,P|352:347|305:359,1,99.0000030212403,0|0,1:0|0:0,0:0:0:0:
277,135,81533,6,0,B|374:119|374:119|401:126|413:155,1,148.50000453186,2|0,0:0|0:0,0:0:0:0:
321,234,81836,2,0,L|224:218,1,99.0000030212403,0|0,1:0|0:0,0:0:0:0:
76,372,82139,2,0,P|148:368|190:310,1,148.50000453186,2|0,0:0|0:0,0:0:0:0:
111,218,82442,2,0,B|99:170|99:170|111:122,1,99.0000030212403,0|0,1:0|0:0,0:0:0:0:
374,118,82745,5,2,0:0:0:0:
224,218,82896,1,2,0:0:0:0:
434,303,83048,2,0,L|418:206,1,99.0000030212403,0|0,1:0|0:0,0:0:0:0:
311,43,83351,1,2,0:0:0:0:
321,218,83502,1,2,0:0:0:0:
468,97,83654,2,0,P|447:53|407:26,1,99.0000030212403,0|0,1:0|0:0,0:0:0:0:
207,120,83957,5,2,0:0:0:0:
374,118,84108,1,2,0:0:0:0:
170,29,84260,2,0,P|129:60|110:115,1,99.0000030212403,0|0,1:0|0:0,0:0:0:0:
304,315,84563,2,0,L|320:218,1,99.0000030212403,2|2,0:0|0:0,0:0:0:0:
59,209,84866,2,0,B|47:257|47:257|59:305,1,99.0000030212403,0|0,1:0|0:0,0:0:0:0:
207,120,85169,6,0,P|156:77|73:86,1,148.50000453186,6|0,0:0|0:0,0:0:0:0:
55,102,85472,5,8,0:3:0:0:
86,115,85547,1,8,0:3:0:0:
120,119,85623,1,8,0:3:0:0:
154,111,85699,1,8,0:3:0:0:
183,92,85775,1,8,0:3:0:0:
213,74,85850,1,8,0:3:0:0:
246,66,85926,1,8,0:3:0:0:
281,70,86002,1,8,0:3:0:0:
312,83,86077,1,8,0:3:0:0:
333,110,86154,1,8,0:3:0:0:
342,143,86230,1,8,0:3:0:0:
337,177,86306,1,8,0:3:0:0:
320,207,86381,6,0,P|313:258|340:309,1,99.0000030212403,6|0,0:0|0:0,0:0:0:0:
506,167,86684,2,0,P|512:115|485:64,1,99.0000030212403,0|0,1:0|0:0,0:0:0:0:
281,70,86987,1,2,0:0:0:0:
416,132,87139,1,2,0:0:0:0:
236,157,87290,2,0,L|220:254,1,99.0000030212403,0|0,1:0|0:0,0:0:0:0:
430,325,87593,6,0,B|442:277|442:277|430:229,1,99.0000030212403,2|2,0:0|0:0,0:0:0:0:
246,348,87896,2,0,P|290:368|339:360,1,99.0000030212403,0|0,1:0|0:0,0:0:0:0:
416,132,88199,1,2,0:0:0:0:
304,270,88351,1,2,0:0:0:0:
252,59,88502,2,0,L|236:156,1,99.0000030212403,0|0,1:0|0:0,0:0:0:0:
417,266,88805,6,0,P|443:199|416:132,1,148.50000453186,2|0,0:0|0:0,0:0:0:0:
348,36,89108,2,0,L|445:20,1,99.0000030212403,0|0,1:0|0:0,0:0:0:0:
345,199,89411,2,0,L|196:187,1,148.50000453186,2|0,0:0|0:0,0:0:0:0:
100,289,89714,2,0,L|197:273,1,99.0000030212403,0|0,1:0|0:0,0:0:0:0:
220,117,90017,6,0,B|172:105|172:105|124:117,1,99.0000030212403,2|2,0:0|0:0,0:0:0:0:
293,293,90320,2,0,P|311:247|304:199,1,99.0000030212403,0|0,1:0|0:0,0:0:0:0:
124,118,90623,1,2,0:0:0:0:
197,272,90775,1,2,0:0:0:0:
294,37,90926,2,0,L|197:53,1,99.0000030212403,0|0,1:0|0:0,0:0:0:0:
116,236,91229,5,2,0:0:0:0:
240,141,91381,1,2,0:0:0:0:
26,199,91533,2,0,P|18:247|36:292,1,99.0000030212403,0|0,1:0|0:0,0:0:0:0:
229,333,91836,2,0,L|213:236,1,99.0000030212403,2|2,0:0|0:0,0:0:0:0:
123,21,92139,2,0,B|111:69|111:69|123:117,1,99.0000030212403,0|0,1:0|0:0,0:0:0:0:
337,222,92442,6,0,B|349:174|349:174|337:126,1,99.0000030212403,2|2,0:0|0:0,0:0:0:0:
116,236,92745,2,0,L|132:333,1,99.0000030212403,0|0,1:0|0:0,0:0:0:0:
337,222,93048,1,2,0:0:0:0:
219,137,93199,1,2,0:0:0:0:
300,313,93351,2,0,P|348:320|393:302,1,99.0000030212403,0|0,1:0|0:0,0:0:0:0:
434,109,93654,6,0,L|337:125,1,99.0000030212403,2|2,0:0|0:0,0:0:0:0:
143,217,93957,2,0,L|240:233,1,99.0000030212403,0|0,1:0|0:0,0:0:0:0:
270,53,94260,1,2,0:0:0:0:
337,222,94411,1,2,0:0:0:0:
123,121,94563,1,0,1:0:0:0:
336,125,94714,6,0,B|397:183|352:264|352:264|339:239|335:207,1,198.000006042481,4|2,0:0|0:0,0:0:0:0:
417,11,95169,2,0,L|433:108,1,99.0000030212403,0|0,1:0|0:0,0:0:0:0:
240,233,95472,1,2,0:0:0:0:
434,207,95623,1,2,0:0:0:0:
195,146,95775,1,0,1:0:0:0:
321,319,95926,5,8,0:3:0:0:
321,319,96002,1,8,0:3:0:0:
321,319,96078,2,0,L|337:222,1,99.0000030212403,4|2,1:2|0:0,0:0:0:0:
92,94,96381,2,0,L|108:191,1,99.0000030212403,4|2,1:2|0:0,0:0:0:0:
283,24,96684,1,4,1:2:0:0:
240,233,96836,1,2,0:0:0:0:
160,23,96987,1,4,1:2:0:0:
59,276,97139,5,8,0:3:0:0:
59,276,97214,1,8,0:3:0:0:
59,276,97290,2,0,P|106:289|154:279,1,99.0000030212403,4|2,1:2|0:0,0:0:0:0:
254,25,97593,2,0,P|206:11|159:22,1,99.0000030212403,4|2,1:2|0:0,0:0:0:0:
240,233,97896,1,4,1:2:0:0:
347,56,98048,1,2,0:0:0:0:
428,267,98199,1,4,1:2:0:0:
288,148,98351,5,8,0:3:0:0:
288,148,98426,1,8,0:3:0:0:
288,148,98502,2,0,B|240:136|240:136|192:148,1,99.0000030212403,4|2,1:2|0:0,0:0:0:0:
332,366,98805,2,0,B|380:378|380:378|428:366,1,99.0000030212403,4|2,1:2|0:0,0:0:0:0:
385,146,99108,1,4,1:2:0:0:
244,325,99260,1,2,0:0:0:0:
347,56,99411,1,4,1:2:0:0:
428,267,99563,5,8,0:3:0:0:
428,267,99639,1,8,0:3:0:0:
428,267,99714,2,0,L|331:251,1,99.0000030212403,4|2,1:2|0:0,0:0:0:0:
146,341,100017,2,0,L|243:325,1,99.0000030212403,4|2,1:2|0:0,0:0:0:0:
385,146,100320,2,0,L|288:130,1,99.0000030212403,4|2,1:2|0:0,0:0:0:0:
103,220,100623,2,0,L|200:204,1,99.0000030212403,4|8,1:2|0:3,0:0:0:0:
342,25,100926,6,0,B|294:13|294:13|246:25,1,99.0000030212403,4|0,2:0|0:3,0:0:0:0:
200,203,101229,1,8,0:3:0:0:
231,217,101304,1,8,0:3:0:0:
265,218,101380,1,8,0:3:0:0:
297,206,101456,1,8,0:3:0:0:
321,181,101532,1,8,0:3:0:0:
345,156,101608,1,8,0:3:0:0:
377,144,101684,1,8,0:3:0:0:
411,145,101760,1,8,0:3:0:0:
442,159,101835,1,8,0:3:0:0:
418,184,101911,1,8,0:3:0:0:
386,196,101987,1,8,0:3:0:0:
352,195,102063,1,8,0:3:0:0:
321,181,102139,6,0,P|312:154|321:107,2,66.0000020141602,8|8|8,0:3|0:3|0:3,0:0:0:0:
492,232,102442,2,0,P|501:259|492:306,2,66.0000020141602,8|8|8,0:3|0:3|0:3,0:0:0:0:
320,332,102745,2,0,B|208:380|208:284|96:332|96:332|120:356|161:358,1,303.750001158714,6|0,1:2|0:0,0:0:0:0:
160,357,103199,5,6,0:0:0:0:
256,192,103275,12,0,108199,0:0:0:0:
