osu file format v14

[General]
AudioFilename: audio.mp3
AudioLeadIn: 0
PreviewTime: 68654
Countdown: 0
SampleSet: Soft
StackLeniency: 0.7
Mode: 0
LetterboxInBreaks: 0
WidescreenStoryboard: 1

[Editor]
Bookmarks: 20914,30611,46975,57278,59702,65687,85460,86369,96066,101229
DistanceSpacing: 0.9
BeatDivisor: 2
GridSize: 8
TimelineZoom: 1.6

[Metadata]
Title:Kaze ga Fuku Machi (TV size)
TitleUnicode:風が吹く街(TV size)
Artist:Luck Life
ArtistUnicode:ラックライフ
Creator:Nevo
Version:Easy
Source:文豪ストレイドッグス
Tags:bungo bungou stray dogs ending underdogs shogunmoon armin A_r_M_i_N shiratoi bite you death byd
BeatmapID:1509546
BeatmapSetID:713944

[Difficulty]
HPDrainRate:2
CircleSize:3
OverallDifficulty:2.5
ApproachRate:3.5
SliderMultiplier:0.999999999999999
SliderTickRate:1

[Events]
//Background and Video events
0,0,"wp1973277.png",0,0
//Break Periods
//Storyboard Layer 0 (Background)
//Storyboard Layer 1 (Fail)
//Storyboard Layer 2 (Pass)
//Storyboard Layer 3 (Foreground)
//Storyboard Sound Samples

[TimingPoints]
11230,303.030303030303,4,2,1,50,1,0
20926,-100,4,2,1,60,0,0
21457,-100,4,2,1,5,0,0
21533,-100,4,2,2,50,0,0
27896,-100,4,2,1,50,0,0
29942,-100,4,2,1,5,0,0
30017,-100,4,2,1,50,0,0
30623,-100,4,2,1,60,0,0
32063,-100,4,2,1,5,0,0
32139,-100,4,2,1,60,0,0
33729,-100,4,2,1,5,0,0
33805,-100,4,2,1,60,0,0
34487,-100,4,2,1,5,0,0
34563,-100,4,2,1,60,0,0
35396,-100,4,2,1,5,0,0
35472,-100,4,2,1,60,0,0
38199,-100,4,2,1,70,0,0
40320,-100,4,2,1,50,0,0
50245,-100,4,2,1,5,0,0
50320,-100,4,2,1,50,0,0
57214,-100,4,2,1,5,0,0
57290,-100,4,2,1,50,0,0
61457,-100,4,2,1,5,0,0
61533,-100,4,2,1,50,0,0
69411,-100,4,2,1,70,0,1
72063,-100,4,2,1,5,0,1
72139,-100,4,2,1,70,0,1
72669,-100,4,2,1,5,0,1
72745,-100,4,2,1,70,0,1
78426,-100,4,2,1,5,0,1
78502,-100,4,2,1,70,0,1
79033,-100,4,2,1,5,0,1
79108,-100,4,2,1,70,0,1
82669,-100,4,2,1,70,0,1
82745,-100,4,2,1,70,0,1
85396,-100,4,2,1,5,0,1
85472,-100,4,2,1,70,0,1
85548,-100,4,2,1,71,0,1
85623,-100,4,2,1,73,0,1
85699,-100,4,2,1,74,0,1
85775,-100,4,2,1,75,0,1
85851,-100,4,2,1,76,0,1
85926,-100,4,2,1,77,0,1
86002,-100,4,2,1,78,0,1
86078,-100,4,2,1,80,0,1
89033,-100,4,2,1,80,0,1
89108,-100,4,2,1,80,0,1
89639,-100,4,2,1,80,0,1
89714,-100,4,2,1,80,0,1
102745,-100,4,2,1,60,0,0
104563,-100,4,2,1,50,0,0
105775,-100,4,2,1,40,0,0
106381,-100,4,2,1,30,0,0
106987,-100,4,2,1,25,0,0
107290,-100,4,2,1,20,0,0
107593,-100,4,2,1,15,0,0
107896,-100,4,2,1,10,0,0
108199,-100,4,2,1,5,0,0

[Colours]
Combo1 : 86,4,159
Combo2 : 160,80,80
Combo3 : 255,128,64
Combo4 : 128,128,128

[HitObjects]
80,226,20926,6,0,L|91:328,2,99.9999999999999,6|2|2,0:0|0:0|0:0,0:0:0:0:
115,142,21836,1,0,0:0:0:0:
201,166,22139,2,0,P|298:206|387:135,1,200,2|2,0:0|0:0,0:0:0:0:
368,71,23048,1,0,0:0:0:0:
285,106,23351,6,0,L|297:314,1,200,2|2,0:0|0:0,0:0:0:0:
374,350,24260,1,0,0:0:0:0:
458,319,24563,2,0,P|490:223|425:143,1,200,2|2,0:0|0:0,0:0:0:0:
351,118,25472,1,0,0:0:0:0:
281,175,25775,6,0,B|207:167|207:167|159:181|159:181|65:172,1,200,2|2,0:0|0:0,0:0:0:0:
33,248,26684,1,0,0:0:0:0:
91,316,26987,2,0,L|203:325,1,99.9999999999999,2|0,0:0|0:0,0:0:0:0:
267,370,27593,2,0,L|366:361,1,99.9999999999999,2|0,0:0|0:0,0:0:0:0:
442,312,28199,6,0,P|457:228|407:171,2,150,6|8|0,0:0|0:3|1:0,0:0:0:0:
372,255,29411,2,0,L|272:246,1,99.9999999999999,2|6,0:0|0:0,0:0:0:0:
204,188,30017,2,0,L|104:196,1,99.9999999999999,2|0,0:0|0:0,0:0:0:0:
73,110,30623,6,0,P|153:55|246:81,1,200,6|0,0:0|0:0,0:0:0:0:
327,122,31533,1,0,1:0:0:0:
318,211,31836,2,0,L|105:196,1,200,2|0,0:0|0:0,0:0:0:0:
102,285,32745,1,0,1:0:0:0:
177,333,33048,6,0,P|228:347|293:319,2,99.9999999999999,2|0|0,0:0|1:0|0:0,0:0:0:0:
102,285,33957,1,0,1:0:0:0:
29,232,34260,2,0,B|13:85|13:85|71:151,1,200,2|0,0:0|0:0,0:0:0:0:
120,176,35169,1,0,1:0:0:0:
209,178,35472,6,0,L|313:173,1,99.9999999999999,2|0,0:0|1:0,0:0:0:0:
388,214,36078,2,0,P|398:167|362:103,1,99.9999999999999,0|0,0:0|1:0,0:0:0:0:
335,41,36684,2,0,L|231:46,1,99.9999999999999,2|0,0:0|1:0,0:0:0:0:
162,99,37290,2,0,P|157:148|176:193,1,99.9999999999999,0|0,1:0|0:0,0:0:0:0:
195,281,37896,1,0,0:0:0:0:
105,287,38199,5,4,1:2:0:0:
50,215,38502,1,4,1:2:0:0:
78,129,38805,1,4,1:2:0:0:
162,99,39108,2,0,B|248:96|248:96|284:117|284:117|378:113,1,200,4|4,1:2|1:2,0:0:0:0:
437,153,40017,1,4,1:2:0:0:
404,238,40320,6,0,P|401:298|445:351,2,99.9999999999999,6|0|2,0:0|1:0|0:0,0:0:0:0:
437,153,41229,1,0,1:0:0:0:
414,65,41533,2,0,P|328:31|322:119,1,200,2|2,0:0|0:0,0:0:0:0:
311,201,42442,1,0,1:0:0:0:
223,177,42745,6,0,L|215:71,1,99.9999999999999,2|0,0:0|1:0,0:0:0:0:
130,47,43351,2,0,L|122:153,1,99.9999999999999,2|0,0:0|1:0,0:0:0:0:
108,235,43957,2,0,P|170:318|255:252,1,200,2|2,0:0|0:0,0:0:0:0:
312,227,44866,1,0,1:0:0:0:
350,308,45169,6,0,L|479:300,1,99.9999999999999,2|0,0:0|1:0,0:0:0:0:
503,229,45775,2,0,P|512:164|493:123,1,99.9999999999999,2|0,0:0|1:0,0:0:0:0:
439,66,46381,2,0,P|374:57|333:76,1,99.9999999999999,2|0,0:0|1:0,0:0:0:0:
288,140,46987,2,0,L|159:132,1,99.9999999999999,2|0,0:0|1:0,0:0:0:0:
109,177,47593,5,2,0:0:0:0:
118,266,47896,1,0,1:0:0:0:
194,312,48199,2,0,L|293:318,1,99.9999999999999,0|0,0:0|1:0,0:0:0:0:
367,370,48805,2,0,P|381:316|363:265,1,99.9999999999999,0|0,0:0|1:0,0:0:0:0:
290,230,49411,2,0,P|276:176|294:125,1,99.9999999999999,0|0,0:0|1:0,0:0:0:0:
367,93,50017,6,0,L|475:85,1,99.9999999999999,6|0,0:0|1:0,0:0:0:0:
466,175,50623,2,0,L|358:183,1,99.9999999999999,2|0,0:0|1:0,0:0:0:0:
290,230,51229,2,0,P|196:250|122:166,1,200,2|8,0:0|0:3,0:0:0:0:
160,99,52139,1,0,1:0:0:0:
224,162,52442,6,0,L|161:363,1,200,2|2,0:0|0:0,0:0:0:0:
76,371,53351,1,0,1:0:0:0:
0,330,53654,2,0,P|-10:277|29:215,1,99.9999999999999,2|0,0:0|1:0,0:0:0:0:
92,207,54260,2,0,P|109:160|98:112,1,99.9999999999999,2|0,0:0|1:0,0:0:0:0:
21,69,54866,6,0,P|100:26|187:99,1,200,2|2,0:0|0:0,0:0:0:0:
220,164,55775,1,0,1:0:0:0:
309,173,56078,2,0,L|417:165,1,99.9999999999999,2|0,0:0|1:0,0:0:0:0:
483,114,56684,2,0,P|500:60|478:6,1,99.9999999999999,2|0,0:0|1:0,0:0:0:0:
408,61,57290,6,0,L|150:50,1,250,6|2,0:0|0:0,0:0:0:0:
135,138,58351,2,0,L|384:148,1,250,4|4,0:0|1:2,0:0:0:0:
439,219,59411,1,4,1:2:0:0:
395,297,59714,6,0,P|327:320|246:283,1,150,6|4,0:0|0:0,0:0:0:0:
196,226,60472,1,2,2:0:0:0:
107,244,60775,2,0,B|119:365|119:365|84:338,1,150,4|0,2:0|1:0,0:0:0:0:
12,315,61533,1,2,2:0:0:0:
15,225,61836,1,0,1:0:0:0:
61,147,62139,6,0,P|119:109|218:131,1,150,6|4,0:0|0:0,0:0:0:0:
251,187,62896,1,2,0:0:0:0:
282,268,63199,2,0,L|470:259,1,150,4|0,0:0|1:0,0:0:0:0:
498,200,63957,1,8,0:3:0:0:
477,112,64260,1,0,1:0:0:0:
405,57,64563,6,0,P|328:34|249:73,1,150,6|4,0:0|0:0,0:0:0:0:
257,147,65320,1,2,2:0:0:0:
179,106,65623,2,0,B|71:96|71:96|5:124,1,150,4|8,2:0|1:0,0:0:0:0:
7,198,66381,2,0,P|32:246|105:273,1,99.9999999999999,8|14,3:0|1:0,0:0:0:0:
132,333,66987,2,0,L|288:325,1,150,6|6,0:2|2:2,0:0:0:0:
369,303,67745,1,0,1:0:0:0:
307,237,68048,1,4,0:0:0:0:
307,237,69411,6,0,P|400:245|435:158,1,200,6|2,0:0|0:0,0:0:0:0:
397,76,70320,1,0,1:0:0:0:
315,36,70623,2,0,L|193:32,1,99.9999999999999,2|0,0:0|1:0,0:0:0:0:
134,72,71229,2,0,P|118:124|129:166,1,99.9999999999999,2|0,0:0|1:0,0:0:0:0:
215,192,71836,6,0,P|231:244|220:286,1,99.9999999999999,2|0,0:0|1:0,0:0:0:0:
166,359,72442,2,0,P|114:375|72:364,1,99.9999999999999,2|0,0:0|1:0,0:0:0:0:
8,299,73048,2,0,P|-8:247|3:205,1,99.9999999999999,2|0,0:0|1:0,0:0:0:0:
68,141,73654,2,0,L|167:137,1,99.9999999999999,2|0,0:0|1:0,0:0:0:0:
212,61,74260,6,0,P|254:151|176:227,1,200,2|2,0:0|0:0,0:0:0:0:
121,269,75169,1,0,1:0:0:0:
179,338,75472,2,0,L|301:334,1,99.9999999999999,2|0,0:0|1:0,0:0:0:0:
323,256,76078,2,0,L|445:260,1,99.9999999999999,2|0,0:0|1:0,0:0:0:0:
494,204,76684,6,0,P|518:138|497:87,1,99.9999999999999,2|0,0:0|1:0,0:0:0:0:
460,37,77290,2,0,P|394:13|343:34,1,99.9999999999999,2|0,0:0|1:0,0:0:0:0:
313,91,77896,2,0,L|72:83,1,200,0|2,0:0|0:0,0:0:0:0:
53,151,78805,1,0,1:0:0:0:
72,238,79108,6,0,P|125:255|208:232,1,99.9999999999999,6|0,0:0|1:0,0:0:0:0:
241,198,79714,1,2,0:0:0:0:
330,193,80017,1,0,1:0:0:0:
403,246,80320,2,0,L|427:360,1,99.9999999999999,2|0,0:0|1:0,0:0:0:0:
497,292,80926,1,2,0:0:0:0:
490,202,81229,1,0,1:0:0:0:
454,118,81533,6,0,B|349:64|362:143|248:83,1,200,2|2,0:0|0:0,0:0:0:0:
172,101,82442,1,0,1:0:0:0:
198,187,82745,2,0,P|222:253|201:304,1,99.9999999999999,2|0,0:0|1:0,0:0:0:0:
164,354,83351,2,0,P|98:378|47:357,1,99.9999999999999,2|0,0:0|1:0,0:0:0:0:
3,312,83957,6,0,L|7:190,1,99.9999999999999,2|0,0:0|1:0,0:0:0:0:
63,142,84563,1,2,0:0:0:0:
144,181,84866,1,0,1:0:0:0:
211,121,85169,2,0,B|284:108|343:149|343:149|341:94|373:59|373:59|417:82|477:71,1,300,6|8,0:0|0:3,0:0:0:0:
493,141,86381,6,0,L|481:273,1,99.9999999999999,6|0,0:0|1:0,0:0:0:0:
413,296,86987,1,2,0:0:0:0:
326,274,87290,1,0,1:0:0:0:
247,323,87593,2,0,P|199:347|115:335,1,99.9999999999999,2|0,0:0|1:0,0:0:0:0:
71,310,88199,2,0,P|47:262|59:178,1,99.9999999999999,2|0,0:0|1:0,0:0:0:0:
93,140,88805,6,0,B|175:134|175:134|215:145|215:145|300:138,1,200,2|2,0:0|0:0,0:0:0:0:
378,160,89714,1,0,1:0:0:0:
342,242,90017,2,0,L|214:252,1,99.9999999999999,2|0,0:0|1:0,0:0:0:0:
260,337,90623,2,0,L|359:329,1,99.9999999999999,2|0,0:0|1:0,0:0:0:0:
437,284,91229,6,0,P|461:233|455:180,1,99.9999999999999,2|0,0:0|1:0,0:0:0:0:
409,114,91836,2,0,P|358:90|305:96,1,99.9999999999999,2|0,0:0|1:0,0:0:0:0:
256,160,92442,2,0,P|169:188|113:80,1,200,2|2,0:0|0:0,0:0:0:0:
44,49,93351,1,0,1:0:0:0:
20,135,93654,6,0,L|34:265,1,99.9999999999999,2|0,0:0|1:0,0:0:0:0:
90,301,94260,2,0,P|140:275|220:287,1,99.9999999999999,2|0,0:0|1:0,0:0:0:0:
263,314,94866,2,0,P|313:340|393:328,1,99.9999999999999,0|0,0:0|1:0,0:0:0:0:
440,312,95472,1,2,0:0:0:0:
490,237,95775,1,0,1:0:0:0:
477,147,96078,6,0,P|412:125|352:153,1,99.9999999999999,4|4,1:2|1:2,0:0:0:0:
315,190,96684,1,4,1:2:0:0:
227,212,96987,1,4,1:2:0:0:
141,184,97290,2,0,P|119:119|147:59,1,99.9999999999999,4|4,1:2|1:2,0:0:0:0:
186,24,97896,1,4,1:2:0:0:
275,18,98199,1,4,1:2:0:0:
353,60,98502,6,0,L|372:188,1,99.9999999999999,4|4,1:2|1:2,0:0:0:0:
438,213,99108,2,0,L|419:341,1,99.9999999999999,4|4,1:2|1:2,0:0:0:0:
346,358,99714,2,0,P|255:313|141:355,1,200,4|4,1:2|1:2,0:0:0:0:
76,312,100623,1,4,1:2:0:0:
89,222,100926,6,0,L|217:203,1,99.9999999999999,4|8,2:0|0:3,0:0:0:0:
230,127,101533,1,8,0:3:0:0:
317,149,101836,1,8,0:3:0:0:
374,218,102139,2,0,L|502:199,1,99.9999999999999,8|8,0:3|0:3,0:0:0:0:
508,120,102745,1,6,1:2:0:0:
256,192,103199,12,0,108199,0:0:0:0:
