osu file format v14

[General]
AudioFilename: audio.mp3
AudioLeadIn: 0
PreviewTime: 68584
Countdown: 0
SampleSet: Soft
StackLeniency: 0.5
Mode: 1
LetterboxInBreaks: 0
EpilepsyWarning: 1
WidescreenStoryboard: 1

[Editor]
DistanceSpacing: 1.3
BeatDivisor: 4
GridSize: 8
TimelineZoom: 2.799998

[Metadata]
Title:Kaze ga Fuku Machi (TV Size)
TitleUnicode:風が吹く街
Artist:Luck Life
ArtistUnicode:ラックライフ
Creator:Yahuri
Version:Shinju
Source:文豪ストレイドッグス
Tags:bungo bungou stray dogs dazai osamu atsushi nakajima chuuya chuya nakahara
BeatmapID:1219208
BeatmapSetID:537572

[Difficulty]
HPDrainRate:5
CircleSize:3.5
OverallDifficulty:6
ApproachRate:6
SliderMultiplier:1.2
SliderTickRate:1

[Events]
//Background and Video events
0,0,"shinju.jpg",0,0
//Break Periods
//Storyboard Layer 0 (Background)
//Storyboard Layer 1 (Fail)
//Storyboard Layer 2 (Pass)
//Storyboard Layer 3 (Foreground)
//Storyboard Sound Samples

[TimingPoints]
19721,303.030303030303,4,2,0,100,1,0
20099,-100,4,2,0,50,0,0
20933,-100,4,2,0,80,0,0
21387,-100,4,2,0,50,0,0
28054,-100,4,2,0,60,0,0
30630,-100,4,2,0,70,0,0
68660,-100,4,2,0,50,0,0
69417,-100,4,2,0,80,0,1
85478,-100,4,2,0,50,0,1
85781,-100,4,2,0,60,0,1
86084,-100,4,2,0,70,0,1
86387,-100,4,2,0,80,0,1
101236,-100,4,2,0,50,0,1
101539,-100,4,2,0,60,0,1
101842,-100,4,2,0,70,0,1
102145,-100,4,2,0,80,0,1
102751,-100,4,2,0,50,0,0
103130,-100,4,2,0,5,0,0
103205,-100,4,2,0,50,0,0
103357,-100,4,2,0,40,0,0
104569,-100,4,2,0,30,0,0
105781,-100,4,2,0,20,0,0
106993,-100,4,2,0,10,0,0
108205,-100,4,2,0,5,0,0

[Colours]
Combo1 : 148,148,148
Combo2 : 159,111,98
Combo3 : 218,194,152
Combo4 : 254,29,3
Combo5 : 223,72,240
Combo6 : 120,240,254
Combo7 : 239,245,109
Combo8 : 212,212,212

[HitObjects]
256,192,20933,5,12,0:0:0:0:
256,192,21084,1,12,0:0:0:0:
256,192,21236,1,12,0:0:0:0:
256,64,21387,1,0,0:0:0:0:
256,192,21539,1,8,0:0:0:0:
256,64,21766,1,0,0:0:0:0:
256,64,21993,1,0,0:0:0:0:
256,192,22145,5,8,0:0:0:0:
256,192,22448,1,8,0:0:0:0:
256,192,22599,1,8,0:0:0:0:
256,64,22751,1,0,0:0:0:0:
256,64,22978,1,0,0:0:0:0:
256,64,23205,1,0,0:0:0:0:
256,192,23357,5,8,0:0:0:0:
256,64,23584,1,0,0:0:0:0:
256,192,23660,1,8,0:0:0:0:
256,192,23811,1,8,0:0:0:0:
256,64,23963,1,0,0:0:0:0:
256,64,24190,1,0,0:0:0:0:
256,192,24266,1,8,0:0:0:0:
256,64,24417,1,0,0:0:0:0:
256,192,24569,5,8,0:0:0:0:
256,192,24872,1,8,0:0:0:0:
256,192,25024,1,8,0:0:0:0:
256,64,25175,1,0,0:0:0:0:
256,192,25478,1,8,0:0:0:0:
256,192,25781,5,8,0:0:0:0:
256,192,26084,1,8,0:0:0:0:
256,192,26236,1,8,0:0:0:0:
256,64,26387,1,0,0:0:0:0:
256,192,26690,1,8,0:0:0:0:
256,192,26993,5,8,0:0:0:0:
256,64,27296,1,0,0:0:0:0:
256,64,27599,1,0,0:0:0:0:
256,64,27902,1,0,0:0:0:0:
256,72,28104,1,0,0:0:0:0:
256,72,28155,1,0,0:0:0:0:
256,72,28205,5,4,0:0:0:0:
256,304,28660,1,4,0:0:0:0:
256,304,28963,1,4,0:0:0:0:
256,72,29114,1,8,0:0:0:0:
256,304,29417,1,4,0:0:0:0:
256,72,29569,1,8,0:0:0:0:
256,304,29720,1,4,0:0:0:0:
256,72,30024,1,8,0:0:0:0:
256,72,30251,1,8,0:0:0:0:
256,72,30478,1,8,0:0:0:0:
256,304,30630,5,12,0:0:0:0:
256,192,30933,1,8,0:0:0:0:
256,72,31084,1,0,0:0:0:0:
256,192,31236,1,8,0:0:0:0:
256,72,31387,1,0,0:0:0:0:
256,192,31539,1,8,0:0:0:0:
256,192,31690,1,8,0:0:0:0:
256,304,31842,5,4,0:0:0:0:
256,192,32145,1,8,0:0:0:0:
256,72,32296,1,0,0:0:0:0:
256,192,32448,1,8,0:0:0:0:
256,72,32599,1,0,0:0:0:0:
256,192,32751,1,8,0:0:0:0:
256,192,32902,1,8,0:0:0:0:
256,304,33054,5,4,0:0:0:0:
256,192,33357,1,8,0:0:0:0:
256,72,33508,1,0,0:0:0:0:
256,72,33811,1,0,0:0:0:0:
256,192,33963,1,8,0:0:0:0:
256,192,34114,1,8,0:0:0:0:
256,304,34266,5,4,0:0:0:0:
256,192,34417,1,8,0:0:0:0:
256,192,34569,1,8,0:0:0:0:
256,72,34720,1,0,0:0:0:0:
256,72,35024,1,0,0:0:0:0:
256,192,35175,1,8,0:0:0:0:
256,304,35478,5,4,0:0:0:0:
256,192,35781,1,8,0:0:0:0:
256,72,35933,1,0,0:0:0:0:
256,192,36084,1,8,0:0:0:0:
256,72,36236,1,0,0:0:0:0:
256,192,36387,1,8,0:0:0:0:
256,192,36539,1,8,0:0:0:0:
256,304,36690,5,4,0:0:0:0:
256,192,36993,1,8,0:0:0:0:
256,72,37145,1,0,0:0:0:0:
256,192,37296,1,8,0:0:0:0:
256,72,37448,1,0,0:0:0:0:
256,192,37599,1,8,0:0:0:0:
256,304,37751,5,12,0:0:0:0:
256,72,38054,1,0,0:0:0:0:
256,192,38205,1,8,0:0:0:0:
256,72,38357,1,0,0:0:0:0:
256,192,38508,1,8,0:0:0:0:
256,72,38660,1,0,0:0:0:0:
256,192,38811,1,8,0:0:0:0:
256,72,38963,1,0,0:0:0:0:
256,192,39114,1,8,0:0:0:0:
256,72,39266,1,0,0:0:0:0:
256,192,39417,5,8,0:0:0:0:
256,72,39569,1,0,0:0:0:0:
256,192,39720,1,8,0:0:0:0:
256,72,39872,1,0,0:0:0:0:
256,192,40023,1,8,0:0:0:0:
256,72,40175,1,0,0:0:0:0:
256,72,40251,1,0,0:0:0:0:
256,304,40326,5,12,0:0:0:0:
384,192,40478,1,8,0:0:0:0:
384,192,40630,1,8,0:0:0:0:
384,72,40781,1,0,0:0:0:0:
384,72,40933,1,0,0:0:0:0:
384,72,41084,1,0,0:0:0:0:
384,192,41236,1,8,0:0:0:0:
384,72,41387,1,0,0:0:0:0:
384,304,41539,5,4,0:0:0:0:
384,72,41690,1,0,0:0:0:0:
384,192,41842,1,8,0:0:0:0:
384,72,41993,1,0,0:0:0:0:
384,72,42145,1,0,0:0:0:0:
384,72,42296,1,0,0:0:0:0:
384,192,42448,1,8,0:0:0:0:
384,72,42599,1,0,0:0:0:0:
384,304,42751,5,4,0:0:0:0:
384,72,42902,1,0,0:0:0:0:
384,192,43054,1,8,0:0:0:0:
384,72,43205,1,0,0:0:0:0:
384,72,43357,1,0,0:0:0:0:
384,72,43508,1,0,0:0:0:0:
384,192,43660,1,8,0:0:0:0:
384,72,43811,1,0,0:0:0:0:
384,304,43963,5,4,0:0:0:0:
384,72,44114,1,0,0:0:0:0:
384,192,44266,1,8,0:0:0:0:
384,72,44417,1,0,0:0:0:0:
384,72,44569,1,0,0:0:0:0:
384,72,44720,1,0,0:0:0:0:
384,192,44872,1,8,0:0:0:0:
384,72,45024,1,0,0:0:0:0:
384,304,45175,5,4,0:0:0:0:
384,72,45327,1,0,0:0:0:0:
384,192,45478,1,8,0:0:0:0:
384,72,45630,1,0,0:0:0:0:
384,72,45781,1,0,0:0:0:0:
384,72,45932,1,0,0:0:0:0:
384,192,46084,1,8,0:0:0:0:
384,72,46236,1,0,0:0:0:0:
384,304,46387,5,4,0:0:0:0:
384,72,46539,1,0,0:0:0:0:
384,192,46690,1,8,0:0:0:0:
384,72,46842,1,0,0:0:0:0:
384,72,46993,1,0,0:0:0:0:
384,72,47144,1,0,0:0:0:0:
384,192,47296,1,8,0:0:0:0:
384,72,47448,1,0,0:0:0:0:
384,304,47599,5,4,0:0:0:0:
384,72,47751,1,0,0:0:0:0:
384,192,47902,1,8,0:0:0:0:
384,72,48054,1,8,0:0:0:0:
384,72,48205,1,0,0:0:0:0:
384,72,48356,1,0,0:0:0:0:
384,192,48508,1,8,0:0:0:0:
384,72,48660,1,8,0:0:0:0:
384,304,48811,5,4,0:0:0:0:
384,72,48963,1,0,0:0:0:0:
384,192,49114,1,8,0:0:0:0:
384,72,49266,1,0,0:0:0:0:
384,192,49417,1,8,0:0:0:0:
384,72,49568,1,0,0:0:0:0:
384,192,49720,1,8,0:0:0:0:
384,72,49872,1,0,0:0:0:0:
384,304,50024,5,12,0:0:0:0:
384,72,50175,1,0,0:0:0:0:
384,192,50327,1,8,0:0:0:0:
384,192,50478,1,8,0:0:0:0:
384,72,50630,1,0,0:0:0:0:
384,72,50781,1,0,0:0:0:0:
384,192,50933,1,8,0:0:0:0:
384,192,51084,1,8,0:0:0:0:
384,304,51236,5,4,0:0:0:0:
384,72,51387,1,0,0:0:0:0:
384,192,51539,1,8,0:0:0:0:
384,72,51690,1,0,0:0:0:0:
384,72,51766,1,0,0:0:0:0:
384,72,51842,1,0,0:0:0:0:
384,72,51993,1,0,0:0:0:0:
384,192,52145,1,8,0:0:0:0:
384,192,52296,1,8,0:0:0:0:
384,304,52448,5,4,0:0:0:0:
384,72,52599,1,0,0:0:0:0:
384,192,52751,1,8,0:0:0:0:
384,192,52902,1,8,0:0:0:0:
384,72,53054,1,0,0:0:0:0:
384,72,53205,1,0,0:0:0:0:
384,192,53357,1,8,0:0:0:0:
384,192,53508,1,8,0:0:0:0:
384,304,53660,5,4,0:0:0:0:
384,72,53811,1,0,0:0:0:0:
384,192,53963,1,8,0:0:0:0:
384,192,54114,1,8,0:0:0:0:
384,72,54266,1,0,0:0:0:0:
384,72,54417,1,0,0:0:0:0:
384,192,54569,1,8,0:0:0:0:
384,72,54720,1,0,0:0:0:0:
384,304,54872,5,4,0:0:0:0:
384,72,55024,1,0,0:0:0:0:
384,192,55175,1,8,0:0:0:0:
384,72,55327,1,0,0:0:0:0:
384,72,55402,1,0,0:0:0:0:
384,72,55478,1,0,0:0:0:0:
384,72,55629,1,0,0:0:0:0:
384,192,55781,1,8,0:0:0:0:
384,192,55933,1,8,0:0:0:0:
384,304,56084,5,4,0:0:0:0:
384,72,56236,1,0,0:0:0:0:
384,192,56387,1,8,0:0:0:0:
384,72,56539,1,0,0:0:0:0:
384,72,56614,1,0,0:0:0:0:
384,72,56690,1,0,0:0:0:0:
384,72,56841,1,0,0:0:0:0:
384,192,56993,1,8,0:0:0:0:
384,192,57145,1,8,0:0:0:0:
128,304,57296,5,12,0:0:0:0:
128,192,57599,1,8,0:0:0:0:
128,72,57902,1,0,0:0:0:0:
128,72,58054,1,0,0:0:0:0:
128,192,58205,1,8,0:0:0:0:
128,304,58357,5,12,0:0:0:0:
128,72,58660,1,0,0:0:0:0:
128,192,58811,1,8,0:0:0:0:
128,72,58963,1,0,0:0:0:0:
128,192,59114,1,8,0:0:0:0:
128,72,59266,1,0,0:0:0:0:
128,192,59417,1,8,0:0:0:0:
128,192,59569,1,8,0:0:0:0:
128,304,59720,5,4,0:0:0:0:
128,72,59872,1,0,0:0:0:0:
128,192,60024,1,8,0:0:0:0:
128,304,60175,1,4,0:0:0:0:
128,72,60478,1,0,0:0:0:0:
128,192,60630,1,8,0:0:0:0:
128,304,60781,5,4,0:0:0:0:
128,192,61084,1,8,0:0:0:0:
128,72,61160,1,0,0:0:0:0:
128,192,61236,1,8,0:0:0:0:
128,192,61387,1,8,0:0:0:0:
128,72,61539,1,0,0:0:0:0:
128,72,61690,1,0,0:0:0:0:
128,192,61842,1,8,0:0:0:0:
128,192,61993,1,8,0:0:0:0:
128,304,62145,5,4,0:0:0:0:
128,72,62296,1,0,0:0:0:0:
128,192,62448,1,8,0:0:0:0:
128,304,62599,1,4,0:0:0:0:
128,72,62902,1,0,0:0:0:0:
128,192,63054,1,8,0:0:0:0:
128,304,63205,5,4,0:0:0:0:
128,192,63508,1,8,0:0:0:0:
128,72,63584,1,0,0:0:0:0:
128,192,63660,1,8,0:0:0:0:
128,72,63811,1,0,0:0:0:0:
128,72,63963,1,0,0:0:0:0:
128,72,64114,1,0,0:0:0:0:
128,192,64266,1,8,0:0:0:0:
128,192,64417,1,8,0:0:0:0:
128,304,64569,5,4,0:0:0:0:
128,72,64720,1,0,0:0:0:0:
128,192,64872,1,8,0:0:0:0:
128,304,65024,1,4,0:0:0:0:
128,72,65327,1,0,0:0:0:0:
128,192,65478,1,8,0:0:0:0:
128,304,65630,5,4,0:0:0:0:
128,192,65933,1,8,0:0:0:0:
128,72,66008,1,0,0:0:0:0:
128,192,66084,1,8,0:0:0:0:
128,72,66236,1,0,0:0:0:0:
128,192,66387,1,8,0:0:0:0:
128,192,66488,1,8,0:0:0:0:
128,192,66589,1,8,0:0:0:0:
128,304,66690,1,4,0:0:0:0:
128,304,66993,5,4,0:0:0:0:
128,72,67145,1,0,0:0:0:0:
128,72,67296,1,0,0:0:0:0:
128,192,67448,1,8,0:0:0:0:
128,72,67599,1,0,0:0:0:0:
128,72,67750,1,0,0:0:0:0:
128,192,67902,1,8,0:0:0:0:
128,304,68054,5,4,0:0:0:0:
128,72,68660,1,4,0:0:0:0:
128,72,68736,1,4,0:0:0:0:
128,72,68811,1,4,0:0:0:0:
128,72,69039,1,0,0:0:0:0:
128,72,69266,1,0,0:0:0:0:
256,304,69417,5,12,0:0:0:0:
256,192,69720,1,8,0:0:0:0:
256,72,69872,1,0,0:0:0:0:
256,72,70024,1,0,0:0:0:0:
256,72,70175,1,0,0:0:0:0:
256,192,70327,1,8,0:0:0:0:
256,72,70478,1,0,0:0:0:0:
256,304,70630,5,4,0:0:0:0:
256,72,70781,1,0,0:0:0:0:
256,192,70933,1,8,0:0:0:0:
256,192,71084,1,8,0:0:0:0:
256,72,71236,1,0,0:0:0:0:
256,72,71387,1,0,0:0:0:0:
256,192,71463,1,8,0:0:0:0:
256,192,71539,1,8,0:0:0:0:
256,192,71690,1,8,0:0:0:0:
256,304,71842,5,4,0:0:0:0:
256,72,71993,1,0,0:0:0:0:
256,72,72069,1,0,0:0:0:0:
256,192,72145,1,8,0:0:0:0:
256,192,72296,1,8,0:0:0:0:
256,72,72448,1,0,0:0:0:0:
256,72,72599,1,0,0:0:0:0:
256,72,72675,1,0,0:0:0:0:
256,192,72751,1,8,0:0:0:0:
256,192,72902,1,8,0:0:0:0:
256,304,73054,5,4,0:0:0:0:
256,72,73205,1,0,0:0:0:0:
256,192,73357,1,8,0:0:0:0:
256,72,73508,1,0,0:0:0:0:
256,72,73660,1,0,0:0:0:0:
256,72,73811,1,0,0:0:0:0:
256,192,73963,1,8,0:0:0:0:
256,192,74114,1,8,0:0:0:0:
256,304,74266,5,4,0:0:0:0:
256,72,74417,1,0,0:0:0:0:
256,192,74569,1,8,0:0:0:0:
256,72,74872,1,0,0:0:0:0:
256,72,75024,1,0,0:0:0:0:
256,192,75175,1,8,0:0:0:0:
256,72,75327,1,0,0:0:0:0:
256,304,75478,5,4,0:0:0:0:
256,72,75630,1,0,0:0:0:0:
256,192,75781,1,8,0:0:0:0:
256,72,75933,1,0,0:0:0:0:
256,72,76084,1,0,0:0:0:0:
256,72,76236,1,0,0:0:0:0:
256,192,76387,1,8,0:0:0:0:
256,304,76690,5,4,0:0:0:0:
256,72,76842,1,0,0:0:0:0:
256,192,76993,1,8,0:0:0:0:
256,192,77145,1,8,0:0:0:0:
256,72,77296,1,0,0:0:0:0:
256,72,77448,1,0,0:0:0:0:
256,192,77599,1,8,0:0:0:0:
256,304,77751,5,4,0:0:0:0:
256,72,78054,1,0,0:0:0:0:
256,192,78205,1,8,0:0:0:0:
256,72,78357,1,0,0:0:0:0:
256,72,78508,1,8,0:0:0:0:
256,72,78660,1,0,0:0:0:0:
256,192,78736,1,8,0:0:0:0:
256,192,78811,1,8,0:0:0:0:
256,192,78963,1,8,0:0:0:0:
256,304,79114,5,12,0:0:0:0:
256,72,79266,1,0,0:0:0:0:
256,192,79417,1,8,0:0:0:0:
256,72,79569,1,0,0:0:0:0:
256,72,79720,1,0,0:0:0:0:
256,72,79872,1,0,0:0:0:0:
256,192,79948,1,8,0:0:0:0:
256,192,80024,1,8,0:0:0:0:
256,192,80175,1,8,0:0:0:0:
256,304,80327,5,4,0:0:0:0:
256,72,80478,1,0,0:0:0:0:
256,192,80630,1,8,0:0:0:0:
256,192,80781,1,8,0:0:0:0:
256,72,80933,1,0,0:0:0:0:
256,72,81084,1,0,0:0:0:0:
256,192,81160,1,8,0:0:0:0:
256,192,81236,1,8,0:0:0:0:
256,192,81387,1,8,0:0:0:0:
256,304,81539,5,4,0:0:0:0:
256,72,81690,1,0,0:0:0:0:
256,72,81766,1,0,0:0:0:0:
256,192,81842,1,8,0:0:0:0:
256,192,81993,1,8,0:0:0:0:
256,72,82145,1,0,0:0:0:0:
256,72,82296,1,0,0:0:0:0:
256,72,82372,1,0,0:0:0:0:
256,192,82448,1,8,0:0:0:0:
256,192,82599,1,8,0:0:0:0:
256,304,82751,5,4,0:0:0:0:
256,72,82902,1,0,0:0:0:0:
256,192,83054,1,8,0:0:0:0:
256,72,83205,1,0,0:0:0:0:
256,72,83357,1,0,0:0:0:0:
256,72,83508,1,0,0:0:0:0:
256,192,83660,1,8,0:0:0:0:
256,192,83811,1,8,0:0:0:0:
256,304,83963,5,4,0:0:0:0:
256,72,84114,1,0,0:0:0:0:
256,192,84266,1,8,0:0:0:0:
256,304,84569,1,4,0:0:0:0:
256,72,84720,1,0,0:0:0:0:
256,192,84872,1,8,0:0:0:0:
256,72,85024,1,0,0:0:0:0:
256,304,85175,5,12,0:0:0:0:
256,192,85327,1,8,0:0:0:0:
256,192,85478,1,8,0:0:0:0:
256,192,85554,1,8,0:0:0:0:
256,192,85630,1,8,0:0:0:0:
256,192,85705,1,8,0:0:0:0:
256,192,85781,1,8,0:0:0:0:
256,192,85857,1,8,0:0:0:0:
256,192,85933,1,8,0:0:0:0:
256,192,86008,1,8,0:0:0:0:
256,192,86084,1,8,0:0:0:0:
256,192,86160,1,8,0:0:0:0:
256,192,86236,1,8,0:0:0:0:
256,192,86311,1,8,0:0:0:0:
256,304,86387,5,12,0:0:0:0:
256,192,86690,1,8,0:0:0:0:
256,72,86842,1,0,0:0:0:0:
256,72,86993,1,0,0:0:0:0:
256,72,87145,1,0,0:0:0:0:
256,192,87220,1,8,0:0:0:0:
256,192,87296,1,8,0:0:0:0:
256,192,87448,1,8,0:0:0:0:
256,304,87599,5,4,0:0:0:0:
256,72,87751,1,0,0:0:0:0:
256,192,87902,1,8,0:0:0:0:
256,192,88054,1,8,0:0:0:0:
256,72,88205,1,0,0:0:0:0:
256,72,88357,1,0,0:0:0:0:
256,192,88433,1,8,0:0:0:0:
256,192,88508,1,8,0:0:0:0:
256,192,88660,1,8,0:0:0:0:
256,304,88811,5,4,0:0:0:0:
256,72,88963,1,0,0:0:0:0:
256,72,89039,1,0,0:0:0:0:
256,192,89114,1,8,0:0:0:0:
256,192,89266,1,8,0:0:0:0:
256,72,89417,1,0,0:0:0:0:
256,72,89569,1,0,0:0:0:0:
256,72,89645,1,0,0:0:0:0:
256,192,89720,1,8,0:0:0:0:
256,192,89872,1,8,0:0:0:0:
256,304,90024,5,4,0:0:0:0:
256,72,90175,1,0,0:0:0:0:
256,192,90327,1,8,0:0:0:0:
256,72,90478,1,0,0:0:0:0:
256,72,90630,1,0,0:0:0:0:
256,72,90781,1,0,0:0:0:0:
256,192,90933,1,8,0:0:0:0:
256,192,91084,1,8,0:0:0:0:
256,304,91236,5,4,0:0:0:0:
256,72,91387,1,0,0:0:0:0:
256,192,91539,1,8,0:0:0:0:
256,72,91842,1,0,0:0:0:0:
256,72,91993,1,0,0:0:0:0:
256,192,92145,1,8,0:0:0:0:
256,72,92296,1,0,0:0:0:0:
256,304,92448,5,4,0:0:0:0:
256,72,92599,1,0,0:0:0:0:
256,192,92751,1,8,0:0:0:0:
256,72,92902,1,0,0:0:0:0:
256,72,93054,1,0,0:0:0:0:
256,72,93205,1,0,0:0:0:0:
256,192,93357,1,8,0:0:0:0:
256,304,93660,5,4,0:0:0:0:
256,72,93811,1,0,0:0:0:0:
256,192,93963,1,8,0:0:0:0:
256,192,94114,1,8,0:0:0:0:
256,72,94266,1,0,0:0:0:0:
256,72,94417,1,0,0:0:0:0:
256,192,94569,1,8,0:0:0:0:
256,304,94720,5,4,0:0:0:0:
256,72,95024,1,0,0:0:0:0:
256,192,95175,1,8,0:0:0:0:
256,72,95327,1,0,0:0:0:0:
256,72,95478,1,0,0:0:0:0:
256,192,95630,1,8,0:0:0:0:
256,72,95705,1,0,0:0:0:0:
256,192,95781,1,8,0:0:0:0:
256,192,95933,1,8,0:0:0:0:
256,72,96008,1,0,0:0:0:0:
256,304,96084,5,12,0:0:0:0:
256,72,96236,1,0,0:0:0:0:
256,192,96387,1,8,0:0:0:0:
256,72,96539,1,0,0:0:0:0:
256,192,96690,1,8,0:0:0:0:
256,72,96842,1,0,0:0:0:0:
256,192,96993,1,8,0:0:0:0:
256,72,97145,1,0,0:0:0:0:
256,72,97220,1,0,0:0:0:0:
256,192,97296,5,8,0:0:0:0:
256,72,97448,1,0,0:0:0:0:
256,192,97599,1,8,0:0:0:0:
256,72,97751,1,0,0:0:0:0:
256,192,97902,1,8,0:0:0:0:
256,72,98054,1,0,0:0:0:0:
256,192,98205,1,8,0:0:0:0:
256,72,98357,1,0,0:0:0:0:
256,72,98433,1,0,0:0:0:0:
256,192,98508,5,8,0:0:0:0:
256,72,98660,1,0,0:0:0:0:
256,192,98811,1,8,0:0:0:0:
256,72,98963,1,0,0:0:0:0:
256,192,99114,1,8,0:0:0:0:
256,72,99266,1,0,0:0:0:0:
256,192,99417,1,8,0:0:0:0:
256,72,99569,1,0,0:0:0:0:
256,72,99645,1,0,0:0:0:0:
256,192,99720,5,8,0:0:0:0:
256,72,99872,1,0,0:0:0:0:
256,192,100024,1,8,0:0:0:0:
256,72,100175,1,0,0:0:0:0:
256,192,100327,1,8,0:0:0:0:
256,72,100478,1,0,0:0:0:0:
256,192,100630,1,8,0:0:0:0:
256,72,100781,1,0,0:0:0:0:
256,72,100857,1,0,0:0:0:0:
256,192,100933,5,8,0:0:0:0:
256,192,101084,1,8,0:0:0:0:
256,192,101236,1,8,0:0:0:0:
256,192,101311,1,8,0:0:0:0:
256,192,101387,1,8,0:0:0:0:
256,192,101463,1,8,0:0:0:0:
256,192,101539,1,8,0:0:0:0:
256,192,101614,1,8,0:0:0:0:
256,192,101690,1,8,0:0:0:0:
256,192,101766,1,8,0:0:0:0:
256,192,101842,1,8,0:0:0:0:
256,192,101917,1,8,0:0:0:0:
256,192,101993,1,8,0:0:0:0:
256,192,102069,1,8,0:0:0:0:
256,192,102145,5,8,0:0:0:0:
256,192,102246,1,8,0:0:0:0:
256,192,102347,1,8,0:0:0:0:
256,192,102448,1,8,0:0:0:0:
256,192,102549,1,8,0:0:0:0:
256,192,102650,1,8,0:0:0:0:
256,192,102751,1,4,0:0:0:0:
256,312,103205,5,12,0:0:0:0:
