osu file format v14

[General]
AudioFilename: audio.mp3
AudioLeadIn: 0
PreviewTime: 68584
Countdown: 0
SampleSet: Soft
StackLeniency: 0.5
Mode: 1
LetterboxInBreaks: 0
EpilepsyWarning: 1
WidescreenStoryboard: 1

[Editor]
DistanceSpacing: 1.3
BeatDivisor: 4
GridSize: 8
TimelineZoom: 1.399999

[Metadata]
Title:Kaze ga Fuku Machi (TV Size)
TitleUnicode:風が吹く街
Artist:Luck Life
ArtistUnicode:ラックライフ
Creator:Yahuri
Version:Itami
Source:文豪ストレイドッグス
Tags:bungo bungou stray dogs dazai osamu atsushi nakajima chuuya chuya nakahara
BeatmapID:1219205
BeatmapSetID:537572

[Difficulty]
HPDrainRate:5
CircleSize:2
OverallDifficulty:3
ApproachRate:6
SliderMultiplier:1
SliderTickRate:1

[Events]
//Background and Video events
0,0,"itami.png",0,0
//Break Periods
//Storyboard Layer 0 (Background)
//Storyboard Layer 1 (Fail)
//Storyboard Layer 2 (Pass)
//Storyboard Layer 3 (Foreground)
//Storyboard Sound Samples

[TimingPoints]
19721,303.030303030303,4,2,0,100,1,0
20099,-100,4,2,0,50,0,0
20933,-100,4,2,0,80,0,0
21387,-100,4,2,0,50,0,0
28054,-100,4,2,0,60,0,0
30630,-100,4,2,0,70,0,0
68660,-100,4,2,0,50,0,0
69417,-100,4,2,0,80,0,1
85478,-100,4,2,0,50,0,1
85781,-100,4,2,0,60,0,1
86084,-100,4,2,0,70,0,1
86387,-100,4,2,0,80,0,1
101236,-100,4,2,0,50,0,1
101539,-100,4,2,0,60,0,1
101842,-100,4,2,0,70,0,1
102145,-100,4,2,0,80,0,1
102751,-100,4,2,0,50,0,0
103130,-100,4,2,0,5,0,0
103205,-100,4,2,0,50,0,0
103357,-100,4,2,0,40,0,0
104569,-100,4,2,0,30,0,0
105781,-100,4,2,0,20,0,0
106993,-100,4,2,0,10,0,0
108205,-100,4,2,0,5,0,0

[Colours]
Combo1 : 148,148,148
Combo2 : 159,111,98
Combo3 : 218,194,152
Combo4 : 254,29,3
Combo5 : 223,72,240
Combo6 : 120,240,254
Combo7 : 239,245,109
Combo8 : 212,212,212

[HitObjects]
256,192,20933,5,12,0:0:0:0:
256,192,21236,1,12,0:0:0:0:
256,192,22145,5,8,0:0:0:0:
256,192,23357,5,8,0:0:0:0:
256,192,24569,5,8,0:0:0:0:
256,192,25781,5,8,0:0:0:0:
256,192,26993,5,8,0:0:0:0:
256,72,28205,5,4,0:0:0:0:
256,304,28660,1,4,0:0:0:0:
256,72,29114,1,8,0:0:0:0:
256,304,29417,1,4,0:0:0:0:
256,304,29720,1,4,0:0:0:0:
256,304,30630,5,12,0:0:0:0:
256,192,30933,1,8,0:0:0:0:
256,192,31539,1,8,0:0:0:0:
256,304,31842,5,4,0:0:0:0:
256,192,32145,1,8,0:0:0:0:
256,192,32751,1,8,0:0:0:0:
256,304,33054,5,4,0:0:0:0:
256,192,33357,1,8,0:0:0:0:
256,192,33963,1,8,0:0:0:0:
256,304,34266,5,4,0:0:0:0:
256,192,34569,1,8,0:0:0:0:
256,192,35175,1,8,0:0:0:0:
256,304,35478,5,4,0:0:0:0:
256,192,35781,1,8,0:0:0:0:
256,192,36387,1,8,0:0:0:0:
256,304,36690,5,4,0:0:0:0:
256,72,37296,1,0,0:0:0:0:
256,304,37751,5,12,0:0:0:0:
256,192,38205,1,8,0:0:0:0:
256,192,38508,1,8,0:0:0:0:
256,72,38963,1,0,0:0:0:0:
256,192,39417,5,8,0:0:0:0:
256,192,39720,1,8,0:0:0:0:
256,192,40023,1,8,0:0:0:0:
256,304,40326,5,12,0:0:0:0:
384,72,40933,1,0,0:0:0:0:
384,304,41539,5,4,0:0:0:0:
384,72,42145,1,0,0:0:0:0:
384,192,42448,1,8,0:0:0:0:
384,304,42751,5,4,0:0:0:0:
384,72,43357,1,0,0:0:0:0:
384,304,43963,5,4,0:0:0:0:
384,72,44569,1,0,0:0:0:0:
384,304,45175,5,4,0:0:0:0:
384,192,45478,1,8,0:0:0:0:
384,192,46084,1,8,0:0:0:0:
384,304,46387,5,4,0:0:0:0:
384,192,46690,1,8,0:0:0:0:
384,192,47296,1,8,0:0:0:0:
384,304,47599,5,4,0:0:0:0:
384,192,47902,1,8,0:0:0:0:
384,192,48508,1,8,0:0:0:0:
384,304,48811,5,4,0:0:0:0:
384,192,49114,1,8,0:0:0:0:
384,192,49720,1,8,0:0:0:0:
384,304,50024,5,12,0:0:0:0:
384,72,50630,1,0,0:0:0:0:
384,304,51236,5,4,0:0:0:0:
384,72,51842,1,0,0:0:0:0:
384,192,52145,1,8,0:0:0:0:
384,304,52448,5,4,0:0:0:0:
384,72,53054,1,0,0:0:0:0:
384,304,53660,5,4,0:0:0:0:
384,72,54266,1,0,0:0:0:0:
384,192,54569,1,8,0:0:0:0:
384,304,54872,5,4,0:0:0:0:
384,72,55478,1,0,0:0:0:0:
384,192,55781,1,8,0:0:0:0:
384,304,56084,5,4,0:0:0:0:
384,72,56690,1,0,0:0:0:0:
128,304,57296,5,12,0:0:0:0:
128,192,57599,1,8,0:0:0:0:
128,72,57902,1,0,0:0:0:0:
128,304,58357,5,12,0:0:0:0:
128,192,58811,1,8,0:0:0:0:
128,192,59114,1,8,0:0:0:0:
128,192,59417,1,8,0:0:0:0:
128,304,59720,5,4,0:0:0:0:
128,304,60175,1,4,0:0:0:0:
128,304,60781,5,4,0:0:0:0:
128,192,61236,1,8,0:0:0:0:
128,192,61842,1,8,0:0:0:0:
128,304,62145,5,4,0:0:0:0:
128,304,62599,1,4,0:0:0:0:
128,304,63205,5,4,0:0:0:0:
128,192,63660,1,8,0:0:0:0:
128,192,64266,1,8,0:0:0:0:
128,304,64569,5,4,0:0:0:0:
128,304,65024,1,4,0:0:0:0:
128,304,65630,5,4,0:0:0:0:
128,192,66084,1,8,0:0:0:0:
128,192,66387,1,8,0:0:0:0:
128,304,66690,1,4,0:0:0:0:
128,304,66993,5,4,0:0:0:0:
128,192,67448,1,8,0:0:0:0:
128,304,68054,5,4,0:0:0:0:
128,72,68811,1,4,0:0:0:0:
256,304,69417,5,12,0:0:0:0:
256,72,70024,1,0,0:0:0:0:
256,192,70327,1,8,0:0:0:0:
256,304,70630,5,4,0:0:0:0:
256,72,71236,1,0,0:0:0:0:
256,192,71539,1,8,0:0:0:0:
256,304,71842,5,4,0:0:0:0:
256,72,72448,1,0,0:0:0:0:
256,304,73054,5,4,0:0:0:0:
256,72,73660,1,0,0:0:0:0:
256,304,74266,5,4,0:0:0:0:
256,192,74569,1,8,0:0:0:0:
256,72,74872,1,0,0:0:0:0:
256,304,75478,5,4,0:0:0:0:
256,192,75781,1,8,0:0:0:0:
256,72,76084,1,0,0:0:0:0:
256,304,76690,5,4,0:0:0:0:
256,192,76993,1,8,0:0:0:0:
256,72,77296,1,0,0:0:0:0:
256,304,77751,5,4,0:0:0:0:
256,192,78205,1,8,0:0:0:0:
256,72,78508,1,0,0:0:0:0:
256,192,78811,1,8,0:0:0:0:
256,304,79114,5,12,0:0:0:0:
256,72,79720,1,0,0:0:0:0:
256,192,80024,1,8,0:0:0:0:
256,304,80327,5,4,0:0:0:0:
256,72,80933,1,0,0:0:0:0:
256,192,81236,1,8,0:0:0:0:
256,304,81539,5,4,0:0:0:0:
256,72,82145,1,0,0:0:0:0:
256,304,82751,5,4,0:0:0:0:
256,72,83357,1,0,0:0:0:0:
256,304,83963,5,4,0:0:0:0:
256,192,84266,1,8,0:0:0:0:
256,304,84569,1,4,0:0:0:0:
256,192,84872,1,8,0:0:0:0:
256,304,85175,5,12,0:0:0:0:
256,192,85781,1,8,0:0:0:0:
256,192,86084,1,8,0:0:0:0:
256,304,86387,5,12,0:0:0:0:
256,72,86993,1,0,0:0:0:0:
256,192,87296,1,8,0:0:0:0:
256,304,87599,5,4,0:0:0:0:
256,72,88205,1,0,0:0:0:0:
256,192,88508,1,8,0:0:0:0:
256,304,88811,5,4,0:0:0:0:
256,72,89417,1,0,0:0:0:0:
256,304,90024,5,4,0:0:0:0:
256,72,90630,1,0,0:0:0:0:
256,192,90933,1,8,0:0:0:0:
256,304,91236,5,4,0:0:0:0:
256,72,91842,1,0,0:0:0:0:
256,192,92145,1,8,0:0:0:0:
256,304,92448,5,4,0:0:0:0:
256,72,93054,1,0,0:0:0:0:
256,192,93357,1,8,0:0:0:0:
256,304,93660,5,4,0:0:0:0:
256,72,94266,1,0,0:0:0:0:
256,304,94720,5,4,0:0:0:0:
256,192,95175,1,8,0:0:0:0:
256,72,95478,1,0,0:0:0:0:
256,192,95781,1,8,0:0:0:0:
256,304,96084,5,12,0:0:0:0:
256,192,96690,1,8,0:0:0:0:
256,192,96993,1,8,0:0:0:0:
256,192,97296,5,8,0:0:0:0:
256,192,97902,1,8,0:0:0:0:
256,192,98205,1,8,0:0:0:0:
256,192,98508,5,8,0:0:0:0:
256,192,99114,1,8,0:0:0:0:
256,192,99417,1,8,0:0:0:0:
256,192,99720,5,8,0:0:0:0:
256,192,100327,1,8,0:0:0:0:
256,192,100630,1,8,0:0:0:0:
256,192,101236,1,8,0:0:0:0:
256,192,101539,1,8,0:0:0:0:
256,192,101842,1,8,0:0:0:0:
256,192,102145,5,8,0:0:0:0:
256,192,102751,1,4,0:0:0:0:
256,312,103205,5,12,0:0:0:0:
