osu file format v14

[General]
AudioFilename: audio.mp3
AudioLeadIn: 0
PreviewTime: 68655
Countdown: 0
SampleSet: Soft
StackLeniency: 0.5
Mode: 0
LetterboxInBreaks: 0
WidescreenStoryboard: 1

[Editor]
DistanceSpacing: 1.8
BeatDivisor: 4
GridSize: 32
TimelineZoom: 1.850001

[Metadata]
Title:Kaze ga Fuku Machi (TV Size)
TitleUnicode:風が吹く街 (TV Size)
Artist:Luck Life
ArtistUnicode:ラックライフ
Creator:Smoke
Version:Nachmark & Smoke's Hard
Source:文豪ストレイドッグス
Tags:rock jrock j-rock pop jpop j-pop japanese anime ending ed bungo bungou stray dogs Gabizon04 Nachmark -_Aqua Gouuh Asahina Oleshev melleganol Mizujin hausenberg season 2 two
BeatmapID:4008051
BeatmapSetID:1938781

[Difficulty]
HPDrainRate:4
CircleSize:3.4
OverallDifficulty:6.5
ApproachRate:8
SliderMultiplier:1.4
SliderTickRate:1

[Events]
//Background and Video events
0,0,"white.jpg",0,0
//Break Periods
2,21443,27350
//Storyboard Layer 0 (Background)
//Storyboard Layer 1 (Fail)
//Storyboard Layer 2 (Pass)
//Storyboard Layer 3 (Foreground)
//Storyboard Layer 4 (Overlay)
//Storyboard Sound Samples

[TimingPoints]
1553,303.030303030303,4,2,1,70,1,0
6401,301.507537688442,4,2,1,70,1,0
8813,303.030303030303,4,2,1,70,1,0
11229,-100,4,2,2,60,0,0
11237,303.030303030303,4,2,1,70,1,0
13358,309.278350515464,4,2,1,70,1,0
13667,304.568527918782,4,2,1,70,1,0
16103,292.682926829268,4,2,1,70,1,0
16395,306.122448979592,4,2,1,70,1,0
17313,301.507537688442,4,2,1,70,1,0
18519,297.029702970297,4,2,1,70,1,0
19558,304.568527918782,4,2,1,70,1,0
20319,310.880829015544,4,2,1,70,1,0
20940,303.030303030303,4,2,1,70,1,0
20940,-111.111111111111,4,2,1,80,0,0
21381,-111.111111111111,4,2,1,50,0,0
24576,300,4,2,1,70,1,0
25776,302.267002518892,4,2,1,70,1,0
26985,309.278350515464,4,2,1,50,1,0
26987,-125,4,2,1,50,0,0
28100,269.058295964126,4,2,1,70,1,0
28100,-125,4,2,1,70,0,0
28234,298.507462686567,4,2,1,70,1,0
28234,-100,4,2,1,70,0,0
29129,303.030303030303,4,2,1,70,1,0
29129,-125,4,2,1,70,0,0
29735,297.029702970297,4,2,1,70,1,0
29735,-125,4,2,1,70,0,0
30032,-125,4,2,1,60,0,0
30625,-100,4,2,1,80,0,0
30626,301.507537688442,4,2,1,80,1,0
30626,-100,4,2,1,80,0,0
31229,-100,4,2,1,80,0,0
31379,309.278350515464,4,2,1,80,1,0
31379,-100,4,2,1,80,0,0
31842,297.029702970297,4,2,1,80,1,0
31842,-100,4,2,1,80,0,0
32139,313.971742543171,4,2,1,80,1,0
32139,-100,4,2,1,80,0,0
33080,291.26213592233,4,2,1,80,1,0
33080,-100,4,2,1,80,0,0
33371,301.507537688442,4,2,1,80,1,0
33371,-100,4,2,1,80,0,0
33823,309.597523219814,4,2,1,80,1,0
33823,-100,4,2,1,80,0,0
34287,297.029702970297,4,2,1,80,1,0
34287,-100,4,2,1,80,0,0
34732,303.030303030303,4,2,1,80,1,0
34732,-100,4,2,1,80,0,0
35186,315.126050420168,4,2,1,80,1,0
35186,-100,4,2,1,80,0,0
35501,285.714285714286,4,2,1,80,1,0
35501,-100,4,2,1,80,0,0
35786,300,4,2,1,80,1,0
35786,-100,4,2,1,80,0,0
36386,-100,4,2,1,80,0,0
36686,304.723209751143,4,2,1,80,1,0
36686,-100,4,2,1,80,0,0
37752,320.855614973262,4,2,1,80,1,0
37752,-100,4,2,1,80,0,0
38072,298.507462686567,4,2,1,80,1,0
38072,-100,4,2,1,80,0,0
39116,304.568527918782,4,2,1,80,1,0
39116,-100,4,2,1,80,0,0
39725,307.692307692308,4,2,1,80,1,0
39725,-100,4,2,1,80,0,0
40340,303.030303030303,4,2,1,80,1,0
40340,-111.111111111111,4,2,1,60,0,0
41552,300.751879699248,4,2,1,80,1,0
41552,-111.111111111111,4,2,1,60,0,0
42679,-111.111111111111,4,2,1,5,0,0
42755,304.568527918782,4,2,1,80,1,0
42755,-111.111111111111,4,2,1,60,0,0
43973,303.030303030303,4,2,1,80,1,0
43973,-111.111111111111,4,2,1,60,0,0
45185,303.030303030303,4,2,1,80,1,0
45185,-111.111111111111,4,2,1,60,0,0
50024,-111.111111111111,4,2,1,65,0,0
54806,-111.111111111111,4,2,1,5,0,0
54881,-111.111111111111,4,2,1,65,0,0
57295,-105.263157894737,4,2,1,70,0,0
65336,300,4,2,1,80,1,0
65336,-105.263157894737,4,2,1,70,0,0
65936,314.13612565445,4,2,1,80,1,0
65936,-105.263157894737,4,2,1,70,0,0
66093,303.030303030303,4,2,1,80,1,0
66093,-105.263157894737,4,2,1,70,0,0
66396,280.373831775701,4,2,1,80,1,0
66396,-105.263157894737,4,2,1,70,0,0
66676,319.148936170213,4,2,1,80,1,0
66676,-105.263157894737,4,2,1,70,0,0
66996,303.030303030303,4,2,1,80,1,0
66996,-105.263157894737,4,2,1,70,0,0
68586,-105.263157894737,4,2,1,5,0,0
68662,-105.263157894737,4,2,1,70,0,0
68814,297.029702970297,4,2,1,80,1,0
68814,-105.263157894737,4,2,1,70,0,0
69408,306.122448979592,4,2,1,80,1,0
69408,-100,4,2,1,80,0,1
70632,303.030303030303,4,2,1,80,1,0
70632,-100,4,2,1,80,0,1
71541,294.117647058824,4,2,1,80,1,0
71541,-100,4,2,1,80,0,1
71835,303.030303030303,4,2,1,80,1,0
71835,-100,4,2,1,80,0,1
74259,303.030303030303,4,2,1,80,1,0
74259,-100,4,2,1,80,0,1
76683,304.568527918782,4,2,1,80,1,0
76683,-100,4,2,1,80,0,1
77748,303.030303030303,4,2,1,80,1,0
77748,-100,4,2,1,80,0,1
77899,303.030303030303,4,2,1,80,1,0
77899,-100,4,2,1,80,0,1
83959,306.122448979592,4,2,1,80,1,0
83959,-100,4,2,1,80,0,1
85183,303.030303030303,4,2,1,80,1,0
85183,-100,4,2,1,80,0,1
86395,303.030303030303,4,2,1,80,1,0
86395,-100,4,2,1,80,0,1
92379,-100,4,2,1,5,0,1
92455,-100,4,2,1,80,0,1
93591,-100,4,2,1,5,0,1
93667,-100,4,2,1,80,0,1
96091,301.507537688442,4,2,1,80,1,0
96091,-95.2380952380952,4,2,1,80,0,1
97297,303.030303030303,4,2,1,80,1,0
97297,-95.2380952380952,4,2,1,80,0,1
100933,303.030303030303,4,2,1,80,1,0
100933,-95.2380952380952,4,2,1,80,0,1
102145,297.029702970297,4,2,1,80,1,0
102145,-100,4,2,1,80,0,1
102739,307.692307692308,4,2,1,80,1,0
102739,-100,4,2,1,80,0,1
103200,303.030303030303,4,2,1,80,1,0
103200,-100,4,2,1,80,0,0
103351,303.030303030303,4,2,1,80,1,0
103351,-86.9565217391304,4,2,1,80,0,0
103654,-86.9565217391304,4,2,1,75,0,0
103957,-86.9565217391304,4,2,1,70,0,0
104260,-86.9565217391304,4,2,1,65,0,0
104563,-86.9565217391304,4,2,1,60,0,0
104866,-86.9565217391304,4,2,1,55,0,0
105169,-86.9565217391304,4,2,1,50,0,0
105472,-86.9565217391304,4,2,1,45,0,0
105775,-86.9565217391304,4,2,1,40,0,0
106078,-86.9565217391304,4,2,1,36,0,0
106381,-86.9565217391304,4,2,1,32,0,0
106684,-86.9565217391304,4,2,1,28,0,0
106987,-86.9565217391304,4,2,1,23,0,0
107290,-86.9565217391304,4,2,1,18,0,0
107593,-86.9565217391304,4,2,1,15,0,0
107896,-86.9565217391304,4,2,1,12,0,0
108199,-86.9565217391304,4,2,1,8,0,0
108502,-86.9565217391304,4,2,1,5,0,0

[Colours]
Combo1 : 149,220,69
Combo2 : 131,179,237
Combo3 : 45,139,255
Combo4 : 220,224,52

[HitObjects]
256,192,20940,5,6,3:1:0:0:
256,192,21091,1,6,3:2:0:0:
256,192,21243,1,6,3:2:0:0:
453,10,28100,5,0,3:2:0:0:
453,10,28167,1,0,3:2:0:0:
453,10,28234,2,0,P|414:32|416:132,1,140,14|0,0:0|0:0,0:0:0:0:
472,191,28681,2,0,P|489:235|434:332,1,140,8|0,3:3|3:2,0:0:0:0:
372,360,29129,2,0,P|363:305|353:243,1,112,8|0,0:0|3:2,0:0:0:0:
262,222,29583,1,8,0:0:0:0:
262,222,29735,1,0,3:2:0:0:
114,359,30032,6,0,L|8:334,2,84,2|2|2,0:0|0:0|0:0,0:0:0:0:
96,248,30626,6,0,P|124:185|193:157,1,140,6|8,3:1|0:0,0:0:0:0:
246,240,31078,2,0,P|282:233|337:224,1,70,0|2,3:2|0:0,0:0:0:0:
415,213,31379,1,0,3:2:0:0:
415,213,31533,2,0,P|415:170|393:140,1,70,8|2,0:0|0:0,0:0:0:0:
442,57,31842,6,0,P|413:26|302:24,1,140,6|8,3:2|0:0,0:0:0:0:
251,84,32296,2,0,P|210:71|176:64,1,70,0|2,3:2|0:0,0:0:0:0:
108,10,32610,1,0,3:2:0:0:
108,10,32767,2,0,P|73:63|105:124,1,105,8|0,0:0|0:0,0:0:0:0:
40,128,33080,6,0,P|30:183|20:266,1,140,6|10,3:2|0:0,0:0:0:0:
111,302,33521,2,0,L|123:385,1,70,2|0,3:2|0:0,0:0:0:0:
217,354,33823,2,0,L|206:284,1,70,2|8,3:2|0:0,0:0:0:0:
253,200,34132,1,2,0:0:0:0:
253,200,34287,6,0,P|329:205|407:210,1,140,4|10,3:2|0:0,0:0:0:0:
480,159,34732,2,0,P|490:231|499:300,1,140,2|2,3:2|3:2,0:0:0:0:
410,348,35186,2,0,P|403:285|391:198,1,140,10|6,0:0|3:2,0:0:0:0:
280,43,35786,6,0,P|271:77|266:111,1,70,10|0,0:0|3:2,0:0:0:0:
201,187,36086,2,0,P|166:195|114:170,1,70,2|0,0:0|3:2,0:0:0:0:
54,124,36386,2,0,P|52:46|88:-4,1,140,10|6,0:0|3:2,0:0:0:0:
265,111,36990,1,10,0:0:0:0:
201,187,37143,1,0,3:2:0:0:
201,187,37295,2,0,P|194:226|189:261,1,70,2|0,0:0|3:2,0:0:0:0:
99,302,37600,1,10,0:0:0:0:
197,384,37752,6,0,B|275:359|221:354|329:316,1,140,6|0,3:1|3:2,0:0:0:0:
419,365,38221,1,12,0:0:0:0:
419,365,38370,1,0,3:2:0:0:
444,263,38519,2,0,P|435:219|426:182,1,70,12|0,0:0|3:2,0:0:0:0:
461,100,38818,1,12,0:0:0:0:
461,100,38967,1,0,3:2:0:0:
375,45,39116,6,0,P|340:52|306:59,1,70,12|0,0:0|3:2,0:0:0:0:
200,14,39420,2,0,P|174:53|179:93,1,70,10|2,0:0|3:2,0:0:0:0:
114,153,39725,2,0,P|129:201|161:218,1,70,10|2,0:0|3:2,0:0:0:0:
175,304,40032,2,0,P|226:302|250:281,1,70,10|2,0:0|3:2,0:0:0:0:
284,267,40263,1,0,3:2:0:0:
284,267,40340,6,0,P|375:287|393:334,1,125.999996154785,6|8,3:1|0:0,0:0:0:0:
468,357,40794,1,2,0:0:0:0:
468,357,40946,2,0,P|477:308|483:279,1,62.9999980773926,2|0,3:2|3:2,0:0:0:0:
434,218,41249,2,0,P|445:169|452:135,1,62.9999980773926,10|0,0:0|0:0,0:0:0:0:
499,85,41552,6,0,P|456:48|372:57,1,125.999996154785,0|8,3:2|0:0,0:0:0:0:
273,181,42153,1,2,3:2:0:0:
273,181,42303,1,2,3:2:0:0:
201,116,42454,2,0,P|150:102|86:88,1,94.499997116089,10|0,0:0|0:0,0:0:0:0:
97,77,42755,6,0,P|181:96|238:110,1,125.999996154785,2|8,3:2|0:0,0:0:0:0:
298,61,43211,1,2,0:0:0:0:
298,61,43364,2,0,P|346:50|379:39,2,62.9999980773926,2|0|10,3:2|3:2|0:0,0:0:0:0:
128,11,43973,6,0,P|63:36|28:108,1,125.999996154785,0|8,3:2|0:0,0:0:0:0:
2,254,44579,2,0,P|38:260|77:271,1,62.9999980773926,0|0,3:2|3:2,0:0:0:0:
150,283,44882,2,0,P|182:265|202:230,1,62.9999980773926,8|2,0:0|3:2,0:0:0:0:
198,155,45185,6,0,P|220:202|305:227,1,125.999996154785,2|10,3:2|0:0,0:0:0:0:
368,274,45639,1,0,0:0:0:0:
368,274,45791,2,0,P|408:264|443:256,1,62.9999980773926,2|0,3:2|3:2,0:0:0:0:
447,345,46094,2,0,P|416:352|385:359,1,62.9999980773926,10|0,0:0|0:0,0:0:0:0:
283,332,46397,6,0,B|227:324|227:324|206:330|206:330|142:320,1,125.999996154785,2|10,3:2|0:0,0:0:0:0:
82,289,46851,1,0,0:0:0:0:
82,289,47003,2,0,P|70:246|62:220,1,62.9999980773926,2|0,3:2|3:2,0:0:0:0:
146,195,47306,2,0,P|136:165|128:134,1,62.9999980773926,10|0,0:0|0:0,0:0:0:0:
69,68,47609,6,0,B|34:64|34:64|6:83,2,62.9999980773926,2|2|10,3:2|0:0|0:0,0:0:0:0:
143,21,48063,1,2,0:0:0:0:
282,128,48366,6,0,B|259:112|259:112|224:116,1,62.9999980773926,2|10,3:2|0:0,0:0:0:0:
161,178,48669,1,2,0:0:0:0:
310,282,48972,5,2,3:2:0:0:
310,282,49124,2,0,L|314:209,1,62.9999980773926,10|2,0:0|3:2,0:0:0:0:
394,183,49427,2,0,L|390:120,1,62.9999980773926,2|2,3:2|3:2,0:0:0:0:
350,46,49730,1,10,0:0:0:0:
350,46,49881,1,2,0:0:0:0:
276,94,50033,6,0,P|225:103|162:31,1,125.999996154785,6|8,3:1|0:0,0:0:0:0:
89,90,50488,1,2,0:0:0:0:
89,90,50639,2,0,P|57:121|54:207,1,125.999996154785,2|8,3:2|0:0,0:0:0:0:
115,266,51094,1,2,0:0:0:0:
115,266,51245,2,0,P|188:251|249:234,1,125.999996154785,2|8,3:2|0:0,0:0:0:0:
331,225,51700,5,0,3:2:0:0:
331,225,51775,1,0,3:2:0:0:
331,225,51851,2,0,P|326:259|320:289,1,62.9999980773926,2|2,3:2|3:2,0:0:0:0:
395,334,52154,2,0,P|401:303|405:271,1,62.9999980773926,10|2,0:0|0:0,0:0:0:0:
471,213,52457,6,0,B|455:165|455:165|434:150|434:150|411:82,1,125.999996154785,6|8,3:2|0:0,0:0:0:0:
453,23,52912,1,0,3:2:0:0:
453,23,52988,1,0,3:2:0:0:
453,23,53063,2,0,B|391:5|391:5|338:59,1,125.999996154785,2|8,3:2|0:0,0:0:0:0:
306,124,53518,1,2,0:0:0:0:
306,124,53669,6,0,P|243:105|172:88,1,125.999996154785,6|8,3:2|0:0,0:0:0:0:
114,44,54124,1,2,0:0:0:0:
114,44,54275,2,0,P|98:86|108:120,1,62.9999980773926,2|0,3:2|3:2,0:0:0:0:
50,176,54578,2,0,P|65:219|123:249,1,94.499997116089,10|0,0:0|0:0,0:0:0:0:
121,286,54881,6,0,P|187:269|266:255,1,125.999996154785,4|8,3:2|0:0,0:0:0:0:
323,317,55336,1,0,3:2:0:0:
323,317,55412,1,0,3:2:0:0:
323,317,55488,2,0,P|370:309|400:303,1,62.9999980773926,2|0,3:2|3:2,0:0:0:0:
473,301,55791,2,0,P|465:259|458:228,1,62.9999980773926,10|2,0:0|0:0,0:0:0:0:
414,163,56094,6,0,P|452:114|513:109,2,125.999996154785,6|10|2,3:2|0:0|3:2,0:0:0:0:
336,194,56851,1,0,3:2:0:0:
336,194,56927,1,0,3:2:0:0:
336,194,57003,2,0,P|293:180|276:151,1,62.9999980773926,12|0,0:0|0:0,0:0:0:0:
263,75,57306,5,6,3:1:0:0:
85,17,57609,2,0,P|76:49|68:81,1,66.4999982242585,10|0,0:0|0:0,0:0:0:0:
43,199,57912,1,2,3:2:0:0:
43,199,58063,1,2,3:2:0:0:
126,156,58215,1,8,0:0:0:0:
199,211,58366,2,0,P|267:200|339:188,1,132.999996448517,6|0,3:1|3:2,0:0:0:0:
309,290,58821,2,0,P|264:296|221:302,1,66.4999982242585,10|0,0:0|3:2,0:0:0:0:
147,311,59124,6,0,P|109:284|100:254,1,66.4999982242585,10|0,0:0|3:2,0:0:0:0:
80,173,59427,1,10,0:0:0:0:
80,173,59578,1,10,0:0:0:0:
170,92,59730,6,0,P|179:40|186:10,2,66.4999982242585,6|2|8,3:2|3:2|0:0,0:0:0:0:
259,136,60185,2,0,L|333:121,1,66.4999982242585,6|0,3:2|0:0,0:0:0:0:
398,178,60488,2,0,L|384:243,1,66.4999982242585,2|8,3:2|0:0,0:0:0:0:
466,287,60791,1,6,3:2:0:0:
497,109,61094,5,2,3:2:0:0:
497,109,61169,1,2,0:0:0:0:
497,109,61245,2,0,P|446:97|407:90,1,66.4999982242585,10|2,0:0|0:0,0:0:0:0:
375,27,61548,1,2,3:2:0:0:
375,27,61700,1,2,3:2:0:0:
297,77,61851,1,10,0:0:0:0:
385,240,62154,6,0,P|431:221|463:209,2,66.4999982242585,6|0|10,3:2|3:2|0:0,0:0:0:0:
326,312,62609,2,0,P|287:297|260:289,1,66.4999982242585,6|0,3:2|0:0,0:0:0:0:
194,227,62912,2,0,P|155:242|128:250,1,66.4999982242585,2|8,3:2|0:0,0:0:0:0:
46,287,63215,1,6,3:2:0:0:
8,114,63518,5,2,3:2:0:0:
8,114,63594,1,2,0:0:0:0:
8,114,63669,2,0,P|-5:75|3:40,1,66.4999982242585,10|2,0:0|3:2,0:0:0:0:
84,9,63972,1,2,3:2:0:0:
84,9,64124,1,2,3:2:0:0:
165,54,64275,2,0,P|210:39|239:32,1,66.4999982242585,10|2,0:0|0:0,0:0:0:0:
321,94,64578,6,0,P|268:130|264:194,1,132.999996448517,6|10,3:2|0:0,0:0:0:0:
356,221,65033,2,0,P|395:242|408:267,1,66.4999982242585,6|0,3:2|0:0,0:0:0:0:
330,324,65336,2,0,P|299:350|262:351,1,66.4999982242585,2|8,3:2|0:0,0:0:0:0:
266,258,65636,2,0,P|257:221|275:180,1,66.4999982242585,6|0,3:2|0:0,0:0:0:0:
325,123,65936,5,2,3:2:0:0:
333,131,66014,1,2,0:0:0:0:
333,131,66093,2,0,L|314:44,1,66.4999982242585,10|2,0:0|0:0,0:0:0:0:
235,22,66396,2,0,L|181:10,2,44.3333321495057,10|8|8,0:0|0:0|0:0,0:0:0:0:
197,106,66676,1,2,3:2:0:0:
400,9,66996,6,0,P|408:41|416:73,1,66.4999982242585,14|0,0:0|3:2,0:0:0:0:
493,126,67299,1,2,3:2:0:0:
401,206,67450,6,0,P|392:238|384:270,1,66.4999982242585,14|0,0:0|3:2,0:0:0:0:
308,323,67753,1,2,3:2:0:0:
232,267,67905,5,8,0:0:0:0:
145,340,68056,2,0,P|129:245|104:105,1,232.749993784905,6|0,3:1|0:0,0:0:0:0:
145,79,68662,6,0,L|151:33,2,33.2499991121292,2|0|10,3:2|3:2|3:3,0:0:0:0:
145,79,69408,6,0,P|225:119|218:190,1,140,6|12,3:1|0:0,0:0:0:0:
150,215,69867,1,2,0:0:0:0:
150,215,70020,2,0,P|139:254|155:291,1,70,6|2,3:2|3:2,0:0:0:0:
230,334,70326,2,0,P|269:327|316:351,1,70,12|2,0:0|0:0,0:0:0:0:
406,377,70632,6,0,P|420:334|461:233,1,140,6|12,3:1|0:0,0:0:0:0:
400,164,71086,1,0,0:0:0:0:
478,104,71238,2,0,P|420:66|332:89,1,140,6|12,3:2|0:0,0:0:0:0:
263,114,71688,1,2,0:0:0:0:
312,211,71835,6,0,P|304:251|300:281,1,70,6|0,3:1|3:2,0:0:0:0:
316,376,72138,2,0,P|275:368|245:364,1,70,12|2,0:0|0:0,0:0:0:0:
185,295,72441,1,6,3:2:0:0:
185,295,72592,2,0,P|144:302|114:306,1,70,2|12,3:2|0:0,0:0:0:0:
44,373,72895,1,2,0:0:0:0:
0,266,73047,6,0,P|-1:232|61:136,1,140,6|12,3:1|0:0,0:0:0:0:
145,122,73501,1,2,0:0:0:0:
228,178,73653,2,0,P|280:164|302:131,1,70,6|0,3:2|3:2,0:0:0:0:
354,78,73956,2,0,P|326:57|291:53,1,70,14|0,0:2|0:0,0:0:0:0:
389,173,74259,6,0,P|462:180|517:235,1,140,4|14,3:1|0:0,0:0:0:0:
449,300,74713,1,0,0:0:0:0:
449,300,74865,2,0,P|406:317|363:327,1,70,6|0,3:2|3:2,0:0:0:0:
298,373,75168,2,0,P|264:361|232:349,1,70,14|0,0:0|0:0,0:0:0:0:
180,249,75471,5,6,3:1:0:0:
180,249,75622,1,0,3:2:0:0:
98,303,75774,1,14,0:0:0:0:
31,124,76077,1,6,3:2:0:0:
31,124,76228,1,0,3:2:0:0:
107,62,76380,2,0,P|144:63|189:85,1,70,14|0,0:0|0:0,0:0:0:0:
266,150,76683,6,0,P|289:104|380:78,1,140,6|14,3:1|0:0,0:0:0:0:
454,123,77139,1,0,0:0:0:0:
434,219,77292,2,0,P|426:254|418:297,1,70,6|0,3:2|3:2,0:0:0:0:
402,384,77596,1,10,0:0:0:0:
300,310,77748,6,0,P|247:296|162:282,1,140,6|2,3:1|3:2,0:0:0:0:
203,192,78202,2,0,P|258:183|294:177,1,70,14|0,0:0|0:0,0:0:0:0:
338,108,78505,2,0,P|388:120|462:136,2,105,6|2|2,3:2|0:0|0:0,0:0:0:0:
245,24,79111,6,0,B|163:10|183:64|80:41,1,140,6|12,3:1|0:0,0:0:0:0:
32,107,79565,1,2,0:0:0:0:
94,182,79717,2,0,P|97:216|79:245,1,70,6|2,3:2|3:2,0:0:0:0:
154,309,80020,2,0,P|182:280|211:277,1,70,12|2,0:0|0:0,0:0:0:0:
291,331,80323,6,0,P|311:252|335:170,1,140,6|12,3:1|0:0,0:0:0:0:
413,152,80777,1,0,0:0:0:0:
358,71,80929,2,0,P|320:51|255:67,2,105,6|2|2,3:2|0:0|0:0,0:0:0:0:
413,152,81535,6,0,P|432:221|447:287,1,140,6|12,3:1|0:0,0:0:0:0:
384,363,81989,1,2,0:0:0:0:
295,322,82141,2,0,B|233:336|270:361|185:380,2,105,6|2|2,3:2|0:0|0:0,0:0:0:0:
224,208,82747,6,0,B|176:200|176:200|159:177|159:177|88:166,1,140,6|12,3:1|0:0,0:0:0:0:
11,120,83202,1,2,0:0:0:0:
72,38,83353,2,0,P|111:42|153:47,1,70,6|0,3:2|3:2,0:0:0:0:
227,98,83656,2,0,P|251:52|333:15,1,140,14|4,0:2|3:1,0:0:0:0:
462,215,84265,6,0,P|421:206|393:182,1,70,14|0,0:0|0:0,0:0:0:0:
453,54,84571,2,0,P|467:93|459:129,1,70,6|0,3:2|3:2,0:0:0:0:
319,146,84877,2,0,P|348:113|382:102,1,70,14|0,0:0|3:2,0:0:0:0:
462,215,85183,5,14,0:0:0:0:
324,354,85486,2,0,L|289:349,3,35,12|8|8|8,0:0|0:0|0:0|0:0,0:0:0:0:
257,311,85789,2,0,L|223:316,3,35,14|8|8|10,0:0|0:0|0:0|0:0,0:0:0:0:
185,349,86092,2,0,L|150:343,3,35,12|8|10|8,0:0|0:0|0:0|0:0,0:0:0:0:
102,331,86395,6,0,P|77:286|113:180,1,140,6|12,3:1|0:0,0:0:0:0:
170,144,86849,1,2,0:0:0:0:
120,59,87001,2,0,P|158:52|211:45,1,70,6|0,3:2|0:0,0:0:0:0:
277,90,87304,2,0,P|314:94|368:104,1,70,12|2,0:0|0:0,0:0:0:0:
432,51,87607,6,0,B|457:115|457:115|417:173,1,140,6|12,3:1|0:0,0:0:0:0:
355,249,88061,1,0,0:0:0:0:
408,331,88213,2,0,P|461:338|526:346,2,105,6|2|2,3:2|0:0|0:0,0:0:0:0:
295,372,88819,6,0,P|225:371|165:337,1,140,6|12,3:1|0:0,0:0:0:0:
111,255,89273,1,2,0:0:0:0:
21,289,89425,1,6,3:2:0:0:
21,289,89576,2,0,P|10:245|1:201,1,70,0|12,3:2|0:0,0:0:0:0:
45,131,89879,1,2,0:0:0:0:
163,169,90031,6,0,B|249:197|204:217|294:243,1,140,6|12,3:1|0:0,0:0:0:0:
457,152,90637,2,0,P|460:120|465:82,1,70,6|0,3:2|3:2,0:0:0:0:
383,28,90940,2,0,P|327:2|238:20,1,140,14|4,0:2|3:1,0:0:0:0:
159,36,91395,1,0,3:2:0:0:
159,36,91546,6,0,P|170:85|178:125,1,70,14|0,0:0|0:0,0:0:0:0:
239,177,91849,2,0,L|255:248,1,70,6|0,3:2|3:2,0:0:0:0:
190,320,92152,2,0,P|241:329|304:343,1,105,14|0,0:0|0:0,0:0:0:0:
330,372,92455,6,0,P|364:368|392:348,1,70,6|0,3:1|3:2,0:0:0:0:
402,249,92758,2,0,P|370:220|360:172,1,70,14|0,0:0|0:0,0:0:0:0:
428,124,93061,1,6,3:2:0:0:
428,124,93213,1,0,3:2:0:0:
347,67,93364,2,0,P|296:63|227:103,1,105,14|0,0:0|0:0,0:0:0:0:
216,121,93667,6,0,P|217:155|240:180,1,70,4|0,3:1|3:2,0:0:0:0:
222,277,93970,2,0,P|189:289|169:317,1,70,14|0,0:0|0:0,0:0:0:0:
91,374,94273,1,6,3:2:0:0:
91,374,94425,1,2,3:2:0:0:
24,301,94576,1,12,0:0:0:0:
71,215,94728,6,0,B|129:198|129:198|143:183|143:183|227:158,1,140,6|0,3:1|3:2,0:0:0:0:
258,87,95182,2,0,L|337:109,1,70,14|0,0:0|0:0,0:0:0:0:
425,48,95485,2,0,P|434:98|401:161,2,105,6|2|2,3:2|0:0|3:2,0:0:0:0:
416,30,96016,1,0,3:2:0:0:
406,20,96091,6,0,P|351:4|310:-7,1,73.4999977569581,14|0,3:1|0:0,0:0:0:0:
243,46,96392,2,0,P|232:79|220:117,1,73.4999977569581,12|0,0:0|0:0,0:0:0:0:
161,201,96694,2,0,P|194:209|232:222,1,73.4999977569581,12|0,0:0|3:2,0:0:0:0:
334,222,96995,2,0,P|326:256|316:293,1,73.4999977569581,12|2,0:0|3:2,0:0:0:0:
312,309,97221,1,0,3:2:0:0:
309,323,97297,6,0,P|249:352|171:320,1,146.999995513916,14|12,3:1|0:0,0:0:0:0:
82,365,97751,1,0,0:0:0:0:
8,292,97903,2,0,P|17:248|27:204,1,73.4999977569581,12|0,0:0|3:2,0:0:0:0:
121,166,98206,2,0,P|114:135|105:90,1,73.4999977569581,12|2,0:0|3:2,0:0:0:0:
102,76,98433,1,0,3:2:0:0:
99,60,98509,6,0,P|137:36|191:40,1,73.4999977569581,14|0,3:1|0:0,0:0:0:0:
242,108,98812,1,12,0:0:0:0:
242,108,98963,1,2,0:0:0:0:
320,41,99115,2,0,P|354:46|396:73,1,73.4999977569581,12|0,0:0|3:2,0:0:0:0:
429,154,99418,2,0,P|424:195|441:237,1,73.4999977569581,12|2,0:0|3:2,0:0:0:0:
441,242,99645,1,0,3:2:0:0:
449,256,99721,6,0,P|390:252|307:285,1,146.999995513916,14|12,3:1|0:0,0:0:0:0:
124,368,100327,2,0,P|138:314|149:276,1,73.4999977569581,14|0,0:0|3:2,0:0:0:0:
162,195,100630,2,0,P|128:204|88:216,1,73.4999977569581,14|0,0:0|3:2,0:0:0:0:
74,219,100857,1,0,3:2:0:0:
57,225,100933,5,14,3:1:0:0:
249,368,101236,2,0,L|239:330,3,36.749998878479,14|8|8|8,0:0|0:0|0:0|0:0,0:0:0:0:
277,297,101539,2,0,L|286:258,3,36.749998878479,14|8|8|8,0:0|0:0|0:0|0:0,0:0:0:0:
254,221,101842,2,0,L|244:182,3,36.749998878479,14|8|8|8,0:0|0:0|0:0|0:0,0:0:0:0:
277,146,102145,6,0,L|334:158,2,46.6666666666667,6|8|8,3:1|0:0|0:0,0:0:0:0:
215,90,102442,2,0,L|158:102,2,46.6666666666667,10|8|8,0:0|0:0|0:0,0:0:0:0:
279,34,102739,1,14,3:2:0:0:
102,295,103200,5,14,3:1:0:0:
256,192,103351,12,0,108502,0:0:0:0:
