osu file format v14

[General]
AudioFilename: audio.mp3
AudioLeadIn: 0
PreviewTime: 68655
Countdown: 0
SampleSet: Soft
StackLeniency: 0.3
Mode: 0
LetterboxInBreaks: 0
WidescreenStoryboard: 1

[Editor]
DistanceSpacing: 0.2
BeatDivisor: 4
GridSize: 32
TimelineZoom: 2.1

[Metadata]
Title:Kaze ga Fuku Machi (TV Size)
TitleUnicode:風が吹く街 (TV Size)
Artist:Luck Life
ArtistUnicode:ラックライフ
Creator:Smoke
Version:Mizujin's Insane
Source:文豪ストレイドッグス
Tags:rock jrock j-rock pop jpop j-pop japanese anime ending ed bungo bungou stray dogs Gabizon04 Nachmark -_Aqua Gouuh Asahina Oleshev melleganol Mizujin hausenberg season 2 two
BeatmapID:4010248
BeatmapSetID:1938781

[Difficulty]
HPDrainRate:5
CircleSize:3.8
OverallDifficulty:8
ApproachRate:8.6
SliderMultiplier:1.6
SliderTickRate:1

[Events]
//Background and Video events
0,0,"white.jpg",0,0
//Break Periods
//Storyboard Layer 0 (Background)
//Storyboard Layer 1 (Fail)
//Storyboard Layer 2 (Pass)
//Storyboard Layer 3 (Foreground)
//Storyboard Layer 4 (Overlay)
//Storyboard Sound Samples

[TimingPoints]
1553,303.030303030303,4,2,1,70,1,0
6401,301.507537688442,4,2,1,70,1,0
8813,303.030303030303,4,2,1,70,1,0
11229,-100,4,2,2,60,0,0
11237,303.030303030303,4,2,1,70,1,0
13358,309.278350515464,4,2,1,70,1,0
13667,304.568527918782,4,2,1,70,1,0
16103,292.682926829268,4,2,1,70,1,0
16395,306.122448979592,4,2,1,70,1,0
17313,301.507537688442,4,2,1,70,1,0
18519,297.029702970297,4,2,1,70,1,0
19558,304.568527918782,4,2,1,70,1,0
20167,-149.253731343284,4,2,2,60,0,0
20319,310.880829015544,4,2,1,70,1,0
20319,-149.253731343284,4,2,2,60,0,0
20940,303.030303030303,4,2,1,70,1,0
20940,-87.719298245614,4,2,1,80,0,0
21381,-87.719298245614,4,2,1,50,0,0
21533,-149.253731343284,4,2,1,50,0,0
24576,300,4,2,1,70,1,0
24576,-149.253731343284,4,2,1,50,0,0
25776,302.267002518892,4,2,1,70,1,0
25776,-149.253731343284,4,2,1,50,0,0
26985,309.278350515464,4,2,1,50,1,0
26985,-149.253731343284,4,2,1,50,0,0
28100,269.058295964126,4,2,1,70,1,0
28234,298.507462686567,4,2,1,70,1,0
28234,-149.253731343284,4,2,1,70,0,0
29129,303.030303030303,4,2,1,70,1,0
29129,-149.253731343284,4,2,1,70,0,0
29735,297.029702970297,4,2,1,70,1,0
29735,-149.253731343284,4,2,1,70,0,0
30031,-149.253731343284,4,2,1,60,0,0
30626,301.507537688442,4,2,1,80,1,0
30626,-109.89010989011,4,2,1,80,0,0
31229,-109.89010989011,4,2,1,80,0,0
31379,309.278350515464,4,2,1,80,1,0
31379,-109.89010989011,4,2,1,80,0,0
31842,297.029702970297,4,2,1,80,1,0
31842,-109.89010989011,4,2,1,80,0,0
31850,-109.89010989011,4,2,1,80,0,0
32139,313.971742543171,4,2,1,80,1,0
32139,-109.89010989011,4,2,1,80,0,0
33080,291.26213592233,4,2,1,80,1,0
33080,-109.89010989011,4,2,1,80,0,0
33371,301.507537688442,4,2,1,80,1,0
33371,-109.89010989011,4,2,1,80,0,0
33823,309.597523219814,4,2,1,80,1,0
33823,-109.89010989011,4,2,1,80,0,0
34287,297.029702970297,4,2,1,80,1,0
34287,-109.89010989011,4,2,1,80,0,0
34732,303.030303030303,4,2,1,80,1,0
34732,-109.89010989011,4,2,1,80,0,0
35186,315.126050420168,4,2,1,80,1,0
35186,-109.89010989011,4,2,1,80,0,0
35501,285.714285714286,4,2,1,80,1,0
35501,-109.89010989011,4,2,1,80,0,0
35786,300,4,2,1,80,1,0
35786,-109.89010989011,4,2,1,80,0,0
36386,-109.89010989011,4,2,1,80,0,0
36615,-100,4,2,1,5,0,0
36686,304.723209751143,4,2,1,80,1,0
36686,-109.89010989011,4,2,1,80,0,0
37752,320.855614973262,4,2,1,80,1,0
37752,-109.89010989011,4,2,1,80,0,0
38072,298.507462686567,4,2,1,80,1,0
38072,-109.89010989011,4,2,1,80,0,0
39116,304.568527918782,4,2,1,80,1,0
39116,-109.89010989011,4,2,1,80,0,0
39725,307.692307692308,4,2,1,80,1,0
39725,-109.89010989011,4,2,1,80,0,0
40340,303.030303030303,4,2,1,80,1,0
40340,-138.888888888889,4,2,1,60,0,0
41552,300.751879699248,4,2,1,80,1,0
41552,-138.888888888889,4,2,1,60,0,0
42755,304.568527918782,4,2,1,80,1,0
42755,-138.888888888889,4,2,1,60,0,0
43973,303.030303030303,4,2,1,80,1,0
43973,-138.888888888889,4,2,1,60,0,0
45185,303.030303030303,4,2,1,80,1,0
45185,-138.888888888889,4,2,1,60,0,0
47524,-100,4,2,1,5,0,0
47600,-138.888888888889,4,2,1,60,0,0
50024,-116.279069767442,4,2,1,65,0,0
57221,-100,4,2,1,5,0,0
57297,-109.89010989011,4,2,1,70,0,0
59721,-116.279069767442,4,2,1,70,0,0
65336,300,4,2,1,80,1,0
65336,-116.279069767442,4,2,1,70,0,0
65936,314.13612565445,4,2,1,80,1,0
65936,-116.279069767442,4,2,1,70,0,0
66093,303.030303030303,4,2,1,80,1,0
66093,-116.279069767442,4,2,1,70,0,0
66396,280.373831775701,4,2,1,80,1,0
66396,-116.279069767442,4,2,1,70,0,0
66676,319.148936170213,4,2,1,80,1,0
66676,-116.279069767442,4,2,1,70,0,0
66996,303.030303030303,4,2,1,80,1,0
66996,-109.89010989011,4,2,1,70,0,0
68054,-526.315789473684,4,2,1,70,0,0
68814,297.029702970297,4,2,1,80,1,0
68814,-526.315789473684,4,2,1,70,0,0
69408,306.122448979592,4,2,1,80,1,0
69408,-87.719298245614,4,2,1,80,0,1
70632,303.030303030303,4,2,1,80,1,0
70632,-87.719298245614,4,2,1,80,0,1
71541,294.117647058824,4,2,1,80,1,0
71541,-87.719298245614,4,2,1,80,0,1
71835,303.030303030303,4,2,1,80,1,0
71835,-87.719298245614,4,2,1,80,0,1
74259,303.030303030303,4,2,1,80,1,0
74259,-87.719298245614,4,2,1,80,0,1
75395,-100,4,2,1,5,0,1
75471,-87.719298245614,4,2,1,80,0,1
76607,-100,4,2,1,5,0,1
76683,304.568527918782,4,2,1,80,1,0
76683,-87.719298245614,4,2,1,80,0,1
77748,303.030303030303,4,2,1,80,1,0
77748,-87.719298245614,4,2,1,80,0,1
77899,303.030303030303,4,2,1,80,1,0
77899,-87.719298245614,4,2,1,80,0,1
83959,306.122448979592,4,2,1,80,1,0
83959,-87.719298245614,4,2,1,80,0,1
85106,-100,4,2,1,5,0,1
85183,303.030303030303,4,2,1,80,1,0
85183,-87.719298245614,4,2,1,80,0,1
86395,303.030303030303,4,2,1,80,1,0
86395,-87.719298245614,4,2,1,80,0,1
92372,-100,4,2,1,5,0,1
92448,-87.719298245614,4,2,1,80,0,1
93584,-100,4,2,1,5,0,1
93660,-87.719298245614,4,2,1,80,0,1
96091,301.507537688442,4,2,1,80,1,0
96091,-87.719298245614,4,2,1,80,0,1
97297,303.030303030303,4,2,1,80,1,0
97297,-87.719298245614,4,2,1,80,0,1
100933,303.030303030303,4,2,1,80,1,0
100933,-87.719298245614,4,2,1,80,0,1
101160,-100,4,2,1,5,0,1
101236,-87.719298245614,4,2,1,80,0,1
102145,297.029702970297,4,2,1,80,1,0
102145,-87.719298245614,4,2,1,80,0,1
102739,307.692307692308,4,2,1,80,1,0
102739,-188.679245283019,4,2,1,80,0,0
103200,303.030303030303,4,2,1,80,1,0
103200,-188.679245283019,4,2,1,80,0,0
103351,303.030303030303,4,2,1,80,1,0
103351,-86.9565217391304,4,2,1,80,0,0
103654,-86.9565217391304,4,2,1,75,0,0
103957,-86.9565217391304,4,2,1,70,0,0
104260,-86.9565217391304,4,2,1,65,0,0
104563,-86.9565217391304,4,2,1,60,0,0
104866,-86.9565217391304,4,2,1,55,0,0
105169,-86.9565217391304,4,2,1,50,0,0
105472,-86.9565217391304,4,2,1,45,0,0
105775,-86.9565217391304,4,2,1,40,0,0
106078,-86.9565217391304,4,2,1,36,0,0
106381,-86.9565217391304,4,2,1,32,0,0
106684,-86.9565217391304,4,2,1,28,0,0
106987,-86.9565217391304,4,2,1,23,0,0
107290,-86.9565217391304,4,2,1,18,0,0
107593,-86.9565217391304,4,2,1,15,0,0
107896,-86.9565217391304,4,2,1,12,0,0
108199,-86.9565217391304,4,2,1,8,0,0
108502,-86.9565217391304,4,2,1,5,0,0

[Colours]
Combo1 : 149,220,69
Combo2 : 131,179,237
Combo3 : 45,139,255
Combo4 : 220,224,52

[HitObjects]
26,114,20167,5,0,0:0:0:0:
26,114,20319,2,0,P|14:75|1:40,2,71.466663286133,2|2|2,0:0|0:0|0:0,0:0:0:0:
119,227,20940,5,6,3:1:0:0:
184,182,21091,1,6,3:2:0:0:
143,114,21243,1,6,3:2:0:0:
80,325,21546,6,0,L|3:338,2,71.466663286133,2|2|2,0:0|0:0|0:0,0:0:0:0:
151,362,22152,6,0,P|198:343|203:292,1,107.199994929199,2|0,0:0|0:0,0:0:0:0:
230,104,22758,6,0,P|254:73|291:68,2,71.466663286133,2|2|2,0:0|0:0|0:0,0:0:0:0:
272,172,23364,6,0,P|311:167|334:138,2,71.466663286133,2|2|2,0:0|0:0|0:0,0:0:0:0:
342,137,23970,6,0,B|396:150|388:161|442:175,1,107.199994929199,2|0,0:0|0:0,0:0:0:0:
496,233,24424,1,2,0:0:0:0:
496,233,24576,6,0,B|484:284|484:284|486:289|486:289|475:336,1,107.199994929199,2|0,0:0|0:0,0:0:0:0:
406,377,25026,1,2,0:0:0:0:
342,329,25176,6,0,P|293:350|242:367,2,107.199994929199,2|2|2,0:0|0:0|0:0,0:0:0:0:
148,266,26078,6,0,P|110:300|121:350,2,107.199994929199,2|2|2,0:0|0:0|0:0,0:0:0:0:
344,232,26985,6,0,B|387:242|387:242|397:258|397:258|439:268,1,107.199994929199,2|2,0:0|0:0,0:0:0:0:
512,140,27603,6,0,L|407:164,1,107.199994929199,2|2,0:0|0:0,0:0:0:0:
323,133,28100,5,0,3:2:0:0:
315,129,28167,1,0,3:2:0:0:
307,126,28234,6,0,P|279:84|309:44,1,107.199994929199,14|0,0:0|0:0,0:0:0:0:
377,0,28681,6,0,P|427:16|479:30,1,107.199994929199,8|0,3:3|3:2,0:0:0:0:
388,92,29129,5,8,0:0:0:0:
221,13,29432,5,0,3:2:0:0:
161,63,29583,1,8,0:0:0:0:
61,0,29735,5,0,3:2:0:0:
61,0,30032,6,0,L|46:79,2,80.3999961968996,2|2|2,0:0|0:0|0:0,0:0:0:0:
161,63,30626,6,0,L|189:206,1,145.600004887695,6|8,3:1|0:0,0:0:0:0:
246,260,31078,1,0,3:2:0:0:
184,373,31229,2,0,P|149:360|115:349,1,72.8000024438477,2|0,0:0|3:2,0:0:0:0:
68,285,31533,2,0,P|33:297|0:308,1,72.8000024438477,8|2,0:0|0:0,0:0:0:0:
68,148,31842,6,0,B|123:160|123:160|137:193|137:193|188:205,1,145.600004887695,6|8,3:2|0:0,0:0:0:0:
246,260,32296,1,0,3:2:0:0:
377,187,32453,2,0,P|394:155|385:121,1,72.8000024438477,2|0,0:0|3:2,0:0:0:0:
443,65,32767,2,0,P|419:37|384:34,1,72.8000024438477,8|2,0:0|0:0,0:0:0:0:
245,140,33080,6,0,B|166:127|202:76|126:64,1,145.600004887695,6|10,3:2|0:0,0:0:0:0:
68,12,33521,2,0,P|34:26|0:36,1,72.8000024438477,2|0,3:2|0:0,0:0:0:0:
25,111,33823,2,0,P|59:121|93:135,1,72.8000024438477,2|8,3:2|0:0,0:0:0:0:
159,279,34132,1,2,0:0:0:0:
158,279,34287,6,0,P|90:277|64:213,1,145.600004887695,4|10,3:2|0:0,0:0:0:0:
99,145,34732,1,2,3:2:0:0:
167,186,34883,2,0,L|238:174,1,72.8000024438477,0|2,0:0|3:2,0:0:0:0:
297,107,35186,6,0,L|440:132,1,145.600004887695,10|4,0:0|3:2,0:0:0:0:
512,350,35786,5,10,0:0:0:0:
449,301,35936,1,0,3:2:0:0:
389,354,36086,2,0,P|355:367|319:376,1,72.8000024438477,2|0,0:0|3:2,0:0:0:0:
244,353,36386,2,0,P|205:318|218:267,1,109.200003665772,10|0,0:0|0:0,0:0:0:0:
249,260,36686,6,0,P|275:196|229:145,1,145.600004887695,6|10,3:2|0:0,0:0:0:0:
166,98,37143,2,0,P|134:116|99:127,1,72.8000024438477,0|2,3:2|0:0,0:0:0:0:
28,93,37447,1,0,3:2:0:0:
94,136,37600,1,10,0:0:0:0:
0,275,37752,6,0,B|78:291|43:333|120:350,1,145.600004887695,6|0,3:1|3:2,0:0:0:0:
249,260,38221,5,12,0:0:0:0:
319,294,38370,1,0,3:2:0:0:
426,356,38519,5,12,0:0:0:0:
496,322,38669,1,0,3:2:0:0:
407,252,38818,5,12,0:0:0:0:
346,369,38967,1,0,3:2:0:0:
412,243,39116,5,12,0:0:0:0:
345,168,39268,1,0,3:2:0:0:
444,87,39420,6,0,B|479:95|479:95|482:99|482:99|512:106,1,72.8000024438477,10|2,0:0|3:2,0:0:0:0:
396,12,39725,6,0,B|360:20|360:20|357:24|357:24|327:31,1,72.8000024438477,10|2,0:0|3:2,0:0:0:0:
228,111,40032,6,0,B|192:102|192:102|189:98|189:98|159:91,1,72.8000024438477,10|2,0:0|3:2,0:0:0:0:
45,28,40340,6,0,P|82:68|64:120,1,115.2000028125,6|8,3:1|0:0,0:0:0:0:
6,176,40794,1,2,0:0:0:0:
13,194,40946,2,0,B|74:206|58:227|117:240,1,115.2000028125,2|10,3:2|0:0,0:0:0:0:
280,191,41552,6,0,B|313:215|313:215|284:283,1,115.2000028125,0|8,3:2|0:0,0:0:0:0:
249,354,42003,1,2,0:0:0:0:
176,324,42153,2,0,P|149:334|121:341,1,57.60000140625,2|2,3:2|3:2,0:0:0:0:
209,252,42454,5,10,0:0:0:0:
365,366,42755,6,0,B|409:355|409:355|421:330|421:330|462:320,1,115.2000028125,2|8,3:2|0:0,0:0:0:0:
512,260,43211,1,2,0:0:0:0:
499,241,43364,2,0,L|386:215,1,115.2000028125,2|10,3:2|0:0,0:0:0:0:
241,64,43973,6,0,P|291:83|292:137,1,115.2000028125,0|8,3:2|0:0,0:0:0:0:
248,201,44427,1,0,0:0:0:0:
182,159,44579,2,0,L|125:145,1,57.60000140625,0|0,3:2|3:2,0:0:0:0:
16,196,44882,5,8,0:0:0:0:
16,196,45185,6,0,L|32:309,1,115.2000028125,2|10,3:2|0:0,0:0:0:0:
91,368,45639,1,0,0:0:0:0:
91,368,45791,2,0,B|152:356|136:335|195:322,1,115.2000028125,2|10,3:2|0:0,0:0:0:0:
444,375,46397,6,0,P|488:342|479:288,1,115.2000028125,2|10,3:2|0:0,0:0:0:0:
421,239,46851,1,0,0:0:0:0:
459,169,47003,2,0,P|485:157|512:149,1,57.60000140625,2|0,3:2|3:2,0:0:0:0:
414,236,47306,2,0,P|372:222|334:202,1,86.4000021093751,10|0,0:0|0:0,0:0:0:0:
296,141,47609,6,0,B|319:124|319:124|347:130,2,57.60000140625,2|2|10,3:2|0:0|0:0,0:0:0:0:
242,199,48063,1,2,0:0:0:0:
169,128,48215,5,0,3:2:0:0:
169,128,48366,1,2,3:2:0:0:
216,64,48518,2,0,L|272:54,1,57.60000140625,10|2,0:0|0:0,0:0:0:0:
165,7,48821,5,0,3:2:0:0:
165,7,48972,1,2,3:2:0:0:
99,53,49124,2,0,L|42:43,1,57.60000140625,10|2,0:0|3:2,0:0:0:0:
104,169,49427,5,2,3:2:0:0:
169,128,49578,1,2,3:2:0:0:
238,244,49730,5,10,0:0:0:0:
173,205,49881,1,2,0:0:0:0:
328,91,50033,6,0,B|398:108|371:144|443:158,1,137.600002099609,6|8,3:1|0:0,0:0:0:0:
512,118,50488,1,2,0:0:0:0:
446,81,50639,2,0,L|468:216,1,137.600002099609,2|8,3:2|0:0,0:0:0:0:
512,342,51094,1,2,0:0:0:0:
512,342,51245,6,0,P|464:295|401:310,1,137.600002099609,2|8,3:2|0:0,0:0:0:0:
337,359,51700,1,0,3:2:0:0:
330,362,51775,1,0,3:2:0:0:
323,363,51851,2,0,L|256:347,1,68.8000010498047,2|2,3:2|3:2,0:0:0:0:
207,284,52154,2,0,L|140:299,1,68.8000010498047,10|2,0:0|0:0,0:0:0:0:
63,356,52457,6,0,B|24:327|24:327|57:244,1,137.600002099609,6|8,3:2|0:0,0:0:0:0:
77,166,52912,1,0,3:2:0:0:
82,160,52988,1,0,3:2:0:0:
87,155,53063,2,0,P|153:135|220:120,1,137.600002099609,2|8,3:2|0:0,0:0:0:0:
313,41,53518,1,2,0:0:0:0:
313,41,53669,6,0,P|378:62|445:78,1,137.600002099609,6|8,3:2|0:0,0:0:0:0:
505,130,54124,1,2,0:0:0:0:
449,187,54275,2,0,P|422:246|465:295,1,137.600002099609,2|10,3:2|0:0,0:0:0:0:
512,360,54730,1,0,0:0:0:0:
359,309,54881,6,0,L|292:327,1,68.8000010498047,4|0,3:2|0:0,0:0:0:0:
233,381,55185,2,0,L|166:362,1,68.8000010498047,8|0,0:0|3:2,0:0:0:0:
134,338,55412,1,0,3:2:0:0:
134,338,55488,6,0,B|118:272|118:272|113:270|113:270|98:207,1,137.600002099609,2|10,3:2|0:0,0:0:0:0:
181,80,55942,1,2,0:0:0:0:
235,138,56094,6,0,L|204:272,2,137.600002099609,6|10|2,3:2|0:0|3:2,0:0:0:0:
289,78,56851,1,0,3:2:0:0:
350,131,57003,2,0,P|397:151|447:163,1,103.200001574707,12|0,0:0|0:0,0:0:0:0:
512,125,57306,6,0,B|528:133|528:133|507:258,1,145.600004887695,6|10,3:1|0:0,0:0:0:0:
336,14,57912,5,2,3:2:0:0:
289,78,58063,1,2,3:2:0:0:
215,49,58215,1,8,0:0:0:0:
100,159,58366,6,0,B|112:214|112:214|86:239|86:239|98:291,1,145.600004887695,6|0,3:1|3:2,0:0:0:0:
159,343,58821,2,0,L|229:359,1,72.8000024438477,10|0,0:0|3:2,0:0:0:0:
305,252,59124,2,0,L|234:268,1,72.8000024438477,10|0,0:0|3:2,0:0:0:0:
329,350,59427,5,10,0:0:0:0:
390,298,59578,1,10,0:0:0:0:
253,187,59730,6,0,P|237:157|248:121,1,68.8000010498047,6|2,3:2|3:2,0:0:0:0:
298,64,60033,1,8,0:0:0:0:
383,201,60185,6,0,B|448:216|448:216|451:223|451:223|512:237,1,137.600002099609,6|2,3:2|3:2,0:0:0:0:
406,108,60639,5,8,0:0:0:0:
333,140,60791,2,0,L|198:170,1,137.600002099609,6|2,3:2|3:2,0:0:0:0:
158,162,61169,1,2,0:0:0:0:
158,162,61245,1,10,0:0:0:0:
81,214,61397,6,0,P|65:243|76:275,1,68.8000010498047,2|2,0:0|3:2,0:0:0:0:
138,326,61700,1,2,3:2:0:0:
202,277,61851,2,0,P|234:266|268:258,1,68.8000010498047,10|2,0:0|0:0,0:0:0:0:
316,360,62154,6,0,P|282:352|249:340,1,68.8000010498047,6|0,3:2|3:2,0:0:0:0:
202,277,62457,1,10,0:0:0:0:
286,166,62609,6,0,B|358:179|328:216|401:234,1,137.600002099609,6|2,3:2|3:2,0:0:0:0:
473,197,63063,1,8,0:0:0:0:
422,135,63215,2,0,L|447:0,1,137.600002099609,6|2,3:2|3:2,0:0:0:0:
512,47,63669,1,10,0:0:0:0:
350,94,63821,5,2,3:2:0:0:
350,94,63972,1,2,3:2:0:0:
290,41,64124,1,2,3:2:0:0:
229,94,64275,2,0,L|161:107,1,68.8000010498047,10|2,0:0|0:0,0:0:0:0:
33,72,64578,6,0,P|83:111|60:171,1,137.600002099609,6|10,3:2|0:0,0:0:0:0:
3,228,65033,2,0,P|12:260|22:294,1,68.8000010498047,6|0,3:2|0:0,0:0:0:0:
88,340,65336,2,0,P|97:306|107:273,1,68.8000010498047,2|8,3:2|0:0,0:0:0:0:
255,169,65636,6,0,B|310:181|310:181|320:206|320:206|372:218,1,137.600002099609,6|2,3:2|3:2,0:0:0:0:
424,277,66093,2,0,L|491:261,1,68.8000010498047,10|2,0:0|0:0,0:0:0:0:
434,150,66396,2,0,L|389:139,2,45.8666673665365,10|8|8,0:0|0:0|0:0,0:0:0:0:
499,113,66676,2,0,P|515:83|508:50,1,68.8000010498047,2|0,3:2|0:0,0:0:0:0:
365,10,66996,6,0,B|285:18|318:71|242:79,1,145.600004887695,14|2,0:0|3:2,0:0:0:0:
177,124,67450,2,0,P|111:91|42:69,1,145.600004887695,14|2,0:0|3:2,0:0:0:0:
175,20,67905,1,8,0:0:0:0:
248,156,68056,6,0,L|236:215,1,60.7999992578125,6|2,3:1|3:2,0:0:0:0:
240,242,68738,1,0,3:2:0:0:
240,242,68814,1,10,3:3:0:0:
435,38,69408,6,0,B|423:19|495:-10|536:70|462:139,1,182.399997773438,6|12,3:1|0:0,0:0:0:0:
404,190,69867,1,2,0:0:0:0:
505,290,70020,1,6,3:2:0:0:
457,355,70173,2,0,L|367:374,1,91.1999988867188,2|12,3:2|0:0,0:0:0:0:
233,284,70479,1,2,0:0:0:0:
171,336,70632,6,0,B|74:312|127:254|31:230,1,182.399997773438,6|12,3:1|0:0,0:0:0:0:
24,310,71086,1,0,0:0:0:0:
192,215,71238,2,0,P|221:182|211:139,1,91.1999988867188,6|0,3:2|3:2,0:0:0:0:
139,105,71541,2,0,P|109:137|119:180,1,91.1999988867188,12|2,0:0|0:0,0:0:0:0:
233,284,71835,6,0,B|320:263|320:263|323:258|323:258|408:239,1,182.399997773438,6|12,3:1|0:0,0:0:0:0:
487,258,72289,1,2,0:0:0:0:
381,139,72441,1,6,3:2:0:0:
427,76,72592,2,0,P|471:64|512:45,1,91.1999988867188,2|12,3:2|0:0,0:0:0:0:
378,148,72895,1,2,0:0:0:0:
300,132,73047,6,0,P|250:65|304:0,1,182.399997773438,6|12,3:1|0:0,0:0:0:0:
379,13,73501,1,2,0:0:0:0:
323,206,73653,2,0,L|341:296,1,91.1999988867188,6|0,3:2|3:2,0:0:0:0:
297,360,73956,2,0,L|207:378,1,91.1999988867188,14|0,0:2|0:0,0:0:0:0:
76,328,74259,5,4,3:1:0:0:
118,262,74410,1,2,3:2:0:0:
23,170,74562,2,0,P|33:214|42:259,1,91.1999988867188,14|0,0:0|0:0,0:0:0:0:
144,163,74865,2,0,P|133:207|124:252,1,91.1999988867188,6|0,3:2|3:2,0:0:0:0:
78,109,75168,2,0,P|117:58|183:66,1,136.799998330078,14|0,0:0|0:0,0:0:0:0:
194,86,75471,6,0,P|234:104|277:90,1,91.1999988867188,6|0,3:1|3:2,0:0:0:0:
328,27,75774,2,0,P|370:12|411:30,1,91.1999988867188,14|0,0:0|0:0,0:0:0:0:
437,106,76077,2,0,P|394:120|353:102,1,91.1999988867188,6|0,3:2|3:2,0:0:0:0:
444,111,76380,2,0,P|463:176|477:243,1,136.799998330078,14|0,0:0|0:0,0:0:0:0:
453,271,76683,6,0,B|353:290|406:347|310:373,2,182.399997773438,6|14|6,3:1|0:0|3:2,0:0:0:0:
512,326,77444,1,0,3:2:0:0:
357,225,77596,1,10,0:0:0:0:
301,281,77748,6,0,B|228:264|228:264|214:230|214:230|145:214,1,182.399997773438,6|2,3:1|3:2,0:0:0:0:
98,151,78202,2,0,L|9:171,1,91.1999988867188,14|0,0:0|0:0,0:0:0:0:
129,79,78505,1,6,3:2:0:0:
190,132,78656,2,0,L|278:152,1,91.1999988867188,0|14,3:2|0:0,0:0:0:0:
451,116,78959,1,2,0:0:0:0:
451,116,79111,6,0,B|404:65|340:100|340:100|361:125|355:157,1,182.399997773438,6|12,3:1|0:0,0:0:0:0:
313,223,79565,1,2,0:0:0:0:
202,341,79717,1,6,3:2:0:0:
131,303,79868,2,0,P|111:263|130:222,1,91.1999988867188,2|12,3:2|0:0,0:0:0:0:
293,324,80171,1,2,0:0:0:0:
365,289,80323,6,0,P|411:218|355:154,1,182.399997773438,6|12,3:1|0:0,0:0:0:0:
291,109,80777,1,0,0:0:0:0:
128,223,80929,2,0,L|38:205,1,91.1999988867188,6|0,3:2|3:2,0:0:0:0:
0,135,81232,2,0,L|89:117,1,91.1999988867188,12|2,0:0|0:0,0:0:0:0:
280,19,81535,6,0,B|352:35|352:35|366:69|366:69|436:86,1,182.399997773438,6|12,3:1|0:0,0:0:0:0:
510,55,81989,1,2,0:0:0:0:
385,180,82141,1,6,3:2:0:0:
426,249,82292,2,0,P|469:261|512:277,1,91.1999988867188,2|12,3:2|0:0,0:0:0:0:
379,174,82595,1,2,0:0:0:0:
319,227,82747,6,0,B|219:246|272:303|176:329,1,182.399997773438,6|12,3:1|0:0,0:0:0:0:
100,303,83202,1,2,0:0:0:0:
194,159,83353,2,0,P|181:202|172:247,1,91.1999988867188,6|0,3:2|3:2,0:0:0:0:
93,311,83656,2,0,P|84:266|71:222,1,91.1999988867188,14|0,0:2|0:0,0:0:0:0:
0,89,83959,5,4,3:1:0:0:
47,26,84112,1,0,3:2:0:0:
115,66,84265,2,0,P|159:69|194:41,1,91.1999988867188,14|0,0:0|0:0,0:0:0:0:
268,82,84571,2,0,P|286:41|272:0,1,91.1999988867188,6|0,3:2|3:2,0:0:0:0:
191,161,84877,2,0,P|210:226|226:293,1,136.799998330078,14|0,0:0|0:0,0:0:0:0:
245,365,85183,5,14,0:0:0:0:
245,365,85486,6,0,L|289:372,3,45.5999994433594,12|8|8|8,0:0|0:0|0:0|0:0,0:0:0:0:
347,327,85789,2,0,L|391:319,3,45.5999994433594,14|8|8|10,0:0|0:0|0:0|0:0,0:0:0:0:
465,335,86092,1,12,0:0:0:0:
481,320,86167,1,8,0:0:0:0:
490,299,86243,1,10,0:0:0:0:
489,276,86319,1,8,0:0:0:0:
478,257,86395,6,0,B|390:237|390:237|385:240|385:240|300:220,1,182.399997773438,6|12,3:1|0:0,0:0:0:0:
241,171,86849,1,2,0:0:0:0:
141,277,87001,1,6,3:2:0:0:
67,248,87152,2,0,L|53:157,1,91.1999988867188,2|12,3:2|0:0,0:0:0:0:
85,12,87455,1,2,0:0:0:0:
149,54,87607,6,0,B|247:67|201:130|299:144,1,182.399997773438,6|12,3:1|0:0,0:0:0:0:
365,98,88061,1,0,0:0:0:0:
499,177,88213,2,0,P|517:217|498:257,1,91.1999988867188,6|0,3:2|3:2,0:0:0:0:
431,299,88516,2,0,P|412:338|430:379,1,91.1999988867188,12|2,0:0|0:0,0:0:0:0:
325,220,88819,6,0,B|252:237|252:237|238:271|238:271|169:287,1,182.399997773438,6|12,3:1|0:0,0:0:0:0:
93,266,89273,1,2,0:0:0:0:
154,133,89425,1,6,3:2:0:0:
94,72,89576,2,0,L|5:51,1,91.1999988867188,0|12,3:2|0:0,0:0:0:0:
149,7,89879,1,2,0:0:0:0:
210,66,90031,6,0,L|389:34,1,182.399997773438,6|12,3:1|0:0,0:0:0:0:
464,0,90485,1,2,0:0:0:0:
512,128,90637,2,0,P|495:170|483:214,1,91.1999988867188,6|0,3:2|3:2,0:0:0:0:
423,279,90940,2,0,P|439:321|451:365,1,91.1999988867188,14|0,0:2|0:0,0:0:0:0:
336,260,91243,5,4,3:1:0:0:
379,192,91395,1,0,3:2:0:0:
324,134,91546,2,0,P|280:123|243:146,1,91.1999988867188,14|0,0:0|0:0,0:0:0:0:
201,214,91849,2,0,P|163:237|120:226,1,91.1999988867188,6|0,3:2|3:2,0:0:0:0:
61,171,92152,2,0,P|82:236|96:302,1,136.799998330078,14|0,0:0|0:0,0:0:0:0:
120,320,92455,6,0,L|209:338,1,91.1999988867188,6|0,3:1|3:2,0:0:0:0:
281,375,92758,2,0,L|370:357,1,91.1999988867188,14|0,0:0|0:0,0:0:0:0:
420,293,93061,2,0,L|509:311,1,91.1999988867188,6|0,3:2|3:2,0:0:0:0:
413,284,93364,2,0,P|374:231|406:174,1,136.799998330078,14|0,0:0|0:0,0:0:0:0:
436,169,93667,6,0,P|487:101|435:35,2,182.399997773438,4|14|6,3:1|0:0|3:2,0:0:0:0:
363,201,94425,1,2,3:2:0:0:
218,85,94576,1,12,0:0:0:0:
268,24,94728,6,0,B|316:60|316:60|268:172,1,182.399997773438,6|0,3:1|3:2,0:0:0:0:
219,236,95182,2,0,L|130:256,1,91.1999988867188,14|0,0:0|0:0,0:0:0:0:
4,173,95485,1,6,3:2:0:0:
62,117,95637,2,0,L|151:137,1,91.1999988867188,0|12,3:2|0:0,0:0:0:0:
219,236,95940,5,2,3:2:0:0:
224,245,96016,1,0,3:2:0:0:
228,252,96091,6,0,B|301:235|301:235|315:201|315:201|384:185,1,182.399997773438,14|12,3:1|0:0,0:0:0:0:
457,217,96543,1,0,0:0:0:0:
323,102,96694,5,12,0:0:0:0:
345,26,96844,1,0,3:2:0:0:
196,51,96995,5,12,0:0:0:0:
232,123,97146,1,2,3:2:0:0:
229,131,97221,1,0,3:2:0:0:
226,139,97297,6,0,B|128:152|174:215|76:229,1,182.399997773438,14|12,3:1|0:0,0:0:0:0:
7,188,97751,1,0,0:0:0:0:
117,338,97903,5,12,0:0:0:0:
188,302,98054,1,0,3:2:0:0:
304,362,98206,5,12,0:0:0:0:
378,332,98357,1,2,3:2:0:0:
386,335,98433,1,0,3:2:0:0:
394,339,98509,6,0,P|466:295|440:214,1,182.399997773438,14|12,3:1|0:0,0:0:0:0:
399,148,98963,1,2,0:0:0:0:
293,213,99115,5,12,0:0:0:0:
317,285,99266,1,0,3:2:0:0:
288,203,99418,5,12,0:0:0:0:
220,247,99569,1,2,3:2:0:0:
212,252,99645,1,0,3:2:0:0:
204,257,99721,6,0,P|120:221|34:189,1,182.399997773438,14|12,3:1|0:0,0:0:0:0:
0,122,100175,1,0,0:0:0:0:
107,13,100327,5,14,0:0:0:0:
141,84,100478,1,0,3:2:0:0:
252,31,100630,5,14,0:0:0:0:
230,107,100781,1,0,3:2:0:0:
232,115,100857,1,0,3:2:0:0:
234,123,100933,2,0,P|285:161|343:131,1,136.799998330078,14|0,3:1|0:0,0:0:0:0:
358,103,101236,6,0,L|402:95,3,45.5999994433594,14|8|8|8,0:0|0:0|0:0|0:0,0:0:0:0:
451,38,101539,2,0,L|495:45,3,45.5999994433594,14|8|8|8,0:0|0:0|0:0|0:0,0:0:0:0:
512,118,101842,1,14,0:0:0:0:
510,131,101917,1,8,0:0:0:0:
509,145,101993,1,8,0:0:0:0:
508,158,102069,1,8,0:0:0:0:
506,172,102145,6,0,L|512:232,2,60.7999992578125,6|8|8,3:1|0:0|0:0,0:0:0:0:
437,220,102442,6,0,L|430:280,2,60.7999992578125,10|8|8,0:0|0:0|0:0,0:0:0:0:
368,183,102739,6,0,B|316:194|316:194|306:218|306:218|258:229,1,127.200000194092,14|14,3:2|3:1,0:0:0:0:
256,192,103275,12,0,108503,0:0:0:0:
