osu file format v14

[General]
AudioFilename: audio.mp3
AudioLeadIn: 0
PreviewTime: 68655
Countdown: 0
SampleSet: Soft
StackLeniency: 0.4
Mode: 0
LetterboxInBreaks: 0
WidescreenStoryboard: 1

[Editor]
DistanceSpacing: 0.3
BeatDivisor: 4
GridSize: 4
TimelineZoom: 2.1

[Metadata]
Title:Kaze ga Fuku Machi (TV Size)
TitleUnicode:風が吹く街 (TV Size)
Artist:Luck Life
ArtistUnicode:ラックライフ
Creator:Smoke
Version:Melle's Extra
Source:文豪ストレイドッグス
Tags:rock jrock j-rock pop jpop j-pop japanese anime ending ed bungo bungou stray dogs Gabizon04 Nachmark -_Aqua Gouuh Asahina Oleshev melleganol Mizujin hausenberg season 2 two
BeatmapID:4284659
BeatmapSetID:1938781

[Difficulty]
HPDrainRate:5.3
CircleSize:4
OverallDifficulty:8.8
ApproachRate:9.2
SliderMultiplier:1.8
SliderTickRate:0.5

[Events]
//Background and Video events
0,0,"white.jpg",0,0
//Break Periods
//Storyboard Layer 0 (Background)
//Storyboard Layer 1 (Fail)
//Storyboard Layer 2 (Pass)
//Storyboard Layer 3 (Foreground)
//Storyboard Layer 4 (Overlay)
//Storyboard Sound Samples

[TimingPoints]
1553,303.030303030303,4,2,1,70,1,0
6401,301.507537688442,4,2,1,70,1,0
8813,303.030303030303,4,2,1,70,1,0
11237,303.030303030303,4,2,1,70,1,0
11237,-125,4,2,2,60,0,0
13358,309.278350515464,4,2,1,70,1,0
13358,-125,4,2,2,60,0,0
13578,-125,4,2,2,60,0,0
13667,304.568527918782,4,2,1,70,1,0
13667,-125,4,2,2,60,0,0
16103,292.682926829268,4,2,1,70,1,0
16103,-125,4,2,2,60,0,0
16395,306.122448979592,4,2,1,70,1,0
16395,-125,4,2,2,60,0,0
17313,301.507537688442,4,2,1,70,1,0
17313,-125,4,2,2,60,0,0
18426,-125,4,2,2,60,0,0
18519,297.029702970297,4,2,1,70,1,0
18519,-125,4,2,2,60,0,0
19558,304.568527918782,4,2,1,70,1,0
19558,-335.570469798658,4,2,2,60,0,0
20319,310.880829015544,4,2,1,70,1,0
20319,-335.570469798658,4,2,2,60,0,0
20940,303.030303030303,4,2,1,70,1,0
20940,-90.9090909090909,4,2,1,80,0,0
21394,-200,4,2,1,50,0,0
24576,300,4,2,1,70,1,0
24576,-200,4,2,1,50,0,0
25776,302.267002518892,4,2,1,70,1,0
25776,-200,4,2,1,50,0,0
26985,309.278350515464,4,2,1,50,1,0
26985,-200,4,2,1,50,0,0
28100,269.058295964126,4,2,1,70,1,0
28100,-142.857142857143,4,2,1,70,0,0
28234,298.507462686567,4,2,1,70,1,0
28234,-249.999999999999,4,2,1,70,0,0
29129,303.030303030303,4,2,1,70,1,0
29129,-166.666666666666,4,2,1,70,0,0
29735,297.029702970297,4,2,1,70,1,0
29735,-166.666666666666,4,2,1,70,0,0
30032,-333.333333333333,4,2,1,60,0,0
30626,301.507537688442,4,2,1,80,1,0
30626,-90.9090909090909,4,2,1,80,0,0
31234,-90.9090909090909,4,2,1,80,0,0
31379,309.278350515464,4,2,1,80,1,0
31379,-90.9090909090909,4,2,1,80,0,0
31842,297.029702970297,4,2,1,80,1,0
31842,-90.9090909090909,4,2,1,80,0,0
32139,313.971742543171,4,2,1,80,1,0
33080,291.26213592233,4,2,1,80,1,0
33080,-90.9090909090909,4,2,1,80,0,0
33298,-90.9090909090909,4,2,1,5,0,0
33371,301.507537688442,4,2,1,80,1,0
33371,-90.9090909090909,4,2,1,80,0,0
33823,309.597523219814,4,2,1,80,1,0
33823,-90.9090909090909,4,2,1,80,0,0
34287,297.029702970297,4,2,1,80,1,0
34287,-90.9090909090909,4,2,1,80,0,0
34732,303.030303030303,4,2,1,80,1,0
34732,-90.9090909090909,4,2,1,80,0,0
35186,315.126050420168,4,2,1,80,1,0
35186,-90.9090909090909,4,2,1,80,0,0
35422,-90.9090909090909,4,2,1,5,0,0
35501,285.714285714286,4,2,1,80,1,0
35501,-90.9090909090909,4,2,1,80,0,0
35786,300,4,2,1,80,1,0
35786,-90.9090909090909,4,2,1,80,0,0
36386,-90.9090909090909,4,2,1,80,0,0
36686,304.723209751143,4,2,1,80,1,0
36686,-90.9090909090909,4,2,1,80,0,0
37752,320.855614973262,4,2,1,80,1,0
37752,-90.9090909090909,4,2,1,80,0,0
38072,298.507462686567,4,2,1,80,1,0
38072,-90.9090909090909,4,2,1,80,0,0
39116,304.568527918782,4,2,1,80,1,0
39116,-90.9090909090909,4,2,1,80,0,0
39725,307.692307692308,4,2,1,80,1,0
39725,-90.9090909090909,4,2,1,80,0,0
40340,303.030303030303,4,2,1,80,1,0
40340,-125,4,2,1,60,0,0
41552,300.751879699248,4,2,1,80,1,0
41552,-125,4,2,1,60,0,0
42755,304.568527918782,4,2,1,80,1,0
42755,-125,4,2,1,60,0,0
43973,303.030303030303,4,2,1,80,1,0
43973,-125,4,2,1,60,0,0
45185,303.030303030303,4,2,1,80,1,0
45185,-125,4,2,1,60,0,0
50024,-111.111111111111,4,2,1,65,0,0
54797,-111.111111111111,4,2,1,65,0,0
54872,-111.111111111111,4,2,1,65,0,0
57306,-100,4,2,1,70,0,0
57524,-99.9999999999999,4,2,1,5,0,0
57600,-100,4,2,1,70,0,0
65251,-99.9999999999999,4,2,1,70,0,0
65336,300,4,2,1,80,1,0
65336,-100,4,2,1,70,0,0
65936,314.13612565445,4,2,1,80,1,0
65936,-100,4,2,1,70,0,0
66093,303.030303030303,4,2,1,80,1,0
66093,-100,4,2,1,70,0,0
66396,280.373831775701,4,2,1,80,1,0
66396,-100,4,2,1,70,0,0
66676,319.148936170213,4,2,1,80,1,0
66676,-100,4,2,1,70,0,0
66918,-99.9999999999999,4,2,1,70,0,0
66996,303.030303030303,4,2,1,80,1,0
66996,-100,4,2,1,70,0,0
68056,-166.666666666667,4,2,1,70,0,0
68814,297.029702970297,4,2,1,80,1,0
68814,-166.666666666667,4,2,1,70,0,0
69408,306.122448979592,4,2,1,80,1,0
69408,-83.3333333333333,4,2,1,80,0,1
69637,-83.3333333333333,4,2,1,5,0,1
69714,-83.3333333333333,4,2,1,80,0,1
70632,303.030303030303,4,2,1,80,1,0
70632,-83.3333333333333,4,2,1,80,0,1
71162,-83.3333333333333,4,2,1,5,0,1
71238,-83.3333333333333,4,2,1,80,0,1
71541,294.117647058824,4,2,1,80,1,0
71541,-83.3333333333333,4,2,1,80,0,1
71835,303.030303030303,4,2,1,80,1,0
71835,-83.3333333333333,4,2,1,80,0,1
74183,-83.3333333333333,4,2,1,5,0,1
74259,303.030303030303,4,2,1,80,1,0
74259,-83.3333333333333,4,2,1,80,0,1
74789,-83.3333333333333,4,2,1,5,0,1
74865,-83.3333333333333,4,2,1,80,0,1
75395,-83.3333333333333,4,2,1,5,0,1
75471,-83.3333333333333,4,2,1,80,0,1
76001,-83.3333333333333,4,2,1,5,0,1
76077,-83.3333333333333,4,2,1,80,0,1
76607,-83.3333333333333,4,2,1,5,0,1
76683,304.568527918782,4,2,1,80,1,0
76683,-83.3333333333333,4,2,1,80,0,1
77215,-83.3333333333333,4,2,1,5,0,1
77292,-83.3333333333333,4,2,1,80,0,1
77748,303.030303030303,4,2,1,80,1,0
77748,-83.3333333333333,4,2,1,80,0,1
77899,303.030303030303,4,2,1,80,1,0
77899,-83.3333333333333,4,2,1,80,0,1
77974,-83.3333333333333,4,2,1,5,0,1
78050,-83.3333333333333,4,2,1,80,0,1
80853,-83.3333333333333,4,2,1,5,0,1
80929,-83.3333333333333,4,2,1,80,0,1
83959,306.122448979592,4,2,1,80,1,0
83959,-83.3333333333333,4,2,1,80,0,1
85183,303.030303030303,4,2,1,80,1,0
85183,-83.3333333333333,4,2,1,80,0,1
86395,303.030303030303,4,2,1,80,1,0
86395,-80,4,2,1,80,0,1
86622,-80,4,2,1,5,0,1
86698,-80,4,2,1,80,0,1
88137,-80,4,2,1,5,0,1
88213,-80,4,2,1,80,0,1
90561,-80,4,2,1,5,0,1
90637,-80,4,2,1,80,0,1
91167,-80,4,2,1,5,0,1
91243,-80,4,2,1,80,0,1
92379,-80,4,2,1,5,0,1
92455,-80,4,2,1,80,0,1
93591,-80,4,2,1,5,0,1
93667,-80,4,2,1,80,0,1
95410,-80,4,2,1,5,0,1
95485,-80,4,2,1,80,0,1
96091,301.507537688442,4,2,1,80,1,0
96091,-76.9230769230769,4,2,1,80,0,1
96317,-76.9230769230769,4,2,1,5,0,1
96392,-76.9230769230769,4,2,1,80,0,1
96618,-76.9230769230769,4,2,1,5,0,1
96694,-76.9230769230769,4,2,1,80,0,1
97297,303.030303030303,4,2,1,80,1,0
97297,-76.9230769230769,4,2,1,80,0,1
97524,-76.9230769230769,4,2,1,5,0,1
97600,-76.9230769230769,4,2,1,80,0,1
97827,-76.9230769230769,4,2,1,5,0,1
97903,-76.9230769230769,4,2,1,80,0,1
99948,-76.9230769230769,4,2,1,5,0,1
100024,-76.9230769230769,4,2,1,80,0,1
100251,-76.9230769230769,4,2,1,5,0,1
100327,-76.9230769230769,4,2,1,80,0,1
100933,303.030303030303,4,2,1,80,1,0
100933,-76.9230769230769,4,2,1,80,0,1
102145,297.029702970297,4,2,1,80,1,0
102145,-76.9230769230769,4,2,1,80,0,1
102739,307.692307692308,4,2,1,80,1,0
102739,-90.9090909090909,4,2,1,80,0,1
103130,-90.9090909090909,4,2,1,80,0,1
103200,303.030303030303,4,2,1,80,1,0
103200,-333.333333333333,4,2,1,80,0,0
103351,303.030303030303,4,2,1,80,1,0
103351,-86.9565217391304,4,2,1,80,0,0
103654,-86.9565217391304,4,2,1,75,0,0
103957,-86.9565217391304,4,2,1,70,0,0
104260,-86.9565217391304,4,2,1,65,0,0
104563,-86.9565217391304,4,2,1,60,0,0
104866,-86.9565217391304,4,2,1,55,0,0
105169,-86.9565217391304,4,2,1,50,0,0
105472,-86.9565217391304,4,2,1,45,0,0
105775,-86.9565217391304,4,2,1,40,0,0
106078,-86.9565217391304,4,2,1,36,0,0
106381,-86.9565217391304,4,2,1,32,0,0
106684,-86.9565217391304,4,2,1,28,0,0
106987,-86.9565217391304,4,2,1,23,0,0
107290,-86.9565217391304,4,2,1,18,0,0
107593,-86.9565217391304,4,2,1,15,0,0
107896,-86.9565217391304,4,2,1,12,0,0
108199,-86.9565217391304,4,2,1,8,0,0
108502,-86.9565217391304,4,2,1,5,0,0

[Colours]
Combo1 : 149,220,69
Combo2 : 131,179,237
Combo3 : 45,139,255
Combo4 : 220,224,52

[HitObjects]
0,24,11237,5,6,3:2:0:0:
0,24,11388,1,0,3:2:0:0:
95,13,11540,2,0,L|14:38,1,72,8|0,0:0|0:0,0:0:0:0:
133,86,11843,2,0,L|52:111,1,72,8|0,0:0|0:0,0:0:0:0:
169,158,12146,2,0,L|88:183,1,72,8|0,0:0|0:0,0:0:0:0:
0,310,12449,6,0,L|25:229,1,72,8|0,0:0|0:0,0:0:0:0:
73,348,12752,2,0,L|98:267,1,72,8|0,0:0|0:0,0:0:0:0:
145,384,13055,2,0,L|170:303,1,72,8|0,0:0|0:0,0:0:0:0:
264,285,13358,2,0,L|239:366,1,72,10|0,0:0|0:0,0:0:0:0:
196,231,13667,5,6,3:2:0:0:
196,231,13819,1,0,3:2:0:0:
101,242,13971,2,0,L|182:217,1,72,8|0,0:0|0:0,0:0:0:0:
63,169,14276,2,0,L|144:144,1,72,8|0,0:0|0:0,0:0:0:0:
27,97,14580,2,0,L|108:72,1,72,8|0,0:0|0:0,0:0:0:0:
210,0,14885,6,0,L|177:78,1,72,8|0,0:0|0:0,0:0:0:0:
290,17,15189,2,0,L|257:95,1,72,8|0,0:0|0:0,0:0:0:0:
368,36,15494,2,0,L|335:114,1,72,8|0,0:0|0:0,0:0:0:0:
447,54,15798,2,0,L|414:132,1,72,8|0,0:0|0:0,0:0:0:0:
502,206,16103,5,6,3:2:0:0:
502,206,16249,1,0,3:2:0:0:
512,299,16395,2,0,L|487:217,1,72,8|0,0:0|0:0,0:0:0:0:
439,337,16701,2,0,L|414:256,1,72,8|0,0:0|0:0,0:0:0:0:
367,373,17007,2,0,L|342:292,1,72,8|0,0:0|0:0,0:0:0:0:
277,220,17313,6,0,L|252:302,1,72,8|0,0:0|0:0,0:0:0:0:
204,182,17614,2,0,L|179:263,1,72,8|0,0:0|0:0,0:0:0:0:
132,146,17916,2,0,L|107:227,1,72,8|0,0:0|0:0,0:0:0:0:
63,106,18217,2,0,L|38:187,1,72,8|0,0:0|0:0,0:0:0:0:
118,334,18519,5,6,3:2:0:0:
118,334,18667,1,0,3:2:0:0:
213,345,18816,2,0,L|132:320,1,72,8|0,0:0|0:0,0:0:0:0:
251,272,19113,2,0,L|170:247,1,72,8|0,0:0|0:0,0:0:0:0:
270,192,19410,1,8,0:0:0:0:
162,157,19558,6,0,B|211:120|283:144|247:180|312:218|355:179,1,215.999993408203,4|0,0:0|0:0,0:0:0:0:
412,122,20940,5,6,3:1:0:0:
275,279,21091,1,6,3:2:0:0:
483,384,21243,1,6,3:2:0:0:
456,306,21394,5,2,0:0:0:0:
456,306,21546,2,0,P|470:271|476:233,2,60,2|2|2,0:0|0:0|0:0,0:0:0:0:
390,351,22152,1,2,0:0:0:0:
390,351,22758,6,0,P|344:334|312:330,2,60,2|2|2,0:0|0:0|0:0,0:0:0:0:
427,275,23364,2,0,P|472:287|504:306,2,60,2|2|2,0:0|0:0|0:0,0:0:0:0:
371,211,23970,2,0,P|322:219|297:231,2,67.5,2|2|2,0:0|0:0|0:0,0:0:0:0:
419,148,24576,1,2,0:0:0:0:
512,27,25026,5,2,0:0:0:0:
512,27,25176,2,0,L|453:50,1,45,2|0,0:0|0:0,0:0:0:0:
399,81,25476,2,0,L|342:67,1,45,2|0,0:0|0:0,0:0:0:0:
267,32,25776,1,2,0:0:0:0:
267,32,26078,6,0,B|246:34|228:51|240:55|228:80|198:83,2,90,2|2|2,0:0|0:0|0:0,0:0:0:0:
427,126,26985,6,0,P|462:121|484:109,1,45,2|0,0:0|0:0,0:0:0:0:
362,33,27294,2,0,P|346:66|341:94,1,45,2|0,0:0|0:0,0:0:0:0:
303,167,27603,2,0,P|335:134|327:88,1,90,2|2,0:0|0:0,0:0:0:0:
239,0,28100,5,0,3:2:0:0:
239,0,28167,1,0,3:2:0:0:
239,0,28234,2,0,P|196:28|135:47,1,108,14|8,0:0|3:3,0:0:0:0:
73,7,28980,5,0,3:2:0:0:
143,59,29129,2,0,L|113:180,1,107.999996704102,8|0,0:0|3:2,0:0:0:0:
48,202,29583,1,8,0:0:0:0:
153,296,29735,1,0,3:2:0:0:
153,296,30032,6,0,L|197:284,2,40.4999987640381,2|2|2,0:0|0:0|0:0,0:0:0:0:
19,384,30626,6,0,B|8:347|8:347|69:172,1,198.000006042481,6|8,3:1|0:0,0:0:0:0:
0,143,31078,1,0,3:2:0:0:
153,296,31229,1,2,0:0:0:0:
255,175,31379,1,0,3:2:0:0:
250,162,31456,1,2,0:0:0:0:
245,149,31533,1,8,0:0:0:0:
151,204,31688,1,2,0:0:0:0:
395,384,31842,6,0,L|436:178,1,198.000006042481,6|8,3:2|0:0,0:0:0:0:
499,145,32295,1,0,3:2:0:0:
336,241,32452,1,2,0:0:0:0:
254,118,32609,1,0,3:2:0:0:
259,104,32688,1,2,0:0:0:0:
264,90,32766,1,8,0:0:0:0:
360,151,32923,1,2,0:0:0:0:
175,263,33080,6,0,B|119:282|119:282|105:320|105:320|39:344,1,148.50000453186,6|0,3:2|0:0,0:0:0:0:
48,341,33371,1,10,0:0:0:0:
189,254,33521,2,0,P|204:227|173:161,1,99.0000030212403,2|0,3:2|0:0,0:0:0:0:
43,112,33823,2,0,P|28:139|59:205,1,99.0000030212403,2|8,3:2|0:0,0:0:0:0:
215,349,34132,6,0,P|260:342|311:319,1,99.0000030212403,2|4,0:0|3:2,0:0:0:0:
397,250,34435,2,0,P|346:228|285:224,1,99.0000030212403,2|10,0:0|0:0,0:0:0:0:
187,166,34732,2,0,P|200:223|225:271,1,99.0000030212403,2|0,3:2|0:0,0:0:0:0:
406,332,35035,1,2,3:2:0:0:
507,163,35186,2,0,B|456:187|456:187|437:230|437:230|364:266,1,148.50000453186,10|0,0:0|0:0,0:0:0:0:
387,254,35501,6,0,P|304:229|171:208,1,198.000006042481,4|10,3:2|0:0,0:0:0:0:
144,150,35936,1,0,3:2:0:0:
27,308,36086,1,2,0:0:0:0:
122,384,36236,1,0,3:2:0:0:
129,371,36311,1,0,3:0:0:0:
136,358,36386,2,0,L|113:248,1,99.0000030212403,10|0,0:0|0:0,0:0:0:0:
0,161,36686,6,0,P|53:231|169:223,1,198.000006042481,6|10,3:2|0:0,0:0:0:0:
220,280,37143,1,0,3:2:0:0:
356,162,37295,1,2,0:0:0:0:
265,88,37447,1,0,3:2:0:0:
261,102,37523,1,0,3:0:0:0:
256,116,37600,1,10,0:0:0:0:
406,268,37752,6,0,B|352:248|296:295|340:309|293:363|222:342,1,198.000006042481,6|0,3:1|3:2,0:0:0:0:
170,384,38221,5,12,0:0:0:0:
332,180,38370,1,0,3:2:0:0:
406,268,38519,5,12,0:0:0:0:
171,157,38669,1,0,3:2:0:0:
247,266,38818,5,12,0:0:0:0:
367,54,38967,1,0,3:2:0:0:
238,0,39116,5,12,0:0:0:0:
362,228,39268,1,0,3:2:0:0:
436,138,39420,5,10,0:0:0:0:
512,246,39572,1,2,3:2:0:0:
432,130,39725,5,10,0:0:0:0:
427,287,39878,1,2,3:2:0:0:
442,124,40032,5,10,0:0:0:0:
334,308,40186,1,2,3:2:0:0:
240,256,40340,6,0,B|209:208|209:208|248:112,1,144,6|8,3:1|0:0,0:0:0:0:
208,54,40794,1,2,0:0:0:0:
158,121,40946,1,2,3:2:0:0:
158,121,41097,1,0,3:2:0:0:
307,201,41249,1,10,0:0:0:0:
307,201,41552,6,0,L|452:173,1,144,0|8,3:2|0:0,0:0:0:0:
512,223,42003,1,2,0:0:0:0:
437,261,42153,1,2,3:2:0:0:
437,261,42303,1,2,3:2:0:0:
512,112,42454,1,10,0:0:0:0:
512,112,42755,6,0,P|503:78|482:45,2,72,2|0|8,3:2|0:0|0:0,0:0:0:0:
448,173,43211,1,2,0:0:0:0:
372,128,43364,1,2,3:2:0:0:
372,128,43516,1,0,3:2:0:0:
289,244,43668,1,10,0:0:0:0:
289,244,43973,6,0,L|264:96,2,144,0|8|0,3:2|0:0|3:2,0:0:0:0:
233,302,44730,1,0,3:2:0:0:
121,243,44882,1,8,0:0:0:0:
76,310,45033,1,2,3:2:0:0:
127,235,45185,6,0,P|117:201|112:158,1,72,2|0,3:2|0:0,0:0:0:0:
27,166,45488,2,0,P|38:208|42:248,1,72,10|0,0:0|0:0,0:0:0:0:
167,331,45791,1,2,3:2:0:0:
167,331,45942,1,0,3:2:0:0:
245,225,46094,1,10,0:0:0:0:
245,225,46397,6,0,P|281:213|324:209,1,72,2|0,3:2|0:0,0:0:0:0:
311,126,46700,2,0,P|275:138|232:142,1,72,10|0,0:0|0:0,0:0:0:0:
138,86,47003,1,2,3:2:0:0:
138,86,47154,1,0,3:2:0:0:
251,0,47306,1,10,0:0:0:0:
315,57,47457,5,0,0:0:0:0:
315,57,47609,2,0,P|304:102|300:143,2,72,2|2|10,3:2|0:0|0:0,0:0:0:0:
371,0,48063,1,2,0:0:0:0:
450,56,48215,1,0,3:2:0:0:
450,56,48366,1,2,3:2:0:0:
370,143,48518,2,0,P|335:132|282:126,1,72,10|2,0:0|0:0,0:0:0:0:
156,33,48821,6,0,P|124:37|77:58,2,72,0|2|10,3:2|3:2|0:0,0:0:0:0:
223,78,49275,1,2,3:2:0:0:
164,150,49427,1,2,3:2:0:0:
164,150,49578,1,2,3:2:0:0:
266,249,49730,1,10,0:0:0:0:
313,161,49881,1,2,0:0:0:0:
175,273,50033,6,0,B|226:259|262:302|236:313|264:353|318:344,1,161.999995056153,6|8,3:1|0:0,0:0:0:0:
456,384,50488,1,2,0:0:0:0:
471,301,50639,2,0,B|486:345|486:345|461:390,1,80.9999975280763,2|0,3:2|3:2,0:0:0:0:
378,285,50942,1,8,0:0:0:0:
427,221,51094,1,2,0:0:0:0:
279,173,51245,6,0,B|226:168|198:216|225:222|205:267|150:267,1,161.999995056153,2|8,3:2|0:0,0:0:0:0:
88,337,51700,1,0,3:2:0:0:
76,341,51775,1,0,3:2:0:0:
64,345,51851,1,2,3:2:0:0:
0,296,52003,1,2,3:2:0:0:
91,192,52154,1,10,0:0:0:0:
16,138,52306,1,2,0:0:0:0:
117,41,52457,6,0,B|134:79|134:79|89:196,1,161.999995056153,6|8,3:2|0:0,0:0:0:0:
0,285,52912,1,0,3:2:0:0:
10,290,52988,1,0,3:2:0:0:
20,295,53063,2,0,L|115:273,1,80.9999975280763,2|0,3:2|3:2,0:0:0:0:
217,205,53366,1,8,0:0:0:0:
277,259,53518,1,2,0:0:0:0:
182,356,53669,6,0,B|171:320|171:320|224:186,1,161.999995056153,6|8,3:2|0:0,0:0:0:0:
301,101,54124,1,2,0:0:0:0:
384,86,54275,2,0,B|340:71|340:71|295:96,1,80.9999975280763,2|0,3:2|3:2,0:0:0:0:
142,206,54578,2,0,B|186:221|186:221|231:196,1,80.9999975280763,10|0,0:0|0:0,0:0:0:0:
389,328,54881,6,0,L|349:155,1,161.999995056153,4|8,3:2|0:0,0:0:0:0:
207,105,55336,1,0,3:2:0:0:
202,115,55412,1,0,3:2:0:0:
197,125,55488,2,0,L|219:220,1,80.9999975280763,2|0,3:2|3:2,0:0:0:0:
249,346,55791,1,10,0:0:0:0:
290,277,55942,1,2,0:0:0:0:
129,239,56094,6,0,B|77:239|47:283|82:290|58:349|-2:349,2,161.999995056153,6|10|2,3:2|0:0|3:2,0:0:0:0:
188,294,56851,1,0,3:2:0:0:
0,157,57003,1,12,0:0:0:0:
0,157,57306,6,0,B|52:143|52:143|88:152|88:152|133:140,1,135,6|0,3:1|0:0,0:0:0:0:
185,81,57609,2,0,L|147:265,1,180,10|2,0:0|3:2,0:0:0:0:
83,306,58063,1,2,3:2:0:0:
245,216,58215,1,8,0:0:0:0:
67,313,58366,6,0,B|39:273|39:273|86:145,1,180,6|0,3:1|3:2,0:0:0:0:
27,89,58821,5,10,0:0:0:0:
148,257,58972,1,0,3:2:0:0:
214,139,59124,5,10,0:0:0:0:
67,309,59275,1,0,3:2:0:0:
0,229,59427,5,10,0:0:0:0:
251,384,59578,1,10,0:0:0:0:
138,384,59730,5,6,3:2:0:0:
158,306,59881,1,2,3:2:0:0:
179,229,60033,1,8,0:0:0:0:
156,140,60185,2,0,B|140:186|140:186|172:235,1,90,6|0,3:2|0:0,0:0:0:0:
270,279,60488,2,0,B|286:233|286:233|254:184,1,90,2|8,3:2|0:0,0:0:0:0:
430,111,60791,6,0,L|246:79,1,180,6|2,3:2|3:2,0:0:0:0:
240,76,61169,1,2,0:0:0:0:
229,74,61245,1,10,0:0:0:0:
156,140,61397,1,2,0:0:0:0:
105,80,61548,1,2,3:2:0:0:
105,80,61700,1,2,3:2:0:0:
247,163,61851,1,10,0:0:0:0:
194,224,62003,1,2,0:0:0:0:
304,291,62154,6,0,P|348:276|408:262,1,90,6|0,3:2|3:2,0:0:0:0:
459,306,62457,1,10,0:0:0:0:
329,197,62609,2,0,B|313:157|313:157|337:103,1,90,6|0,3:2|0:0,0:0:0:0:
432,63,62912,2,0,B|448:103|448:103|424:157,1,90,2|8,3:2|0:0,0:0:0:0:
304,291,63215,6,0,P|222:266|102:250,1,180,6|2,3:2|3:2,0:0:0:0:
118,254,63594,1,2,0:0:0:0:
109,259,63669,1,10,0:0:0:0:
40,301,63821,1,2,3:2:0:0:
75,374,63972,1,2,3:2:0:0:
155,361,64124,1,2,3:2:0:0:
27,216,64275,1,10,0:0:0:0:
27,216,64427,1,2,0:0:0:0:
130,267,64578,6,0,P|178:259|230:233,1,90,6|0,3:2|3:2,0:0:0:0:
303,209,64881,1,10,0:0:0:0:
185,86,65033,2,0,B|161:129|161:129|176:179,1,90,6|0,3:2|0:0,0:0:0:0:
290,291,65336,2,0,B|314:248|314:248|299:198,1,90,2|8,3:2|0:0,0:0:0:0:
144,1,65636,6,0,B|90:17|90:17|62:88|62:88|-17:119,1,180,6|2,3:2|3:2,0:0:0:0:
7,112,66014,1,2,0:0:0:0:
0,118,66093,1,10,0:0:0:0:
0,26,66244,1,2,0:0:0:0:
142,126,66396,5,10,0:0:0:0:
139,141,66489,5,8,0:0:0:0:
133,179,66582,5,8,0:0:0:0:
124,231,66676,5,2,3:2:0:0:
124,231,66996,5,14,0:0:0:0:
42,184,67147,1,0,3:2:0:0:
86,321,67299,1,2,3:2:0:0:
254,213,67450,5,14,0:0:0:0:
80,326,67602,1,0,3:2:0:0:
120,143,67753,1,2,3:2:0:0:
237,348,67905,5,8,0:0:0:0:
110,134,68056,2,0,B|159:95|231:127|192:158|247:205|304:174,1,215.999993408203,6|2,3:1|3:2,0:0:0:0:
308,168,68738,1,0,3:2:0:0:
315,160,68814,1,10,3:3:0:0:
512,0,69408,6,0,B|463:21|463:21|446:75|446:75|377:115,1,161.999995056153,6|0,3:1|0:0,0:0:0:0:
331,141,69714,1,12,0:0:0:0:
317,14,69867,1,2,0:0:0:0:
503,148,70020,1,6,3:2:0:0:
411,236,70173,1,2,3:2:0:0:
316,140,70326,1,12,0:0:0:0:
512,141,70479,1,2,0:0:0:0:
302,245,70632,6,0,L|181:211,1,107.999996704102,6|0,3:1|3:2,0:0:0:0:
375,304,70935,2,0,B|396:269|396:269|352:138,1,161.999995056153,12|0,0:0|0:0,0:0:0:0:
325,80,71238,1,6,3:2:0:0:
293,217,71389,1,0,3:2:0:0:
292,233,71465,1,2,3:2:0:0:
302,245,71541,1,12,0:0:0:0:
357,154,71688,1,2,0:0:0:0:
191,322,71835,6,0,L|73:292,1,107.999996704102,6|0,3:1|3:2,0:0:0:0:
10,271,72062,1,2,3:2:0:0:
0,268,72138,1,12,0:0:0:0:
86,192,72289,1,2,0:0:0:0:
198,333,72441,1,6,3:2:0:0:
57,384,72592,1,2,3:2:0:0:
53,368,72668,1,0,3:2:0:0:
59,352,72744,1,12,0:0:0:0:
177,241,72895,1,2,0:0:0:0:
319,372,73047,6,0,B|363:360|363:360|389:373|389:373|440:363,1,107.999996704102,6|0,3:1|3:2,0:0:0:0:
502,258,73350,1,12,0:0:0:0:
427,196,73501,1,2,0:0:0:0:
310,379,73653,1,6,3:2:0:0:
512,262,73804,1,0,3:2:0:0:
301,161,73956,2,0,B|249:178|249:178|229:232|229:232|161:258,1,161.999995056153,14|0,0:2|0:0,0:0:0:0:
130,311,74259,6,0,L|149:195,1,107.999996704102,4|2,3:1|3:2,0:0:0:0:
0,11,74562,2,0,L|36:181,1,161.999995056153,14|0,0:0|0:0,0:0:0:0:
58,245,74865,1,6,3:2:0:0:
183,115,75016,1,0,3:2:0:0:
48,256,75168,2,0,P|128:269|221:300,1,161.999995056153,14|0,0:0|0:0,0:0:0:0:
260,352,75471,6,0,L|237:232,1,107.999996704102,6|0,3:1|3:2,0:0:0:0:
372,78,75774,2,0,B|326:67|293:112|325:118|291:167|239:162,1,161.999995056153,14|0,0:0|0:0,0:0:0:0:
183,115,76077,1,6,3:2:0:0:
335,244,76228,1,0,3:2:0:0:
170,109,76380,2,0,B|118:126|118:126|98:180|98:180|30:206,1,161.999995056153,14|0,0:0|0:0,0:0:0:0:
0,138,76683,6,0,L|34:247,1,107.999996704102,6|0,3:1|3:2,0:0:0:0:
209,384,76987,2,0,L|239:203,1,161.999995056153,14|0,0:0|0:0,0:0:0:0:
251,145,77292,1,6,3:2:0:0:
121,303,77444,1,0,3:2:0:0:
330,384,77596,1,10,0:0:0:0:
108,298,77748,6,0,P|76:255|116:141,1,161.999995056153,6|0,3:1|0:0,0:0:0:0:
111,145,78050,1,2,3:2:0:0:
308,293,78202,1,14,0:0:0:0:
209,384,78353,1,0,0:0:0:0:
164,222,78505,1,6,3:2:0:0:
300,150,78656,1,0,3:2:0:0:
306,164,78732,1,2,3:2:0:0:
303,180,78808,1,14,0:0:0:0:
198,102,78959,1,2,0:0:0:0:
410,0,79111,6,0,L|432:124,1,107.999996704102,6|0,3:1|0:0,0:0:0:0:
308,293,79414,1,12,0:0:0:0:
412,208,79565,1,2,0:0:0:0:
188,96,79717,1,6,3:2:0:0:
230,236,79868,1,2,3:2:0:0:
246,237,79944,1,0,3:2:0:0:
259,227,80020,1,12,0:0:0:0:
315,123,80171,1,2,0:0:0:0:
142,279,80323,6,0,L|169:402,1,107.999996704102,6|0,3:1|3:2,0:0:0:0:
27,266,80626,2,0,L|64:89,1,161.999995056153,12|0,0:0|0:0,0:0:0:0:
0,54,80929,1,6,3:2:0:0:
125,190,81080,1,0,3:2:0:0:
140,195,81156,1,2,3:2:0:0:
155,188,81232,1,12,0:0:0:0:
229,99,81383,1,2,0:0:0:0:
95,0,81535,6,0,L|72:126,1,107.999996704102,6|0,3:1|3:2,0:0:0:0:
55,184,81762,1,2,3:2:0:0:
52,193,81838,1,12,0:0:0:0:
184,282,81989,1,2,0:0:0:0:
306,173,82141,1,6,3:2:0:0:
422,290,82292,1,2,3:2:0:0:
428,304,82368,1,0,3:2:0:0:
423,319,82444,1,12,0:0:0:0:
281,266,82595,1,2,0:0:0:0:
428,92,82747,6,0,L|403:223,1,107.999996704102,6|0,3:1|3:2,0:0:0:0:
331,340,83050,1,12,0:0:0:0:
492,244,83202,1,2,0:0:0:0:
300,119,83353,2,0,L|192:155,1,107.999996704102,6|0,3:2|3:2,0:0:0:0:
33,258,83656,2,0,L|141:294,1,107.999996704102,14|0,0:2|0:0,0:0:0:0:
333,240,83959,5,4,3:1:0:0:
333,240,84112,1,0,3:2:0:0:
266,299,84265,2,0,L|182:376,1,107.999996704102,14|0,0:0|0:0,0:0:0:0:
316,149,84571,2,0,L|302:39,1,107.999996704102,6|0,3:2|3:2,0:0:0:0:
411,272,84877,2,0,L|525:314,1,107.999996704102,14|0,0:0|3:2,0:0:0:0:
216,199,85183,5,14,0:0:0:0:
216,199,85486,5,12,0:0:0:0:
234,209,85561,1,8,0:0:0:0:
280,215,85637,1,8,0:0:0:0:
331,178,85713,1,8,0:0:0:0:
339,162,85789,5,14,0:0:0:0:
378,123,85864,1,8,0:0:0:0:
440,119,85940,1,8,0:0:0:0:
494,179,86016,1,10,0:0:0:0:
458,249,86092,5,12,0:0:0:0:
451,255,86167,1,8,0:0:0:0:
442,260,86243,2,0,L|379:271,1,53.9999983520508,10|8,0:0|0:0,0:0:0:0:
214,370,86395,6,0,B|160:357|160:357|133:305|133:305|66:285,1,168.75,6|0,3:1|0:0,0:0:0:0:
20,237,86698,2,0,L|50:353,1,112.5,12|0,0:0|0:0,0:0:0:0:
227,288,87001,1,6,3:2:0:0:
103,184,87152,1,2,3:2:0:0:
276,71,87304,1,12,0:0:0:0:
182,0,87455,1,2,0:0:0:0:
313,196,87607,6,0,L|436:168,1,112.5,6|0,3:1|3:2,0:0:0:0:
231,147,87910,2,0,B|215:203|215:203|272:318,1,168.75,12|0,0:0|0:0,0:0:0:0:
303,373,88213,1,6,3:2:0:0:
371,302,88364,1,0,3:2:0:0:
369,285,88440,1,2,3:2:0:0:
359,271,88516,1,12,0:0:0:0:
216,384,88667,1,2,0:0:0:0:
470,301,88819,6,0,L|443:168,1,112.5,6|0,3:1|3:2,0:0:0:0:
430,112,89046,1,2,3:2:0:0:
426,101,89122,1,12,0:0:0:0:
332,209,89273,1,2,0:0:0:0:
174,74,89425,1,6,3:2:0:0:
334,95,89576,1,0,3:2:0:0:
340,110,89652,1,2,3:2:0:0:
340,126,89728,1,12,0:0:0:0:
178,230,89879,1,2,0:0:0:0:
265,39,90031,6,0,L|244:160,1,112.5,6|0,3:1|3:2,0:0:0:0:
173,241,90334,2,0,B|232:226|232:226|286:261|286:261|343:248,1,168.75,12|0,0:0|0:0,0:0:0:0:
391,300,90637,2,0,L|365:184,1,112.5,6|0,3:2|3:2,0:0:0:0:
201,60,90940,2,0,B|155:49|122:93|154:99|120:148|68:143,1,168.75,14|0,0:2|0:0,0:0:0:0:
14,87,91243,6,0,L|40:206,1,112.5,4|0,3:1|3:2,0:0:0:0:
187,323,91546,2,0,L|213:204,1,112.5,14|0,0:0|0:0,0:0:0:0:
145,121,91849,1,6,3:2:0:0:
145,121,92001,1,0,3:2:0:0:
297,278,92152,2,0,B|365:267|365:267|400:296|400:296|458:286,1,168.75,14|0,0:0|0:0,0:0:0:0:
512,342,92455,6,0,L|482:220,1,112.5,6|0,3:1|3:2,0:0:0:0:
353,72,92758,2,0,L|323:194,1,112.5,14|0,0:0|0:0,0:0:0:0:
438,148,93061,1,6,3:2:0:0:
438,148,93213,1,0,3:2:0:0:
260,65,93364,2,0,L|71:123,1,168.75,14|0,0:0|0:0,0:0:0:0:
25,82,93667,5,4,3:1:0:0:
162,193,93819,1,0,3:2:0:0:
54,240,93970,5,14,0:0:0:0:
54,240,94122,1,0,0:0:0:0:
216,337,94273,5,6,3:2:0:0:
138,384,94425,2,0,B|112:338|112:338|147:273,1,112.5,2|12,3:2|0:0,0:0:0:0:
327,225,94728,6,0,B|383:202|449:247|403:277|463:336|518:307,1,225,6|0,3:1|3:2,0:0:0:0:
313,238,95182,2,0,B|256:253|256:253|224:304|224:304|154:328,1,168.75,14|0,0:0|0:0,0:0:0:0:
104,286,95485,1,6,3:2:0:0:
296,361,95637,1,0,3:2:0:0:
307,348,95713,1,2,3:2:0:0:
311,331,95788,1,12,0:0:0:0:
174,218,95940,1,2,3:2:0:0:
174,218,96016,1,0,3:2:0:0:
174,218,96091,6,0,P|188:134|216:38,1,175.499991966248,14|0,3:1|0:0,0:0:0:0:
309,0,96392,2,0,P|295:84|267:180,1,175.499991966248,12|0,0:0|0:0,0:0:0:0:
251,249,96694,5,12,0:0:0:0:
439,80,96844,1,0,3:2:0:0:
497,173,96995,1,12,0:0:0:0:
271,33,97146,5,2,3:2:0:0:
271,33,97221,1,0,3:2:0:0:
271,33,97297,2,0,P|185:53|100:84,1,175.499991966248,14|0,3:1|0:0,0:0:0:0:
78,177,97600,2,0,P|163:156|248:125,1,175.499991966248,12|0,0:0|0:0,0:0:0:0:
331,104,97903,5,12,0:0:0:0:
185,286,98054,1,0,3:2:0:0:
299,350,98206,1,12,0:0:0:0:
426,262,98357,5,2,3:2:0:0:
426,262,98433,1,0,3:2:0:0:
426,262,98509,2,0,L|300:225,1,116.999994644165,14|0,3:1|0:0,0:0:0:0:
239,200,98736,1,2,0:0:0:0:
228,196,98812,1,12,0:0:0:0:
305,361,98963,1,2,0:0:0:0:
210,306,99115,1,12,0:0:0:0:
377,153,99266,1,0,3:2:0:0:
203,315,99418,1,12,0:0:0:0:
109,134,99569,5,2,3:2:0:0:
109,134,99645,1,0,3:2:0:0:
109,134,99721,2,0,P|190:108|295:85,1,175.499991966248,14|0,3:1|0:0,0:0:0:0:
358,154,100024,2,0,P|276:179|171:202,1,175.499991966248,12|0,0:0|0:0,0:0:0:0:
102,224,100327,5,14,0:0:0:0:
278,88,100478,1,0,3:2:0:0:
185,18,100630,1,14,0:0:0:0:
339,256,100781,5,0,3:2:0:0:
339,256,100857,1,0,3:2:0:0:
339,256,100933,1,14,3:1:0:0:
339,256,101236,5,14,0:0:0:0:
366,235,101311,1,8,0:0:0:0:
408,260,101387,2,0,L|464:240,1,58.4999973220826,8|8,0:0|0:0,0:0:0:0:
512,142,101539,5,14,0:0:0:0:
485,163,101614,1,8,0:0:0:0:
443,138,101690,2,0,L|387:158,1,58.4999973220826,8|8,0:0|0:0,0:0:0:0:
227,90,101842,5,14,0:0:0:0:
262,62,101917,1,8,0:0:0:0:
290,77,101993,2,0,L|307:149,1,58.4999973220826,8|8,0:0|0:0,0:0:0:0:
284,266,102145,5,6,3:1:0:0:
269,283,102244,5,8,0:0:0:0:
215,277,102343,5,8,0:0:0:0:
151,238,102442,5,10,0:0:0:0:
139,241,102541,5,8,0:0:0:0:
128,242,102640,5,8,0:0:0:0:
61,295,102739,5,14,3:2:0:0:
61,295,103200,6,0,B|89:266|115:247|149:239|183:249|212:265|232:292|237:325|225:352|206:370|171:374|145:366|115:356|91:338|80:313|71:279|71:243|83:204|92:179|140:166|173:151|204:140|215:115|231:85|241:38|221:10|175:-8|131:-5|76:9|45:64|65:116|92:180|242:201,1,944.99997116089,14|0,3:1|0:0,0:0:0:0:
