osu file format v14

[General]
AudioFilename: audio.mp3
AudioLeadIn: 0
PreviewTime: 68655
Countdown: 0
SampleSet: Soft
StackLeniency: 0.4
Mode: 0
LetterboxInBreaks: 0
WidescreenStoryboard: 1

[Editor]
DistanceSpacing: 1.2
BeatDivisor: 4
GridSize: 4
TimelineZoom: 1.6

[Metadata]
Title:Kaze ga Fuku Machi (TV Size)
TitleUnicode:風が吹く街 (TV Size)
Artist:Luck Life
ArtistUnicode:ラックライフ
Creator:Smoke
Version:Gouuh's Insane
Source:文豪ストレイドッグス
Tags:rock jrock j-rock pop jpop j-pop japanese anime ending ed bungo bungou stray dogs Gabizon04 Nachmark -_Aqua Gouuh Asahina Oleshev melleganol Mizujin hausenberg season 2 two
BeatmapID:4012693
BeatmapSetID:1938781

[Difficulty]
HPDrainRate:5.2
CircleSize:4
OverallDifficulty:8.2
ApproachRate:8.8
SliderMultiplier:1.4
SliderTickRate:1

[Events]
//Background and Video events
0,0,"white.jpg",0,0
//Break Periods
//Storyboard Layer 0 (Background)
//Storyboard Layer 1 (Fail)
//Storyboard Layer 2 (Pass)
//Storyboard Layer 3 (Foreground)
//Storyboard Layer 4 (Overlay)
//Storyboard Sound Samples

[TimingPoints]
1553,303.030303030303,4,2,1,70,1,0
6401,301.507537688442,4,2,1,70,1,0
8813,303.030303030303,4,2,1,70,1,0
11229,-100,4,2,2,60,0,0
11237,303.030303030303,4,2,1,70,1,0
13358,309.278350515464,4,2,1,70,1,0
13667,304.568527918782,4,2,1,70,1,0
16103,292.682926829268,4,2,1,70,1,0
16395,306.122448979592,4,2,1,70,1,0
17313,301.507537688442,4,2,1,70,1,0
18519,297.029702970297,4,2,1,70,1,0
19558,304.568527918782,4,2,1,70,1,0
20167,-138.888888888889,4,2,2,60,0,0
20319,310.880829015544,4,2,1,70,1,0
20319,-138.888888888889,4,2,2,60,0,0
20940,303.030303030303,4,2,1,70,1,0
20940,-138.888888888889,4,2,1,80,0,0
21381,-138.888888888889,4,2,1,50,0,0
24576,300,4,2,1,70,1,0
24576,-138.888888888889,4,2,1,50,0,0
25776,302.267002518892,4,2,1,70,1,0
25776,-138.888888888889,4,2,1,50,0,0
26985,309.278350515464,4,2,1,50,1,0
26985,-192.307692307692,4,2,1,50,0,0
28100,269.058295964126,4,2,1,70,1,0
28100,-192.307692307692,4,2,1,50,0,0
28234,298.507462686567,4,2,1,70,1,0
28234,-192.307692307692,4,2,1,50,0,0
29129,303.030303030303,4,2,1,70,1,0
29129,-192.307692307692,4,2,1,50,0,0
29735,297.029702970297,4,2,1,70,1,0
29735,-192.307692307692,4,2,1,50,0,0
30032,-100,4,2,1,60,0,0
30626,301.507537688442,4,2,1,80,1,0
30626,-96.1538461538461,4,2,1,80,0,0
31379,309.278350515464,4,2,1,80,1,0
31379,-96.1538461538461,4,2,1,80,0,0
31842,297.029702970297,4,2,1,80,1,0
31842,-96.1538461538461,4,2,1,80,0,0
32064,-100,4,2,1,5,0,0
32139,313.971742543171,4,2,1,80,1,0
32139,-100,4,2,1,80,0,0
33080,291.26213592233,4,2,1,80,1,0
33080,-100,4,2,1,80,0,0
33371,301.507537688442,4,2,1,80,1,0
33371,-100,4,2,1,80,0,0
33823,309.597523219814,4,2,1,80,1,0
33823,-100,4,2,1,80,0,0
34287,297.029702970297,4,2,1,80,1,0
34287,-100,4,2,1,80,0,0
34732,303.030303030303,4,2,1,80,1,0
34732,-100,4,2,1,80,0,0
35186,315.126050420168,4,2,1,80,1,0
35186,-100,4,2,1,80,0,0
35422,-100,4,2,1,5,0,0
35501,285.714285714286,4,2,1,80,1,0
35501,-100,4,2,1,80,0,0
35786,300,4,2,1,80,1,0
35786,-100,4,2,1,80,0,0
36386,-100,4,2,1,80,0,0
36611,-100,4,2,1,5,0,0
36686,304.723209751143,4,2,1,80,1,0
36686,-100,4,2,1,80,0,0
37752,320.855614973262,4,2,1,80,1,0
37752,-100,4,2,1,80,0,0
38072,298.507462686567,4,2,1,80,1,0
38072,-100,4,2,1,80,0,0
39116,304.568527918782,4,2,1,80,1,0
39116,-100,4,2,1,80,0,0
39725,307.692307692308,4,2,1,80,1,0
39725,-100,4,2,1,80,0,0
40340,303.030303030303,4,2,1,80,1,0
40340,-121.951219512195,4,2,1,60,0,0
41552,300.751879699248,4,2,1,80,1,0
41552,-121.951219512195,4,2,1,60,0,0
42755,304.568527918782,4,2,1,80,1,0
42755,-121.951219512195,4,2,1,60,0,0
43973,303.030303030303,4,2,1,80,1,0
43973,-121.951219512195,4,2,1,60,0,0
45185,303.030303030303,4,2,1,80,1,0
45185,-121.951219512195,4,2,1,60,0,0
50024,-98.0392156862744,4,2,1,65,0,0
50327,-121.951219512195,4,2,1,65,0,0
53887,-121.951219512195,4,2,1,5,0,0
53963,-121.951219512195,4,2,1,65,0,0
56312,-121.951219512195,4,2,1,5,0,0
56387,-121.951219512195,4,2,1,65,0,0
57221,-121.951219512195,4,2,1,5,0,0
57297,-106.382978723404,4,2,1,70,0,0
62827,-106.382978723404,4,2,1,5,0,0
62903,-106.382978723404,4,2,1,70,0,0
65251,-106.382978723404,4,2,1,5,0,0
65336,300,4,2,1,80,1,0
65336,-106.382978723404,4,2,1,70,0,0
65936,314.13612565445,4,2,1,80,1,0
65936,-106.382978723404,4,2,1,70,0,0
66093,303.030303030303,4,2,1,80,1,0
66093,-106.382978723404,4,2,1,70,0,0
66396,280.373831775701,4,2,1,80,1,0
66396,-106.382978723404,4,2,1,70,0,0
66676,319.148936170213,4,2,1,80,1,0
66676,-106.382978723404,4,2,1,70,0,0
66996,303.030303030303,4,2,1,80,1,0
66996,-106.382978723404,4,2,1,70,0,0
68056,-156.25,4,2,1,70,0,0
68814,297.029702970297,4,2,1,80,1,0
68814,-156.25,4,2,1,70,0,0
69408,306.122448979592,4,2,1,80,1,0
69408,-96.153846153846,4,2,1,80,0,0
70632,303.030303030303,4,2,1,80,1,0
70632,-96.153846153846,4,2,1,80,0,0
71541,294.117647058824,4,2,1,80,1,0
71541,-96.153846153846,4,2,1,80,0,0
71835,303.030303030303,4,2,1,80,1,0
71835,-96.153846153846,4,2,1,80,0,0
72062,-96.153846153846,4,2,1,5,0,0
72138,-96.153846153846,4,2,1,80,0,0
74259,303.030303030303,4,2,1,80,1,0
74259,-96.153846153846,4,2,1,80,0,0
75698,-96.153846153846,4,2,1,5,0,0
75774,-96.153846153846,4,2,1,80,0,0
76683,304.568527918782,4,2,1,80,1,0
76683,-96.153846153846,4,2,1,80,0,0
77748,303.030303030303,4,2,1,80,1,0
77748,-96.153846153846,4,2,1,80,0,0
77899,303.030303030303,4,2,1,80,1,0
77899,-96.153846153846,4,2,1,80,0,0
79111,-87.719298245614,4,2,1,80,0,0
82368,-87.719298245614,4,2,1,5,0,0
82444,-87.719298245614,4,2,1,80,0,0
83277,-87.719298245614,4,2,1,5,0,0
83353,-87.719298245614,4,2,1,80,0,0
83959,306.122448979592,4,2,1,80,1,0
83959,-87.719298245614,4,2,1,80,0,0
85183,303.030303030303,4,2,1,80,1,0
85183,-87.719298245614,4,2,1,80,0,0
86395,303.030303030303,4,2,1,80,1,0
86395,-87.719298245614,4,2,1,80,0,0
91470,-87.719298245614,4,2,1,5,0,0
91546,-87.719298245614,4,2,1,80,0,0
96091,301.507537688442,4,2,1,80,1,0
96091,-87.719298245614,4,2,1,80,0,0
97297,303.030303030303,4,2,1,80,1,0
97297,-87.719298245614,4,2,1,80,0,0
100933,303.030303030303,4,2,1,80,1,0
100933,-87.719298245614,4,2,1,80,0,0
102145,297.029702970297,4,2,1,80,1,0
102145,-87.719298245614,4,2,1,80,0,0
102739,307.692307692308,4,2,1,80,1,0
102739,-87.719298245614,4,2,1,80,0,0
103200,303.030303030303,4,2,1,80,1,0
103200,-87.719298245614,4,2,1,80,0,0
103351,303.030303030303,4,2,1,80,1,0
103351,-86.9565217391304,4,2,1,80,0,0
103654,-86.9565217391304,4,2,1,75,0,0
103957,-86.9565217391304,4,2,1,70,0,0
104260,-86.9565217391304,4,2,1,65,0,0
104563,-86.9565217391304,4,2,1,60,0,0
104866,-86.9565217391304,4,2,1,55,0,0
105169,-86.9565217391304,4,2,1,50,0,0
105472,-86.9565217391304,4,2,1,45,0,0
105775,-86.9565217391304,4,2,1,40,0,0
106078,-86.9565217391304,4,2,1,36,0,0
106381,-86.9565217391304,4,2,1,32,0,0
106684,-86.9565217391304,4,2,1,28,0,0
106987,-86.9565217391304,4,2,1,23,0,0
107290,-86.9565217391304,4,2,1,18,0,0
107593,-86.9565217391304,4,2,1,15,0,0
107896,-86.9565217391304,4,2,1,12,0,0
108199,-86.9565217391304,4,2,1,8,0,0
108502,-86.9565217391304,4,2,1,5,0,0

[Colours]
Combo1 : 149,220,69
Combo2 : 131,179,237
Combo3 : 45,139,255
Combo4 : 220,224,52

[HitObjects]
201,270,20167,5,0,0:0:0:0:
202,287,20319,2,0,P|207:325|215:365,2,67.200001640625,2|2|2,0:0|0:0|0:0,0:0:0:0:
254,176,20940,5,6,3:1:0:0:
119,343,21091,1,6,3:2:0:0:
323,384,21243,1,6,3:2:0:0:
334,373,21546,2,0,P|367:380|405:385,2,67.200001640625,2|2|2,0:0|0:0|0:0,0:0:0:0:
282,216,22152,6,0,B|371:215|336:184|430:184,1,151.200003691406,2|0,0:0|0:0,0:0:0:0:
485,124,22758,2,0,B|473:89|473:89|483:48,2,67.200001640625,2|2|2,0:0|0:0|0:0,0:0:0:0:
427,184,23364,2,0,B|434:213|434:213|422:248,2,67.200001640625,2|2|2,0:0|0:0|0:0,0:0:0:0:
376,104,23970,5,2,0:0:0:0:
296,83,24197,5,2,0:0:0:0:
222,66,24424,5,2,0:0:0:0:
202,62,24576,6,0,B|184:133|267:138|242:215,1,151.200003691406,2|2,0:0|0:0,0:0:0:0:
191,289,25176,2,0,B|151:293|151:293|132:308|132:308|80:314,1,100.800002460938,2|2,0:0|0:0,0:0:0:0:
95,312,25776,5,2,0:0:0:0:
26,174,26078,2,0,P|22:145|16:116,1,50.4000012304688,2|0,0:0|0:0,0:0:0:0:
103,115,26380,2,0,P|112:62|125:11,1,100.800002460938,2|2,0:0|0:0,0:0:0:0:
103,115,26833,1,0,0:0:0:0:
154,188,26985,6,0,B|209:182|310:241|274:267|359:286,1,218.399998666992,2|2,0:0|0:0,0:0:0:0:
451,233,28100,1,0,3:2:0:0:
455,223,28167,1,0,3:2:0:0:
442,204,28234,5,14,0:0:0:0:
493,36,28681,1,8,3:3:0:0:
486,43,28980,1,0,3:2:0:0:
267,6,29129,5,8,0:0:0:0:
269,15,29432,5,0,3:2:0:0:
335,184,29583,1,8,0:0:0:0:
273,105,29735,1,0,3:2:0:0:
266,113,30032,2,0,B|229:101|229:101|208:85|208:85|166:74,2,105,2|2|2,0:0|0:0|0:0,0:0:0:0:
493,212,30626,6,0,B|396:211|439:261|348:270,1,145.599999111328,6|8,3:1|0:0,0:0:0:0:
259,250,31078,1,0,3:2:0:0:
245,347,31229,2,0,P|280:353|317:363,1,72.7999995556641,2|0,0:0|3:2,0:0:0:0:
170,297,31533,1,8,0:0:0:0:
85,332,31688,1,2,0:0:0:0:
41,176,31842,2,0,B|23:127|23:127|64:80,1,109.199999333496,6|0,3:2|0:0,0:0:0:0:
60,84,32139,6,0,B|141:87|116:144|194:158,1,140,8|2,0:0|0:0,0:0:0:0:
264,120,32610,1,0,3:2:0:0:
337,199,32767,1,8,0:0:0:0:
304,280,32924,1,2,0:0:0:0:
419,331,33081,6,0,P|381:286|286:291,1,140,6|10,3:2|0:0,0:0:0:0:
298,289,33446,1,0,0:0:0:0:
291,299,33521,2,0,L|204:310,1,70,2|0,3:2|0:0,0:0:0:0:
116,369,33823,2,0,L|29:358,1,70,2|8,3:2|0:0,0:0:0:0:
6,277,34132,1,2,0:0:0:0:
100,179,34287,6,0,P|169:183|228:123,1,140,4|10,3:2|0:0,0:0:0:0:
304,280,34732,2,0,B|357:288|357:288|388:310|388:310|460:323,1,140,2|2,3:2|3:2,0:0:0:0:
485,181,35186,2,0,B|449:120|449:120|428:162,1,105,10|0,0:0|0:0,0:0:0:0:
433,150,35501,6,0,B|348:149|383:178|297:188,1,140,4|10,3:2|0:0,0:0:0:0:
220,139,35936,1,0,3:2:0:0:
253,63,36086,1,2,0:0:0:0:
300,187,36236,1,0,3:2:0:0:
95,65,36386,6,0,P|50:98|48:165,1,105,10|0,0:0|0:0,0:0:0:0:
42,144,36686,2,0,B|123:153|89:189|169:205,1,140,6|10,3:2|0:0,0:0:0:0:
240,278,37142,1,0,3:2:0:0:
182,330,37295,1,2,0:0:0:0:
246,290,37447,1,0,3:2:0:0:
182,354,37599,1,10,0:0:0:0:
385,359,37752,6,0,B|382:283|333:296|343:203,1,140,6|0,3:1|3:2,0:0:0:0:
444,144,38221,2,0,P|481:138|523:129,1,70,12|0,0:0|3:2,0:0:0:0:
368,18,38519,5,12,0:0:0:0:
328,87,38669,1,0,3:2:0:0:
453,160,38818,5,12,0:0:0:0:
489,231,38967,1,0,3:2:0:0:
341,228,39116,6,0,B|257:216|294:183|208:177,1,140,12|10,0:0|0:0,0:0:0:0:
104,266,39572,1,2,3:2:0:0:
206,188,39725,1,10,0:0:0:0:
244,324,39878,1,2,3:2:0:0:
96,160,40032,1,10,0:0:0:0:
28,330,40186,1,2,3:2:0:0:
28,330,40263,1,0,3:2:0:0:
28,330,40340,6,0,B|99:338|57:363|143:385,1,114.800001751709,6|8,3:1|0:0,0:0:0:0:
247,324,40794,1,2,0:0:0:0:
256,315,40946,2,0,P|289:311|328:303,1,57.4000008758545,2|0,3:2|3:2,0:0:0:0:
361,180,41249,6,0,B|406:186|406:186|429:203|429:203|494:212,1,114.800001751709,10|0,0:0|3:2,0:0:0:0:
326,274,41852,1,8,0:0:0:0:
266,193,42003,1,2,0:0:0:0:
260,183,42153,2,0,P|255:147|249:109,1,57.4000008758545,2|2,3:2|3:2,0:0:0:0:
396,12,42454,1,10,0:0:0:0:
396,12,42755,6,0,B|326:15|344:35|281:39,1,114.800001751709,2|8,3:2|0:0,0:0:0:0:
196,15,43211,1,2,0:0:0:0:
187,16,43364,2,0,P|158:20|131:28,1,57.4000008758545,2|0,3:2|3:2,0:0:0:0:
50,114,43668,1,10,0:0:0:0:
50,114,43973,6,0,P|55:142|59:179,1,57.4000008758545,0|0,3:2|0:0,0:0:0:0:
128,260,44276,2,0,B|172:269|172:269|190:284|190:284|246:297,1,114.800001751709,8|0,0:0|3:2,0:0:0:0:
235,294,44730,1,0,3:2:0:0:
319,273,44882,1,8,0:0:0:0:
391,332,45033,1,2,3:2:0:0:
328,383,45185,6,0,P|311:328|322:265,2,114.800001751709,2|10|2,3:2|0:0|3:2,0:0:0:0:
488,339,45942,1,0,3:2:0:0:
480,327,46094,2,0,P|473:294|468:257,1,57.4000008758545,10|0,0:0|0:0,0:0:0:0:
423,166,46397,6,0,P|483:162|512:115,2,114.800001751709,2|10|2,3:2|0:0|3:2,0:0:0:0:
348,122,47154,1,0,3:2:0:0:
237,148,47306,1,10,0:0:0:0:
230,139,47609,5,2,3:2:0:0:
154,49,47760,2,0,P|180:57|229:63,1,57.4000008758545,2|10,0:0|0:0,0:0:0:0:
160,176,48063,2,0,B|117:181|117:181|92:200|92:200|43:206,1,114.800001751709,2|2,0:0|3:2,0:0:0:0:
4,129,48518,1,10,0:0:0:0:
58,221,48669,1,2,0:0:0:0:
12,314,48821,6,0,P|41:307|80:302,1,57.4000008758545,0|2,3:2|3:2,0:0:0:0:
222,254,49124,1,10,0:0:0:0:
168,357,49275,2,0,B|162:326|162:326|162:291,1,57.4000008758545,2|0,3:2|0:0,0:0:0:0:
309,196,49578,1,2,3:2:0:0:
297,275,49730,1,10,0:0:0:0:
207,179,49881,1,2,0:0:0:0:
207,179,49957,1,0,0:0:0:0:
207,179,50033,6,0,B|288:183|257:217|350:242,1,142.800000871582,6|8,3:1|0:0,0:0:0:0:
414,209,50488,1,2,0:0:0:0:
468,145,50639,2,0,P|456:88|447:24,1,114.800001751709,2|8,3:2|0:0,0:0:0:0:
447,32,51094,1,2,0:0:0:0:
359,42,51245,6,0,B|315:48|315:48|294:67|294:67|243:74,1,114.800001751709,2|8,3:2|0:0,0:0:0:0:
159,151,51700,1,0,3:2:0:0:
159,151,51775,1,0,3:2:0:0:
159,151,51851,1,2,3:2:0:0:
235,205,52003,1,2,3:2:0:0:
202,244,52154,1,10,0:0:0:0:
172,228,52306,1,2,0:0:0:0:
66,130,52457,6,0,P|57:188|43:262,1,114.800001751709,6|8,3:2|0:0,0:0:0:0:
68,354,52912,1,0,3:2:0:0:
68,354,52988,1,0,3:2:0:0:
68,354,53063,2,0,B|111:349|111:349|135:331|135:331|190:325,1,114.800001751709,2|8,3:2|0:0,0:0:0:0:
270,370,53518,1,2,0:0:0:0:
374,306,53669,6,0,B|384:263|384:263|373:213,1,86.1000013137818,6|0,3:2|0:0,0:0:0:0:
374,222,53972,2,0,P|336:215|299:204,1,57.4000008758545,8|2,0:0|0:0,0:0:0:0:
252,158,54275,1,2,3:2:0:0:
318,120,54427,1,0,3:2:0:0:
174,48,54578,6,0,B|108:41|134:23|61:18,1,114.800001751709,10|4,0:0|3:2,0:0:0:0:
61,24,55185,1,8,0:0:0:0:
18,104,55336,1,0,3:2:0:0:
18,104,55412,1,0,3:2:0:0:
18,104,55488,1,2,3:2:0:0:
75,147,55639,1,0,3:2:0:0:
189,69,55791,1,10,0:0:0:0:
205,63,55942,1,2,0:0:0:0:
252,158,56094,6,0,P|290:168|348:180,1,86.1000013137818,6|0,3:2|0:0,0:0:0:0:
335,177,56397,2,0,B|333:207|333:207|344:242,1,57.4000008758545,10|2,0:0|0:0,0:0:0:0:
357,260,56624,1,0,3:2:0:0:
357,260,56700,1,2,3:2:0:0:
403,315,56851,1,0,3:2:0:0:
225,321,57003,2,0,P|185:330|141:342,1,86.1000013137818,12|0,0:0|0:0,0:0:0:0:
141,342,57306,6,0,P|121:281|123:201,1,131.599997991943,6|10,3:1|0:0,0:0:0:0:
120,214,57912,1,2,3:2:0:0:
160,146,58063,1,2,3:2:0:0:
95,22,58215,1,8,0:0:0:0:
62,92,58366,6,0,B|130:80|110:46|201:47,1,131.599997991943,6|0,3:1|3:2,0:0:0:0:
290,132,58821,2,0,P|323:138|376:149,1,65.7999989959717,10|0,0:0|3:2,0:0:0:0:
427,41,59124,5,10,0:0:0:0:
468,108,59275,1,0,3:2:0:0:
338,221,59427,5,10,0:0:0:0:
373,149,59578,1,10,0:0:0:0:
458,271,59730,6,0,P|417:280|384:302,1,65.7999989959717,6|2,3:2|3:2,0:0:0:0:
339,361,60033,1,8,0:0:0:0:
339,361,60185,2,0,P|271:346|189:331,1,131.599997991943,6|2,3:2|3:2,0:0:0:0:
70,256,60639,1,8,0:0:0:0:
62,247,60791,6,0,B|96:206|96:206|171:246,1,131.599997991943,6|2,3:2|3:2,0:0:0:0:
176,250,61169,1,2,0:0:0:0:
189,239,61245,1,10,0:0:0:0:
273,175,61397,5,2,0:0:0:0:
185,124,61548,2,0,P|149:118|120:111,1,65.7999989959717,2|2,3:2|3:2,0:0:0:0:
248,55,61851,2,0,P|283:49|312:42,1,65.7999989959717,10|2,0:0|0:0,0:0:0:0:
448,137,62154,5,6,3:2:0:0:
448,137,62306,2,0,P|459:169|456:208,1,65.7999989959717,0|10,3:2|0:0,0:0:0:0:
411,316,62609,2,0,B|372:307|372:307|353:295|353:295|313:287,1,98.6999984939576,6|0,3:2|0:0,0:0:0:0:
317,288,62912,1,2,3:2:0:0:
260,336,63063,1,8,0:0:0:0:
121,242,63215,6,0,P|112:176|120:110,1,131.599997991943,6|2,3:2|3:2,0:0:0:0:
123,103,63594,1,2,0:0:0:0:
127,97,63669,1,10,0:0:0:0:
42,27,63821,5,2,3:2:0:0:
42,27,63972,2,0,P|76:21|116:11,1,65.7999989959717,2|2,3:2|3:2,0:0:0:0:
213,119,64275,2,0,B|245:115|245:115|282:132,1,65.7999989959717,10|2,0:0|0:0,0:0:0:0:
391,232,64578,5,6,3:2:0:0:
353,297,64730,1,0,3:2:0:0:
482,369,64881,1,10,0:0:0:0:
365,317,65033,2,0,P|310:323|264:334,1,98.6999984939576,6|0,3:2|0:0,0:0:0:0:
260,318,65336,2,0,P|226:312|196:302,1,65.7999989959717,2|8,3:2|0:0,0:0:0:0:
63,373,65636,6,0,P|78:307|58:230,1,131.599997991943,6|2,3:2|3:2,0:0:0:0:
55,232,66014,1,2,0:0:0:0:
46,222,66093,1,10,0:0:0:0:
88,107,66396,2,0,P|109:102|143:93,2,43.8666659973145,10|8|8,0:0|0:0|0:0,0:0:0:0:
146,188,66676,2,0,P|179:192|219:203,1,65.7999989959717,2|0,3:2|0:0,0:0:0:0:
303,112,66996,6,0,B|376:100|350:71|435:68,1,131.599997991943,14|2,0:0|3:2,0:0:0:0:
497,127,67450,1,14,0:0:0:0:
464,198,67602,2,0,P|471:231|478:269,1,65.7999989959717,0|2,3:2|3:2,0:0:0:0:
431,352,67905,1,8,0:0:0:0:
331,268,68056,6,0,P|273:232|197:250,1,134.4,6|0,3:1|0:0,0:0:0:0:
148,192,68662,1,2,3:2:0:0:
148,192,68738,1,0,3:2:0:0:
148,192,68814,1,10,3:3:0:0:
114,110,69036,1,0,0:0:0:0:
174,52,69259,1,0,0:0:0:0:
319,35,69408,6,0,B|406:37|378:73|464:83,1,145.599999111328,6|12,3:1|0:0,0:0:0:0:
454,81,69867,1,2,0:0:0:0:
462,180,70020,2,0,P|470:216|482:255,1,72.7999995556641,6|2,3:2|3:2,0:0:0:0:
460,343,70326,1,12,0:0:0:0:
349,280,70479,1,2,0:0:0:0:
349,280,70555,1,2,0:0:0:0:
349,280,70632,6,0,B|272:274|307:245|192:239,1,145.599999111328,6|12,3:1|0:0,0:0:0:0:
127,273,71086,1,0,0:0:0:0:
127,273,71238,2,0,P|125:307|132:350,1,72.7999995556641,6|0,3:2|3:2,0:0:0:0:
82,171,71541,2,0,P|46:190|11:197,1,72.7999995556641,12|2,0:0|0:0,0:0:0:0:
104,68,71835,6,0,B|146:78|146:78|166:93|166:93|224:107,1,109.199999333496,6|2,3:1|0:0,0:0:0:0:
219,91,72138,2,0,P|261:85|313:75,1,72.7999995556641,12|2,0:0|0:0,0:0:0:0:
298,198,72441,2,0,B|327:202|327:202|342:212|342:212|389:222,1,72.7999995556641,6|2,3:2|3:2,0:0:0:0:
463,139,72744,1,12,0:0:0:0:
387,200,72895,1,2,0:0:0:0:
387,200,72971,1,2,0:0:0:0:
387,200,73047,5,6,3:1:0:0:
479,265,73198,1,0,3:2:0:0:
348,332,73350,2,0,B|291:343|291:343|267:372|267:372|205:383,1,145.599999111328,12|6,0:0|3:2,0:0:0:0:
142,331,73804,1,0,3:2:0:0:
142,331,73956,2,0,P|136:284|141:239,1,72.7999995556641,14|0,0:2|0:0,0:0:0:0:
164,146,74259,6,0,B|254:154|212:181|301:198,1,145.599999111328,4|14,3:1|0:0,0:0:0:0:
411,147,74713,1,0,0:0:0:0:
339,95,74865,2,0,P|338:58|329:23,1,72.7999995556641,6|0,3:2|3:2,0:0:0:0:
379,228,75168,2,0,B|407:233|407:233|419:241|419:241|450:249,1,72.7999995556641,14|0,0:0|0:0,0:0:0:0:
346,342,75471,6,0,P|288:348|236:368,1,109.199999333496,6|0,3:1|0:0,0:0:0:0:
240,365,75774,2,0,B|229:330|229:330|235:280,1,72.7999995556641,14|0,0:0|0:0,0:0:0:0:
246,206,76077,1,6,3:2:0:0:
204,126,76228,1,0,3:2:0:0:
97,161,76380,2,0,P|63:170|21:174,1,72.7999995556641,14|0,0:0|0:0,0:0:0:0:
102,323,76683,6,0,B|187:329|149:355|264:369,1,145.599999111328,6|14,3:1|0:0,0:0:0:0:
330,330,77139,1,0,0:0:0:0:
483,384,77292,1,6,3:2:0:0:
399,262,77444,2,0,P|393:226|397:187,1,72.7999995556641,0|10,3:2|0:0,0:0:0:0:
452,63,77748,6,0,B|401:74|401:74|370:107|370:107|315:121,1,145.599999111328,6|2,3:1|3:2,0:0:0:0:
223,92,78202,2,0,P|216:58|226:17,1,72.7999995556641,14|0,0:0|0:0,0:0:0:0:
310,0,78505,1,6,3:2:0:0:
323,118,78656,2,0,B|326:134|326:134|331:155,2,36.399999777832,0|0|14,3:2|3:2|0:0,0:0:0:0:
243,190,78959,1,2,0:0:0:0:
369,252,79111,6,0,B|281:213|281:213|284:276,1,159.599998051758,6|12,3:1|0:0,0:0:0:0:
148,360,79565,1,2,0:0:0:0:
228,340,79717,2,0,P|266:352|327:363,1,79.7999990258789,6|2,3:2|3:2,0:0:0:0:
171,265,80020,1,12,0:0:0:0:
58,321,80171,1,2,0:0:0:0:
58,321,80247,1,2,0:0:0:0:
58,321,80323,6,0,B|78:235|22:241|39:158,1,159.599998051758,6|12,3:1|0:0,0:0:0:0:
37,166,80777,1,0,0:0:0:0:
115,77,80929,2,0,P|156:72|199:62,1,79.7999990258789,6|0,3:2|3:2,0:0:0:0:
253,187,81232,2,0,B|265:225|265:225|251:269,1,79.7999990258789,12|2,0:0|0:0,0:0:0:0:
115,182,81535,6,0,P|76:172|36:166,1,79.7999990258789,6|0,3:1|3:2,0:0:0:0:
27,164,81762,1,2,0:0:0:0:
12,158,81838,1,12,0:0:0:0:
102,75,81989,1,2,0:0:0:0:
9,24,82141,2,0,P|66:28|103:100,1,119.699998538818,6|0,3:2|0:0,0:0:0:0:
101,74,82444,2,0,P|137:65|178:59,1,79.7999990258789,12|2,0:0|0:0,0:0:0:0:
258,102,82747,5,6,3:1:0:0:
242,186,82899,1,0,3:2:0:0:
371,137,83050,2,0,P|433:135|466:189,1,119.699998538818,12|0,0:0|0:0,0:0:0:0:
464,177,83353,2,0,B|471:211|471:211|485:225|485:225|493:262,1,79.7999990258789,6|0,3:2|3:2,0:0:0:0:
390,350,83656,1,14,0:2:0:0:
381,345,83959,5,4,3:1:0:0:
304,312,84112,1,0,3:2:0:0:
209,364,84265,2,0,P|169:368|131:378,1,79.7999990258789,14|0,0:0|0:0,0:0:0:0:
42,310,84571,2,0,P|34:269|41:223,1,79.7999990258789,6|0,3:2|3:2,0:0:0:0:
38,231,84877,2,0,B|135:222|81:186|211:185,1,159.599998051758,14|14,0:0|0:0,0:0:0:0:
188,185,85486,5,12,0:0:0:0:
190,175,85561,1,8,0:0:0:0:
198,161,85637,1,8,0:0:0:0:
213,152,85713,1,8,0:0:0:0:
228,157,85789,6,0,P|248:165|279:173,1,39.8999995129395,14|8,0:0|0:0,0:0:0:0:
335,117,85940,2,0,P|354:111|372:103,1,39.8999995129395,8|10,0:0|0:0,0:0:0:0:
385,224,86092,6,0,P|409:228|436:237,1,39.8999995129395,12|8,0:0|0:0,0:0:0:0:
451,55,86243,2,0,P|468:61|499:67,1,39.8999995129395,10|8,0:0|0:0,0:0:0:0:
508,188,86395,6,0,P|446:230|458:307,1,159.599998051758,6|12,3:1|0:0,0:0:0:0:
457,305,86849,1,2,0:0:0:0:
336,301,87001,2,0,P|296:311|243:322,1,79.7999990258789,6|2,3:2|3:2,0:0:0:0:
169,265,87304,1,12,0:0:0:0:
93,347,87455,1,2,0:0:0:0:
93,347,87531,1,2,0:0:0:0:
93,347,87607,6,0,B|128:264|128:264|54:274,1,159.599998051758,6|12,3:1|0:0,0:0:0:0:
0,192,88061,1,0,0:0:0:0:
70,67,88213,2,0,P|92:102|97:154,1,79.7999990258789,6|0,3:2|3:2,0:0:0:0:
200,164,88516,2,0,B|233:157|233:157|250:146|250:146|298:139,1,79.7999990258789,12|2,0:0|0:0,0:0:0:0:
413,38,88819,5,6,3:1:0:0:
385,144,88970,1,0,3:2:0:0:
385,144,89046,1,2,3:2:0:0:
385,144,89122,2,0,P|394:183|415:237,1,79.7999990258789,12|2,0:0|0:0,0:0:0:0:
493,270,89425,1,6,3:2:0:0:
427,348,89576,1,0,3:2:0:0:
427,348,89652,1,2,3:2:0:0:
427,348,89728,2,0,P|391:316|351:316,1,79.7999990258789,12|2,0:0|0:0,0:0:0:0:
253,333,90031,6,0,B|196:340|196:340|160:372|160:372|98:381,1,159.599998051758,6|12,3:1|0:0,0:0:0:0:
106,379,90637,1,6,3:2:0:0:
79,306,90788,1,0,3:2:0:0:
117,211,90940,2,0,B|126:170|126:170|118:124,1,79.7999990258789,14|0,0:2|0:0,0:0:0:0:
7,0,91243,6,0,P|48:42|112:39,1,119.699998538818,4|0,3:1|0:0,0:0:0:0:
105,41,91546,2,0,P|142:48|195:59,1,79.7999990258789,14|0,0:0|0:0,0:0:0:0:
321,28,91849,1,6,3:2:0:0:
254,91,92001,1,0,3:2:0:0:
342,132,92152,2,0,P|350:170|346:214,1,79.7999990258789,14|0,0:0|0:0,0:0:0:0:
279,311,92455,5,6,3:1:0:0:
351,350,92607,1,0,3:2:0:0:
265,229,92758,2,0,P|216:232|177:263,1,79.7999990258789,14|0,0:0|0:0,0:0:0:0:
365,345,93061,2,0,B|398:349|398:349|414:360|414:360|462:365,1,79.7999990258789,6|0,3:2|3:2,0:0:0:0:
436,223,93364,2,0,B|442:181|442:181|431:136,1,79.7999990258789,14|0,0:0|0:0,0:0:0:0:
321,28,93667,5,4,3:1:0:0:
328,25,93970,1,14,0:0:0:0:
417,57,94122,1,0,0:0:0:0:
361,103,94273,1,6,3:2:0:0:
241,57,94425,1,2,3:2:0:0:
224,62,94576,1,12,0:0:0:0:
118,141,94728,6,0,B|22:119|22:119|50:184,1,159.599998051758,6|0,3:1|3:2,0:0:0:0:
97,274,95182,2,0,B|196:286|148:312|254:337,1,159.599998051758,14|6,0:0|3:2,0:0:0:0:
339,313,95637,2,0,B|347:272|347:272|334:224,1,79.7999990258789,0|12,3:2|0:0,0:0:0:0:
227,172,95940,1,2,3:2:0:0:
227,172,96016,1,0,3:2:0:0:
227,172,96091,1,14,3:1:0:0:
328,25,96392,6,0,P|367:38|424:50,1,79.7999990258789,12|0,0:0|0:0,0:0:0:0:
303,150,96694,2,0,P|263:163|207:175,1,79.7999990258789,12|0,0:0|3:2,0:0:0:0:
129,61,96995,5,12,0:0:0:0:
226,93,97146,1,2,3:2:0:0:
226,93,97221,1,0,3:2:0:0:
226,93,97297,1,14,3:1:0:0:
104,190,97448,1,0,0:0:0:0:
35,80,97600,1,12,0:0:0:0:
28,332,97903,6,0,P|59:308|112:306,1,79.7999990258789,12|0,0:0|3:2,0:0:0:0:
237,269,98206,2,0,B|249:226|249:226|236:178,1,79.7999990258789,12|2,0:0|3:2,0:0:0:0:
232,182,98433,1,0,3:2:0:0:
226,171,98509,1,14,3:1:0:0:
37,121,98812,5,12,0:0:0:0:
0,49,98963,1,2,0:0:0:0:
141,183,99115,5,12,0:0:0:0:
61,243,99266,1,0,3:2:0:0:
0,49,99418,5,12,0:0:0:0:
228,83,99569,1,2,3:2:0:0:
228,83,99645,1,0,3:2:0:0:
228,83,99721,1,14,3:1:0:0:
509,342,100024,6,0,P|466:333|427:322,1,79.7999990258789,12|0,0:0|0:0,0:0:0:0:
284,376,100327,5,14,0:0:0:0:
203,214,100478,1,0,3:2:0:0:
294,273,100630,5,14,0:0:0:0:
342,165,100781,1,0,3:2:0:0:
342,165,100857,1,0,3:2:0:0:
342,165,100933,1,14,3:1:0:0:
344,180,101236,6,0,P|364:186|396:190,3,39.8999995129395,14|8|8|8,0:0|0:0|0:0|0:0,0:0:0:0:
252,125,101539,6,0,P|232:131|200:135,3,39.8999995129395,14|8|8|8,0:0|0:0|0:0|0:0,0:0:0:0:
351,48,101842,5,14,0:0:0:0:
365,36,101917,1,8,0:0:0:0:
402,28,101993,1,8,0:0:0:0:
448,56,102069,1,8,0:0:0:0:
461,77,102145,6,0,P|467:108|475:135,2,53.1999993505859,6|8|8,3:1|0:0|0:0,0:0:0:0:
428,202,102442,6,0,P|422:233|414:260,2,53.1999993505859,10|8|8,0:0|0:0|0:0,0:0:0:0:
489,372,102739,6,0,B|356:365|404:293|265:291,1,239.399997077637,14|14,3:2|3:1,0:0:0:0:
256,192,103351,12,0,108502,0:0:0:0:
