osu file format v14

[General]
AudioFilename: audio.mp3
AudioLeadIn: 0
PreviewTime: 68655
Countdown: 0
SampleSet: Soft
StackLeniency: 0.5
Mode: 0
LetterboxInBreaks: 0
WidescreenStoryboard: 1

[Editor]
Bookmarks: 71536
DistanceSpacing: 1
BeatDivisor: 4
GridSize: 32
TimelineZoom: 1.850001

[Metadata]
Title:Kaze ga Fuku Machi (TV Size)
TitleUnicode:風が吹く街 (TV Size)
Artist:Luck Life
ArtistUnicode:ラックライフ
Creator:Smoke
Version:Gabizon's Normal
Source:文豪ストレイドッグス
Tags:rock jrock j-rock pop jpop j-pop japanese anime ending ed bungo bungou stray dogs Gabizon04 Nachmark -_Aqua Gouuh Asahina Oleshev melleganol Mizujin hausenberg season 2 two
BeatmapID:4009967
BeatmapSetID:1938781

[Difficulty]
HPDrainRate:3
CircleSize:3
OverallDifficulty:4
ApproachRate:5.5
SliderMultiplier:1
SliderTickRate:1

[Events]
//Background and Video events
0,0,"white.jpg",0,0
//Break Periods
2,21443,26895
//Storyboard Layer 0 (Background)
//Storyboard Layer 1 (Fail)
//Storyboard Layer 2 (Pass)
//Storyboard Layer 3 (Foreground)
//Storyboard Layer 4 (Overlay)
//Storyboard Sound Samples

[TimingPoints]
1553,303.030303030303,4,2,1,70,1,0
6401,301.507537688442,4,2,1,70,1,0
8813,303.030303030303,4,2,1,70,1,0
11229,-100,4,2,2,60,0,0
11237,303.030303030303,4,2,1,70,1,0
13358,309.278350515464,4,2,1,70,1,0
13667,304.568527918782,4,2,1,70,1,0
16103,292.682926829268,4,2,1,70,1,0
16395,306.122448979592,4,2,1,70,1,0
17313,301.507537688442,4,2,1,70,1,0
18519,297.029702970297,4,2,1,70,1,0
19558,304.568527918782,4,2,1,70,1,0
20319,310.880829015544,4,2,1,70,1,0
20940,303.030303030303,4,2,1,70,1,0
20940,-95.2380952380952,4,2,1,80,0,0
21381,-95.2380952380952,4,2,1,50,0,0
24576,300,4,2,1,70,1,0
25776,302.267002518892,4,2,1,70,1,0
26985,309.278350515464,4,2,1,50,1,0
28100,269.058295964126,4,2,1,70,1,0
28100,-100,4,2,1,50,0,0
28234,298.507462686567,4,2,1,70,1,0
28234,-100,4,2,1,50,0,0
29129,303.030303030303,4,2,1,70,1,0
29129,-100,4,2,1,50,0,0
29735,297.029702970297,4,2,1,70,1,0
29735,-100,4,2,1,50,0,0
30031,-100,4,2,1,60,0,0
30626,301.507537688442,4,2,1,80,1,0
30626,-95.2380952380952,4,2,1,60,0,0
31379,309.278350515464,4,2,1,80,1,0
31379,-95.2380952380952,4,2,1,60,0,0
31842,297.029702970297,4,2,1,80,1,0
31842,-95.2380952380952,4,2,1,60,0,0
32139,313.971742543171,4,2,1,80,1,0
32139,-95.2380952380952,4,2,1,60,0,0
33080,291.26213592233,4,2,1,80,1,0
33080,-95.2380952380952,4,2,1,60,0,0
33371,301.507537688442,4,2,1,80,1,0
33371,-95.2380952380952,4,2,1,60,0,0
33823,309.597523219814,4,2,1,80,1,0
33823,-95.2380952380952,4,2,1,60,0,0
34287,297.029702970297,4,2,1,80,1,0
34287,-95.2380952380952,4,2,1,60,0,0
34732,303.030303030303,4,2,1,80,1,0
34732,-95.2380952380952,4,2,1,60,0,0
35186,315.126050420168,4,2,1,80,1,0
35186,-95.2380952380952,4,2,1,60,0,0
35501,285.714285714286,4,2,1,80,1,0
35501,-95.2380952380952,4,2,1,60,0,0
35786,300,4,2,1,80,1,0
35786,-95.2380952380952,4,2,1,60,0,0
36386,-95.2380952380952,4,2,1,60,0,0
36686,304.723209751143,4,2,1,80,1,0
36686,-95.2380952380952,4,2,1,60,0,0
37752,320.855614973262,4,2,1,80,1,0
37752,-95.2380952380952,4,2,1,60,0,0
38072,298.507462686567,4,2,1,80,1,0
38072,-95.2380952380952,4,2,1,60,0,0
39116,304.568527918782,4,2,1,80,1,0
39725,307.692307692308,4,2,1,80,1,0
39725,-95.2380952380952,4,2,1,60,0,0
40340,303.030303030303,4,2,1,80,1,0
40340,-105.263157894737,4,2,1,60,0,0
41552,300.751879699248,4,2,1,80,1,0
41552,-105.263157894737,4,2,1,60,0,0
42755,304.568527918782,4,2,1,80,1,0
42755,-105.263157894737,4,2,1,60,0,0
43973,303.030303030303,4,2,1,80,1,0
43973,-105.263157894737,4,2,1,60,0,0
45185,303.030303030303,4,2,1,80,1,0
45185,-105.263157894737,4,2,1,60,0,0
50024,-105.263157894737,4,2,1,65,0,0
57295,-100,4,2,1,70,0,0
65336,300,4,2,1,80,1,0
65336,-100,4,2,1,70,0,0
65936,314.13612565445,4,2,1,80,1,0
65936,-100,4,2,1,70,0,0
66093,303.030303030303,4,2,1,80,1,0
66093,-100,4,2,1,70,0,0
66396,280.373831775701,4,2,1,80,1,0
66396,-100,4,2,1,70,0,0
66676,319.148936170213,4,2,1,80,1,0
66676,-100,4,2,1,70,0,0
66996,303.030303030303,4,2,1,80,1,0
66996,-100,4,2,1,70,0,0
68814,297.029702970297,4,2,1,80,1,0
68814,-100,4,2,1,70,0,0
69408,306.122448979592,4,2,1,80,1,0
69408,-95.2380952380952,4,2,1,80,0,1
70632,303.030303030303,4,2,1,80,1,0
70632,-95.2380952380952,4,2,1,80,0,1
71541,294.117647058824,4,2,1,80,1,0
71541,-95.2380952380952,4,2,1,80,0,1
71835,303.030303030303,4,2,1,80,1,0
71835,-95.2380952380952,4,2,1,80,0,1
74259,303.030303030303,4,2,1,80,1,0
74259,-95.2380952380952,4,2,1,80,0,1
76683,304.568527918782,4,2,1,80,1,0
76683,-95.2380952380952,4,2,1,80,0,1
77748,303.030303030303,4,2,1,80,1,0
77748,-95.2380952380952,4,2,1,80,0,1
77899,303.030303030303,4,2,1,80,1,0
77899,-95.2380952380952,4,2,1,80,0,1
83959,306.122448979592,4,2,1,80,1,0
83959,-95.2380952380952,4,2,1,80,0,1
85183,303.030303030303,4,2,1,80,1,0
85183,-95.2380952380952,4,2,1,80,0,1
86395,303.030303030303,4,2,1,80,1,0
86395,-95.2380952380952,4,2,1,80,0,1
96091,301.507537688442,4,2,1,80,1,0
96091,-95.2380952380952,4,2,1,80,0,1
97297,303.030303030303,4,2,1,80,1,0
97297,-95.2380952380952,4,2,1,80,0,1
100933,303.030303030303,4,2,1,80,1,0
100933,-95.2380952380952,4,2,1,80,0,1
102145,297.029702970297,4,2,1,80,1,0
102145,-95.2380952380952,4,2,1,80,0,1
102739,307.692307692308,4,2,1,80,1,0
102739,-95.2380952380952,4,2,1,80,0,1
103200,303.030303030303,4,2,1,80,1,0
103200,-100,4,2,1,80,0,0
103351,303.030303030303,4,2,1,80,1,0
103351,-86.9565217391304,4,2,1,80,0,0
103654,-86.9565217391304,4,2,1,75,0,0
103957,-86.9565217391304,4,2,1,70,0,0
104260,-86.9565217391304,4,2,1,65,0,0
104563,-86.9565217391304,4,2,1,60,0,0
104866,-86.9565217391304,4,2,1,55,0,0
105169,-86.9565217391304,4,2,1,50,0,0
105472,-86.9565217391304,4,2,1,45,0,0
105775,-86.9565217391304,4,2,1,40,0,0
106078,-86.9565217391304,4,2,1,36,0,0
106381,-86.9565217391304,4,2,1,32,0,0
106684,-86.9565217391304,4,2,1,28,0,0
106987,-86.9565217391304,4,2,1,23,0,0
107290,-86.9565217391304,4,2,1,18,0,0
107593,-86.9565217391304,4,2,1,15,0,0
107896,-86.9565217391304,4,2,1,12,0,0
108199,-86.9565217391304,4,2,1,8,0,0
108502,-86.9565217391304,4,2,1,5,0,0

[Colours]
Combo1 : 149,220,69
Combo2 : 131,179,237
Combo3 : 45,139,255
Combo4 : 220,224,52

[HitObjects]
473,69,20940,6,0,L|485:9,2,52.4999983978272,6|6|6,3:1|3:2|3:2,0:0:0:0:
481,352,28100,5,0,3:2:0:0:
481,352,28234,2,0,L|377:327,1,100,14|0,0:0|0:0,0:0:0:0:
343,299,28681,2,0,L|239:324,1,100,8|0,3:3|3:2,0:0:0:0:
197,335,29129,1,8,0:0:0:0:
98,352,29432,2,0,L|81:286,1,50,0|8,3:2|0:0,0:0:0:0:
73,250,29735,1,0,3:2:0:0:
139,175,30032,2,0,L|119:94,2,75,2|2|2,0:0|0:0|0:0,0:0:0:0:
184,193,30626,6,0,P|242:197|281:161,1,104.999996795654,6|8,3:1|0:0,0:0:0:0:
362,108,31229,2,0,L|376:162,1,52.4999983978272,2|0,0:0|3:2,0:0:0:0:
409,198,31533,2,0,L|399:254,1,52.4999983978272,8|2,0:0|0:0,0:0:0:0:
387,300,31842,2,0,P|327:287|264:277,1,104.999996795654,6|8,3:2|0:0,0:0:0:0:
230,185,32452,2,0,L|137:204,2,78.7499975967408,2|2|2,0:0|0:0|0:0,0:0:0:0:
274,152,33080,6,0,P|285:104|249:55,1,104.999996795654,6|10,3:2|0:0,0:0:0:0:
211,33,33521,1,2,3:2:0:0:
132,102,33823,2,0,L|65:119,1,52.4999983978272,2|8,3:2|0:0,0:0:0:0:
42,77,34132,1,2,0:0:0:0:
7,176,34435,1,2,0:0:0:0:
84,240,34732,1,2,3:2:0:0:
37,336,35035,1,2,3:2:0:0:
37,336,35186,2,0,L|100:352,1,52.4999983978272,10|0,0:0|0:0,0:0:0:0:
138,362,35501,6,0,P|192:367|241:333,1,104.999996795654,4|10,3:2|0:0,0:0:0:0:
295,254,36086,2,0,L|412:279,1,104.999996795654,2|10,0:0|0:0,0:0:0:0:
471,199,36686,1,6,3:2:0:0:
416,109,36990,1,10,0:0:0:0:
314,136,37295,2,0,P|301:96|322:35,1,104.999996795654,2|10,0:0|0:0,0:0:0:0:
277,11,37752,6,0,L|166:31,1,104.999996795654,6|0,3:1|3:2,0:0:0:0:
142,72,38221,1,12,0:0:0:0:
194,162,38519,1,12,0:0:0:0:
132,247,38818,1,12,0:0:0:0:
190,325,39116,1,12,0:0:0:0:
107,381,39420,2,0,L|50:364,1,50,10|2,0:0|3:2,0:0:0:0:
10,347,39725,2,0,L|28:278,1,52.4999983978272,10|2,0:0|3:2,0:0:0:0:
35,245,40032,1,10,0:0:0:0:
33,148,40340,6,0,P|73:157|133:117,1,94.9999974632264,6|8,3:1|0:0,0:0:0:0:
145,101,40794,1,2,0:0:0:0:
145,101,40946,2,0,P|185:92|247:135,1,94.9999974632264,2|10,3:2|0:0,0:0:0:0:
306,61,41552,2,0,L|330:158,1,94.9999974632264,0|8,3:2|0:0,0:0:0:0:
263,221,42153,2,0,L|204:207,2,47.4999987316132,2|2|10,3:2|3:2|0:0,0:0:0:0:
347,261,42755,6,0,L|469:237,1,94.9999974632264,2|8,3:2|0:0,0:0:0:0:
493,254,43211,1,2,0:0:0:0:
493,254,43364,2,0,P|516:306|488:355,1,94.9999974632264,2|10,3:2|0:0,0:0:0:0:
416,374,43973,2,0,L|314:352,1,94.9999974632264,0|8,3:2|0:0,0:0:0:0:
229,338,44579,2,0,L|177:362,2,47.4999987316132,0|0|8,3:2|3:2|0:0,0:0:0:0:
216,243,45185,6,0,P|250:210|318:217,1,94.9999974632264,2|10,3:2|0:0,0:0:0:0:
386,234,45791,2,0,P|412:185|390:119,1,94.9999974632264,2|10,3:2|0:0,0:0:0:0:
369,60,46397,1,2,3:2:0:0:
284,16,46700,1,10,0:0:0:0:
202,65,47003,2,0,P|148:94|91:63,1,94.9999974632264,2|10,3:2|0:0,0:0:0:0:
29,50,47609,6,0,L|52:176,1,94.9999974632264,2|10,3:2|0:0,0:0:0:0:
73,182,48063,2,0,L|57:293,1,94.9999974632264,2|2,0:0|3:2,0:0:0:0:
50,325,48518,1,10,0:0:0:0:
50,325,48669,1,2,0:0:0:0:
144,336,48972,2,0,L|151:385,2,47.4999987316132,2|10|2,3:2|0:0|3:2,0:0:0:0:
172,298,49427,2,0,P|194:293|258:339,1,94.9999974632264,2|10,3:2|0:0,0:0:0:0:
321,261,50033,6,0,P|333:213|314:168,1,94.9999974632264,6|8,3:1|0:0,0:0:0:0:
311,129,50488,1,2,0:0:0:0:
311,129,50639,2,0,L|414:100,1,94.9999974632264,2|8,3:2|0:0,0:0:0:0:
484,150,51245,2,0,L|458:263,1,94.9999974632264,2|8,3:2|0:0,0:0:0:0:
454,292,51700,1,0,3:2:0:0:
454,292,51851,2,0,L|468:351,2,47.4999987316132,2|2|10,3:2|3:2|0:0,0:0:0:0:
359,289,52457,6,0,L|241:311,1,94.9999974632264,6|8,3:2|0:0,0:0:0:0:
224,324,52912,1,0,3:2:0:0:
224,324,53063,2,0,P|198:275|212:220,1,94.9999974632264,2|8,3:2|0:0,0:0:0:0:
235,148,53669,2,0,P|182:138|126:190,1,94.9999974632264,6|8,3:2|0:0,0:0:0:0:
53,170,54275,2,0,L|36:94,1,47.4999987316132,2|0,3:2|3:2,0:0:0:0:
30,77,54578,1,10,0:0:0:0:
97,10,54881,6,0,L|200:34,1,94.9999974632264,4|8,3:2|0:0,0:0:0:0:
283,15,55488,1,2,3:2:0:0:
357,74,55791,2,0,L|425:63,1,47.4999987316132,10|2,0:0|0:0,0:0:0:0:
451,60,56094,2,0,L|433:163,1,94.9999974632264,6|10,3:2|0:0,0:0:0:0:
342,178,56700,2,0,P|358:223|398:252,1,94.9999974632264,2|12,3:2|0:0,0:0:0:0:
414,348,57306,6,0,L|535:320,2,100,6|10|2,3:1|0:0|3:2,0:0:0:0:
370,373,58063,1,2,3:2:0:0:
290,313,58366,2,0,P|227:313|203:345,1,100,6|0,3:1|3:2,0:0:0:0:
166,368,58821,1,10,0:0:0:0:
77,321,59124,2,0,L|66:200,1,100,10|10,0:0|0:0,0:0:0:0:
36,189,59578,5,10,0:0:0:0:
36,189,59730,2,0,L|49:129,1,50,6|2,3:2|3:2,0:0:0:0:
97,53,60185,2,0,L|-39:12,2,100,6|2|6,3:2|3:2|3:2,0:0:0:0:
192,83,61094,2,0,L|254:65,1,50,2|10,3:2|0:0,0:0:0:0:
291,55,61397,1,2,0:0:0:0:
291,55,61548,2,0,L|408:89,1,100,2|10,3:2|0:0,0:0:0:0:
486,91,62154,6,0,P|459:132|465:181,1,100,6|10,3:2|0:0,0:0:0:0:
497,217,62609,2,0,L|482:317,1,100,6|2,3:2|3:2,0:0:0:0:
404,379,63215,1,6,3:2:0:0:
337,304,63518,2,0,L|346:230,2,50,2|10|2,3:2|0:0|3:2,0:0:0:0:
296,333,63972,2,0,L|184:303,1,100,2|10,3:2|0:0,0:0:0:0:
121,370,64578,6,0,P|72:378|28:356,1,100,6|10,3:2|0:0,0:0:0:0:
6,311,65033,2,0,P|-1:262|21:218,1,100,6|2,3:2|3:2,0:0:0:0:
114,182,65636,1,6,3:2:0:0:
167,267,65936,1,2,3:2:0:0:
167,267,66093,1,10,0:0:0:0:
254,208,66396,2,0,L|276:101,1,100,10|2,0:0|3:2,0:0:0:0:
190,49,66996,6,0,P|137:38|95:63,1,100,14|2,0:0|3:2,0:0:0:0:
55,83,67450,2,0,L|80:185,1,100,14|2,0:0|3:2,0:0:0:0:
58,228,67905,1,8,0:0:0:0:
58,228,68056,2,0,B|127:197|193:250|165:256|220:310|292:278,1,250,6|10,3:1|3:3,0:0:0:0:
491,290,69408,6,0,L|474:165,1,104.999996795654,6|12,3:1|0:0,0:0:0:0:
386,132,70020,2,0,P|391:95|427:61,2,78.7499975967408,6|2|2,3:2|0:0|0:0,0:0:0:0:
336,151,70632,2,0,P|329:205|324:258,1,104.999996795654,6|12,3:1|0:0,0:0:0:0:
234,309,71238,1,6,3:2:0:0:
138,359,71541,2,0,L|77:348,1,52.4999983978272,12|2,0:0|0:0,0:0:0:0:
61,305,71835,6,0,L|38:185,1,104.999996795654,6|12,3:1|0:0,0:0:0:0:
71,160,72289,1,2,0:0:0:0:
71,160,72441,2,0,L|79:99,1,52.4999983978272,6|2,3:2|3:2,0:0:0:0:
48,15,72895,1,2,0:0:0:0:
48,15,73047,2,0,P|100:9|148:39,1,104.999996795654,6|12,3:1|0:0,0:0:0:0:
239,69,73653,1,6,3:2:0:0:
177,155,73956,2,0,L|170:219,1,52.4999983978272,14|0,0:2|0:0,0:0:0:0:
170,259,74259,5,4,3:1:0:0:
66,240,74562,2,0,P|28:274|39:334,1,104.999996795654,14|6,0:0|3:2,0:0:0:0:
122,377,75168,1,14,0:0:0:0:
219,336,75471,2,0,L|289:353,1,52.4999983978272,6|0,3:1|3:2,0:0:0:0:
313,378,75774,2,0,L|424:341,1,104.999996795654,14|6,0:0|3:2,0:0:0:0:
490,275,76380,1,14,0:0:0:0:
396,226,76683,6,0,B|377:178|377:178|419:128,1,104.999996795654,6|14,3:1|0:0,0:0:0:0:
478,57,77292,1,6,3:2:0:0:
478,57,77444,2,0,L|422:43,1,52.4999983978272,0|10,3:2|0:0,0:0:0:0:
382,31,77748,2,0,P|330:28|291:62,1,104.999996795654,6|2,3:1|3:2,0:0:0:0:
267,108,78202,1,14,0:0:0:0:
162,103,78505,2,0,L|148:14,2,78.7499975967408,6|2|2,3:2|0:0|0:0,0:0:0:0:
183,150,79111,6,0,P|163:185|184:247,1,104.999996795654,6|12,3:1|0:0,0:0:0:0:
194,347,79717,1,6,3:2:0:0:
90,331,80020,2,0,L|33:325,1,52.4999983978272,12|2,0:0|0:0,0:0:0:0:
0,288,80323,2,0,L|23:172,1,104.999996795654,6|12,3:1|0:0,0:0:0:0:
81,99,80929,2,0,L|61:-2,2,78.7499975967408,6|2|2,3:2|0:0|0:0,0:0:0:0:
133,100,81535,6,0,P|181:69|238:73,1,104.999996795654,6|12,3:1|0:0,0:0:0:0:
277,98,81989,1,2,0:0:0:0:
277,98,82141,2,0,L|388:65,1,104.999996795654,6|12,3:2|0:0,0:0:0:0:
422,95,82595,2,0,P|409:154|399:204,1,104.999996795654,2|0,0:0|3:2,0:0:0:0:
420,305,83202,1,2,0:0:0:0:
420,305,83353,2,0,P|402:287|323:286,1,104.999996795654,6|14,3:2|0:2,0:0:0:0:
280,378,83959,5,4,3:1:0:0:
180,343,84265,2,0,L|163:279,1,52.4999983978272,14|0,0:0|0:0,0:0:0:0:
211,264,84571,2,0,L|228:200,1,52.4999983978272,6|0,3:2|3:2,0:0:0:0:
239,162,84877,1,14,0:0:0:0:
290,70,85183,2,0,L|184:52,1,104.999996795654,14|12,0:0|0:0,0:0:0:0:
134,50,85637,2,0,L|121:-2,2,52.4999983978272,8|14|8,0:0|0:0|0:0,0:0:0:0:
99,89,86092,2,0,L|87:160,1,52.4999983978272,12|10,0:0|0:0,0:0:0:0:
77,191,86395,6,0,P|123:198|154:252,1,104.999996795654,6|12,3:1|0:0,0:0:0:0:
189,343,87001,1,6,3:2:0:0:
277,286,87304,2,0,L|351:302,1,52.4999983978272,12|2,0:0|0:0,0:0:0:0:
379,310,87607,2,0,L|361:186,1,104.999996795654,6|12,3:1|0:0,0:0:0:0:
297,124,88213,2,0,P|257:122|215:158,2,78.7499975967408,6|2|2,3:2|0:0|0:0,0:0:0:0:
339,92,88819,6,0,L|450:66,1,104.999996795654,6|12,3:1|0:0,0:0:0:0:
487,102,89273,1,2,0:0:0:0:
487,102,89425,2,0,L|479:163,1,52.4999983978272,6|0,3:2|3:2,0:0:0:0:
471,262,89879,1,2,0:0:0:0:
471,262,90031,2,0,P|421:238|366:257,1,104.999996795654,6|12,3:1|0:0,0:0:0:0:
315,336,90637,1,6,3:2:0:0:
234,271,90940,2,0,L|242:206,1,52.4999983978272,14|0,0:2|0:0,0:0:0:0:
246,166,91243,5,4,3:1:0:0:
350,156,91546,2,0,P|367:131|349:59,1,104.999996795654,14|6,0:0|3:2,0:0:0:0:
263,5,92152,1,14,0:0:0:0:
189,79,92455,2,0,L|122:62,1,52.4999983978272,6|0,3:1|3:2,0:0:0:0:
98,32,92758,2,0,P|40:65|39:113,1,104.999996795654,14|6,0:0|3:2,0:0:0:0:
13,201,93364,1,14,0:0:0:0:
96,264,93667,6,0,L|196:233,1,104.999996795654,4|14,3:1|0:0,0:0:0:0:
283,174,94273,2,0,L|297:230,1,52.4999983978272,6|2,3:2|3:2,0:0:0:0:
303,281,94576,1,12,0:0:0:0:
303,281,94728,2,0,P|301:332|335:371,1,104.999996795654,6|0,3:1|3:2,0:0:0:0:
387,373,95182,1,14,0:0:0:0:
435,280,95485,2,0,L|521:254,2,78.7499975967408,6|2|2,3:2|0:0|3:2,0:0:0:0:
395,245,96091,5,14,3:1:0:0:
416,142,96392,1,12,0:0:0:0:
332,88,96694,1,12,0:0:0:0:
332,88,96844,2,0,L|258:107,1,52.4999983978272,0|12,3:2|0:0,0:0:0:0:
251,145,97146,1,2,3:2:0:0:
251,145,97297,2,0,P|208:179|153:164,1,104.999996795654,14|12,3:1|0:0,0:0:0:0:
60,171,97903,1,12,0:0:0:0:
60,171,98054,2,0,L|89:279,1,104.999996795654,0|2,3:2|3:2,0:0:0:0:
127,306,98509,6,0,L|108:397,2,78.7499975967408,14|2|2,3:1|0:0|0:0,0:0:0:0:
171,277,99115,1,12,0:0:0:0:
238,357,99418,2,0,L|294:339,1,52.4999983978272,12|2,0:0|3:2,0:0:0:0:
330,310,99721,2,0,P|323:261|271:218,1,104.999996795654,14|12,3:1|0:0,0:0:0:0:
187,184,100327,2,0,L|172:121,1,52.4999983978272,14|0,0:0|3:2,0:0:0:0:
127,109,100630,2,0,L|142:46,1,52.4999983978272,14|0,0:0|3:2,0:0:0:0:
130,6,100933,5,14,3:1:0:0:
234,0,101236,2,0,L|297:22,1,52.4999983978272,14|8,0:0|0:0,0:0:0:0:
301,67,101539,2,0,P|364:69|397:41,1,104.999996795654,14|14,0:0|0:0,0:0:0:0:
499,44,102145,2,0,L|476:157,1,104.999996795654,6|10,3:1|0:0,0:0:0:0:
381,189,102739,2,0,L|409:296,1,104.999996795654,14|0,3:2|0:0,0:0:0:0:
420,338,103200,1,14,3:1:0:0:
256,192,103351,12,0,108502,0:0:0:0:
