osu file format v14

[General]
AudioFilename: audio.mp3
AudioLeadIn: 0
PreviewTime: 68655
Countdown: 0
SampleSet: Soft
StackLeniency: 0.4
Mode: 0
LetterboxInBreaks: 0
WidescreenStoryboard: 1

[Editor]
Bookmarks: 28095
DistanceSpacing: 0.3
BeatDivisor: 4
GridSize: 16
TimelineZoom: 1.6

[Metadata]
Title:Kaze ga Fuku Machi (TV Size)
TitleUnicode:風が吹く街 (TV Size)
Artist:Luck Life
ArtistUnicode:ラックライフ
Creator:Smoke
Version:Collab Expert
Source:文豪ストレイドッグス
Tags:rock jrock j-rock pop jpop j-pop japanese anime ending ed bungo bungou stray dogs Gabizon04 Nachmark -_Aqua Gouuh Asahina Oleshev melleganol Mizujin hausenberg season 2 two
BeatmapID:4026642
BeatmapSetID:1938781

[Difficulty]
HPDrainRate:5.6
CircleSize:3.8
OverallDifficulty:8.5
ApproachRate:9.2
SliderMultiplier:1.6
SliderTickRate:1

[Events]
//Background and Video events
0,0,"white.jpg",0,0
//Break Periods
2,21443,27530
//Storyboard Layer 0 (Background)
//Storyboard Layer 1 (Fail)
//Storyboard Layer 2 (Pass)
//Storyboard Layer 3 (Foreground)
//Storyboard Layer 4 (Overlay)
//Storyboard Sound Samples

[TimingPoints]
1553,303.030303030303,4,2,1,70,1,0
6401,301.507537688442,4,2,1,70,1,0
8813,303.030303030303,4,2,1,70,1,0
11237,303.030303030303,4,2,1,70,1,0
11237,-142.857142857143,4,2,2,60,0,0
13282,-142.857142857143,4,2,2,70,0,0
13358,309.278350515464,4,2,1,70,1,0
13358,-142.857142857143,4,2,2,60,0,0
13667,304.568527918782,4,2,1,70,1,0
13667,-142.857142857143,4,2,2,60,0,0
15722,-142.857142857143,4,2,2,5,0,0
15798,-142.857142857143,4,2,2,60,0,0
16103,292.682926829268,4,2,1,70,1,0
16103,-142.857142857143,4,2,2,60,0,0
16395,306.122448979592,4,2,1,70,1,0
16395,-142.857142857143,4,2,2,60,0,0
17313,301.507537688442,4,2,1,70,1,0
17313,-142.857142857143,4,2,2,60,0,0
17916,-142.857142857143,4,2,2,60,0,0
18142,-142.857142857143,4,2,2,5,0,0
18217,-142.857142857143,4,2,2,60,0,0
18519,297.029702970297,4,2,1,70,1,0
18519,-142.857142857143,4,2,2,60,0,0
19558,304.568527918782,4,2,1,70,1,0
19558,-142.857142857143,4,2,2,60,0,0
20169,-142.857142857143,4,2,2,70,0,0
20319,310.880829015544,4,2,1,70,1,0
20319,-142.857142857143,4,2,2,60,0,0
20940,303.030303030303,4,2,1,70,1,0
20940,-100,4,2,1,80,0,0
24576,300,4,2,1,70,1,0
25776,302.267002518892,4,2,1,70,1,0
26985,309.278350515464,4,2,1,50,1,0
28100,269.058295964126,4,2,1,70,1,0
28234,298.507462686567,4,2,1,70,1,0
28234,-125,4,2,1,70,0,0
29129,303.030303030303,4,2,1,70,1,0
29129,-111.111111111111,4,2,1,70,0,0
29356,-111.111111111111,4,2,1,5,0,0
29432,-111.111111111111,4,2,1,70,0,0
29735,297.029702970297,4,2,1,70,1,0
29735,-111.111111111111,4,2,1,70,0,0
30032,-111.111111111111,4,2,1,60,0,0
30626,301.507537688442,4,2,1,80,1,0
30626,-90.9090909090908,4,2,1,80,0,0
31379,309.278350515464,4,2,1,80,1,0
31379,-90.9090909090908,4,2,1,80,0,0
31842,297.029702970297,4,2,1,80,1,0
31842,-90.9090909090908,4,2,1,80,0,0
32139,313.971742543171,4,2,1,80,1,0
32139,-90.9090909090908,4,2,1,80,0,0
33080,291.26213592233,4,2,1,80,1,0
33080,-90.9090909090908,4,2,1,80,0,0
33371,301.507537688442,4,2,1,80,1,0
33371,-90.9090909090908,4,2,1,80,0,0
33823,309.597523219814,4,2,1,80,1,0
33823,-90.9090909090908,4,2,1,80,0,0
34287,297.029702970297,4,2,1,80,1,0
34287,-90.9090909090908,4,2,1,80,0,0
34732,303.030303030303,4,2,1,80,1,0
34732,-90.9090909090908,4,2,1,80,0,0
35186,315.126050420168,4,2,1,80,1,0
35186,-90.9090909090908,4,2,1,80,0,0
35501,285.714285714286,4,2,1,80,1,0
35501,-90.9090909090908,4,2,1,80,0,0
35786,300,4,2,1,80,1,0
35786,-90.9090909090908,4,2,1,80,0,0
36386,-90.9090909090908,4,2,1,80,0,0
36615,-90.9090909090908,4,2,1,70,0,0
36686,304.723209751143,4,2,1,80,1,0
36686,-90.9090909090908,4,2,1,80,0,0
36838,-90.9090909090908,4,2,1,70,0,0
36990,-90.9090909090908,4,2,1,80,0,0
37752,320.855614973262,4,2,1,80,1,0
37752,-90.9090909090908,4,2,1,80,0,0
38072,298.507462686567,4,2,1,80,1,0
38072,-90.9090909090908,4,2,1,80,0,0
39116,304.568527918782,4,2,1,80,1,0
39116,-90.9090909090908,4,2,1,80,0,0
39725,307.692307692308,4,2,1,80,1,0
39725,-90.9090909090908,4,2,1,80,0,0
40340,303.030303030303,4,2,1,80,1,0
40340,-111.111111111111,4,2,1,60,0,0
41552,300.751879699248,4,2,1,80,1,0
41552,-111.111111111111,4,2,1,60,0,0
42755,304.568527918782,4,2,1,80,1,0
42755,-111.111111111111,4,2,1,60,0,0
43973,303.030303030303,4,2,1,80,1,0
43973,-111.111111111111,4,2,1,60,0,0
45185,303.030303030303,4,2,1,80,1,0
45185,-111.111111111111,4,2,1,60,0,0
47978,-111.111111111111,4,2,1,70,0,0
48054,-111.111111111111,4,2,1,60,0,0
48887,-111.111111111111,4,2,1,5,0,0
48963,-111.111111111111,4,2,1,60,0,0
50024,-111.111111111111,4,2,1,65,0,0
54720,-111.111111111111,4,2,1,70,0,0
54872,-111.111111111111,4,2,1,65,0,0
55099,-111.111111111111,4,2,1,70,0,0
55175,-111.111111111111,4,2,1,65,0,0
56311,-111.111111111111,4,2,1,70,0,0
56387,-111.111111111111,4,2,1,65,0,0
56994,-90.9090909090908,4,2,1,65,0,0
57221,-90.9090909090908,4,2,1,70,0,0
57306,-100,4,2,1,70,0,0
61387,-105.263157894737,4,2,1,70,0,0
62145,-100,4,2,1,70,0,0
63963,-105.263157894737,4,2,1,70,0,0
64569,-100,4,2,1,70,0,0
65336,300,4,2,1,80,1,0
65336,-100,4,2,1,70,0,0
65936,314.13612565445,4,2,1,80,1,0
65936,-100,4,2,1,70,0,0
66093,303.030303030303,4,2,1,80,1,0
66093,-100,4,2,1,70,0,0
66396,280.373831775701,4,2,1,80,1,0
66396,-100,4,2,1,70,0,0
66676,319.148936170213,4,2,1,80,1,0
66676,-166.666666666667,4,2,1,70,0,0
66996,303.030303030303,4,2,1,80,1,0
66996,-100,4,2,1,70,0,0
68054,-200,4,2,1,70,0,0
68814,297.029702970297,4,2,1,80,1,0
68814,-200,4,2,1,70,0,0
69408,306.122448979592,4,2,1,80,1,0
69408,-86.9565217391304,4,2,1,80,0,0
69637,-86.9565217391304,4,2,1,5,0,0
69714,-86.9565217391304,4,2,1,80,0,0
70632,303.030303030303,4,2,1,80,1,0
70632,-86.9565217391304,4,2,1,80,0,0
71162,-86.9565217391304,4,2,1,70,0,0
71238,-86.9565217391304,4,2,1,80,0,0
71541,294.117647058824,4,2,1,80,1,0
71541,-86.9565217391304,4,2,1,80,0,0
71835,303.030303030303,4,2,1,80,1,0
71835,-86.9565217391304,4,2,1,80,0,0
74183,-86.9565217391304,4,2,1,5,0,0
74259,303.030303030303,4,2,1,80,1,0
74259,-86.9565217391304,4,2,1,80,0,0
76683,304.568527918782,4,2,1,80,1,0
76683,-86.9565217391304,4,2,1,80,0,0
77748,303.030303030303,4,2,1,80,1,0
77748,-86.9565217391304,4,2,1,80,0,0
77899,303.030303030303,4,2,1,80,1,0
77899,-86.9565217391304,4,2,1,80,0,0
79338,-86.9565217391304,4,2,1,5,0,0
79414,-86.9565217391304,4,2,1,80,0,0
80853,-86.9565217391304,4,2,1,5,0,0
80929,-86.9565217391304,4,2,1,80,0,0
83959,306.122448979592,4,2,1,80,1,0
83959,-86.9565217391304,4,2,1,80,0,0
85183,303.030303030303,4,2,1,80,1,0
85183,-86.9565217391304,4,2,1,80,0,0
86395,303.030303030303,4,2,1,80,1,0
86395,-86.9565217391304,4,2,1,80,0,0
86614,-86.9565217391304,4,2,1,5,0,0
86691,-86.9565217391304,4,2,1,80,0,0
88137,-86.9565217391304,4,2,1,5,0,0
88206,-86.9565217391304,4,2,1,80,0,0
91167,-86.9565217391304,4,2,1,5,0,0
91243,-86.9565217391304,4,2,1,80,0,0
96091,301.507537688442,4,2,1,80,1,0
96091,-86.9565217391304,4,2,1,80,0,0
96317,-86.9565217391304,4,2,1,70,0,0
96392,-86.9565217391304,4,2,1,80,0,0
97297,303.030303030303,4,2,1,80,1,0
97297,-86.9565217391304,4,2,1,80,0,0
97524,-86.9565217391304,4,2,1,5,0,0
97600,-86.9565217391304,4,2,1,80,0,0
98736,-86.9565217391304,4,2,1,5,0,0
98812,-86.9565217391304,4,2,1,80,0,0
99948,-86.9565217391304,4,2,1,5,0,0
100024,-86.9565217391304,4,2,1,80,0,0
100933,303.030303030303,4,2,1,80,1,0
100933,-86.9565217391304,4,2,1,80,0,0
102145,297.029702970297,4,2,1,80,1,0
102145,-86.9565217391304,4,2,1,80,0,0
102739,307.692307692308,4,2,1,80,1,0
102739,-86.9565217391304,4,2,1,80,0,0
103049,-86.9565217391304,4,2,1,5,0,0
103200,303.030303030303,4,2,1,80,1,0
103200,-86.9565217391304,4,2,1,80,0,0
103351,303.030303030303,4,2,1,80,1,0
103351,-86.9565217391304,4,2,1,80,0,0
103654,-86.9565217391304,4,2,1,75,0,0
103957,-86.9565217391304,4,2,1,70,0,0
104260,-86.9565217391304,4,2,1,65,0,0
104563,-86.9565217391304,4,2,1,60,0,0
104866,-86.9565217391304,4,2,1,55,0,0
105169,-86.9565217391304,4,2,1,50,0,0
105472,-86.9565217391304,4,2,1,45,0,0
105775,-86.9565217391304,4,2,1,40,0,0
106078,-86.9565217391304,4,2,1,36,0,0
106381,-86.9565217391304,4,2,1,32,0,0
106684,-86.9565217391304,4,2,1,28,0,0
106987,-86.9565217391304,4,2,1,23,0,0
107290,-86.9565217391304,4,2,1,18,0,0
107593,-86.9565217391304,4,2,1,15,0,0
107896,-86.9565217391304,4,2,1,12,0,0
108199,-86.9565217391304,4,2,1,8,0,0
108502,-86.9565217391304,4,2,1,5,0,0

[Colours]
Combo1 : 149,220,69
Combo2 : 131,179,237
Combo3 : 45,139,255
Combo4 : 220,224,52

[HitObjects]
321,12,11237,5,6,3:2:0:0:
321,12,11388,1,0,3:2:0:0:
383,69,11540,2,0,P|437:60|502:52,3,111.999996582031,8|8|8|8,0:0|0:0|0:0|0:0,0:0:0:0:
395,186,12752,1,8,0:0:0:0:
332,135,12903,1,0,0:0:0:0:
332,135,13055,2,0,P|290:116|242:131,1,84,8|0,0:0|0:0,0:0:0:0:
234,143,13358,2,0,P|200:136|164:133,1,55.9999982910157,10|0,0:0|0:0,0:0:0:0:
212,257,13667,5,6,3:2:0:0:
212,257,13819,1,0,3:2:0:0:
279,309,13971,2,0,P|334:313|390:284,3,111.999996582031,8|8|8|8,0:0|0:0|0:0|0:0,0:0:0:0:
212,257,15189,1,8,0:0:0:0:
169,334,15342,1,0,0:0:0:0:
169,334,15494,2,0,P|124:326|75:320,1,83.9999974365235,8|0,0:0|0:0,0:0:0:0:
52,244,15798,2,0,P|81:238|121:234,1,55.9999982910157,8|0,0:0|0:0,0:0:0:0:
55,70,16103,5,6,3:2:0:0:
55,70,16249,1,0,3:2:0:0:
122,147,16395,2,0,P|69:153|12:163,3,111.999996582031,8|8|8|8,0:0|0:0|0:0|0:0,0:0:0:0:
141,62,17614,1,8,0:0:0:0:
216,116,17765,1,0,0:0:0:0:
216,116,17916,2,0,P|258:135|306:120,1,84,8|0,0:0|0:0,0:0:0:0:
313,107,18217,2,0,P|319:75|323:37,1,55.9999982910157,8|0,0:0|0:0,0:0:0:0:
422,136,18519,5,6,3:2:0:0:
422,136,18667,1,0,3:2:0:0:
371,206,18816,2,0,P|375:261|386:316,2,111.999996582031,8|8|8,0:0|0:0|0:0,0:0:0:0:
300,292,19558,6,0,B|243:315|197:257|240:253|159:196|98:245,1,223.999993164063,4|0,0:0|0:0,0:0:0:0:
17,329,20319,2,0,B|52:342|52:342|100:319,2,74.6666643880209,2|2|2,0:0|0:0|0:0,0:0:0:0:
80,141,20940,5,6,3:1:0:0:
176,352,21091,1,6,3:2:0:0:
269,189,21243,1,6,3:2:0:0:
71,105,28100,5,0,3:2:0:0:
71,105,28167,1,0,3:2:0:0:
71,105,28234,2,0,B|121:113|121:113|134:132|134:132|197:143,1,128,14|0,0:0|0:0,0:0:0:0:
371,53,28681,2,0,P|307:43|243:80,1,128,8|0,3:3|3:2,0:0:0:0:
130,228,29129,2,0,P|184:234|236:251,1,107.999996704102,8|0,0:0|0:0,0:0:0:0:
235,251,29432,1,0,3:2:0:0:
321,383,29583,1,8,0:0:0:0:
436,232,29735,2,0,P|401:193|302:206,1,143.999995605469,0|2,3:2|0:0,0:0:0:0:
8,304,30626,6,0,B|50:266|98:283|98:283|113:327|165:330,1,176.000005371094,6|8,3:1|0:0,0:0:0:0:
217,157,31078,2,0,P|171:164|120:171,1,88.000002685547,0|2,3:2|0:0,0:0:0:0:
258,298,31379,1,0,3:2:0:0:
258,298,31456,1,2,0:0:0:0:
258,298,31533,1,8,0:0:0:0:
300,101,31688,1,2,0:0:0:0:
512,207,31842,6,0,B|452:217|452:217|433:263|433:263|361:274,1,176.000005371094,6|8,3:2|0:0,0:0:0:0:
227,167,32296,1,0,3:2:0:0:
393,75,32453,1,2,0:0:0:0:
294,238,32610,1,0,3:2:0:0:
294,238,32688,1,2,0:0:0:0:
294,238,32767,1,8,0:0:0:0:
186,81,32924,1,2,0:0:0:0:
68,280,33080,6,0,P|45:230|57:180,1,88.000002685547,6|0,3:2|0:0,0:0:0:0:
186,81,33371,1,10,0:0:0:0:
294,238,33521,2,0,P|378:247|454:201,1,176.000005371094,2|2,3:2|3:2,0:0:0:0:
354,129,33977,1,8,0:0:0:0:
193,245,34132,1,2,0:0:0:0:
386,358,34287,6,0,B|408:319|408:319|393:278,1,88.000002685547,4|2,3:2|0:0,0:0:0:0:
259,143,34584,1,10,0:0:0:0:
458,17,34732,2,0,P|451:60|446:104,1,88.000002685547,2|0,3:2|0:0,0:0:0:0:
453,201,35035,1,2,3:2:0:0:
319,38,35186,2,0,P|274:32|225:25,1,88.000002685547,10|0,0:0|0:0,0:0:0:0:
68,179,35501,6,0,B|101:187|133:184|133:184|149:223|149:223|183:218|220:233,1,176.000005371094,4|10,3:2|0:0,0:0:0:0:
70,273,35936,1,0,3:2:0:0:
219,139,36086,1,2,0:0:0:0:
104,88,36236,1,0,3:2:0:0:
289,0,36386,2,0,P|318:68|306:140,1,132.00000402832,10|0,0:0|0:0,0:0:0:0:
309,136,36686,6,0,P|345:119|406:122,1,88.000002685547,6|0,3:2|0:0,0:0:0:0:
509,282,36990,2,0,P|464:283|414:258,1,88.000002685547,10|0,0:0|3:2,0:0:0:0:
498,96,37295,2,0,P|489:142|482:196,1,88.000002685547,2|0,0:0|3:2,0:0:0:0:
361,339,37601,1,10,0:0:0:0:
196,158,37752,6,0,B|132:167|132:167|110:207|110:207|42:217,1,176.000005371094,6|0,3:1|3:2,0:0:0:0:
184,339,38221,2,0,P|200:298|193:249,1,88.000002685547,12|0,0:0|3:2,0:0:0:0:
49,124,38519,1,12,0:0:0:0:
206,68,38669,1,0,3:2:0:0:
44,216,38818,2,0,P|26:255|25:300,1,88.000002685547,12|0,0:0|3:2,0:0:0:0:
195,255,39116,6,0,P|236:239|279:236,1,88.000002685547,12|0,0:0|3:2,0:0:0:0:
422,373,39420,1,10,0:0:0:0:
262,339,39572,1,2,3:2:0:0:
447,261,39725,1,10,0:0:0:0:
279,236,39878,1,2,3:2:0:0:
468,144,40032,1,10,0:0:0:0:
301,118,40186,1,2,3:2:0:0:
422,373,40340,6,0,B|462:364|470:326|470:326|439:302|448:259,2,143.999995605469,6|8|2,3:1|0:0|3:2,0:0:0:0:
345,318,41097,1,0,3:2:0:0:
345,318,41249,1,10,0:0:0:0:
127,358,41552,6,0,B|183:350|183:350|198:316|198:316|259:307,2,143.999995605469,0|8|2,3:2|0:0|3:2,0:0:0:0:
181,222,42303,1,2,3:2:0:0:
27,149,42454,1,10,0:0:0:0:
27,149,42755,6,0,B|16:231|68:204|56:291,2,143.999995605469,2|8|2,3:2|0:0|3:2,0:0:0:0:
96,80,43516,1,0,3:2:0:0:
96,80,43668,1,10,0:0:0:0:
277,154,43973,6,0,P|288:83|307:13,2,143.999995605469,0|8|0,3:2|0:0|3:2,0:0:0:0:
207,218,44730,1,0,3:2:0:0:
207,218,44882,1,8,0:0:0:0:
374,322,45033,1,2,3:2:0:0:
284,381,45185,6,0,P|270:312|303:246,2,143.999995605469,2|10|2,3:2|0:0|3:2,0:0:0:0:
374,322,45942,1,0,3:2:0:0:
207,218,46094,1,10,0:0:0:0:
207,218,46397,6,0,P|141:208|56:198,2,143.999995605469,2|10|2,3:2|0:0|3:2,0:0:0:0:
291,171,47154,1,0,3:2:0:0:
291,171,47306,1,10,0:0:0:0:
430,284,47609,5,2,3:2:0:0:
430,284,47760,2,0,P|440:347|448:379,1,71.9999978027344,2|10,0:0|0:0,0:0:0:0:
492,211,48063,2,0,P|509:175|501:138,1,71.9999978027344,2|0,0:0|3:2,0:0:0:0:
374,36,48366,2,0,P|357:72|365:109,1,71.9999978027344,2|10,3:2|0:0,0:0:0:0:
292,169,48669,6,0,P|229:179|167:195,1,107.999996704102,2|0,0:0|0:0,0:0:0:0:
176,193,48972,1,2,3:2:0:0:
259,272,49124,1,10,0:0:0:0:
165,98,49275,1,2,3:2:0:0:
42,263,49427,2,0,P|85:270|128:281,1,71.9999978027344,2|2,3:2|3:2,0:0:0:0:
246,180,49730,2,0,P|211:186|165:195,1,71.9999978027344,10|2,0:0|0:0,0:0:0:0:
302,355,50033,6,0,P|342:367|427:311,1,143.999995605469,6|8,3:1|0:0,0:0:0:0:
408,221,50488,1,2,0:0:0:0:
254,265,50639,1,2,3:2:0:0:
254,265,50791,1,0,3:2:0:0:
310,124,50942,2,0,P|314:165|320:210,1,71.9999978027344,8|2,0:0|0:0,0:0:0:0:
186,337,51245,6,0,P|135:323|38:306,1,143.999995605469,2|8,3:2|0:0,0:0:0:0:
107,146,51700,1,0,3:2:0:0:
107,146,51775,1,0,3:2:0:0:
107,146,51851,2,0,P|109:175|122:232,1,71.9999978027344,2|2,3:2|3:2,0:0:0:0:
6,153,52154,1,10,0:0:0:0:
71,20,52306,1,2,0:0:0:0:
205,142,52457,6,0,B|292:153|241:199|337:214,1,143.999995605469,6|8,3:2|0:0,0:0:0:0:
452,117,52912,1,0,3:2:0:0:
452,117,52988,1,0,3:2:0:0:
452,117,53063,1,2,3:2:0:0:
325,49,53215,1,0,3:2:0:0:
417,208,53366,1,8,0:0:0:0:
495,41,53518,1,2,0:0:0:0:
325,212,53669,6,0,B|251:218|286:272|193:284,1,143.999995605469,6|8,3:2|0:0,0:0:0:0:
91,188,54124,1,2,0:0:0:0:
91,188,54275,2,0,P|133:206|166:209,1,71.9999978027344,2|0,3:2|3:2,0:0:0:0:
127,364,54578,2,0,P|121:318|107:288,1,71.9999978027344,10|0,0:0|0:0,0:0:0:0:
40,91,54881,6,0,P|83:86|146:115,1,107.999996704102,4|0,3:2|0:0,0:0:0:0:
150,120,55185,2,0,P|192:102|225:99,1,71.9999978027344,8|0,0:0|3:2,0:0:0:0:
260,107,55412,1,0,3:2:0:0:
260,107,55488,2,0,P|288:121|342:124,1,71.9999978027344,2|0,3:2|3:2,0:0:0:0:
417,96,55791,1,10,0:0:0:0:
269,216,55942,1,2,0:0:0:0:
485,306,56094,6,0,P|475:252|466:199,1,107.999996704102,6|0,3:2|0:0,0:0:0:0:
463,189,56397,2,0,P|412:192|383:209,1,71.9999978027344,10|2,0:0|0:0,0:0:0:0:
283,352,56700,2,0,P|318:366|359:364,1,71.9999978027344,2|0,3:2|3:2,0:0:0:0:
269,216,57003,2,0,B|217:223|217:223|200:249|200:249|145:256,1,132.00000402832,12|0,0:0|0:0,0:0:0:0:
77,315,57306,6,0,B|55:282|55:282|64:232,1,80,6|0,3:1|0:0,0:0:0:0:
0,66,57609,2,0,B|61:75|61:75|84:102|84:102|147:112,1,160,10|2,0:0|3:2,0:0:0:0:
220,44,58063,1,2,3:2:0:0:
339,149,58215,1,8,0:0:0:0:
512,5,58366,6,0,B|465:-15|423:22|423:22|413:59|373:64,1,160,6|0,3:1|3:2,0:0:0:0:
249,187,58821,1,10,0:0:0:0:
397,233,58972,1,0,3:2:0:0:
218,361,59124,1,10,0:0:0:0:
416,323,59275,1,0,3:2:0:0:
339,149,59427,1,10,0:0:0:0:
339,149,59578,1,10,0:0:0:0:
512,5,59730,6,0,P|505:45|499:84,1,80,6|2,3:2|3:2,0:0:0:0:
481,189,60033,1,8,0:0:0:0:
323,44,60185,2,0,B|264:52|264:52|251:86|251:86|183:96,1,160,6|2,3:2|3:2,0:0:0:0:
238,194,60639,1,8,0:0:0:0:
45,248,60791,6,0,P|36:171|90:104,1,160,6|2,3:2|3:2,0:0:0:0:
99,103,61169,1,2,0:0:0:0:
99,103,61245,1,10,0:0:0:0:
238,194,61397,6,0,P|281:188|333:183,1,75.9999979705811,2|2,0:0|3:2,0:0:0:0:
384,118,61700,1,2,3:2:0:0:
493,265,61851,2,0,P|455:259|413:256,1,75.9999979705811,10|2,0:0|0:0,0:0:0:0:
347,318,62154,5,6,3:2:0:0:
238,194,62306,1,0,3:2:0:0:
45,303,62457,1,10,0:0:0:0:
172,384,62609,2,0,B|182:293|124:328|138:220,1,160,6|2,3:2|3:2,0:0:0:0:
238,194,63063,1,8,0:0:0:0:
16,134,63215,6,0,B|100:118|100:118|111:121|111:121|174:110,1,160,6|2,3:2|3:2,0:0:0:0:
192,110,63594,1,2,0:0:0:0:
192,110,63669,1,10,0:0:0:0:
345,0,63821,1,2,3:2:0:0:
345,0,63972,2,0,P|329:38|332:79,1,75.9999979705811,2|2,3:2|3:2,0:0:0:0:
391,147,64275,1,10,0:0:0:0:
254,228,64427,1,2,0:0:0:0:
460,350,64578,6,0,P|455:308|450:253,1,80,6|0,3:2|3:2,0:0:0:0:
298,374,64881,1,10,0:0:0:0:
151,193,65033,2,0,P|159:124|169:35,1,160,6|2,3:2|3:2,0:0:0:0:
254,228,65486,1,8,0:0:0:0:
30,340,65636,2,0,B|89:332|89:332|109:300|109:300|171:291,1,160,6|2,3:2|3:2,0:0:0:0:
190,292,66014,1,2,0:0:0:0:
190,292,66093,1,10,0:0:0:0:
311,383,66244,1,2,0:0:0:0:
423,199,66396,5,10,0:0:0:0:
420,173,66489,5,8,0:0:0:0:
416,148,66582,5,8,0:0:0:0:
413,122,66676,6,0,B|402:37,1,71.9999978027344,2|0,3:2|0:0,0:0:0:0:
400,28,66996,5,14,0:0:0:0:
247,184,67147,1,0,3:2:0:0:
431,287,67299,1,2,3:2:0:0:
266,84,67450,2,0,P|220:92|177:98,1,80,14|0,0:0|3:2,0:0:0:0:
305,282,67753,1,2,3:2:0:0:
413,122,67905,1,8,0:0:0:0:
184,272,68056,6,0,P|131:285|45:227,1,160,6|2,3:1|3:2,0:0:0:0:
44,222,68738,1,0,3:2:0:0:
44,222,68814,1,10,3:3:0:0:
284,313,69408,6,0,P|332:329|418:288,1,138.000002632141,6|0,3:1|0:0,0:0:0:0:
420,288,69714,2,0,P|413:244|408:195,1,92.0000017547608,12|2,0:0|0:0,0:0:0:0:
391,53,70020,1,6,3:2:0:0:
308,216,70173,1,2,3:2:0:0:
308,216,70249,1,0,3:2:0:0:
308,216,70326,1,12,0:0:0:0:
467,113,70479,1,2,0:0:0:0:
242,27,70632,6,0,P|247:71|254:125,1,92.0000017547608,6|0,3:1|3:2,0:0:0:0:
160,331,70935,2,0,P|154:266|212:204,1,138.000002632141,12|0,0:0|0:0,0:0:0:0:
208,203,71238,1,6,3:2:0:0:
33,141,71389,1,0,3:2:0:0:
33,141,71465,1,2,3:2:0:0:
33,141,71541,1,12,0:0:0:0:
144,87,71688,1,2,0:0:0:0:
5,268,71835,6,0,B|39:283|74:279|74:279|92:318|92:318|129:310|166:334,1,184.000003509522,6|12,3:1|0:0,0:0:0:0:
251,290,72289,1,2,0:0:0:0:
371,375,72441,1,6,3:2:0:0:
488,238,72592,2,0,B|509:194|509:194|486:145,1,92.0000017547608,2|12,3:2|0:0,0:0:0:0:
365,270,72895,1,2,0:0:0:0:
226,98,73047,6,0,P|140:79|49:119,1,184.000003509522,6|12,3:1|0:0,0:0:0:0:
0,192,73501,1,2,0:0:0:0:
129,337,73653,2,0,P|169:342|220:349,1,92.0000017547608,6|0,3:2|3:2,0:0:0:0:
422,248,73956,2,0,B|343:248|373:276|288:277,1,138.000002632141,14|0,0:2|0:0,0:0:0:0:
277,268,74259,6,0,L|289:176,1,92.0000017547608,4|2,3:1|3:2,0:0:0:0:
509,88,74562,2,0,P|491:143|451:171,1,92.0000017547608,14|0,0:0|0:0,0:0:0:0:
372,7,74865,2,0,P|410:47|415:99,1,92.0000017547608,6|0,3:2|3:2,0:0:0:0:
236,85,75168,2,0,P|285:75|337:94,1,92.0000017547608,14|0,0:0|0:0,0:0:0:0:
422,248,75471,5,6,3:1:0:0:
422,248,75622,1,0,3:2:0:0:
280,172,75774,2,0,L|294:277,1,92.0000017547608,14|0,0:0|0:0,0:0:0:0:
185,368,76077,1,6,3:2:0:0:
185,368,76228,1,0,3:2:0:0:
60,280,76380,2,0,L|72:188,1,92.0000017547608,14|0,0:0|0:0,0:0:0:0:
244,71,76683,6,0,B|352:53|312:116|426:96,2,184.000003509522,6|14|6,3:1|0:0|3:2,0:0:0:0:
151,32,77444,1,0,3:2:0:0:
281,170,77596,1,10,0:0:0:0:
64,284,77748,6,0,P|47:187|103:99,1,184.000003509522,6|2,3:1|3:2,0:0:0:0:
281,170,78202,2,0,P|285:220|292:273,1,92.0000017547608,14|0,0:0|0:0,0:0:0:0:
304,359,78505,1,6,3:2:0:0:
173,229,78656,1,0,3:2:0:0:
173,229,78732,1,2,3:2:0:0:
173,229,78808,1,14,0:0:0:0:
201,347,78959,1,2,0:0:0:0:
379,159,79111,6,0,P|456:152|516:203,1,138.000002632141,6|0,3:1|0:0,0:0:0:0:
506,198,79414,2,0,P|498:246|490:296,1,92.0000017547608,12|2,0:0|0:0,0:0:0:0:
341,375,79717,1,6,3:2:0:0:
275,211,79868,1,2,3:2:0:0:
275,211,79944,1,0,3:2:0:0:
275,211,80020,1,12,0:0:0:0:
393,264,80171,1,2,0:0:0:0:
166,373,80323,6,0,P|160:329|153:281,1,92.0000017547608,6|0,3:1|3:2,0:0:0:0:
28,116,80626,2,0,P|95:124|164:134,1,138.000002632141,12|0,0:0|0:0,0:0:0:0:
178,136,80929,1,6,3:2:0:0:
364,61,81080,1,0,3:2:0:0:
364,61,81156,1,2,3:2:0:0:
364,61,81232,1,12,0:0:0:0:
237,1,81383,1,2,0:0:0:0:
340,203,81535,6,0,P|385:207|432:215,1,92.0000017547608,6|0,3:1|3:2,0:0:0:0:
448,222,81762,1,2,3:2:0:0:
448,222,81838,2,0,P|454:269|436:314,1,92.0000017547608,12|2,0:0|0:0,0:0:0:0:
223,371,82141,2,0,P|218:320|213:278,1,92.0000017547608,6|2,3:2|3:2,0:0:0:0:
340,203,82444,1,12,0:0:0:0:
177,112,82595,1,2,0:0:0:0:
425,13,82747,6,0,B|355:22|355:22|334:60|334:60|252:73,1,184.000003509522,6|12,3:1|0:0,0:0:0:0:
177,112,83202,1,2,0:0:0:0:
23,0,83353,2,0,P|30:53|35:96,1,92.0000017547608,6|0,3:2|3:2,0:0:0:0:
155,294,83656,2,0,P|164:209|177:108,1,184.000003509522,14|4,0:2|3:1,0:0:0:0:
176,111,84265,5,14,0:0:0:0:
257,207,84418,1,0,0:0:0:0:
404,49,84571,5,6,3:2:0:0:
329,273,84724,1,0,3:2:0:0:
304,63,84877,5,14,0:0:0:0:
458,137,85030,1,0,3:2:0:0:
329,273,85183,1,14,0:0:0:0:
329,273,85486,6,0,L|323:332,3,46.0000008773804,12|8|8|8,0:0|0:0|0:0|0:0,0:0:0:0:
292,194,85789,1,14,0:0:0:0:
250,174,85864,1,8,0:0:0:0:
205,180,85940,1,8,0:0:0:0:
170,208,86016,1,10,0:0:0:0:
156,252,86092,1,12,0:0:0:0:
142,296,86167,1,8,0:0:0:0:
107,325,86243,1,10,0:0:0:0:
61,330,86319,1,8,0:0:0:0:
20,311,86395,6,0,P|12:242|0:144,1,138.000002632141,6|0,3:1|0:0,0:0:0:0:
1,160,86698,2,0,P|45:148|110:169,1,92.0000017547608,12|2,0:0|0:0,0:0:0:0:
249,214,87001,1,6,3:2:0:0:
204,50,87152,1,2,3:2:0:0:
204,50,87228,1,2,3:2:0:0:
204,50,87304,1,12,0:0:0:0:
89,156,87455,1,2,0:0:0:0:
311,88,87607,6,0,P|357:93|402:99,1,92.0000017547608,6|0,3:1|3:2,0:0:0:0:
470,266,87910,2,0,B|387:268|423:299|324:303,1,138.000002632141,12|0,0:0|0:0,0:0:0:0:
326,308,88213,1,6,3:2:0:0:
176,382,88364,1,0,3:2:0:0:
176,382,88440,1,2,3:2:0:0:
176,382,88516,1,12,0:0:0:0:
236,234,88667,1,2,0:0:0:0:
46,357,88819,6,0,B|55:286|55:286|88:267|88:267|98:189,1,184.000003509522,6|12,3:1|0:0,0:0:0:0:
33,118,89273,1,2,0:0:0:0:
218,48,89425,1,6,3:2:0:0:
115,0,89576,2,0,P|121:51|127:105,1,92.0000017547608,0|12,3:2|0:0,0:0:0:0:
210,216,89879,1,2,0:0:0:0:
331,29,90031,6,0,P|411:22|498:79,2,184.000003509522,6|12|6,3:1|0:0|3:2,0:0:0:0:
243,69,90788,1,0,3:2:0:0:
357,255,90940,2,0,P|399:200|389:130,1,138.000002632141,14|0,0:2|0:0,0:0:0:0:
378,130,91243,6,0,P|329:140|280:148,1,92.0000017547608,4|0,3:1|3:2,0:0:0:0:
151,302,91546,2,0,P|138:258|117:201,1,92.0000017547608,14|0,0:0|0:0,0:0:0:0:
287,146,91849,2,0,P|254:180|216:226,1,92.0000017547608,6|0,3:2|3:2,0:0:0:0:
80,97,92152,2,0,P|124:109|184:119,1,92.0000017547608,14|0,0:0|0:0,0:0:0:0:
45,303,92455,5,6,3:1:0:0:
45,303,92607,1,0,3:2:0:0:
225,214,92758,2,0,P|270:211|316:230,1,92.0000017547608,14|0,0:0|0:0,0:0:0:0:
174,339,93061,1,6,3:2:0:0:
174,339,93213,1,0,3:2:0:0:
59,183,93364,2,0,P|60:135|82:94,1,92.0000017547608,14|0,0:0|0:0,0:0:0:0:
263,20,93667,6,0,B|346:25|307:61|404:67,1,138.000002632141,4|0,3:1|0:0,0:0:0:0:
401,74,93970,2,0,P|413:121|396:173,1,92.0000017547608,14|0,0:0|0:0,0:0:0:0:
326,252,94273,1,6,3:2:0:0:
512,352,94425,1,2,3:2:0:0:
469,240,94576,1,12,0:0:0:0:
264,379,94728,6,0,P|179:338|74:351,1,184.000003509522,6|0,3:1|3:2,0:0:0:0:
0,242,95182,2,0,P|6:200|14:151,1,92.0000017547608,14|0,0:0|0:0,0:0:0:0:
73,76,95485,1,6,3:2:0:0:
216,193,95637,1,0,3:2:0:0:
0,242,95788,1,12,0:0:0:0:
199,73,95940,5,2,3:2:0:0:
199,73,96016,1,0,3:2:0:0:
199,73,96091,2,0,P|253:60|328:104,1,138.000002632141,14|0,3:1|0:0,0:0:0:0:
331,107,96392,2,0,P|378:114|422:121,1,92.0000017547608,12|0,0:0|0:0,0:0:0:0:
482,300,96694,1,12,0:0:0:0:
295,215,96844,1,0,3:2:0:0:
491,301,96995,1,12,0:0:0:0:
256,380,97146,5,2,3:2:0:0:
256,380,97221,1,0,3:2:0:0:
256,380,97297,2,0,B|231:375|202:370|202:370|186:342|186:342|147:335|110:328,1,138.000002632141,14|0,3:1|0:0,0:0:0:0:
122,337,97600,2,0,P|129:295|139:234,1,92.0000017547608,12|0,0:0|0:0,0:0:0:0:
0,85,97903,1,12,0:0:0:0:
35,260,98054,1,0,3:2:0:0:
163,66,98206,1,12,0:0:0:0:
278,283,98357,5,2,3:2:0:0:
278,283,98433,1,0,3:2:0:0:
278,283,98509,2,0,P|357:266|419:260,1,138.000002632141,14|2,3:1|0:0,0:0:0:0:
427,259,98812,2,0,P|440:218|430:168,1,92.0000017547608,12|2,0:0|0:0,0:0:0:0:
338,12,99115,1,12,0:0:0:0:
500,79,99266,1,0,3:2:0:0:
338,216,99418,1,12,0:0:0:0:
216,30,99569,5,2,3:2:0:0:
216,30,99645,1,0,3:2:0:0:
216,30,99721,2,0,P|150:21|89:60,1,138.000002632141,14|0,3:1|0:0,0:0:0:0:
81,66,100024,2,0,P|89:115|97:164,1,92.0000017547608,12|0,0:0|0:0,0:0:0:0:
193,269,100327,1,14,0:0:0:0:
9,345,100478,1,0,3:2:0:0:
95,156,100630,1,14,0:0:0:0:
289,323,100781,5,0,3:2:0:0:
289,323,100857,1,0,3:2:0:0:
289,323,100933,2,0,B|373:334|326:371|417:386,1,138.000002632141,14|0,3:1|0:0,0:0:0:0:
486,342,101236,5,14,0:0:0:0:
486,342,101311,1,8,0:0:0:0:
486,342,101387,2,0,L|496:287,1,46.0000008773804,8|8,0:0|0:0,0:0:0:0:
385,199,101539,5,14,0:0:0:0:
385,199,101614,1,8,0:0:0:0:
385,199,101690,2,0,L|395:254,1,46.0000008773804,8|8,0:0|0:0,0:0:0:0:
512,86,101842,5,14,0:0:0:0:
478,56,101917,1,8,0:0:0:0:
434,45,101993,1,8,0:0:0:0:
390,58,102069,1,8,0:0:0:0:
357,90,102145,6,0,P|353:65|346:25,2,61.3333345031739,6|8|8,3:1|0:0|0:0,0:0:0:0:
283,164,102442,2,0,P|253:161|220:158,2,61.3333345031739,10|8|8,0:0|0:0|0:0,0:0:0:0:
228,42,102739,6,0,B|95:53|156:105|14:116,1,230.000004386902,14|0,3:2|0:0,0:0:0:0:
14,115,103200,1,14,3:1:0:0:
256,192,103275,12,0,108502,0:0:0:0:
