osu file format v14

[General]
AudioFilename: audio.mp3
AudioLeadIn: 0
PreviewTime: -1
Countdown: 0
SampleSet: None
StackLeniency: 0.7
Mode: 0
LetterboxInBreaks: 0
WidescreenStoryboard: 1

[Editor]
Bookmarks: 9736
DistanceSpacing: 4.6
BeatDivisor: 4
GridSize: 4
TimelineZoom: 2.000006

[Metadata]
Title:Kaze ga Fuku Machi (TV Size)
TitleUnicode:Kaze ga Fuku Machi (TV Size)
Artist:Luck Life
ArtistUnicode:Luck Life
Creator:[Red Panda]
Version:Beast Beneath the Moonlight
Source:Bungou Stray Dogs
Tags:Bungou Stray Dogs second season 2nd ending tv size anime
BeatmapID:1439279
BeatmapSetID:680728

[Difficulty]
HPDrainRate:6
CircleSize:4
OverallDifficulty:8.5
ApproachRate:9.2
SliderMultiplier:0.999999999999999
SliderTickRate:1

[Events]
//Background and Video events
0,0,"thumb-1920-699783.jpg",0,0
//Break Periods
//Storyboard Layer 0 (Background)
//Storyboard Layer 1 (Fail)
//Storyboard Layer 2 (Pass)
//Storyboard Layer 3 (Foreground)
//Storyboard Sound Samples

[TimingPoints]
2464,303.030303030303,4,3,0,40,1,0
2464,-111.111111111111,4,3,0,35,0,0
7575,303.030303030303,4,3,0,40,1,0
9732,303.030303030303,4,3,0,40,1,0
11474,-100,4,3,0,5,0,0
11550,-142.857142857143,4,3,0,30,0,0
12156,-71.4285714285714,4,3,0,50,0,0
21853,-100,4,3,0,40,0,0
38822,-90.9090909090909,4,3,0,45,0,0
49585,-200,4,3,0,30,0,0
50191,-100,4,3,0,45,0,0
50944,-71.4285714285714,4,3,0,50,0,1
77610,-50,4,3,0,60,0,1
84277,-100,4,3,0,40,0,0
87927,-100,4,3,0,5,0,0

[HitObjects]
316,129,2464,5,0,0:0:0:0:
61,217,2615,1,0,0:0:0:0:
327,264,2767,1,0,0:0:0:0:
264,189,2918,1,0,0:0:0:0:
206,258,3070,2,0,L|238:305,2,44.999998626709
139,197,3524,1,0,0:0:0:0:
210,140,3676,6,0,P|266:119|305:133,1,89.999997253418
331,207,4130,1,0,0:0:0:0:
270,272,4282,2,0,L|200:288,2,59.9999981689453
218,162,4888,6,0,L|157:141,2,59.9999981689453
318,116,5494,2,0,L|377:110,1,59.9999981689453
258,9,5898,1,0,0:0:0:0:
136,94,6100,6,0,L|198:116,1,59.9999981689453
192,204,6504,1,0,0:0:0:0:
116,264,6706,2,0,L|48:272,2,59.9999981689453
192,114,7312,1,0,0:0:0:0:
291,235,7575,6,0,L|358:211,1,50
352,120,7878,2,0,L|291:161,1,50
384,288,8181,2,0,L|451:264,1,50
204,235,8484,6,0,P|224:279|288:302,2,99.9999999999999
291,214,9241,2,0,L|260:153,1,50
276,96,9544,5,0,0:0:0:0:
276,96,9620,1,0,0:0:0:0:
256,192,9696,12,0,11474,0:0:0:0:
184,76,11550,5,0,0:0:0:0:
196,68,11701,2,0,L|274:94,1,69.9999978637695
361,188,12156,6,0,L|196:143,1,139.999995727539
139,38,12610,1,0,0:0:0:0:
279,41,12762,1,0,0:0:0:0:
206,160,12913,1,0,0:0:0:0:
167,24,13065,2,0,L|216:83,1,69.9999978637695
287,195,13369,6,0,L|215:234,1,69.9999978637695
85,216,13672,1,0,0:0:0:0:
153,94,13823,2,0,L|202:153,1,69.9999978637695
286,263,14126,1,0,0:0:0:0:
146,246,14278,2,0,L|101:192,1,69.9999978637695
90,54,14581,6,0,L|158:122,1,69.9999978637695
225,214,14884,1,0,0:0:0:0:
225,214,15035,2,0,L|286:174,1,69.9999978637695
334,44,15338,1,0,0:0:0:0:
219,124,15490,2,0,L|158:164,1,69.9999978637695
94,286,15793,6,0,L|155:246,1,69.9999978637695
219,124,16096,1,0,0:0:0:0:
85,83,16247,2,0,L|82:167,1,69.9999978637695
79,293,16550,1,0,0:0:0:0:
79,293,16702,2,0,L|140:253,1,69.9999978637695
226,146,17005,6,0,L|165:186,1,69.9999978637695
143,322,17308,1,0,0:0:0:0:
254,238,17459,2,0,L|315:198,1,69.9999978637695
167,184,17763,1,0,0:0:0:0:
167,184,17914,2,0,L|227:240,1,69.9999978637695
335,309,18217,6,0,L|391:249,1,69.9999978637695
366,118,18520,1,0,0:0:0:0:
289,236,18672,2,0,L|233:296,1,69.9999978637695
372,236,18975,1,0,0:0:0:0:
263,147,19126,1,0,0:0:0:0:
263,147,19202,1,0,0:0:0:0:
263,147,19278,6,0,B|217:122|217:122|182:130|182:130|164:103|115:114,1,139.999995727539
0,160,19732,1,0,0:0:0:0:
96,352,19884,1,0,0:0:0:0:
64,112,20035,1,0,0:0:0:0:
208,256,20187,1,0,0:0:0:0:
128,64,20338,1,0,0:0:0:0:
320,160,20490,1,0,0:0:0:0:
192,16,20641,1,0,0:0:0:0:
400,64,20793,1,0,0:0:0:0:
192,94,20944,6,0,L|232:97,2,34.9999989318848
359,137,21247,2,0,L|336:170,2,34.9999989318848
263,282,21550,2,0,L|245:245,2,34.9999989318848
208,160,21853,6,0,L|264:140,1,50
352,120,22156,1,0,0:0:0:0:
352,220,22308,1,0,0:0:0:0:
268,168,22459,1,0,0:0:0:0:
364,144,22611,1,0,0:0:0:0:
324,236,22763,2,0,L|272:248,1,50
213,326,23066,6,0,L|261:314,1,50
347,262,23369,1,0,0:0:0:0:
258,216,23520,1,0,0:0:0:0:
344,164,23672,1,0,0:0:0:0:
256,115,23823,1,0,0:0:0:0:
227,211,23975,2,0,L|271:181,1,50
297,86,24278,6,0,L|253:116,1,50
172,170,24581,1,0,0:0:0:0:
78,134,24732,1,0,0:0:0:0:
99,231,24884,1,0,0:0:0:0:
4,200,25035,1,0,0:0:0:0:
36,106,25187,2,0,L|90:141,1,50
176,113,25490,6,0,L|230:148,1,50
309,182,25793,1,0,0:0:0:0:
214,212,25944,1,0,0:0:0:0:
229,112,26096,1,0,0:0:0:0:
283,195,26247,1,0,0:0:0:0:
182,193,26399,1,0,0:0:0:0:
257,128,26550,1,0,0:0:0:0:
251,228,26702,6,0,L|213:184,1,50
224,90,27005,2,0,L|262:134,1,50
329,197,27308,1,0,0:0:0:0:
231,217,27459,1,0,0:0:0:0:
240,117,27611,2,0,L|273:164,1,50
315,246,27914,5,0,0:0:0:0:
228,296,28066,1,0,0:0:0:0:
145,239,28217,2,0,L|101:200,1,50
39,132,28520,1,0,0:0:0:0:
66,35,28672,1,0,0:0:0:0:
147,92,28823,1,0,0:0:0:0:
233,30,28975,1,0,0:0:0:0:
237,47,29126,6,0,L|293:83,2,50
248,146,29581,1,0,0:0:0:0:
164,200,29732,1,0,0:0:0:0:
171,216,29883,2,0,L|232:241,2,50
181,315,30338,1,0,0:0:0:0:
190,329,30489,2,0,L|254:343,2,50
123,254,30944,5,0,0:0:0:0:
187,177,31096,1,0,0:0:0:0:
258,245,31247,2,0,L|299:295,1,50
389,292,31550,2,0,L|348:242,1,50
303,168,31853,1,0,0:0:0:0:
202,174,32005,1,0,0:0:0:0:
259,255,32156,2,0,L|300:305,1,50
359,367,32459,1,0,0:0:0:0:
407,279,32611,1,0,0:0:0:0:
331,213,32763,6,0,L|282:167,1,50
219,111,33066,1,0,0:0:0:0:
151,184,33217,2,0,L|192:220,2,50
122,87,33672,1,0,0:0:0:0:
217,115,33823,1,0,0:0:0:0:
282,190,33975,6,0,L|338:238,1,50
305,321,34278,1,0,0:0:0:0:
208,295,34429,2,0,L|157:270,2,50
302,260,34884,1,0,0:0:0:0:
239,192,35035,1,0,0:0:0:0:
226,194,35187,6,0,L|175:169,1,50
175,82,35490,1,0,0:0:0:0:
186,91,35641,2,0,L|250:119,2,50
207,189,36096,2,0,L|267:221,1,50
350,196,36399,1,0,0:0:0:0:
311,103,36550,1,0,0:0:0:0:
288,115,36702,6,0,L|240:91,1,50
143,84,37005,1,0,0:0:0:0:
196,167,37156,1,0,0:0:0:0:
95,167,37308,1,0,0:0:0:0:
37,85,37459,1,0,0:0:0:0:
47,70,37611,6,0,L|98:87,1,50
189,117,37914,1,0,0:0:0:0:
197,132,38066,2,0,L|245:152,2,50
135,113,38520,1,0,0:0:0:0:
112,134,38596,1,0,0:0:0:0:
100,162,38672,1,0,0:0:0:0:
100,190,38747,1,0,0:0:0:0:
110,224,38822,6,0,L|151:269,1,55.0000016784668
287,176,39126,2,0,L|329:222,1,55.0000016784668
325,382,39429,1,0,0:0:0:0:
177,306,39581,1,0,0:0:0:0:
331,248,39732,1,0,0:0:0:0:
212,363,39884,6,0,P|157:373|114:333,1,110.000003356934
31,201,40338,1,0,0:0:0:0:
186,144,40490,1,0,0:0:0:0:
177,306,40641,1,0,0:0:0:0:
101,158,40793,1,0,0:0:0:0:
245,236,40944,1,0,0:0:0:0:
80,255,41096,1,0,0:0:0:0:
202,145,41247,5,0,0:0:0:0:
207,310,41399,1,0,0:0:0:0:
350,228,41550,1,0,0:0:0:0:
359,207,41702,2,0,L|321:167,1,55.0000016784668
164,113,42005,1,0,0:0:0:0:
164,277,42156,1,0,0:0:0:0:
313,206,42308,6,0,P|360:173|384:116,1,110.000003356934
236,204,42763,2,0,L|178:194,1,55.0000016784668
25,139,43066,1,0,0:0:0:0:
175,73,43217,1,0,0:0:0:0:
134,233,43369,2,0,L|71:266,1,55.0000016784668
88,93,43672,5,0,0:0:0:0:
237,161,43823,1,0,0:0:0:0:
93,243,43975,1,0,0:0:0:0:
245,304,44126,2,0,L|306:332,2,55.0000016784668
170,156,44581,1,0,0:0:0:0:
191,148,44732,6,0,L|301:213,1,110.000003356934
385,335,45187,1,0,0:0:0:0:
229,281,45338,1,0,0:0:0:0:
355,174,45490,1,0,0:0:0:0:
304,330,45641,1,0,0:0:0:0:
244,175,45793,2,0,L|291:228,1,55.0000016784668
269,381,46096,6,0,L|222:328,1,55.0000016784668
136,205,46399,1,0,0:0:0:0:
211,87,46550,2,0,L|261:111,1,55.0000016784668
349,250,46853,1,0,0:0:0:0:
189,204,47005,1,0,0:0:0:0:
308,91,47156,6,0,L|281:200,1,110.000003356934
188,334,47611,1,0,0:0:0:0:
75,212,47763,1,0,0:0:0:0:
231,160,47914,1,0,0:0:0:0:
250,189,47990,1,0,0:0:0:0:
253,224,48066,1,0,0:0:0:0:
109,304,48217,2,0,L|151:254,1,55.0000016784668
257,141,48520,6,0,L|279:202,1,55.0000016784668
306,355,48823,2,0,L|241:343,2,55.0000016784668
462,299,49278,1,0,0:0:0:0:
332,197,49429,1,0,0:0:0:0:
322,213,49581,6,0,B|284:220|284:220|256:252|256:252|204:244|168:276,1,165.0000050354
164,284,50187,5,0,0:0:0:0:
278,333,50338,1,0,0:0:0:0:
204,201,50490,2,0,L|171:154,1,50
67,265,50793,1,0,0:0:0:0:
271,307,50944,6,0,L|343:333,1,69.9999978637696
136,264,51247,1,0,0:0:0:0:
228,76,51399,1,0,0:0:0:0:
384,212,51550,1,0,0:0:0:0:
176,176,51702,1,0,0:0:0:0:
304,340,51853,2,0,L|260:272,1,69.9999978637695
168,96,52156,5,0,0:0:0:0:
56,276,52308,1,0,0:0:0:0:
265,281,52459,2,0,L|329:249,1,69.9999978637695
264,48,52763,1,0,0:0:0:0:
104,184,52914,1,0,0:0:0:0:
276,308,53066,2,0,L|339:359,1,69.9999978637695
396,152,53369,5,0,0:0:0:0:
212,52,53520,1,0,0:0:0:0:
116,240,53672,2,0,L|188:196,1,69.9999978637695
344,76,53975,1,0,0:0:0:0:
340,284,54126,1,0,0:0:0:0:
212,116,54278,2,0,L|144:80,1,69.9999978637695
132,292,54581,5,0,0:0:0:0:
320,200,54732,1,0,0:0:0:0:
136,100,54884,2,0,L|191:162,1,69.9999978637695
300,328,55187,1,0,0:0:0:0:
128,212,55338,1,0,0:0:0:0:
316,112,55490,2,0,L|312:196,1,69.9999978637695
136,296,55793,5,0,0:0:0:0:
240,116,55944,1,0,0:0:0:0:
376,276,56096,2,0,L|296:256,1,69.9999978637695
108,196,56399,1,0,0:0:0:0:
292,100,56550,1,0,0:0:0:0:
256,308,56702,2,0,L|224:228,1,69.9999978637695
144,52,57005,5,0,0:0:0:0:
68,248,57156,1,0,0:0:0:0:
280,240,57308,2,0,L|208:196,1,69.9999978637695
36,100,57611,1,0,0:0:0:0:
136,284,57763,1,0,0:0:0:0:
292,144,57914,2,0,L|216:188,1,69.9999978637695
68,312,58217,5,0,0:0:0:0:
276,296,58369,1,0,0:0:0:0:
280,88,58520,2,0,L|338:141,1,69.9999978637695
164,260,58823,1,0,0:0:0:0:
180,48,58975,1,0,0:0:0:0:
356,160,59126,1,0,0:0:0:0:
160,236,59278,6,0,L|236:208,1,69.9999978637695
380,72,59581,1,0,0:0:0:0:
184,148,59732,2,0,L|108:176,1,69.9999978637695
12,356,60035,1,0,0:0:0:0:
208,276,60187,2,0,L|279:336,2,69.9999978637695
64,124,60641,5,0,0:0:0:0:
276,132,60793,1,0,0:0:0:0:
184,320,60944,2,0,L|192:244,1,69.9999978637695
212,40,61247,1,0,0:0:0:0:
316,224,61399,2,0,L|324:152,2,69.9999978637695
140,336,61853,5,0,0:0:0:0:
84,132,62005,1,0,0:0:0:0:
288,84,62156,2,0,L|328:156,1,69.9999978637695
316,356,62459,1,0,0:0:0:0:
132,256,62611,1,0,0:0:0:0:
208,60,62763,2,0,L|220:132,1,69.9999978637695
288,284,63066,5,0,0:0:0:0:
365,89,63217,2,0,L|422:38,2,69.9999978637695
212,234,63672,1,0,0:0:0:0:
80,71,63823,2,0,L|30:17,2,69.9999978637695
255,187,64278,5,0,0:0:0:0:
50,143,64429,1,0,0:0:0:0:
253,90,64581,2,0,L|326:121,1,69.9999978637695
172,270,64884,1,0,0:0:0:0:
163,60,65035,1,0,0:0:0:0:
288,228,65187,2,0,L|322:297,1,69.9999978637695
138,181,65490,5,0,0:0:0:0:
335,110,65641,2,0,L|411:132,2,69.9999978637695
129,63,66096,1,0,0:0:0:0:
204,258,66247,2,0,L|286:292,2,69.9999978637695
109,69,66702,1,0,0:0:0:0:
297,159,66853,1,0,0:0:0:0:
144,16,67005,5,0,0:0:0:0:
120,32,67081,1,0,0:0:0:0:
96,48,67156,1,0,0:0:0:0:
80,72,67232,1,0,0:0:0:0:
64,96,67308,1,0,0:0:0:0:
48,120,67384,1,0,0:0:0:0:
40,144,67460,1,0,0:0:0:0:
40,168,67535,1,0,0:0:0:0:
40,192,67611,1,0,0:0:0:0:
48,216,67687,1,0,0:0:0:0:
56,240,67763,1,0,0:0:0:0:
72,264,67838,1,0,0:0:0:0:
88,288,67914,6,0,P|104:320|141:343,1,69.9999978637695
339,309,68217,2,0,L|277:255,1,69.9999978637695
131,120,68520,1,0,0:0:0:0:
331,185,68672,2,0,L|390:238,2,69.9999978637695
141,95,69126,5,0,0:0:0:0:
210,293,69278,1,0,0:0:0:0:
313,110,69429,2,0,L|291:42,1,69.9999978637695
161,209,69732,1,0,0:0:0:0:
366,255,69884,1,0,0:0:0:0:
214,110,70035,2,0,L|161:60,1,69.9999978637695
219,264,70338,5,0,0:0:0:0:
358,105,70490,1,0,0:0:0:0:
149,83,70641,2,0,L|201:131,1,69.9999978637695
372,251,70944,1,0,0:0:0:0:
264,70,71096,2,0,L|316:118,2,69.9999978637695
54,66,71550,5,0,0:0:0:0:
152,252,71702,1,0,0:0:0:0:
218,53,71853,2,0,L|153:110,1,69.9999978637695
15,247,72156,1,0,0:0:0:0:
215,183,72308,2,0,L|276:242,2,69.9999978637695
42,62,72763,5,0,0:0:0:0:
136,248,72914,1,0,0:0:0:0:
190,44,73066,2,0,L|262:98,1,69.9999978637695
57,180,73369,1,0,0:0:0:0:
259,232,73520,1,0,0:0:0:0:
104,88,73672,2,0,L|28:31,1,69.9999978637695
98,250,73975,5,0,0:0:0:0:
288,163,74126,2,0,L|348:207,2,69.9999978637695
108,52,74581,1,0,0:0:0:0:
167,252,74732,1,0,0:0:0:0:
277,72,74884,2,0,L|350:123,1,69.9999978637695
131,168,75187,5,0,0:0:0:0:
264,6,75338,1,0,0:0:0:0:
328,206,75490,2,0,L|284:266,1,69.9999978637695
159,94,75793,1,0,0:0:0:0:
366,67,75944,1,0,0:0:0:0:
244,239,76096,2,0,L|311:287,1,69.9999978637695
425,109,76399,5,0,0:0:0:0:
222,55,76550,2,0,L|296:106,2,69.9999978637695
323,239,77005,1,0,0:0:0:0:
349,31,77156,1,0,0:0:0:0:
196,175,77308,1,0,0:0:0:0:
406,168,77460,1,0,0:0:0:0:
128,96,77611,6,0,L|20:66,1,99.9999999999999
320,96,77914,2,0,L|428:66,1,99.9999999999999
128,192,78217,2,0,L|20:162,1,99.9999999999999
320,192,78520,2,0,L|428:162,1,99.9999999999999
128,288,78823,6,0,L|20:258,1,99.9999999999999
304,132,79126,1,0,0:0:0:0:
108,364,79278,1,0,0:0:0:0:
80,66,79429,1,0,0:0:0:0:
275,294,79581,1,0,0:0:0:0:
128,32,79732,2,0,L|20:2,1,99.9999999999999
320,96,80035,6,0,L|428:66,1,99.9999999999999
128,160,80338,2,0,L|20:130,1,99.9999999999999
320,224,80641,2,0,L|428:194,1,99.9999999999999
128,288,80944,2,0,L|20:258,1,99.9999999999999
320,224,81247,6,0,L|428:194,1,99.9999999999999
128,160,81550,1,0,0:0:0:0:
411,60,81702,2,0,B|370:77|370:77|332:96|332:96|328:164|270:211,1,200
14,67,82156,2,0,L|101:140,1,99.9999999999999
346,293,82460,1,0,0:0:0:0:
48,261,82611,1,0,0:0:0:0:
288,80,82763,5,0,0:0:0:0:
314,109,82838,1,0,0:0:0:0:
335,142,82914,1,0,0:0:0:0:
337,182,82990,1,0,0:0:0:0:
329,221,83066,1,0,0:0:0:0:
310,256,83141,1,0,0:0:0:0:
273,273,83217,1,0,0:0:0:0:
236,290,83293,1,0,0:0:0:0:
195,287,83369,1,0,0:0:0:0:
157,275,83444,1,0,0:0:0:0:
121,255,83520,1,0,0:0:0:0:
88,231,83596,1,0,0:0:0:0:
47,228,83672,5,0,0:0:0:0:
17,254,83747,1,0,0:0:0:0:
2,291,83823,1,0,0:0:0:0:
12,329,83899,1,0,0:0:0:0:
42,354,83975,1,0,0:0:0:0:
81,354,84050,1,0,0:0:0:0:
119,342,84126,1,0,0:0:0:0:
228,238,84278,6,0,B|257:223|257:223|266:200|266:200|297:182|304:162,1,99.9999999999999
256,192,84732,12,0,87914,0:0:0:0:
