osu file format v14

[General]
AudioFilename: audio.mp3
AudioLeadIn: 0
PreviewTime: -1
Countdown: 1
SampleSet: Soft
StackLeniency: 0.7
Mode: 0
LetterboxInBreaks: 0
WidescreenStoryboard: 0

[Editor]
DistanceSpacing: 1.5
BeatDivisor: 4
GridSize: 4
TimelineZoom: 1

[Metadata]
Title:Kaze ga Fuku Machi
TitleUnicode:風が吹く街
Artist:Luck Life
ArtistUnicode:ラックライフ
Creator:Le Dyguidour
Version:Astray
Source:文豪ストレイドッグス
Tags:
BeatmapID:1590598
BeatmapSetID:755716

[Difficulty]
HPDrainRate:6
CircleSize:4.4
OverallDifficulty:8.6
ApproachRate:9.5
SliderMultiplier:1.4
SliderTickRate:1

[Events]
//Background and Video events
0,0,"wallpepr.jpg",0,0
//Break Periods
2,144086,153058
//Storyboard Layer 0 (Background)
//Storyboard Layer 1 (Fail)
//Storyboard Layer 2 (Pass)
//Storyboard Layer 3 (Foreground)
//Storyboard Sound Samples

[TimingPoints]
704,303.030303030303,4,2,0,40,1,0
704,-133.333333333333,4,2,0,40,0,0
2068,303.030303030303,4,2,0,40,1,0
2068,-133.333333333333,4,2,0,40,0,0
2522,-200,4,2,0,40,0,0
3583,-133.333333333333,4,2,0,40,0,0
4946,-200,4,2,0,40,0,0
6916,-133.333333333333,4,2,0,40,0,0
11764,-100,4,3,4,60,0,0
12068,-100,4,2,4,20,0,0
13280,-117.647058823529,4,2,4,20,0,0
14189,-117.647058823529,4,3,4,60,0,0
14492,-117.647058823529,4,2,4,20,0,0
16613,-117.647058823529,4,3,4,60,0,0
16916,-117.647058823529,4,2,4,20,0,0
19037,-117.647058823529,4,3,4,60,0,0
19340,-117.647058823529,4,2,4,20,0,0
20098,-200,4,3,4,25,0,0
20704,-100,4,2,0,50,0,0
21461,-100,4,2,0,70,0,0
21916,-100,4,2,0,50,0,0
22068,-133.333333333333,4,2,0,50,0,0
22522,-100,4,2,0,50,0,0
23280,-133.333333333333,4,2,0,50,0,0
23734,-100,4,2,0,50,0,0
23886,-133.333333333333,4,2,0,50,0,0
25704,-133.333333333333,4,2,0,50,0,0
28583,-133.333333333333,4,3,4,60,0,0
29189,-133.333333333333,4,3,2,60,0,0
29289,-133.333333333333,4,3,4,60,0,0
31158,-76.9230769230769,4,2,0,60,0,0
31158,-83.3333333333333,4,2,4,60,0,1
31537,-83.3333333333333,4,3,4,60,0,1
31764,-83.3333333333333,4,2,4,60,0,1
32371,-83.3333333333333,4,3,4,60,0,1
32471,-83.3333333333333,4,2,4,60,0,1
32825,-83.3333333333333,4,3,4,60,0,1
32925,-83.3333333333333,4,2,4,60,0,1
33128,-83.3333333333333,4,3,4,60,0,1
33228,-83.3333333333333,4,2,4,60,0,1
33583,-83.3333333333333,4,3,4,60,0,1
33683,-83.3333333333333,4,2,4,60,0,1
34037,-83.3333333333333,4,3,4,60,0,1
34137,-83.3333333333333,4,2,4,60,0,1
34340,-83.3333333333333,4,3,4,60,0,1
34440,-83.3333333333333,4,2,4,60,0,1
35249,-83.3333333333333,4,3,4,60,0,1
35349,-83.3333333333333,4,2,4,60,0,1
35552,-83.3333333333333,4,3,4,60,0,1
35652,-83.3333333333333,4,2,4,60,0,1
35855,-83.3333333333333,4,2,4,60,0,0
36007,-76.9230769230769,4,3,4,60,0,0
36107,-76.9230769230769,4,2,4,60,0,0
36461,-76.9230769230769,4,3,4,60,0,0
36561,-76.9230769230769,4,2,4,60,0,0
36764,-76.9230769230769,4,3,4,60,0,0
36864,-76.9230769230769,4,2,4,60,0,0
37219,-76.9230769230769,4,3,4,60,0,0
37319,-76.9230769230769,4,2,4,60,0,0
37674,-76.9230769230769,4,3,4,60,0,0
37774,-76.9230769230769,4,2,4,60,0,0
37977,-76.9230769230769,4,2,4,60,0,0
38128,-76.9230769230769,4,3,4,60,0,0
38280,-76.9230769230769,4,3,4,60,0,1
38431,-76.9230769230769,4,2,4,60,0,1
38583,-76.9230769230769,4,3,4,60,0,1
38734,-76.9230769230769,4,2,4,60,0,1
40855,-76.9230769230769,4,2,4,50,0,0
41461,-76.9230769230769,4,3,4,50,0,0
41764,-76.9230769230769,4,2,4,50,0,0
42674,-76.9230769230769,4,3,4,50,0,0
42977,-76.9230769230769,4,2,4,50,0,0
43886,-76.9230769230769,4,3,4,50,0,0
44189,-76.9230769230769,4,2,4,50,0,0
45098,-76.9230769230769,4,3,4,50,0,0
45401,-76.9230769230769,4,2,4,50,0,0
46310,-76.9230769230769,4,3,4,50,0,0
46613,-76.9230769230769,4,2,4,50,0,0
47522,-76.9230769230769,4,3,4,50,0,0
47825,-76.9230769230769,4,2,4,50,0,0
48734,-76.9230769230769,4,3,4,50,0,0
49037,-76.9230769230769,4,2,4,50,0,0
49340,-76.9230769230769,4,3,4,50,0,0
49643,-76.9230769230769,4,2,4,50,0,0
49795,-76.9230769230769,4,3,4,50,0,0
50249,-76.9230769230769,4,2,4,50,0,0
50552,-76.9230769230769,4,3,4,60,0,0
50628,-76.9230769230769,4,2,4,60,0,0
51158,-76.9230769230769,4,3,4,60,0,0
51461,-76.9230769230769,4,2,4,60,0,0
51764,-76.9230769230769,4,3,4,60,0,0
51916,-76.9230769230769,4,2,4,60,0,0
52219,-76.9230769230769,4,3,4,60,0,0
52825,-76.9230769230769,4,2,4,60,0,0
52977,-76.9230769230769,4,3,4,60,0,0
53128,-76.9230769230769,4,2,4,60,0,0
53431,-76.9230769230769,4,3,4,60,0,0
53886,-76.9230769230769,4,2,4,60,0,0
54189,-76.9230769230769,4,3,4,60,0,0
54340,-76.9230769230769,4,2,4,60,0,0
54643,-76.9230769230769,4,3,4,60,0,0
55098,-76.9230769230769,4,2,4,60,0,0
55401,-76.9230769230769,4,3,4,60,0,0
55477,-76.9230769230769,4,2,4,60,0,0
55855,-76.9230769230769,4,3,4,60,0,0
56310,-76.9230769230769,4,2,4,60,0,0
56613,-76.9230769230769,4,3,4,60,0,0
56689,-76.9230769230769,4,2,4,60,0,0
57219,-76.9230769230769,4,3,4,60,0,0
57522,-76.9230769230769,4,2,4,60,0,0
58431,-76.9230769230769,4,3,4,60,0,0
58886,-76.9230769230769,4,2,4,60,0,0
59189,-76.9230769230769,4,3,4,60,0,0
59289,-76.9230769230769,4,2,4,60,0,0
59492,-76.9230769230769,4,3,4,60,0,0
59592,-76.9230769230769,4,2,4,60,0,0
59795,-76.9230769230769,4,3,4,60,0,0
60249,-76.9230769230769,4,2,4,40,0,0
61764,-76.9230769230769,4,2,4,40,0,0
61864,-76.9230769230769,4,2,4,40,0,0
62067,-76.9230769230769,4,3,4,40,0,0
62371,-100,4,2,4,40,0,0
62471,-76.9230769230769,4,2,4,40,0,0
64340,-76.9230769230769,4,3,2,40,0,0
64643,-76.9230769230769,4,2,4,40,0,0
64795,-100,4,2,4,40,0,0
64895,-76.9230769230769,4,2,4,40,0,0
67674,-76.9230769230769,4,3,2,40,0,0
67977,-76.9230769230769,4,2,4,40,0,0
68128,-76.9230769230769,4,3,2,40,0,0
68583,-133.333333333333,4,2,4,40,0,0
69946,-66.6666666666667,4,2,4,60,0,1
70249,-66.6666666666667,4,2,4,60,0,1
70552,-66.6666666666667,4,3,4,60,0,1
70855,-66.6666666666667,4,2,4,60,0,1
71158,-66.6666666666667,4,3,4,60,0,1
71461,-66.6666666666667,4,2,4,60,0,1
71764,-83.3333333333333,4,3,4,60,0,1
72068,-66.6666666666667,4,2,4,60,0,1
72371,-66.6666666666667,4,3,4,60,0,1
72674,-66.6666666666667,4,2,4,60,0,1
72977,-66.6666666666667,4,3,4,60,0,1
73280,-66.6666666666667,4,2,4,60,0,1
73583,-66.6666666666667,4,3,4,60,0,1
73683,-66.6666666666667,4,2,4,60,0,1
74189,-66.6666666666667,4,3,4,60,0,1
74492,-66.6666666666667,4,2,4,60,0,1
74795,-66.6666666666667,4,3,4,60,0,1
75098,-66.6666666666667,4,2,4,60,0,1
75401,-66.6666666666667,4,3,4,60,0,1
75704,-66.6666666666667,4,2,4,60,0,1
76007,-66.6666666666667,4,3,4,60,0,1
76310,-66.6666666666667,4,2,4,60,0,1
76613,-66.6666666666667,4,3,4,60,0,1
76916,-66.6666666666667,4,2,4,60,0,1
77219,-66.6666666666667,4,3,4,60,0,1
77522,-66.6666666666667,4,2,4,60,0,1
77825,-66.6666666666667,4,3,4,60,0,1
78431,-66.6666666666667,4,2,4,60,0,1
78583,-66.6666666666667,4,3,4,60,0,1
78658,-66.6666666666667,4,2,4,60,0,1
79037,-66.6666666666667,4,3,4,60,0,1
79340,-66.6666666666667,4,2,4,60,0,1
79643,-66.6666666666667,4,3,4,60,0,1
79946,-66.6666666666667,4,2,4,60,0,1
80249,-66.6666666666667,4,3,4,60,0,1
80552,-66.6666666666667,4,2,4,60,0,1
80855,-66.6666666666667,4,3,4,60,0,1
81158,-66.6666666666667,4,2,4,60,0,1
81461,-66.6666666666667,4,3,4,60,0,1
81764,-66.6666666666667,4,2,4,60,0,1
82068,-66.6666666666667,4,3,4,60,0,1
82371,-66.6666666666667,4,2,4,60,0,1
82674,-66.6666666666667,4,3,4,60,0,1
83128,-66.6666666666667,4,2,4,60,0,1
83280,-66.6666666666667,4,3,4,60,0,1
83583,-66.6666666666667,4,2,4,60,0,1
83886,-66.6666666666667,4,3,4,60,0,1
84189,-66.6666666666667,4,2,4,60,0,1
84492,-66.6666666666667,4,3,4,60,0,1
84795,-66.6666666666667,4,2,4,60,0,1
85098,-66.6666666666667,4,3,4,60,0,1
85401,-66.6666666666667,4,2,4,60,0,1
85704,-66.6666666666667,4,3,4,60,0,1
86007,-66.6666666666667,4,2,4,60,0,1
86310,-66.6666666666667,4,3,4,60,0,1
86764,-58.8235294117647,4,2,4,40,0,1
86916,-100,4,2,4,60,0,0
87219,-100,4,2,4,60,0,1
88886,-100,4,3,4,60,0,1
89037,-100,4,3,4,60,0,0
89189,-100,4,2,4,40,0,0
89340,-100,4,2,4,60,0,0
89643,-100,4,2,4,60,0,1
91310,-100,4,3,4,60,0,1
91461,-100,4,3,4,60,0,0
91613,-100,4,2,4,40,0,0
91764,-100,4,2,4,60,0,0
91916,-100,4,3,4,60,0,0
91992,-100,4,2,4,60,0,0
92067,-100,4,2,4,60,0,1
92219,-100,4,3,4,60,0,1
92295,-100,4,2,4,60,0,1
92522,-100,4,3,4,60,0,1
92598,-100,4,2,4,60,0,1
92825,-100,4,3,4,60,0,1
92901,-100,4,2,4,60,0,1
93128,-100,4,3,4,60,0,1
93204,-100,4,2,4,60,0,1
93431,-100,4,3,4,60,0,1
93507,-100,4,2,4,60,0,1
93734,-100,4,3,4,60,0,1
93886,-100,4,3,4,60,0,0
94037,-66.6666666666667,4,2,4,60,0,0
96613,-66.6666666666667,4,2,4,40,0,0
97825,-100,4,2,4,60,0,0
107522,-100,4,2,4,60,0,0
112067,-86.9565217391304,4,2,4,60,0,0
112674,-76.9230769230769,4,2,4,60,0,0
117219,-100,4,2,4,60,0,0
126916,-66.6666666666667,4,2,4,60,0,1
127219,-66.6666666666667,4,2,4,60,0,1
127522,-66.6666666666667,4,3,4,60,0,1
127825,-66.6666666666667,4,2,4,60,0,1
128128,-66.6666666666667,4,3,4,60,0,1
128431,-66.6666666666667,4,2,4,60,0,1
128734,-83.3333333333333,4,3,4,60,0,1
129038,-66.6666666666667,4,2,4,60,0,1
129341,-66.6666666666667,4,3,4,60,0,1
129644,-66.6666666666667,4,2,4,60,0,1
129947,-66.6666666666667,4,3,4,60,0,1
130250,-66.6666666666667,4,2,4,60,0,1
130553,-66.6666666666667,4,3,4,60,0,1
130653,-66.6666666666667,4,2,4,60,0,1
131159,-66.6666666666667,4,3,4,60,0,1
131462,-66.6666666666667,4,2,4,60,0,1
131765,-66.6666666666667,4,3,4,60,0,1
132068,-66.6666666666667,4,2,4,60,0,1
132371,-66.6666666666667,4,3,4,60,0,1
132674,-66.6666666666667,4,2,4,60,0,1
132977,-66.6666666666667,4,3,4,60,0,1
133280,-66.6666666666667,4,2,4,60,0,1
133583,-66.6666666666667,4,3,4,60,0,1
133886,-66.6666666666667,4,2,4,60,0,1
134189,-66.6666666666667,4,3,4,60,0,1
134492,-66.6666666666667,4,2,4,60,0,1
134795,-66.6666666666667,4,3,4,60,0,1
135401,-66.6666666666667,4,2,4,60,0,1
135553,-66.6666666666667,4,3,4,60,0,1
135628,-66.6666666666667,4,2,4,60,0,1
136007,-66.6666666666667,4,3,4,60,0,1
136310,-66.6666666666667,4,2,4,60,0,1
136613,-66.6666666666667,4,3,4,60,0,1
136916,-66.6666666666667,4,2,4,60,0,1
137219,-66.6666666666667,4,3,4,60,0,1
137522,-66.6666666666667,4,2,4,60,0,1
137825,-66.6666666666667,4,3,4,60,0,1
138128,-66.6666666666667,4,2,4,60,0,1
138431,-66.6666666666667,4,3,4,60,0,1
138734,-66.6666666666667,4,2,4,60,0,1
139038,-66.6666666666667,4,3,4,60,0,1
139341,-66.6666666666667,4,2,4,60,0,1
139644,-66.6666666666667,4,3,4,60,0,1
140098,-66.6666666666667,4,2,4,60,0,1
140250,-66.6666666666667,4,3,4,60,0,1
140553,-66.6666666666667,4,2,4,60,0,1
140856,-66.6666666666667,4,3,4,60,0,1
141159,-66.6666666666667,4,2,4,60,0,1
141462,-66.6666666666667,4,3,4,60,0,1
141765,-66.6666666666667,4,2,4,60,0,1
142068,-66.6666666666667,4,3,4,60,0,1
142371,-66.6666666666667,4,2,4,60,0,1
142674,-66.6666666666667,4,3,4,60,0,1
142977,-66.6666666666667,4,2,4,60,0,1
143886,-100,4,3,4,60,0,0
143986,-100,4,2,4,60,0,0
153583,-100,4,2,4,60,0,0
163280,-181.818181818182,4,2,4,60,0,0
168128,-153.846153846154,4,2,4,60,0,0
169340,-133.333333333334,4,2,4,60,0,0
170552,-117.64705882353,4,2,4,60,0,0
171916,-66.6666666666667,4,2,4,60,0,0
172977,-74.0740740740741,4,2,4,60,0,0
173280,-74.0740740740741,4,3,2,50,0,1
175401,-74.0740740740741,4,2,4,60,0,0
175704,-74.0740740740741,4,3,2,50,0,1
177825,-74.0740740740741,4,2,4,60,0,0
178128,-74.0740740740741,4,3,2,50,0,1
179037,-74.0740740740741,4,2,4,60,0,0
179340,-74.0740740740741,4,3,4,50,0,1
180098,-74.0740740740741,4,2,4,60,0,0
180249,-80,4,2,4,60,0,0
185098,-66.6666666666667,4,2,4,60,0,1
200855,-66.6666666666667,4,2,4,60,0,0
202067,-66.6666666666667,4,2,4,60,0,1
210401,-66.6666666666667,4,2,4,60,0,0
211764,-66.6666666666667,4,2,4,60,0,1
218431,-133.333333333333,4,2,4,60,0,1
218583,-100,4,2,4,60,0,0
219037,-100,4,2,4,60,0,0
237674,285.714285714286,4,2,4,60,1,0

[Colours]
Combo1 : 108,98,202
Combo2 : 208,207,222
Combo3 : 123,163,80
Combo4 : 200,134,106

[HitObjects]
328,100,704,6,0,P|352:88|384:88,2,52.5000020027161,0|0|0,0:0|0:0|0:0,0:0:0:0:
256,168,1158,2,0,L|144:160,2,105.000004005432,0|0|0,0:0|0:0|0:0,0:0:0:0:
476,164,2068,6,0,L|368:172,1,105.000004005432
320,232,2522,2,0,P|344:248|384:252,1,70,0|0,0:0|0:0,0:0:0:0:
328,100,3128,1,0,0:0:0:0:
152,56,3583,6,0,L|264:48,2,105.000004005432,0|0|0,0:0|0:0|0:0,0:0:0:0:
64,124,4492,6,0,P|60:180|84:228,1,105.000004005432,0|0,0:0|0:0,0:0:0:0:
216,264,4946,2,0,P|181:265|151:283,1,70,0|0,0:0|0:0,0:0:0:0:
288,328,5552,1,0,0:0:0:0:
453,258,6007,6,0,L|373:250,1,70,0|0,0:0|0:0,0:0:0:0:
216,264,6916,6,0,L|227:150,1,105.000004005432,0|0,0:0|0:0,0:0:0:0:
304,72,7371,2,0,L|314:176,2,105.000004005432,0|0|0,0:0|0:0|0:0,0:0:0:0:
416,232,8431,6,0,L|405:127,2,105.000004005432,0|0|0,0:0|0:0|0:0,0:0:0:0:
324,280,9340,6,0,L|313:175,1,105.000004005432,0|0,0:0|0:0,0:0:0:0:
236,54,9795,2,0,L|226:159,2,105.000004005432,0|0|0,0:0|0:0|0:0,0:0:0:0:
192,96,10552,2,0,P|160:100|136:96,1,52.5000020027161,0|0,0:0|0:0,0:0:0:0:
108,156,10855,6,0,L|97:51,2,105.000004005432,0|0|0,0:0|0:0|0:0,0:0:0:0:
128,304,11764,5,0,0:0:0:0:
128,304,11916,1,0,0:0:0:0:
204,228,12068,5,2,2:0:0:0:
232,236,12371,1,2,2:0:0:0:
260,244,12674,1,2,2:0:0:0:
288,252,12977,1,2,2:0:0:0:
332,263,13280,2,2,L|332:204,2,59.5000011348725,2|0|2,2:0|2:0|2:0,2:0:0:0:
372,276,13886,1,2,2:0:0:0:
420,192,14189,5,0,3:3:0:0:
420,192,14340,1,0,3:3:0:0:
344,116,14492,5,2,2:0:0:0:
316,124,14795,1,2,2:0:0:0:
288,132,15098,1,2,2:0:0:0:
260,140,15401,1,2,2:0:0:0:
232,148,15704,2,2,L|232:207,2,59.5000011348725,2|0|2,2:0|2:0|2:0,2:0:0:0:
204,156,16310,1,2,2:0:0:0:
120,192,16613,5,0,0:0:0:0:
120,192,16764,1,0,0:0:0:0:
44,116,16916,5,2,2:0:0:0:
48,104,17219,1,2,2:0:0:0:
52,92,17522,1,2,2:0:0:0:
56,80,17825,1,2,2:0:0:0:
64,60,18128,2,2,L|123:60,2,59.5000011348725,2|0|2,2:0|2:0|2:0,2:0:0:0:
68,44,18734,1,2,2:0:0:0:
120,192,19037,5,0,0:0:0:0:
120,192,19188,1,0,0:0:0:0:
44,268,19340,5,2,2:0:0:0:
48,280,19643,1,2,2:0:0:0:
52,292,19946,1,2,2:0:0:0:
120,192,20098,2,0,B|172:176|176:204|240:188,1,105,4|0,0:0|0:0,0:0:0:0:
296,192,20704,5,0,0:0:0:0:
372,148,20855,2,0,P|384:196|364:256,2,105,0|0|0,0:0|0:0|0:0,0:0:0:0:
288,92,21461,5,0,0:0:0:0:
412,60,21613,1,0,0:0:0:0:
248,88,21764,2,0,L|152:80,1,70,0|0,0:0|0:0,0:0:0:0:
72,44,22068,2,0,P|88:92|72:136,1,78.7500030040742,0|0,0:0|0:0,0:0:0:0:
24,208,22484,1,0,0:0:0:0:
128,264,22674,6,0,L|197:269,1,70,0|0,0:0|0:0,0:0:0:0:
296,192,22977,2,0,L|226:197,1,70,0|0,0:0|0:0,0:0:0:0:
312,288,23280,2,0,P|356:276|376:252,1,78.7500030040742,0|0,0:0|0:0,0:0:0:0:
384,160,23696,1,0,0:0:0:0:
264,144,23886,6,0,P|261:99|226:60,2,78.7500030040742,0|0|0,0:0|0:0|0:0,0:0:0:0:
152,224,24492,2,0,P|148:180|176:136,2,78.7500030040742,0|0|0,0:0|0:0|0:0,0:0:0:0:
300,312,25098,2,0,B|288:304|272:312|272:312|256:304|256:304|224:320|196:308,1,105.000004005432,0|0,0:0|0:0,0:0:0:0:
96,292,25552,5,0,0:0:0:0:
226,197,25704,2,0,L|345:207,1,105.000004005432,0|0,0:0|0:0,0:0:0:0:
330,205,26310,1,0,0:0:0:0:
424,184,26613,2,0,P|428:224|384:288,1,105.000004005432,0|0,0:0|0:0,0:0:0:0:
264,144,27219,2,0,P|296:120|374:126,1,105.000004005432,0|0,0:3|0:3,0:3:0:0:
310,303,27825,2,0,P|273:286|239:216,2,105.000004005432,0|0|0,0:0|0:0|0:0,0:0:0:0:
336,208,28582,1,0,0:0:0:0:
336,208,28658,1,0,0:0:0:0:
336,208,28734,5,8,0:0:0:0:
84,172,29189,1,2,0:0:0:0:
228,64,29492,1,0,0:0:0:0:
192,316,29643,1,8,0:0:0:0:
101,271,29946,5,0,0:0:0:0:
128,81,30098,1,8,0:0:0:0:
291,298,30249,1,0,0:0:0:0:
291,298,30552,2,0,P|312:252|304:212,2,78.7500030040742,0|0|0,0:0|0:0|0:0,0:0:0:0:
216,240,31158,6,0,B|288:216|316:300|408:252,1,167.999994873047,0|8,0:0|0:0,0:0:0:0:
480,224,31613,1,0,0:0:0:0:
431,51,31764,2,0,P|383:79|359:151,1,125.999996154785
359,143,32067,1,8,0:0:0:0:
452,140,32219,1,0,0:0:0:0:
352,16,32371,6,0,L|252:24,1,90.9999958343508,0|0,0:0|0:0,0:0:0:0:
116,96,32674,1,8,0:0:0:0:
190,142,32825,2,0,P|202:94|190:50,1,90.9999958343508,0|0,0:0|0:0,0:0:0:0:
192,54,33128,1,0,0:0:0:0:
40,96,33280,2,0,L|48:200,1,90.9999958343508,8|0,0:0|0:0,0:0:0:0:
180,228,33583,6,0,B|204:220|204:220|276:228,1,90.9999958343508,0|0,0:0|0:0,0:0:0:0:
412,320,33886,1,8,0:0:0:0:
412,320,34037,2,0,B|388:328|388:328|316:320,1,90.9999958343508,0|0,0:0|0:0,0:0:0:0:
280,148,34340,2,0,P|332:176|348:220,1,90.9999958343508,0|8,0:0|0:0,0:0:0:0:
252,316,34643,6,0,L|269:224,2,90.9999958343508
144,332,35098,1,8,0:0:0:0:
180,228,35249,2,0,B|160:184|160:184|156:140,1,90.9999958343508
152,8,35552,1,0,0:0:0:0:
273,62,35704,2,0,P|289:106|273:158,1,90.9999958343508,8|0,0:0|0:0,0:0:0:0:
212,108,36007,6,0,B|304:84|304:144|404:108,1,181.999991668702,0|8,0:0|0:0,0:0:0:0:
389,112,36461,1,0,0:0:0:0:
424,256,36613,6,0,P|380:240|324:240,1,90.9999958343508
116,305,36916,2,0,P|152:275|180:226,1,90.9999958343508,8|0,0:0|0:0,0:0:0:0:
227,14,37219,2,0,P|235:60|263:109,1,90.9999958343508
336,238,37522,6,0,P|318:181|270:161,1,90.9999958343508,8|0,0:0|0:0,0:0:0:0:
255,99,37825,2,0,P|215:144|214:190,1,90.9999958343508
175,238,38128,1,0,0:0:0:0:
377,172,38280,2,8,L|289:164,1,83.9999974365235,4|0,0:0|0:0,0:0:0:0:
128,120,38583,1,0,0:0:0:0:
392,256,38734,5,10,0:0:0:0:
88,196,38886,1,0,0:0:0:0:
346,184,39037,5,10,0:0:0:0:
168,44,39189,1,0,0:0:0:0:
306,260,39340,5,10,0:0:0:0:
254,40,39492,1,0,0:0:0:0:
134,268,39643,5,10,0:0:0:0:
82,48,39795,1,0,0:0:0:0:
220,264,39946,5,10,0:0:0:0:
340,36,40098,1,0,0:0:0:0:
174,192,40249,5,10,0:0:0:0:
432,180,40401,1,0,0:0:0:0:
168,44,40552,5,10,0:0:0:0:
266,336,40704,1,0,0:0:0:0:
470,106,40855,6,0,P|404:104|356:216,1,181.999991668702,0|8,0:0|0:0,0:0:0:0:
396,312,41310,1,0,0:0:0:0:
288,228,41461,5,0,0:0:0:0:
288,228,41613,2,0,L|168:240,1,90.9999958343508,0|8,0:0|0:0,0:0:0:0:
40,232,41916,1,0,0:0:0:0:
148,148,42067,1,0,0:0:0:0:
148,148,42219,2,0,L|268:160,1,90.9999958343508,0|8,0:0|0:0,0:0:0:0:
396,152,42522,5,0,0:0:0:0:
280,79,42673,1,0,0:0:0:0:
292,224,42825,1,0,0:0:0:0:
148,148,42977,6,0,P|175:87|224:68,1,90.9999958343508,8|0,0:0|0:0,0:0:0:0:
292,224,43280,2,0,B|200:268|200:192|112:228,1,181.999991668702,0|8,0:0|0:0,0:0:0:0:
152,300,43734,1,0,0:0:0:0:
244,160,43886,5,0,0:0:0:0:
244,160,44037,2,0,P|300:184|316:220,1,90.9999958343508,0|8,0:0|0:0,0:0:0:0:
320,310,44340,1,0,0:0:0:0:
152,300,44492,1,0,0:0:0:0:
152,300,44643,2,0,P|144:239|167:207,1,90.9999958343508,0|8,0:0|0:0,0:0:0:0:
244,160,44946,5,0,0:0:0:0:
323,314,45098,1,0,0:0:0:0:
323,314,45249,2,0,P|274:350|235:346,1,90.9999958343508,0|8,0:0|0:0,0:0:0:0:
159,215,45552,1,0,0:0:0:0:
320,124,45704,6,0,P|328:176|312:212,1,90.9999958343508,0|0,0:0|0:0,0:0:0:0:
236,307,46007,2,0,P|288:299|324:315,1,90.9999958343508,8|0,0:0|0:0,0:0:0:0:
437,289,46310,2,0,P|387:269|364:238,1,90.9999958343508,0|0,0:0|0:0,0:0:0:0:
318,35,46613,2,0,B|330:83|330:83|318:131,1,90.9999958343508,8|0,0:0|0:0,0:0:0:0:
196,160,46916,6,0,B|240:160|240:160|252:192|292:204,1,90.9999958343508,0|0,0:0|0:0,0:0:0:0:
352,4,47219,2,0,B|329:42|329:42|296:36|265:65,1,90.9999958343508,8|0,0:0|0:0,0:0:0:0:
409,217,47522,2,0,B|387:178|387:178|408:152|399:111,1,90.9999958343508,0|0,0:0|0:0,0:0:0:0:
249,135,47825,6,0,B|208:120|192:84|192:84|137:87|109:143,1,181.999991668702,8|0,0:0|0:0,0:0:0:0:
184,276,48280,2,0,P|168:232|132:208,1,90.9999958343508,0|8,0:0|0:0,0:0:0:0:
12,288,48583,2,0,L|112:284,1,90.9999958343508,0|0,0:0|0:0,0:0:0:0:
338,262,48886,5,0,0:0:0:0:
184,276,49037,1,8,0:0:0:0:
249,135,49189,2,0,L|256:240,1,90.9999958343508,0|0,0:0|0:0,0:0:0:0:
264,312,49492,5,0,0:0:0:0:
175,185,49643,1,8,0:0:0:0:
329,171,49794,1,0,0:0:0:0:
184,276,49946,5,0,0:0:0:0:
373,111,50098,1,0,0:0:0:0:
124,133,50249,1,10,0:0:0:0:
338,262,50401,1,0,0:0:0:0:
241,31,50552,2,0,B|192:32|192:32|136:60,1,90.9999958343508,0|0,0:0|0:0,0:0:0:0:
24,132,50855,5,8,0:0:0:0:
100,260,51007,1,0,0:0:0:0:
173,131,51158,1,0,0:0:0:0:
173,131,51310,1,0,0:0:0:0:
24,218,51461,5,8,0:0:0:0:
98,88,51613,1,0,0:0:0:0:
173,216,51764,2,0,B|222:215|222:215|278:187,1,90.9999958343508,0|0,0:0|0:0,0:0:0:0:
340,48,52067,2,0,P|316:92|324:144,1,90.9999958343508,8|0,0:0|0:0,0:0:0:0:
352,192,52295,1,0,0:0:0:0:
352,192,52371,5,0,0:0:0:0:
392,12,52522,1,0,0:0:0:0:
448,248,52674,1,8,0:0:0:0:
488,68,52825,1,2,0:0:0:0:
364,268,52977,2,0,B|332:272|304:252|304:252|280:248|256:264,1,90.9999958343508,0|0,0:0|0:0,0:0:0:0:
172,316,53280,5,8,0:0:0:0:
107,186,53431,1,0,0:0:0:0:
107,186,53507,1,0,0:0:0:0:
107,186,53583,1,0,0:0:0:0:
236,121,53734,1,0,0:0:0:0:
301,251,53886,1,8,0:0:0:0:
172,316,54037,5,0,0:0:0:0:
236,121,54189,2,0,B|328:80|328:160|416:108,1,181.999991668702,0|8,0:0|0:0,0:0:0:0:
360,48,54643,1,0,0:0:0:0:
288,184,54795,2,0,P|344:204|384:204,1,90.9999958343508,0|0,0:0|0:0,0:0:0:0:
440,31,55098,2,0,B|448:88|404:115,1,90.9999958343508,8|0,0:0|0:0,0:0:0:0:
252,48,55401,6,0,P|200:56|164:104,1,90.9999958343508
104,216,55704,2,0,L|92:120,1,90.9999958343508,8|0,0:0|0:0,0:0:0:0:
80,60,55931,1,0,0:0:0:0:
80,60,56007,1,0,0:0:0:0:
24,156,56158,1,0,0:0:0:0:
172,188,56310,5,8,0:0:0:0:
36,244,56461,1,0,0:0:0:0:
164,96,56613,2,0,L|272:104,1,90.9999958343508,0|0,0:0|0:0,0:0:0:0:
444,140,56916,2,0,L|336:148,1,90.9999958343508,8|0,0:0|0:0,0:0:0:0:
172,188,57219,2,0,L|280:196,1,90.9999958343508
424,232,57522,2,0,L|316:240,1,90.9999958343508,10|0,0:0|0:0,0:0:0:0:
252,112,57825,6,0,B|308:196|220:196|274:298,2,181.999991668702,0|10|0,0:0|0:0|0:0,0:0:0:0:
196,164,58583,1,0,0:0:0:0:
333,238,58734,1,0,0:0:0:0:
329,83,58886,2,10,P|300:44|248:32,1,90.9999958343508,10|0,0:0|0:0,0:0:0:0:
64,80,59189,5,0,0:0:0:0:
252,112,59340,1,10,0:0:0:0:
40,168,59492,5,0,0:0:0:0:
258,181,59643,1,10,0:0:0:0:
23,272,59795,5,0,0:0:0:0:
273,261,59946,1,10,0:0:0:0:
140,100,60098,1,10,0:0:0:0:
151,349,60249,5,0,0:0:0:0:
258,181,60401,1,0,0:0:0:0:
120,211,60552,1,8,0:0:0:0:
288,320,60704,2,0,P|317:288|316:231,1,90.9999958343508,0|0,0:0|0:0,0:0:0:0:
360,120,61007,2,0,L|384:208,1,90.9999958343508,0|8,0:0|0:0,0:0:0:0:
421,84,61310,2,0,P|424:39|455:7,1,90.9999958343508,0|0,0:0|0:0,0:0:0:0:
474,211,61613,5,0,0:0:0:0:
474,211,61689,1,0,0:0:0:0:
474,211,61764,2,0,L|374:207,1,90.9999958343508,4|0,0:0|0:0,0:0:0:0:
220,192,62067,1,0,0:0:0:0:
220,192,62219,1,0,0:0:0:0:
220,24,62371,2,0,L|220:116,1,70,4|0,0:0|0:0,0:0:0:0:
220,288,62674,5,0,0:0:0:0:
135,138,62825,1,0,0:0:0:0:
305,139,62977,1,0,0:0:0:0:
132,216,63128,2,0,P|92:200|60:148,1,90.9999958343508,2|0,0:0|0:0,0:0:0:0:
290,250,63431,2,0,P|296:292|267:346,1,90.9999958343508,0|8,0:0|0:0,0:0:0:0:
240,96,63734,2,0,P|273:69|334:67,1,90.9999958343508,2|0,0:0|0:0,0:0:0:0:
428,120,64037,5,0,0:0:0:0:
428,120,64113,1,0,0:0:0:0:
428,120,64189,1,8,0:0:0:0:
220,192,64340,1,2,0:0:0:0:
416,224,64492,2,2,P|408:272|380:304,1,90.9999958343508,2|0,0:0|0:0,0:0:0:0:
292,360,64795,2,0,L|292:268,1,70,4|0,0:0|0:0,0:0:0:0:
292,96,65098,5,0,0:0:0:0:
176,256,65249,1,0,0:0:0:0:
332,232,65401,1,0,0:0:0:0:
163,116,65552,2,0,P|132:168|132:208,1,90.9999958343508,2|0,0:0|0:0,0:0:0:0:
212,264,65855,2,0,B|228:244|228:216|228:216|204:196|200:164,1,90.9999958343508,0|8,0:0|0:0,0:0:0:0:
299,150,66158,2,0,P|330:202|330:238,1,90.9999958343508,2|0,0:0|0:0,0:0:0:0:
180,332,66461,5,0,0:0:0:0:
180,332,66537,1,0,0:0:0:0:
180,332,66613,2,0,P|148:300|148:220,1,90.9999958343508,10|0,0:0|0:0,0:0:0:0:
252,132,66916,1,8,0:0:0:0:
244,160,67017,1,8,0:0:0:0:
236,188,67118,1,8,0:0:0:0:
228,216,67219,2,0,B|264:216|264:216|284:236|284:236|316:236,1,90.9999958343508,0|0,0:0|0:0,0:0:0:0:
420,240,67522,5,8,0:0:0:0:
176,72,67674,1,0,0:0:0:0:
176,72,67825,1,0,0:0:0:0:
145,290,67977,5,8,0:0:0:0:
313,46,68129,1,0,0:0:0:0:
313,46,68280,1,0,0:0:0:0:
296,296,68431,5,0,0:0:0:0:
232,0,68583,2,0,B|196:92|276:96|216:208,1,210.000008010865,2|0,0:0|0:0,0:0:0:0:
218,203,69264,1,0,0:0:0:0:
218,203,69340,1,0,0:0:0:0:
224,212,69946,6,0,P|156:208|124:184,1,105.000004005432,0|0,0:0|0:0,0:0:0:0:
116,20,70249,2,0,P|184:24|216:48,1,105.000004005432,8|0,0:0|0:0,0:0:0:0:
328,192,70552,1,0,0:0:0:0:
394,23,70704,1,0,0:0:0:0:
212,44,70855,2,0,P|192:100|204:156,1,105.000004005432,8|0,0:0|0:0,0:0:0:0:
272,328,71158,5,0,0:0:0:0:
85,303,71310,1,0,0:0:0:0:
198,143,71461,2,0,B|232:136|260:148|260:148|278:163|308:164,1,105.000004005432,8|0,0:0|0:0,0:0:0:0:
444,156,71764,2,0,B|480:100|480:100|488:20,2,125.999996154785
308,132,72371,6,0,P|304:232|356:292,1,157.500006008148
304,368,72674,2,0,P|256:324|232:284,1,105.000004005432,8|0,0:0|0:0,0:0:0:0:
208,224,72977,2,0,P|213:144|259:63,1,157.500006008148,0|0,0:0|0:0,0:0:0:0:
128,128,73280,2,0,P|117:197|122:245,1,105.000004005432,8|0,0:0|0:0,0:0:0:0:
236,312,73583,2,0,B|144:320|120:232|120:232|88:236|60:264,1,210.000008010865,0|8,0:0|0:0,0:0:0:0:
20,316,74037,5,0,0:0:0:0:
208,224,74189,2,0,P|240:184|248:124,1,105.000004005432,0|0,0:0|0:0,0:0:0:0:
136,40,74492,2,0,L|152:152,1,105.000004005432,8|0,0:0|0:0,0:0:0:0:
340,224,74795,1,0,0:0:0:0:
432,65,74946,1,0,0:0:0:0:
248,60,75098,6,0,B|248:127|248:127|272:167,1,105.000004005432,8|0,0:0|0:0,0:0:0:0:
432,163,75401,1,0,0:0:0:0:
348,12,75552,1,0,0:0:0:0:
267,159,75704,6,0,B|267:226|267:226|243:266,1,105.000004005432,8|0,0:0|0:0,0:0:0:0:
83,262,76007,1,0,0:0:0:0:
167,111,76158,1,0,0:0:0:0:
247,258,76310,6,0,B|247:325|247:325|271:365,1,105.000004005432,8|0,0:0|0:0,0:0:0:0:
431,361,76613,1,0,0:0:0:0:
431,361,76764,1,0,0:0:0:0:
367,149,76916,6,0,P|314:141|263:161,1,105.000004005432,8|0,0:0|0:0,0:0:0:0:
108,303,77219,1,0,0:0:0:0:
326,256,77371,1,0,0:0:0:0:
326,256,77522,1,8,0:0:0:0:
159,132,77674,5,0,0:0:0:0:
207,349,77826,1,0,0:0:0:0:
207,349,77977,1,0,0:0:0:0:
266,158,78128,1,8,0:0:0:0:
314,376,78280,2,0,P|365:373|410:344,1,105.000004005432,4|0,0:0|0:0,0:0:0:0:
437,268,78583,5,0,0:0:0:0:
368,126,78734,1,8,0:0:0:0:
279,256,78886,1,0,0:0:0:0:
409,344,79037,5,0,0:0:0:0:
497,214,79189,1,0,0:0:0:0:
368,126,79340,2,4,B|312:124|312:124|296:156|252:160,1,105.000004005432,8|0,0:0|0:0,0:0:0:0:
68,136,79643,1,0,0:0:0:0:
252,88,79795,1,0,0:0:0:0:
92,204,79946,2,0,P|24:192|0:152,1,105.000004005432,8|0,0:0|0:0,0:0:0:0:
156,8,80249,5,0,0:0:0:0:
168,204,80401,1,0,0:0:0:0:
228,8,80552,2,0,P|288:12|324:44,1,105.000004005432,8|0,0:0|0:0,0:0:0:0:
320,264,80855,1,0,0:0:0:0:
252,88,81007,1,0,0:0:0:0:
392,212,81158,2,0,B|416:252|404:292|404:292|416:284|424:264,1,105.000004005432,8|0,0:0|0:0,0:0:0:0:
420,136,81461,6,0,B|340:108|340:188|252:136,1,157.500006008148,0|0,0:0|0:0,0:0:0:0:
180,148,81764,2,0,B|176:184|204:208|204:208|216:232|196:272,1,105.000004005432,8|0,0:0|0:0,0:0:0:0:
96,288,82068,2,0,P|160:308|100:352,1,157.500006008148
240,308,82371,2,0,B|248:328|236:364|236:364|272:336|324:344,1,105.000004005432,8|0,0:0|0:0,0:0:0:0:
308,192,82674,2,0,B|312:276|312:276|348:296|352:336,2,157.500006008148,0|0|0,0:0|0:0|0:0,0:0:0:0:
300,40,83280,5,0,0:0:0:0:
420,196,83431,1,0,0:0:0:0:
225,222,83583,2,0,B|180:192|180:192|168:136,1,105.000004005432,8|0,0:0|0:0,0:0:0:0:
300,40,83886,2,0,P|288:104|244:140,1,105.000004005432,0|0,0:0|0:0,0:0:0:0:
112,44,84189,2,0,L|220:52,1,105.000004005432,8|0,0:0|0:0,0:0:0:0:
408,72,84492,2,0,B|400:112|400:112|368:136|368:136|360:184,1,105.000004005432,0|0,0:0|0:0,0:0:0:0:
312,328,84795,6,0,L|296:216,1,105.000004005432,8|0,0:0|0:0,0:0:0:0:
200,56,85098,2,0,L|216:168,1,105.000004005432,0|0,0:0|0:0,0:0:0:0:
406,292,85401,2,0,L|313:188,1,105.000004005432,8|0,0:0|0:0,0:0:0:0:
105,91,85704,2,0,L|198:195,1,105.000004005432,0|0,0:0|0:0,0:0:0:0:
392,156,86007,6,0,P|340:132|284:148,1,105.000004005432,8|0,0:0|0:0,0:0:0:0:
274,290,86310,2,0,P|320:256|334:200,1,105.000004005432,4|0,0:0|0:0,0:0:0:0:
332,52,86613,5,8,0:0:0:0:
208,112,86764,2,0,P|213:172|257:214,1,119.000002269745,4|0,0:0|0:0,0:0:0:0:
424,308,87067,5,0,0:0:0:0:
285,138,87219,1,10,0:0:0:0:
231,347,87371,5,0,0:0:0:0:
401,209,87523,1,10,0:0:0:0:
192,160,87674,5,0,0:0:0:0:
330,329,87826,1,10,0:0:0:0:
285,138,87977,5,0,0:0:0:0:
120,281,88129,1,10,0:0:0:0:
307,232,88280,5,0,0:0:0:0:
169,63,88432,1,10,0:0:0:0:
214,258,88583,5,0,0:0:0:0:
374,115,88735,1,10,0:0:0:0:
424,308,88886,5,0,0:0:0:0:
285,138,89037,1,0,0:0:0:0:
120,281,89189,2,0,P|167:257|204:265,1,70,4|0,0:0|0:0,0:0:0:0:
300,312,89492,5,0,0:0:0:0:
386,72,89643,1,10,0:0:0:0:
381,269,89795,5,0,0:0:0:0:
310,24,89946,1,10,0:0:0:0:
422,185,90098,5,0,0:0:0:0:
220,29,90249,1,10,0:0:0:0:
406,93,90401,5,0,0:0:0:0:
150,85,90552,1,10,0:0:0:0:
337,27,90704,5,0,0:0:0:0:
126,171,90855,1,10,0:0:0:0:
244,14,91007,5,0,0:0:0:0:
157,254,91158,1,10,0:0:0:0:
406,93,91310,5,0,0:0:0:0:
126,171,91461,1,0,0:0:0:0:
381,269,91613,2,0,P|396:231|397:187,1,70,4|0,0:0|0:0,0:0:0:0:
117,84,91916,5,0,0:0:0:0:
397,120,92067,1,10,0:0:0:0:
108,164,92219,5,0,0:0:0:0:
332,71,92371,1,10,0:0:0:0:
301,312,92522,5,0,0:0:0:0:
193,52,92674,1,10,0:0:0:0:
86,326,92825,5,0,0:0:0:0:
386,200,92977,1,10,0:0:0:0:
117,84,93128,5,0,0:0:0:0:
301,312,93280,1,10,0:0:0:0:
267,21,93431,5,0,0:0:0:0:
226,343,93583,1,10,0:0:0:0:
406,40,93734,5,0,0:0:0:0:
108,164,93886,1,0,0:0:0:0:
451,249,94037,2,0,B|428:192|428:192|388:172,1,105.000004005432,0|0,0:0|0:0,0:0:0:0:
256,160,94340,5,0,0:0:0:0:
256,320,94492,1,8,0:0:0:0:
60,168,94643,2,0,B|83:111|83:111|123:91,1,105.000004005432,0|0,0:0|0:0,0:0:0:0:
255,79,94946,1,0,0:0:0:0:
255,239,95098,1,8,0:0:0:0:
451,89,95249,2,0,B|428:32|428:32|388:12,1,105.000004005432,0|0,0:0|0:0,0:0:0:0:
256,0,95552,5,0,0:0:0:0:
256,160,95704,1,8,0:0:0:0:
236,344,95855,2,0,P|264:308|264:352,1,105.000004005432,0|0,0:0|0:0,0:0:0:0:
176,232,96158,1,0,0:0:0:0:
336,232,96310,1,8,0:0:0:0:
166,201,96613,6,0,P|178:138|236:100,2,105.000004005432,0|0|0,0:0|0:0|0:0,0:0:0:0:
348,200,97067,2,0,P|337:142|292:105,1,105.000004005432,0|0,0:0|0:0,0:0:0:0:
201,264,97371,1,0,0:0:0:0:
312,262,97522,1,0,0:0:0:0:
206,111,97674,1,0,0:0:0:0:
305,111,97825,6,0,B|328:124|336:140|336:140|328:80|284:52,1,140,0|0,0:0|0:0,0:0:0:0:
184,32,98280,1,0,0:0:0:0:
280,184,98431,2,0,P|356:172|384:120,1,140,0|0,0:0|0:0,0:0:0:0:
372,16,98886,1,0,0:0:0:0:
376,32,99189,1,0,0:0:0:0:
380,48,99492,5,0,0:0:0:0:
352,176,99643,2,0,P|320:188|276:184,1,70,0|0,0:0|0:0,0:0:0:0:
164,152,99946,2,0,P|190:173|208:213,1,70,0|0,0:0|0:0,0:0:0:0:
238,327,100249,6,0,B|240:288|260:264|260:264|304:276|340:264,1,140
420,200,100704,1,0,0:0:0:0:
308,112,100855,2,0,B|224:112|224:112|204:84|168:80,1,140,0|0,0:0|0:0,0:0:0:0:
76,112,101310,1,0,0:0:0:0:
91,105,101613,1,0,0:0:0:0:
106,99,101916,1,0,0:0:0:0:
144,240,102067,1,0,0:0:0:0:
120,228,102484,5,0,0:0:0:0:
248,288,102674,2,0,B|328:316|328:264|400:296,1,140,0|0,0:0|0:0,0:0:0:0:
432,140,103128,1,0,0:0:0:0:
287,161,103280,2,0,P|251:213|249:295,1,140,0|0,0:0|0:0,0:0:0:0:
356,220,103734,2,0,L|360:136,1,70,0|0,0:0|0:0,0:0:0:0:
360,32,104037,1,0,0:0:0:0:
264,92,104189,6,0,P|220:96|176:92,1,70,0|0,0:0|0:0,0:0:0:0:
56,160,104492,2,0,P|100:164|144:160,1,70,0|0,0:0|0:0,0:0:0:0:
208,192,104795,2,0,B|192:240|140:248|140:248|132:264|144:300,2,140,0|0|0,0:0|0:0|0:0,0:0:0:0:
194,94,105552,1,0,0:0:0:0:
140,248,105704,2,0,P|140:288|228:340,1,140,0|0,0:0|0:0,0:0:0:0:
324,272,106158,6,0,B|332:232|332:232|316:200,1,70,0|0,0:0|0:0,0:0:0:0:
320,64,106461,1,0,0:0:0:0:
388,188,106613,2,0,B|400:212|400:212|408:188|400:164,1,70,0|0,0:0|0:0,0:0:0:0:
389,57,106916,2,0,L|309:65,1,70,0|0,0:0|0:0,0:0:0:0:
248,76,107143,1,0,0:0:0:0:
216,84,107219,1,0,0:0:0:0:
192,104,107295,1,0,0:0:0:0:
172,128,107371,1,0,0:0:0:0:
148,144,107446,1,0,0:0:0:0:
116,152,107522,6,0,B|92:152|92:152|92:184|112:216,1,70,0|0,0:0|0:0,0:0:0:0:
204,320,107825,2,0,B|228:320|228:320|228:288|208:256,1,70,0|0,0:0|0:0,0:0:0:0:
108,204,108128,5,0,0:0:0:0:
108,204,108280,1,0,0:0:0:0:
108,204,108431,2,0,L|96:280,1,70,0|0,0:0|0:0,0:0:0:0:
229,206,108734,5,0,0:0:0:0:
229,206,108886,1,0,0:0:0:0:
229,206,109037,2,0,L|217:282,1,70,0|0,0:0|0:0,0:0:0:0:
208,324,109264,1,0,0:0:0:0:
208,324,109340,5,0,0:0:0:0:
340,196,109492,1,0,0:0:0:0:
329,265,109643,1,0,0:0:0:0:
240,137,109795,1,0,0:0:0:0:
229,206,109946,5,0,0:0:0:0:
236,168,110098,1,0,0:0:0:0:
240,137,110249,2,0,L|196:80,1,70,0|0,0:0|0:0,0:0:0:0:
143,37,110552,5,0,0:0:0:0:
172,62,110704,1,0,0:0:0:0:
197,81,110855,2,0,L|268:71,1,70,0|0,0:0|0:0,0:0:0:0:
331,46,111158,5,0,0:0:0:0:
294,58,111310,1,0,0:0:0:0:
266,71,111461,2,0,L|238:137,1,70,0|0,0:0|0:0,0:0:0:0:
239,135,111689,1,0,0:0:0:0:
244,144,111764,2,0,B|260:156|280:160|280:160|296:148|324:148,1,70,0|0,0:0|0:0,0:0:0:0:
436,108,112067,2,0,B|402:179|473:179|427:271,1,161.000003070831,0|0,0:0|0:0,0:0:0:0:
360,324,112522,5,0,0:0:0:0:
360,324,112674,2,0,P|324:267|272:257,1,90.9999958343508,0|0,0:0|0:0,0:0:0:0:
168,320,112977,2,0,P|233:326|274:293,1,90.9999958343508,0|0,0:0|0:0,0:0:0:0:
260,180,113280,2,0,P|211:224|210:277,1,90.9999958343508,0|0,0:0|0:0,0:0:0:0:
304,258,113583,2,0,P|344:208|328:120,1,136.499993751526,0|0,0:0|0:0,0:0:0:0:
224,80,113886,6,0,B|265:80|265:80|285:54|316:49,1,90.9999958343508,0|0,0:0|0:0,0:0:0:0:
401,79,114189,2,0,P|377:121|329:139,1,90.9999958343508,0|0,0:0|0:0,0:0:0:0:
168,140,114492,2,0,B|147:114|142:88|142:88|126:119|137:150,1,90.9999958343508,0|0,0:0|0:0,0:0:0:0:
112,238,114795,2,0,B|143:227|173:238|173:238|194:233|194:233|235:248|291:227,2,181.999991668702,0|0|0,0:0|0:0|0:0,0:0:0:0:
56,172,115552,1,0,0:0:0:0:
164,328,115704,1,0,0:0:0:0:
244,152,115855,2,0,P|312:140|352:160,1,90.9999958343508,0|0,0:0|0:0,0:0:0:0:
440,292,116158,5,0,0:0:0:0:
208,240,116310,1,0,0:0:0:0:
424,176,116461,5,0,0:0:0:0:
174,177,116613,1,0,0:0:0:0:
396,60,116764,5,0,0:0:0:0:
140,119,116916,1,0,0:0:0:0:
244,296,117067,1,0,0:0:0:0:
234,32,117219,5,0,0:0:0:0:
140,119,117371,1,0,0:0:0:0:
227,214,117522,1,0,0:0:0:0:
322,127,117674,2,0,L|316:36,1,70,0|0,0:0|0:0,0:0:0:0:
222,144,117977,2,0,L|226:213,1,70,0|0,0:0|0:0,0:0:0:0:
364,180,118280,2,0,P|343:143|295:118,1,70,0|0,0:0|0:0,0:0:0:0:
226,213,118583,5,0,0:0:0:0:
194,217,118658,1,0,0:0:0:0:
162,209,118734,1,0,0:0:0:0:
64,116,118886,1,0,0:0:0:0:
248,136,119037,2,0,P|296:172|308:212,1,70,0|0,0:0|0:0,0:0:0:0:
184,320,119340,2,0,L|192:236,1,70,0|0,0:0|0:0,0:0:0:0:
376,312,119643,5,0,0:0:0:0:
226,213,119795,1,0,0:0:0:0:
424,208,119946,1,0,0:0:0:0:
274,307,120098,2,0,P|284:264|316:228,1,70,0|0,0:0|0:0,0:0:0:0:
476,308,120401,2,0,P|433:320|386:311,1,70,0|0,0:0|0:0,0:0:0:0:
352,172,120704,2,0,B|360:152|376:140|376:140|384:120|380:96,1,70,0|0,0:0|0:0,0:0:0:0:
360,0,121007,5,0,0:0:0:0:
360,0,121083,1,0,0:0:0:0:
360,0,121158,1,0,0:0:0:0:
288,144,121310,1,0,0:0:0:0:
428,7,121461,2,0,P|396:-3|348:3,1,70,0|0,0:0|0:0,0:0:0:0:
192,72,121764,2,0,L|272:80,1,70,0|0,0:0|0:0,0:0:0:0:
316,208,122067,5,0,0:0:0:0:
175,304,122219,1,0,0:0:0:0:
162,134,122371,1,0,0:0:0:0:
300,276,122522,2,0,L|228:328,1,70,0|0,0:0|0:0,0:0:0:0:
228,116,122825,2,0,L|309:152,1,70,0|0,0:0|0:0,0:0:0:0:
126,259,123128,2,0,L|116:170,1,70,0|0,0:0|0:0,0:0:0:0:
100,36,123431,5,0,0:0:0:0:
100,36,123507,1,0,0:0:0:0:
100,36,123583,2,0,B|68:60|68:60|44:112,1,70,0|0,0:0|0:0,0:0:0:0:
36,220,123886,1,0,0:0:0:0:
39,248,123987,1,0,0:0:0:0:
43,276,124088,1,0,0:0:0:0:
46,304,124189,2,0,B|68:304|68:304|84:328|116:332,1,70,0|0,0:0|0:0,0:0:0:0:
312,292,124492,5,0,0:0:0:0:
34,187,124643,1,0,0:0:0:0:
34,187,124795,1,0,0:0:0:0:
280,144,124946,5,0,0:0:0:0:
50,332,125097,1,0,0:0:0:0:
50,332,125249,1,0,0:0:0:0:
136,56,125401,5,0,0:0:0:0:
192,356,125552,2,0,L|200:276,1,70,0|0,0:0|0:0,0:0:0:0:
280,144,125855,1,0,0:0:0:0:
280,144,125931,1,0,0:0:0:0:
280,144,126007,2,0,L|288:236,1,70,0|0,0:0|0:0,0:0:0:0:
376,348,126310,5,0,0:0:0:0:
404,308,126386,1,0,0:0:0:0:
420,260,126461,1,0,0:0:0:0:
420,212,126537,1,0,0:0:0:0:
400,168,126613,1,0,0:0:0:0:
372,128,126689,1,0,0:0:0:0:
368,80,126764,1,0,0:0:0:0:
400,44,126840,1,0,0:0:0:0:
444,104,126916,6,0,B|420:136|420:136|324:136,1,105.000004005432,0|0,0:0|0:0,0:0:0:0:
180,80,127219,2,0,B|204:48|204:48|300:48,1,105.000004005432,8|0,0:0|0:0,0:0:0:0:
324,244,127522,1,0,0:0:0:0:
269,48,127674,1,0,0:0:0:0:
72,64,127825,2,0,B|96:72|112:92|112:92|120:128|152:144,1,105.000004005432,8|0,0:0|0:0,0:0:0:0:
324,112,128128,5,0,0:0:0:0:
144,136,128280,1,0,0:0:0:0:
160,328,128431,2,0,P|208:352|260:344,1,105.000004005432,8|0,0:0|0:0,0:0:0:0:
376,264,128734,2,0,B|352:272|328:260|328:260|308:268|308:268|268:248|224:268,2,125.999996154785
476,200,129340,6,0,L|444:36,1,157.500006008148,0|0,0:0|0:0,0:0:0:0:
372,0,129643,2,0,L|368:112,1,105.000004005432,8|0,0:0|0:0,0:0:0:0:
360,192,129946,2,0,L|196:160,1,157.500006008148,0|0,0:0|0:0,0:0:0:0:
160,88,130249,2,0,L|272:84,1,105.000004005432,8|0,0:0|0:0,0:0:0:0:
280,176,130552,2,0,P|240:232|204:240,1,105.000004005432,0|0,0:0|0:0,0:0:0:0:
160,88,130855,2,0,B|160:152|160:152|128:168|120:212,1,105.000004005432,8|0,0:0|0:0,0:0:0:0:
249,330,131158,6,0,P|241:278|205:238,1,105.000004005432,0|0,0:0|0:0,0:0:0:0:
68,304,131461,2,0,L|176:312,1,105.000004005432,8|0,0:0|0:0,0:0:0:0:
388,196,131764,1,0,0:0:0:0:
207,239,131916,1,0,0:0:0:0:
400,328,132068,2,0,B|400:284|408:268|408:268|436:260|452:232,1,105.000004005432,8|0,0:0|0:0,0:0:0:0:
399,62,132371,5,0,0:0:0:0:
443,243,132523,1,0,0:0:0:0:
328,100,132674,2,0,B|316:72|316:52|316:52|296:44|260:52,1,105.000004005432,8|0,0:0|0:0,0:0:0:0:
80,95,132977,1,0,0:0:0:0:
261,51,133129,1,0,0:0:0:0:
72,24,133280,2,0,P|28:44|8:104,1,105.000004005432,8|0,0:0|0:0,0:0:0:0:
51,275,133583,5,0,0:0:0:0:
7,94,133735,1,0,0:0:0:0:
120,240,133886,2,0,B|128:256|130:274|130:274|156:248|141:198,1,105.000004005432,8|0,0:0|0:0,0:0:0:0:
152,92,134189,5,0,0:0:0:0:
51,275,134340,1,0,0:0:0:0:
260,271,134492,1,8,0:0:0:0:
76,168,134643,5,0,0:0:0:0:
183,346,134794,1,0,0:0:0:0:
285,163,134946,1,0,0:0:0:0:
120,240,135098,1,8,0:0:0:0:
360,192,135249,2,0,P|360:136|328:96,1,105.000004005432,4|0,0:0|0:0,0:0:0:0:
248,56,135552,5,0,0:0:0:0:
316,276,135704,1,8,0:0:0:0:
316,276,135855,1,0,0:0:0:0:
391,59,136007,5,0,0:0:0:0:
203,191,136158,1,0,0:0:0:0:
433,195,136310,2,0,B|444:180|444:160|444:160|464:196|448:240,1,105.000004005432,8|0,0:0|0:0,0:0:0:0:
391,325,136613,1,0,0:0:0:0:
288,192,136764,1,0,0:0:0:0:
391,59,136916,2,0,P|344:88|284:84,1,105.000004005432,8|0,0:0|0:0,0:0:0:0:
160,40,137219,5,0,0:0:0:0:
288,192,137371,1,0,0:0:0:0:
96,224,137522,2,0,B|124:176|124:176|180:160,1,105.000004005432,8|0,0:0|0:0,0:0:0:0:
372,168,137825,1,0,0:0:0:0:
372,348,137977,1,0,0:0:0:0:
288,192,138128,2,0,L|296:80,1,105.000004005432,8|0,0:0|0:0,0:0:0:0:
140,12,138431,6,0,B|136:84|136:84|172:164,1,157.500006008148,0|0,0:0|0:0,0:0:0:0:
224,236,138734,2,0,L|116:240,1,105.000004005432,8|0,0:0|0:0,0:0:0:0:
0,344,139037,2,0,B|88:312|84:372|164:336,1,157.500006008148,0|0,0:0|0:0,0:0:0:0:
254,324,139340,2,0,B|240:328|220:316|220:316|256:316|280:288,1,105.000004005432,8|0,0:0|0:0,0:0:0:0:
368,152,139643,2,0,B|344:188|292:184|292:184|266:153|218:154,2,157.500006008148
384,34,140249,5,0,0:0:0:0:
229,154,140401,1,0,0:0:0:0:
409,228,140552,2,0,P|448:184|452:132,1,105.000004005432,8|0,0:0|0:0,0:0:0:0:
313,69,140855,2,0,B|331:124|331:124|374:154,1,105.000004005432,0|0,0:0|0:0,0:0:0:0:
504,64,141158,2,0,L|388:72,1,105.000004005432,8|0,0:0|0:0,0:0:0:0:
224,80,141461,5,0,0:0:0:0:
224,80,141613,1,0,0:0:0:0:
301,173,141764,2,0,L|313:65,1,105.000004005432,8|0,0:0|0:0,0:0:0:0:
212,228,142068,2,0,L|172:128,1,105.000004005432,0|0,0:0|0:0,0:0:0:0:
304,272,142371,2,0,L|400:180,1,105.000004005432,8|0,0:0|0:0,0:0:0:0:
212,332,142674,2,0,L|76:276,1,105.000004005432,0|0,0:0|0:0,0:0:0:0:
256,90,142977,6,0,B|236:146|280:146|252:198,1,105.000004005432,8|0,0:0|0:0,0:0:0:0:
255,191,143204,1,8,0:0:0:0:
255,191,143280,1,8,0:0:0:0:
138,124,143431,1,8,0:0:0:0:
373,124,143583,1,8,0:0:0:0:
256,328,143734,1,8,0:0:0:0:
256,192,143886,5,0,0:0:0:0:
144,84,153583,6,0,P|192:88|224:184,1,140,0|0,0:0|0:0,0:0:0:0:
176,224,154037,1,0,0:0:0:0:
160,152,154189,2,0,B|236:132|236:176|312:144,1,140,0|0,0:0|0:0,0:0:0:0:
324,48,154643,2,0,P|276:64|260:92,1,70,0|0,0:0|0:0,0:0:0:0:
304,224,154946,1,0,0:0:0:0:
304,224,155098,2,0,P|352:208|368:180,1,70,0|0,0:0|0:0,0:0:0:0:
372,116,155401,5,0,0:0:0:0:
424,236,155704,1,0,0:0:0:0:
332,328,156007,6,0,B|256:316|256:316|228:348|184:336,1,140,0|0,0:0|0:0,0:0:0:0:
120,328,156461,1,0,0:0:0:0:
68,264,156613,2,0,B|136:244|136:244|204:268,1,140,0|0,0:0|0:0,0:0:0:0:
276,216,157068,2,0,L|204:188,1,70,0|0,0:0|0:0,0:0:0:0:
140,168,157371,1,0,0:0:0:0:
0,208,157522,2,0,L|84:180,1,70,0|0,0:0|0:0,0:0:0:0:
264,128,157825,5,0,0:0:0:0:
264,128,158431,6,0,L|352:132,1,70,0|0,0:0|0:0,0:0:0:0:
432,140,158734,1,0,0:0:0:0:
473,214,158886,1,0,0:0:0:0:
346,287,159037,2,0,L|305:208,1,70,0|0,0:0|0:0,0:0:0:0:
430,287,159340,1,0,0:0:0:0:
387,360,159492,6,0,L|312:360,1,70,0|0,0:0|0:0,0:0:0:0:
262,286,159795,1,0,0:0:0:0:
151,212,159946,2,0,L|221:212,1,70,0|0,0:0|0:0,0:0:0:0:
329,284,160249,2,0,P|289:292|257:284,1,70,0|0,0:0|0:0,0:0:0:0:
192,140,160552,2,0,P|226:133|259:141,1,70,0|0,0:0|0:0,0:0:0:0:
151,212,160855,6,0,P|126:187|113:155,1,70,0|0,0:0|0:0,0:0:0:0:
144,40,161158,1,0,0:0:0:0:
236,40,161310,1,0,0:0:0:0:
328,40,161461,2,0,P|340:80|320:128,1,70,0|0,0:0|0:0,0:0:0:0:
292,208,161764,1,0,0:0:0:0:
200,208,161916,2,0,P|188:168|208:120,1,70,0|0,0:0|0:0,0:0:0:0:
264,76,162219,5,0,0:0:0:0:
332,172,162371,1,0,0:0:0:0:
420,172,162522,1,0,0:0:0:0:
496,288,162674,5,0,0:0:0:0:
396,240,162825,1,0,0:0:0:0:
308,236,162977,1,0,0:0:0:0:
248,268,163128,1,0,0:0:0:0:
224,304,163280,6,0,B|328:244|288:124|288:124|288:60|344:40|344:40|336:108|380:128|380:128|368:112|364:84,1,462.000014099122
228,160,165704,2,0,B|244:228|196:272|112:260|88:188|128:140|128:140|168:104|164:40|96:12|44:48|44:92,1,462.000014099122,0|0,0:0|0:0,0:0:0:0:
60,304,168128,6,0,B|112:296|112:296|128:304|128:304|140:292|140:292|184:284|184:284|216:220|216:220|244:216|244:216|256:200|256:200|272:212|272:212|332:204,1,318.499985420228,0|0,0:0|0:0,0:0:0:0:
376,162,169340,2,0,P|241:203|372:256,1,367.500014019013,0|0,0:0|0:0,0:0:0:0:
432,64,170552,2,0,B|212:-24|204:160|24:40,1,416.500007944107,0|0,0:0|0:0,0:0:0:0:
32,45,171916,6,0,L|40:133,1,52.5000020027161,0|0,0:0|0:0,0:0:0:0:
64,60,172067,2,0,L|72:148,1,52.5000020027161,0|0,0:0|0:0,0:0:0:0:
95,76,172219,2,0,L|99:128,1,52.5000020027161,0|0,0:0|0:0,0:0:0:0:
95,76,172977,6,0,B|99:136|99:136|116:149|116:149|103:166|103:166|108:235,1,141.750000540733,0|0,0:0|0:0,0:0:0:0:
115,299,173280,5,8,0:0:0:0:
137,338,173355,1,0,0:0:0:0:
180,359,173431,1,0,0:0:0:0:
228,359,173507,1,0,0:0:0:0:
266,338,173583,1,8,0:0:0:0:
283,294,173658,1,0,0:0:0:0:
283,247,173734,1,0,0:0:0:0:
271,205,173810,1,0,0:0:0:0:
271,158,173886,1,8,0:0:0:0:
283,114,173961,1,0,0:0:0:0:
317,84,174037,1,0,0:0:0:0:
361,76,174113,1,0,0:0:0:0:
404,84,174189,5,8,0:0:0:0:
400,97,174264,1,0,0:0:0:0:
396,110,174340,1,0,0:0:0:0:
390,123,174416,1,0,0:0:0:0:
386,136,174492,5,8,0:0:0:0:
390,148,174567,1,0,0:0:0:0:
396,162,174643,1,0,0:0:0:0:
400,174,174719,1,0,0:0:0:0:
404,187,174795,5,8,0:0:0:0:
396,200,174871,1,0,0:0:0:0:
390,213,174947,1,0,0:0:0:0:
386,227,175023,1,0,0:0:0:0:
382,239,175098,5,8,0:0:0:0:
386,252,175174,1,0,0:0:0:0:
390,265,175250,1,0,0:0:0:0:
396,278,175326,1,0,0:0:0:0:
400,290,175401,6,0,B|351:349|291:328|291:328|317:328|338:306,1,141.750000540733,0|0,0:0|0:0,0:0:0:0:
296,232,175704,5,0,0:0:0:0:
262,192,175780,1,0,0:0:0:0:
214,176,175855,1,0,0:0:0:0:
163,176,175931,1,0,0:0:0:0:
115,196,176007,1,8,0:0:0:0:
85,240,176083,1,0,0:0:0:0:
72,287,176158,1,0,0:0:0:0:
85,334,176234,1,0,0:0:0:0:
129,364,176310,1,0,0:0:0:0:
180,374,176386,1,0,0:0:0:0:
222,348,176461,1,0,0:0:0:0:
232,295,176537,1,0,0:0:0:0:
201,257,176613,5,0,0:0:0:0:
180,253,176689,1,0,0:0:0:0:
159,249,176764,1,0,0:0:0:0:
137,244,176840,1,0,0:0:0:0:
115,240,176916,5,0,0:0:0:0:
137,236,176992,1,0,0:0:0:0:
159,232,177067,1,0,0:0:0:0:
180,227,177143,1,0,0:0:0:0:
201,223,177219,5,0,0:0:0:0:
180,218,177295,1,0,0:0:0:0:
159,214,177370,1,0,0:0:0:0:
137,210,177446,1,0,0:0:0:0:
115,206,177522,5,8,0:0:0:0:
137,202,177598,1,0,0:0:0:0:
159,196,177673,1,0,0:0:0:0:
180,192,177749,1,0,0:0:0:0:
201,188,177825,6,0,B|231:196|256:188|256:188|269:192|269:192|312:179|364:196,1,141.750000540733,0|0,0:0|0:0,0:0:0:0:
427,212,178128,5,0,0:0:0:0:
419,159,178204,1,0,0:0:0:0:
381,117,178280,1,0,0:0:0:0:
332,105,178355,1,0,0:0:0:0:
282,125,178431,1,8,0:0:0:0:
257,175,178507,1,0,0:0:0:0:
246,229,178583,1,0,0:0:0:0:
220,279,178659,1,0,0:0:0:0:
170,299,178735,1,0,0:0:0:0:
121,286,178810,1,0,0:0:0:0:
84,245,178886,1,0,0:0:0:0:
75,192,178962,1,0,0:0:0:0:
88,142,179037,6,0,B|109:93|142:80|142:80|163:109|200:109,1,141.750000540733,0|0,0:0|0:0,0:0:0:0:
256,6,179340,5,0,0:0:0:0:
297,47,179416,1,0,0:0:0:0:
318,100,179492,1,0,0:0:0:0:
318,159,179567,1,0,0:0:0:0:
288,208,179643,1,0,0:0:0:0:
243,241,179719,1,0,0:0:0:0:
206,286,179795,1,0,0:0:0:0:
206,345,179871,1,0,0:0:0:0:
256,374,179946,2,0,L|256:312,1,47.2500001802444,0|0,0:0|0:0,0:0:0:0:
248,144,180098,6,0,P|269:181|231:172,1,94.5000003604889
256,6,180401,5,0,0:0:0:0:
372,60,180552,2,0,B|384:108|384:108|372:160,2,87.5,0|0|0,0:0|0:0|0:0,0:0:0:0:
300,160,181007,2,0,P|336:208|380:224,1,87.5,0|0,0:0|0:0,0:0:0:0:
462,141,181310,2,0,L|370:145,1,87.5,0|0,0:0|0:0,0:0:0:0:
224,184,181613,1,0,0:0:0:0:
132,64,181764,2,0,L|140:160,1,87.5,0|0,0:0|0:0,0:0:0:0:
292,268,182067,5,0,0:0:0:0:
64,256,182219,1,0,0:0:0:0:
292,252,182371,1,0,0:0:0:0:
64,272,182522,2,0,P|24:264|72:224,1,131.25,0|0,0:0|0:0,0:0:0:0:
80,248,182825,1,0,0:0:0:0:
248,328,182977,2,0,L|152:332,1,87.5,0|0,0:0|0:0,0:0:0:0:
116,336,183204,1,0,0:0:0:0:
116,336,183280,5,0,0:0:0:0:
328,136,183431,1,0,0:0:0:0:
132,108,183583,1,0,0:0:0:0:
344,308,183734,2,0,B|324:264|348:220|348:220|396:204|408:160,1,175,0|0,0:0|0:0,0:0:0:0:
408,72,184189,1,0,0:0:0:0:
408,72,185098,6,0,P|340:56|280:80,1,105.000004005432,0|0,0:0|0:0,0:0:0:0:
144,156,185401,2,0,P|212:172|272:148,1,105.000004005432,0|0,0:0|0:0,0:0:0:0:
204,24,185704,1,0,0:0:0:0:
120,236,185855,1,0,0:0:0:0:
349,160,186007,2,0,L|233:164,1,105.000004005432,0|0,0:0|0:0,0:0:0:0:
44,120,186310,5,0,0:0:0:0:
220,248,186461,1,0,0:0:0:0:
204,24,186613,2,0,P|264:16|308:36,1,105.000004005432,0|0,0:0|0:0,0:0:0:0:
416,204,186916,2,0,B|452:124|384:124|428:40,2,157.500006008148,0|0|0,0:0|0:0|0:0,0:0:0:0:
336,256,187522,6,0,L|172:240,1,157.500006008148,0|0,0:0|0:0,0:0:0:0:
216,160,187825,2,0,P|280:144|340:172,1,105.000004005432,0|0,0:0|0:0,0:0:0:0:
448,217,188128,2,0,P|464:165|420:209,1,157.500006008148,0|0,0:0|0:0,0:0:0:0:
512,312,188431,2,0,B|488:292|460:304|460:304|432:332|376:320,1,105.000004005432,0|0,0:0|0:0,0:0:0:0:
271,303,188734,5,0,0:0:0:0:
216,160,188886,1,0,0:0:0:0:
56,296,189037,2,0,L|168:304,1,105.000004005432,0|0,0:0|0:0,0:0:0:0:
326,160,189340,1,0,0:0:0:0:
271,303,189492,1,0,0:0:0:0:
111,167,189643,2,0,L|223:159,1,105.000004005432,0|0,0:0|0:0,0:0:0:0:
432,160,189946,5,0,0:0:0:0:
268,220,190098,1,0,0:0:0:0:
423,55,190249,2,0,L|432:168,1,105.000004005432,0|0,0:0|0:0,0:0:0:0:
448,320,190552,1,0,0:0:0:0:
326,160,190704,1,0,0:0:0:0:
168,332,190855,2,0,L|300:328,1,105.000004005432,0|0,0:0|0:0,0:0:0:0:
431,159,191158,5,0,0:0:0:0:
268,220,191310,1,0,0:0:0:0:
120,48,191461,2,0,L|132:156,1,105.000004005432,0|0,0:0|0:0,0:0:0:0:
272,0,191764,1,0,0:0:0:0:
326,160,191916,1,0,0:0:0:0:
192,312,192067,2,0,B|172:344|144:352|144:352|172:352|192:344,1,105.000004005432,0|0,0:0|0:0,0:0:0:0:
348,240,192371,5,0,0:0:0:0:
128,284,192522,1,0,0:0:0:0:
128,284,192674,1,0,0:0:0:0:
200,71,192826,5,0,0:0:0:0:
200,71,192977,1,0,0:0:0:0:
250,325,193128,5,0,0:0:0:0:
102,156,193279,1,0,0:0:0:0:
322,112,193431,2,0,B|368:112|392:136|392:136|376:132|348:136,1,105.000004005432,0|0,0:0|0:0,0:0:0:0:
168,200,193734,5,0,0:0:0:0:
380,216,193886,1,0,0:0:0:0:
380,216,194037,1,0,0:0:0:0:
200,276,194189,1,0,0:0:0:0:
200,276,194340,1,0,0:0:0:0:
453,261,194492,2,0,P|415:296|364:300,1,105.000004005432,0|0,0:0|0:0,0:0:0:0:
322,112,194795,5,0,0:0:0:0:
280,284,194946,1,0,0:0:0:0:
284,44,195098,2,0,P|348:36|388:68,1,105.000004005432,0|0,0:0|0:0,0:0:0:0:
453,261,195401,1,0,0:0:0:0:
322,112,195552,1,0,0:0:0:0:
212,324,195704,2,0,P|272:360|332:348,1,105.000004005432,0|0,0:0|0:0,0:0:0:0:
424,188,196007,5,0,0:0:0:0:
304,358,196158,1,0,0:0:0:0:
172,176,196310,2,0,L|288:180,1,105.000004005432,0|0,0:0|0:0,0:0:0:0:
500,184,196613,2,0,B|500:236|460:256|460:256|452:296|476:324,2,157.500006008148,0|0|0,0:0|0:0|0:0,0:0:0:0:
472,52,197219,6,0,P|384:96|312:84,1,157.500006008148,0|0,0:0|0:0,0:0:0:0:
252,24,197522,2,0,L|264:152,1,105.000004005432,0|0,0:0|0:0,0:0:0:0:
196,284,197825,2,0,B|212:188|212:188|184:164|184:128,2,157.500006008148,0|0|0,0:0|0:0|0:0,0:0:0:0:
296,336,198431,1,0,0:0:0:0:
96,232,198583,1,0,0:0:0:0:
296,336,198734,2,0,P|344:308|356:252,1,105.000004005432,0|0,0:0|0:0,0:0:0:0:
212,188,199037,6,0,B|240:244|240:244|288:264,1,105.000004005432,0|0,0:0|0:0,0:0:0:0:
404,172,199340,2,0,L|296:188,1,105.000004005432,0|0,0:0|0:0,0:0:0:0:
156,360,199643,1,0,0:0:0:0:
164,252,199795,1,0,0:0:0:0:
173,147,199946,2,0,B|177:119|177:119|221:207,1,105.000004005432,0|0,0:0|0:0,0:0:0:0:
356,360,200249,5,0,0:0:0:0:
348,252,200401,1,0,0:0:0:0:
339,147,200552,2,0,B|335:119|335:119|291:207,1,105.000004005432,0|0,0:0|0:0,0:0:0:0:
232,304,200855,2,0,B|256:220|204:220|236:140,1,157.500006008148,0|0,0:0|0:0,0:0:0:0:
300,107,201158,5,0,0:0:0:0:
300,127,201234,1,0,0:0:0:0:
300,147,201310,1,0,0:0:0:0:
300,167,201386,1,0,0:0:0:0:
300,187,201461,5,0,0:0:0:0:
352,184,201537,1,0,0:0:0:0:
392,148,201613,1,0,0:0:0:0:
392,96,201689,1,0,0:0:0:0:
356,60,201764,1,0,0:0:0:0:
304,60,201840,1,0,0:0:0:0:
260,88,201916,1,0,0:0:0:0:
208,104,201992,1,0,0:0:0:0:
160,52,202067,6,0,P|224:36|264:60,1,105.000004005432,0|0,0:0|0:0,0:0:0:0:
224,288,202371,2,0,L|212:164,1,105.000004005432,0|0,0:0|0:0,0:0:0:0:
328,120,202674,1,0,0:0:0:0:
496,264,202825,1,0,0:0:0:0:
213,183,202977,2,0,B|241:163|273:171|273:171|296:196|329:195,1,105.000004005432,0|0,0:0|0:0,0:0:0:0:
452,148,203280,5,0,0:0:0:0:
308,328,203431,1,0,0:0:0:0:
96,132,203583,2,0,B|160:136|160:136|180:112|212:112,1,105.000004005432,0|0,0:0|0:0,0:0:0:0:
340,220,203886,2,0,B|364:212|388:224|388:224|408:216|408:216|452:240|508:216,2,157.500006008148,0|0|0,0:0|0:0|0:0,0:0:0:0:
213,183,204492,2,0,P|244:120|320:84,1,157.500006008148,0|0,0:0|0:0,0:0:0:0:
452,36,204795,2,0,B|424:56|388:52|388:52|376:28|340:16,1,105.000004005432,0|0,0:0|0:0,0:0:0:0:
215,76,205098,6,0,L|323:84,2,105.000004005432,0|0|0,0:0|0:0|0:0,0:0:0:0:
112,124,205552,1,0,0:0:0:0:
112,124,205704,1,0,0:0:0:0:
216,248,205855,1,0,0:0:0:0:
244,8,206007,2,0,P|184:8|144:60,1,105.000004005432,0|0,0:0|0:0,0:0:0:0:
112,228,206310,5,0,0:0:0:0:
215,76,206461,1,0,0:0:0:0:
188,320,206613,2,0,B|248:344|248:296|320:328,1,105.000004005432,0|0,0:0|0:0,0:0:0:0:
432,300,206916,1,0,0:0:0:0:
312,108,207067,1,0,0:0:0:0:
432,300,207219,2,0,B|392:264|392:264|384:204,1,105.000004005432,0|0,0:0|0:0,0:0:0:0:
358,21,207522,5,0,0:0:0:0:
238,213,207673,1,0,0:0:0:0:
358,21,207825,2,0,B|318:57|318:57|310:117,1,105.000004005432,0|0,0:0|0:0,0:0:0:0:
284,299,208128,1,0,0:0:0:0:
164,107,208279,1,0,0:0:0:0:
284,299,208431,2,0,B|244:263|244:263|236:203,1,105.000004005432,0|0,0:0|0:0,0:0:0:0:
210,20,208734,5,0,0:0:0:0:
90,212,208885,1,0,0:0:0:0:
210,20,209037,2,0,B|170:56|170:56|162:116,1,105.000004005432,0|0,0:0|0:0,0:0:0:0:
244,264,209340,1,0,0:0:0:0:
81,107,209492,1,0,0:0:0:0:
81,107,209643,2,0,L|89:211,1,105.000004005432,0|0,0:0|0:0,0:0:0:0:
104,320,209946,5,0,0:0:0:0:
308,228,210098,1,0,0:0:0:0:
160,204,210249,1,0,0:0:0:0:
364,296,210401,2,0,P|396:240|388:192,1,105.000004005432,0|0,0:0|0:0,0:0:0:0:
216,88,210704,5,0,0:0:0:0:
424,40,210855,2,0,L|312:48,1,105.000004005432,0|0,0:0|0:0,0:0:0:0:
96,80,211158,1,0,0:0:0:0:
96,80,211310,1,0,0:0:0:0:
313,147,211461,2,0,P|329:87|317:43,1,105.000004005432,0|0,0:0|0:0,0:0:0:0:
318,46,211689,1,0,0:0:0:0:
320,48,211764,5,0,0:0:0:0:
79,241,211916,1,0,0:0:0:0:
328,130,212067,5,0,0:0:0:0:
24,195,212219,1,0,0:0:0:0:
295,212,212370,5,0,0:0:0:0:
0,124,212522,1,0,0:0:0:0:
230,268,212673,5,0,0:0:0:0:
9,52,212825,2,0,L|36:105,1,52.5000020027161,0|0,0:0|0:0,0:0:0:0:
144,284,212977,5,0,0:0:0:0:
440,165,213128,1,0,0:0:0:0:
213,348,213280,5,0,0:0:0:0:
368,72,213431,1,0,0:0:0:0:
298,356,213583,5,0,0:0:0:0:
253,41,213734,1,0,0:0:0:0:
367,308,213886,5,0,0:0:0:0:
141,84,214037,2,0,L|210:124,1,52.5000020027161,0|0,0:0|0:0,0:0:0:0:
386,223,214189,5,0,0:0:0:0:
88,336,214340,1,0,0:0:0:0:
337,165,214492,5,0,0:0:0:0:
32,211,214643,1,0,0:0:0:0:
311,241,214795,5,0,0:0:0:0:
15,338,214946,1,0,0:0:0:0:
260,177,215098,5,0,0:0:0:0:
12,51,215249,2,0,L|76:108,1,52.5000020027161,0|0,0:0|0:0,0:0:0:0:
235,256,215401,5,0,0:0:0:0:
388,0,215552,1,0,0:0:0:0:
460,284,215704,5,0,0:0:0:0:
180,169,215855,1,0,0:0:0:0:
456,64,216007,5,0,0:0:0:0:
340,292,216158,1,0,0:0:0:0:
264,60,216310,5,0,0:0:0:0:
507,176,216461,2,0,L|439:195,1,52.5000020027161
235,256,216613,6,0,B|207:256|187:244|187:244|227:240|255:192,1,105.000004005432
264,92,216916,5,0,0:0:0:0:
224,68,216992,1,0,0:0:0:0:
176,64,217067,1,0,0:0:0:0:
132,84,217143,1,0,0:0:0:0:
104,124,217219,5,0,0:0:0:0:
96,172,217295,1,0,0:0:0:0:
112,216,217371,1,0,0:0:0:0:
144,248,217446,1,0,0:0:0:0:
160,292,217522,5,0,0:0:0:0:
148,344,217598,1,0,0:0:0:0:
108,368,217674,1,0,0:0:0:0:
64,356,217749,1,0,0:0:0:0:
44,312,217825,5,0,0:0:0:0:
72,308,217926,1,0,0:0:0:0:
100,304,218027,1,0,0:0:0:0:
128,300,218128,1,0,0:0:0:0:
156,296,218229,1,0,0:0:0:0:
184,292,218330,1,0,0:0:0:0:
212,288,218431,6,0,B|224:252|224:252|212:220|212:220|224:184,1,105.000004005432
376,112,218886,2,0,B|268:160|268:68|164:120,1,210,0|0,0:0|0:0,0:0:0:0:
336,264,219643,6,0,B|360:224|348:184|348:184|312:168|300:124,1,140,0|0,0:0|0:0,0:0:0:0:
440,52,220098,2,0,B|456:122|456:122|428:177|428:177|445:251,1,210,0|0,0:0|0:0,0:0:0:0:
300,196,220855,6,0,P|352:184|412:244,1,140,0|0,0:0|0:0,0:0:0:0:
280,336,221310,2,0,B|284:272|284:272|256:264|232:252|208:212|220:160|252:136,1,210,0|0,0:0|0:0,0:0:0:0:
316,48,222067,6,0,L|172:40,1,140,0|0,0:0|0:0,0:0:0:0:
44,76,222522,1,0,0:0:0:0:
121,165,222674,2,0,B|165:101|165:101|177:29,1,140,0|0,0:0|0:0,0:0:0:0:
52,180,223280,6,0,P|84:228|176:208,1,140,0|0,0:0|0:0,0:0:0:0:
168,84,223734,2,0,B|160:120|172:148|172:148|252:172|232:268,1,210,0|0,0:0|0:0,0:0:0:0:
84,312,224492,6,0,B|164:304|164:304|184:340|232:340,1,140,0|0,0:0|0:0,0:0:0:0:
332,248,224946,1,0,0:0:0:0:
400,304,225098,2,0,P|364:332|272:312,1,140,0|0,0:0|0:0,0:0:0:0:
208,152,225704,6,0,L|352:160,1,140,0|0,0:0|0:0,0:0:0:0:
276,104,226158,2,0,B|232:200|312:200|268:320,1,210,0|0,0:0|0:0,0:0:0:0:
164,228,226916,6,0,P|204:244|152:240,1,140,0|0,0:0|0:0,0:0:0:0:
157,147,227371,2,0,B|205:143|205:143|225:107|225:107|277:103,1,140
428,160,227825,5,0,0:0:0:0:
268,172,227977,1,0,0:0:0:0:
338,28,228128,1,0,0:0:0:0:
351,212,228280,1,0,0:0:0:0:
351,212,228583,2,0,L|136:224,1,210
132,144,229340,6,0,P|188:156|216:248,1,140,0|0,0:0|0:0,0:0:0:0:
152,376,229795,1,0,0:0:0:0:
120,300,229946,2,0,B|184:276|204:328|276:292,1,140
400,140,230552,6,0,P|352:156|328:244,1,140,0|0,0:0|0:0,0:0:0:0:
452,320,231007,2,0,B|428:208|428:208|480:184|472:124,1,210,0|0,0:0|0:0,0:0:0:0:
384,48,231764,6,0,B|360:56|340:48|340:48|312:56|312:56|272:36|224:64,1,140,0|0,0:0|0:0,0:0:0:0:
128,160,232219,1,0,0:0:0:0:
216,232,232371,2,0,P|260:204|272:116,1,140,0|0,0:0|0:0,0:0:0:0:
192,12,232977,6,0,L|204:160,1,140,0|0,0:0|0:0,0:0:0:0:
236,328,233431,2,0,B|244:274|215:233|215:233|144:236|124:168,1,210,0|0,0:0|0:0,0:0:0:0:
276,56,234189,6,0,B|264:104|264:104|288:136|288:136|276:200,1,140
160,288,234643,1,0,0:0:0:0:
148,132,234795,2,0,L|296:136,1,140,0|0,0:0|0:0,0:0:0:0:
376,236,235401,6,0,B|344:172|400:152|360:88,1,140,0|0,0:0|0:0,0:0:0:0:
252,8,235855,2,0,B|228:60|256:100|256:100|284:124|284:164|256:188|256:188|252:172|256:148,1,210,0|0,0:0|0:0,0:0:0:0:
312,49,236613,6,0,P|377:28|432:68,1,140,0|0,0:0|0:0,0:0:0:0:
316,216,237067,1,0,0:0:0:0:
152,96,237219,2,0,L|260:100,1,105,0|0,0:0|0:0,0:0:0:0:
256,99,237522,5,0,0:0:0:0:
447,222,237674,1,0,0:0:0:0:
252,332,237816,1,0,0:0:0:0:
389,104,237959,5,0,0:0:0:0:
378,331,238102,1,0,0:0:0:0:
256,192,238245,1,0,0:0:0:0:
256,192,238388,12,0,245661,0:0:0:0:
