osu file format v14

[General]
AudioFilename: audio.mp3
AudioLeadIn: 0
PreviewTime: 55585
Countdown: 0
SampleSet: Soft
StackLeniency: 0.7
Mode: 3
LetterboxInBreaks: 0
SpecialStyle: 0
WidescreenStoryboard: 1

[Editor]
DistanceSpacing: 2
BeatDivisor: 4
GridSize: 32
TimelineZoom: 2.299999

[Metadata]
Title:Kawaranai Sora (TV-version)
TitleUnicode:Kawaranai Sora (TV-version)
Artist:Luck Life
ArtistUnicode:Luck Life
Creator:booty
Version:booty
Source:
Tags:junjou romantica 3 ending rock anime japanese
BeatmapID:1924595
BeatmapSetID:921612

[Difficulty]
HPDrainRate:7
CircleSize:4
OverallDifficulty:7
ApproachRate:9.3
SliderMultiplier:1.4
SliderTickRate:1

[Events]
//Background and Video events
0,0,"65254592db0d24e1a2517bd4cbd6f29f.jpg",0,0
//Break Periods
//Storyboard Layer 0 (Background)
//Storyboard Layer 1 (Fail)
//Storyboard Layer 2 (Pass)
//Storyboard Layer 3 (Foreground)
//Storyboard Sound Samples

[TimingPoints]
3535,300,4,2,0,15,1,0
51047,300,4,2,0,15,1,0
51365,320.855614973262,4,2,0,15,1,0
51685,300,4,2,0,15,1,0
52735,300,4,2,0,15,1,0
78797,300,4,2,0,15,1,0
79222,300,4,2,0,15,1,0
79990,300,4,2,0,15,1,0
80721,300,4,2,0,15,1,0
82052,300,4,2,0,15,1,0
82370,300,4,2,0,15,1,0
82695,300,4,2,0,15,1,0

[Colours]
Combo1 : 26,104,46
Combo2 : 155,28,21
Combo3 : 20,97,78
Combo4 : 139,57,27

[HitObjects]
448,192,1135,128,0,1285:0:0:0:0:
320,192,1285,128,0,1435:0:0:0:0:
448,192,1435,128,0,1585:0:0:0:0:
320,192,1585,128,0,1885:0:0:0:0:
448,192,1885,128,0,2185:0:0:0:0:
320,192,2185,128,0,2485:0:0:0:0:
448,192,2485,128,0,2785:0:0:0:0:
320,192,2785,128,0,3085:0:0:0:0:
64,192,3085,1,0,0:0:0:0:
192,192,3085,1,0,0:0:0:0:
320,192,3160,1,0,0:0:0:0:
448,192,3160,1,0,0:0:0:0:
192,192,3235,1,0,0:0:0:0:
64,192,3235,1,0,0:0:0:0:
448,192,3235,1,0,0:0:0:0:
320,192,3535,1,0,0:0:0:0:
448,192,3535,1,0,0:0:0:0:
192,192,3835,1,0,0:0:0:0:
320,192,3835,1,0,0:0:0:0:
448,192,3835,1,0,0:0:0:0:
448,192,4135,1,0,0:0:0:0:
320,192,4135,1,0,0:0:0:0:
192,192,4135,1,0,0:0:0:0:
64,192,4135,1,0,0:0:0:0:
320,192,4435,1,0,0:0:0:0:
64,192,4435,1,0,0:0:0:0:
192,192,4435,1,0,0:0:0:0:
448,192,4435,1,0,0:0:0:0:
192,192,4735,1,0,0:0:0:0:
448,192,4735,1,0,0:0:0:0:
320,192,4735,1,0,0:0:0:0:
64,192,4735,1,0,0:0:0:0:
320,192,5035,1,0,0:0:0:0:
64,192,5035,1,0,0:0:0:0:
192,192,5035,1,0,0:0:0:0:
448,192,5035,1,0,0:0:0:0:
192,192,5335,1,0,0:0:0:0:
448,192,5335,1,0,0:0:0:0:
320,192,5335,1,0,0:0:0:0:
64,192,5335,1,0,0:0:0:0:
320,192,5485,1,0,0:0:0:0:
64,192,5485,1,0,0:0:0:0:
192,192,5485,1,0,0:0:0:0:
448,192,5485,1,0,0:0:0:0:
64,192,5935,128,0,6085:0:0:0:0:
320,192,5935,1,0,0:0:0:0:
448,192,5935,1,0,0:0:0:0:
192,192,5935,1,0,0:0:0:0:
192,192,6085,128,0,6235:0:0:0:0:
320,192,6235,128,0,6385:0:0:0:0:
448,192,6385,128,0,6685:0:0:0:0:
320,192,6685,128,0,6985:0:0:0:0:
64,192,6985,128,0,7285:0:0:0:0:
192,192,7285,128,0,7435:0:0:0:0:
320,192,7435,128,0,7735:0:0:0:0:
448,192,7735,128,0,7885:0:0:0:0:
320,192,7885,128,0,8035:0:0:0:0:
192,192,8035,128,0,8185:0:0:0:0:
64,192,8185,128,0,8335:0:0:0:0:
448,192,8335,128,0,8485:0:0:0:0:
320,192,8485,128,0,8635:0:0:0:0:
192,192,8635,128,0,8785:0:0:0:0:
64,192,8785,128,0,9085:0:0:0:0:
192,192,9085,128,0,9235:0:0:0:0:
192,192,9385,128,0,9535:0:0:0:0:
320,192,9535,128,0,9685:0:0:0:0:
448,192,9685,128,0,9835:0:0:0:0:
192,192,9835,128,0,9985:0:0:0:0:
320,192,9985,128,0,10135:0:0:0:0:
64,192,10135,128,0,10285:0:0:0:0:
192,192,10285,128,0,10435:0:0:0:0:
64,192,10435,128,0,10735:0:0:0:0:
192,192,10735,128,0,10885:0:0:0:0:
320,192,10735,1,0,0:0:0:0:
448,192,10735,1,0,0:0:0:0:
320,192,10885,128,0,11035:0:0:0:0:
448,192,11035,128,0,11185:0:0:0:0:
320,192,11185,128,0,11485:0:0:0:0:
192,192,11485,128,0,11785:0:0:0:0:
64,192,11785,128,0,12085:0:0:0:0:
192,192,12085,128,0,12235:0:0:0:0:
320,192,12235,128,0,12535:0:0:0:0:
448,192,12535,128,0,12685:0:0:0:0:
320,192,12685,128,0,12835:0:0:0:0:
192,192,12835,128,0,13135:0:0:0:0:
64,192,12985,128,0,13135:0:0:0:0:
320,192,13135,1,0,0:0:0:0:
448,192,13135,1,0,0:0:0:0:
448,192,13435,1,0,0:0:0:0:
320,192,13435,1,0,0:0:0:0:
320,192,13635,1,0,0:0:0:0:
192,192,13685,1,0,0:0:0:0:
64,192,13735,1,0,0:0:0:0:
448,192,13735,1,0,0:0:0:0:
320,192,13885,1,0,0:0:0:0:
192,192,14035,1,0,0:0:0:0:
64,192,14035,1,0,0:0:0:0:
192,192,14185,1,0,0:0:0:0:
448,192,14185,128,0,14635:0:0:0:0:
320,192,14185,128,0,14635:0:0:0:0:
64,192,14485,1,0,0:0:0:0:
192,192,14635,1,0,0:0:0:0:
64,192,14635,1,0,0:0:0:0:
192,192,14860,1,0,0:0:0:0:
64,192,14860,1,0,0:0:0:0:
320,192,14935,1,0,0:0:0:0:
448,192,14935,1,0,0:0:0:0:
320,192,15085,1,0,0:0:0:0:
448,192,15085,1,0,0:0:0:0:
320,192,15235,1,0,0:0:0:0:
448,192,15235,1,0,0:0:0:0:
448,192,15385,1,0,0:0:0:0:
320,192,15385,1,0,0:0:0:0:
64,192,15535,1,0,0:0:0:0:
192,192,15535,1,0,0:0:0:0:
320,192,15610,1,0,0:0:0:0:
448,192,15685,1,0,0:0:0:0:
64,192,15685,1,0,0:0:0:0:
192,192,15760,1,0,0:0:0:0:
320,192,15835,1,0,0:0:0:0:
448,192,15835,1,0,0:0:0:0:
192,192,15910,1,0,0:0:0:0:
64,192,15985,1,0,0:0:0:0:
448,192,15985,1,0,0:0:0:0:
320,192,16060,1,0,0:0:0:0:
192,192,16135,1,0,0:0:0:0:
64,192,16135,1,0,0:0:0:0:
448,192,16210,1,0,0:0:0:0:
320,192,16285,1,0,0:0:0:0:
64,192,16285,1,0,0:0:0:0:
192,192,16360,1,0,0:0:0:0:
320,192,16435,1,0,0:0:0:0:
448,192,16435,1,0,0:0:0:0:
64,192,16510,1,0,0:0:0:0:
192,192,16585,1,0,0:0:0:0:
320,192,16585,1,0,0:0:0:0:
448,192,16660,1,0,0:0:0:0:
192,192,16735,1,0,0:0:0:0:
64,192,16735,1,0,0:0:0:0:
320,192,16810,1,0,0:0:0:0:
448,192,16885,1,0,0:0:0:0:
192,192,16885,1,0,0:0:0:0:
64,192,16960,1,0,0:0:0:0:
320,192,17035,1,0,0:0:0:0:
448,192,17035,1,0,0:0:0:0:
192,192,17110,1,0,0:0:0:0:
64,192,17185,1,0,0:0:0:0:
320,192,17185,1,0,0:0:0:0:
192,192,17260,1,0,0:0:0:0:
320,192,17335,1,0,0:0:0:0:
448,192,17335,1,0,0:0:0:0:
64,192,17410,1,0,0:0:0:0:
192,192,17485,1,0,0:0:0:0:
448,192,17485,1,0,0:0:0:0:
320,192,17560,1,0,0:0:0:0:
192,192,17635,1,0,0:0:0:0:
64,192,17635,1,0,0:0:0:0:
448,192,17710,1,0,0:0:0:0:
320,192,17785,1,0,0:0:0:0:
64,192,17785,1,0,0:0:0:0:
192,192,17860,1,0,0:0:0:0:
448,192,17935,1,0,0:0:0:0:
320,192,17935,1,0,0:0:0:0:
64,192,17935,1,0,0:0:0:0:
320,192,18085,1,0,0:0:0:0:
320,192,18235,1,0,0:0:0:0:
448,192,18235,1,0,0:0:0:0:
192,192,18235,1,0,0:0:0:0:
64,192,18435,1,0,0:0:0:0:
192,192,18435,1,0,0:0:0:0:
320,192,18535,1,0,0:0:0:0:
448,192,18535,1,0,0:0:0:0:
320,192,18685,1,0,0:0:0:0:
448,192,18685,1,0,0:0:0:0:
320,192,18785,1,0,0:0:0:0:
448,192,18785,1,0,0:0:0:0:
64,192,18985,1,0,0:0:0:0:
192,192,18985,1,0,0:0:0:0:
320,192,18985,1,0,0:0:0:0:
448,192,18985,1,0,0:0:0:0:
192,192,19285,1,0,0:0:0:0:
320,192,19435,1,0,0:0:0:0:
192,192,19435,1,0,0:0:0:0:
448,192,19435,1,0,0:0:0:0:
320,192,19735,1,0,0:0:0:0:
320,192,19885,1,0,0:0:0:0:
448,192,20035,1,0,0:0:0:0:
192,192,20035,1,0,0:0:0:0:
64,192,20035,1,0,0:0:0:0:
64,192,20335,1,0,0:0:0:0:
192,192,20335,128,0,20635:0:0:0:0:
320,192,20335,1,0,0:0:0:0:
320,192,20635,128,0,20785:0:0:0:0:
64,192,20635,1,0,0:0:0:0:
448,192,20635,1,0,0:0:0:0:
448,192,20785,128,0,20935:0:0:0:0:
192,192,20785,1,0,0:0:0:0:
320,192,20935,128,0,21085:0:0:0:0:
64,192,21085,128,0,21160:0:0:0:0:
192,192,21235,1,0,0:0:0:0:
448,192,21235,128,0,22735:0:0:0:0:
320,192,21235,128,0,22735:0:0:0:0:
64,192,21535,1,0,0:0:0:0:
192,192,21660,1,0,0:0:0:0:
64,192,21660,1,0,0:0:0:0:
192,192,21810,1,0,0:0:0:0:
64,192,21810,1,0,0:0:0:0:
192,192,21960,1,0,0:0:0:0:
64,192,21960,1,0,0:0:0:0:
64,192,22110,1,0,0:0:0:0:
192,192,22110,1,0,0:0:0:0:
192,192,22260,1,0,0:0:0:0:
64,192,22260,1,0,0:0:0:0:
192,192,22410,1,0,0:0:0:0:
64,192,22410,1,0,0:0:0:0:
192,192,22735,1,0,0:0:0:0:
64,192,22735,1,0,0:0:0:0:
320,192,22810,1,0,0:0:0:0:
448,192,22885,1,0,0:0:0:0:
64,192,22960,1,0,0:0:0:0:
192,192,23035,1,0,0:0:0:0:
320,192,23035,1,0,0:0:0:0:
448,192,23110,1,0,0:0:0:0:
64,192,23185,1,0,0:0:0:0:
192,192,23260,1,0,0:0:0:0:
320,192,23335,1,0,0:0:0:0:
448,192,23335,1,0,0:0:0:0:
192,192,23410,1,0,0:0:0:0:
64,192,23485,1,0,0:0:0:0:
448,192,23485,1,0,0:0:0:0:
320,192,23560,1,0,0:0:0:0:
192,192,23635,1,0,0:0:0:0:
64,192,23635,1,0,0:0:0:0:
448,192,23710,1,0,0:0:0:0:
320,192,23785,1,0,0:0:0:0:
192,192,23860,1,0,0:0:0:0:
64,192,23935,1,0,0:0:0:0:
448,192,23935,1,0,0:0:0:0:
320,192,24010,1,0,0:0:0:0:
192,192,24085,1,0,0:0:0:0:
320,192,24160,1,0,0:0:0:0:
448,192,24235,1,0,0:0:0:0:
64,192,24235,1,0,0:0:0:0:
192,192,24310,1,0,0:0:0:0:
448,192,24385,1,0,0:0:0:0:
320,192,24422,1,0,0:0:0:0:
64,192,24460,1,0,0:0:0:0:
192,192,24497,1,0,0:0:0:0:
320,192,24535,1,0,0:0:0:0:
448,192,24572,1,0,0:0:0:0:
64,192,24610,1,0,0:0:0:0:
192,192,24647,1,0,0:0:0:0:
320,192,24685,1,0,0:0:0:0:
448,192,24722,1,0,0:0:0:0:
64,192,24760,1,0,0:0:0:0:
192,192,24797,1,0,0:0:0:0:
448,192,24835,1,0,0:0:0:0:
320,192,24872,1,0,0:0:0:0:
192,192,24910,1,0,0:0:0:0:
64,192,24947,1,0,0:0:0:0:
448,192,24985,1,0,0:0:0:0:
320,192,25060,1,0,0:0:0:0:
192,192,25135,1,0,0:0:0:0:
64,192,25135,1,0,0:0:0:0:
448,192,25210,1,0,0:0:0:0:
320,192,25285,1,0,0:0:0:0:
64,192,25285,1,0,0:0:0:0:
192,192,25360,1,0,0:0:0:0:
320,192,25435,1,0,0:0:0:0:
448,192,25435,1,0,0:0:0:0:
64,192,25510,1,0,0:0:0:0:
192,192,25585,1,0,0:0:0:0:
320,192,25585,1,0,0:0:0:0:
448,192,25660,1,0,0:0:0:0:
192,192,25735,1,0,0:0:0:0:
64,192,25735,1,0,0:0:0:0:
320,192,25810,1,0,0:0:0:0:
448,192,25885,1,0,0:0:0:0:
192,192,25885,1,0,0:0:0:0:
64,192,25960,1,0,0:0:0:0:
320,192,26035,1,0,0:0:0:0:
448,192,26035,1,0,0:0:0:0:
192,192,26110,1,0,0:0:0:0:
64,192,26185,1,0,0:0:0:0:
320,192,26185,1,0,0:0:0:0:
448,192,26185,1,0,0:0:0:0:
192,192,26335,1,0,0:0:0:0:
192,192,26485,1,0,0:0:0:0:
64,192,26485,1,0,0:0:0:0:
448,192,26485,1,0,0:0:0:0:
320,192,26635,1,0,0:0:0:0:
448,192,26635,1,0,0:0:0:0:
64,192,26785,1,0,0:0:0:0:
192,192,26822,1,0,0:0:0:0:
320,192,26860,1,0,0:0:0:0:
448,192,26897,1,0,0:0:0:0:
64,192,26935,1,0,0:0:0:0:
192,192,26972,1,0,0:0:0:0:
448,192,27010,1,0,0:0:0:0:
320,192,27047,1,0,0:0:0:0:
64,192,27085,1,0,0:0:0:0:
192,192,27122,1,0,0:0:0:0:
320,192,27160,1,0,0:0:0:0:
448,192,27197,1,0,0:0:0:0:
64,192,27235,1,0,0:0:0:0:
192,192,27272,1,0,0:0:0:0:
448,192,27310,1,0,0:0:0:0:
320,192,27347,1,0,0:0:0:0:
64,192,27385,1,0,0:0:0:0:
192,192,27422,1,0,0:0:0:0:
320,192,27460,1,0,0:0:0:0:
448,192,27497,1,0,0:0:0:0:
64,192,27535,1,0,0:0:0:0:
192,192,27535,1,0,0:0:0:0:
448,192,27685,1,0,0:0:0:0:
64,192,27835,1,0,0:0:0:0:
320,192,27835,1,0,0:0:0:0:
192,192,27985,1,0,0:0:0:0:
320,192,28135,1,0,0:0:0:0:
448,192,28135,1,0,0:0:0:0:
192,192,28285,1,0,0:0:0:0:
64,192,28285,1,0,0:0:0:0:
64,192,28435,1,0,0:0:0:0:
320,192,28435,1,0,0:0:0:0:
192,192,28435,1,0,0:0:0:0:
448,192,28585,1,0,0:0:0:0:
192,192,28735,1,0,0:0:0:0:
64,192,28735,1,0,0:0:0:0:
320,192,28885,1,0,0:0:0:0:
192,192,29035,1,0,0:0:0:0:
448,192,29035,1,0,0:0:0:0:
64,192,29185,1,0,0:0:0:0:
448,192,29335,1,0,0:0:0:0:
192,192,29335,1,0,0:0:0:0:
448,192,29485,1,0,0:0:0:0:
320,192,29485,1,0,0:0:0:0:
64,192,29635,1,0,0:0:0:0:
320,192,29635,1,0,0:0:0:0:
192,192,29635,1,0,0:0:0:0:
192,192,29785,1,0,0:0:0:0:
64,192,29935,1,0,0:0:0:0:
448,192,29935,1,0,0:0:0:0:
320,192,30085,1,0,0:0:0:0:
192,192,30235,1,0,0:0:0:0:
64,192,30235,1,0,0:0:0:0:
320,192,30385,1,0,0:0:0:0:
64,192,30535,1,0,0:0:0:0:
448,192,30535,1,0,0:0:0:0:
192,192,30685,1,0,0:0:0:0:
320,192,30685,1,0,0:0:0:0:
448,192,30835,1,0,0:0:0:0:
192,192,30835,1,0,0:0:0:0:
320,192,30835,1,0,0:0:0:0:
64,192,30985,1,0,0:0:0:0:
320,192,31135,1,0,0:0:0:0:
448,192,31135,1,0,0:0:0:0:
192,192,31285,1,0,0:0:0:0:
320,192,31435,1,0,0:0:0:0:
64,192,31435,1,0,0:0:0:0:
448,192,31585,1,0,0:0:0:0:
64,192,31735,1,0,0:0:0:0:
320,192,31735,1,0,0:0:0:0:
64,192,31885,1,0,0:0:0:0:
192,192,31885,1,0,0:0:0:0:
448,192,32035,1,0,0:0:0:0:
192,192,32035,1,0,0:0:0:0:
320,192,32035,1,0,0:0:0:0:
320,192,32185,1,0,0:0:0:0:
448,192,32335,1,0,0:0:0:0:
64,192,32335,1,0,0:0:0:0:
192,192,32485,1,0,0:0:0:0:
320,192,32635,1,0,0:0:0:0:
448,192,32635,1,0,0:0:0:0:
64,192,32785,1,0,0:0:0:0:
448,192,32935,1,0,0:0:0:0:
192,192,32935,1,0,0:0:0:0:
320,192,33085,1,0,0:0:0:0:
64,192,33085,1,0,0:0:0:0:
64,192,33235,1,0,0:0:0:0:
320,192,33235,1,0,0:0:0:0:
192,192,33235,1,0,0:0:0:0:
448,192,33385,1,0,0:0:0:0:
320,192,33535,1,0,0:0:0:0:
192,192,33535,1,0,0:0:0:0:
64,192,33685,1,0,0:0:0:0:
192,192,33835,1,0,0:0:0:0:
448,192,33835,1,0,0:0:0:0:
320,192,33985,1,0,0:0:0:0:
192,192,34135,1,0,0:0:0:0:
64,192,34135,1,0,0:0:0:0:
320,192,34285,1,0,0:0:0:0:
192,192,34285,1,0,0:0:0:0:
320,192,34435,1,0,0:0:0:0:
448,192,34435,1,0,0:0:0:0:
64,192,34435,1,0,0:0:0:0:
192,192,34585,1,0,0:0:0:0:
448,192,34735,1,0,0:0:0:0:
64,192,34735,1,0,0:0:0:0:
320,192,34885,1,0,0:0:0:0:
192,192,35035,1,0,0:0:0:0:
64,192,35035,1,0,0:0:0:0:
320,192,35185,1,0,0:0:0:0:
448,192,35335,1,0,0:0:0:0:
192,192,35335,1,0,0:0:0:0:
64,192,35485,1,0,0:0:0:0:
192,192,35485,1,0,0:0:0:0:
320,192,35635,1,0,0:0:0:0:
448,192,35635,1,0,0:0:0:0:
64,192,35635,1,0,0:0:0:0:
192,192,35785,1,0,0:0:0:0:
320,192,35935,1,0,0:0:0:0:
448,192,35935,1,0,0:0:0:0:
192,192,36085,1,0,0:0:0:0:
320,192,36235,1,0,0:0:0:0:
64,192,36235,1,0,0:0:0:0:
192,192,36385,1,0,0:0:0:0:
320,192,36535,1,0,0:0:0:0:
448,192,36535,1,0,0:0:0:0:
192,192,36685,1,0,0:0:0:0:
64,192,36685,1,0,0:0:0:0:
448,192,36835,1,0,0:0:0:0:
64,192,36835,1,0,0:0:0:0:
320,192,36835,1,0,0:0:0:0:
192,192,36985,1,0,0:0:0:0:
320,192,37135,1,0,0:0:0:0:
448,192,37135,1,0,0:0:0:0:
192,192,37285,1,0,0:0:0:0:
320,192,37435,1,0,0:0:0:0:
64,192,37435,1,0,0:0:0:0:
448,192,37585,1,0,0:0:0:0:
64,192,37735,1,0,0:0:0:0:
320,192,37735,1,0,0:0:0:0:
64,192,37885,1,0,0:0:0:0:
192,192,37885,1,0,0:0:0:0:
448,192,38035,1,0,0:0:0:0:
192,192,38035,1,0,0:0:0:0:
320,192,38035,1,0,0:0:0:0:
64,192,38185,1,0,0:0:0:0:
192,192,38335,1,0,0:0:0:0:
320,192,38335,1,0,0:0:0:0:
448,192,38485,1,0,0:0:0:0:
320,192,38635,1,0,0:0:0:0:
64,192,38635,1,0,0:0:0:0:
192,192,38785,1,0,0:0:0:0:
320,192,38935,1,0,0:0:0:0:
448,192,38935,1,0,0:0:0:0:
192,192,39085,1,0,0:0:0:0:
320,192,39085,1,0,0:0:0:0:
192,192,39235,1,0,0:0:0:0:
64,192,39235,1,0,0:0:0:0:
448,192,39235,1,0,0:0:0:0:
320,192,39385,1,0,0:0:0:0:
64,192,39535,1,0,0:0:0:0:
448,192,39535,1,0,0:0:0:0:
192,192,39685,1,0,0:0:0:0:
320,192,39835,1,0,0:0:0:0:
448,192,39835,1,0,0:0:0:0:
192,192,39985,1,0,0:0:0:0:
64,192,40135,1,0,0:0:0:0:
320,192,40135,1,0,0:0:0:0:
448,192,40285,1,0,0:0:0:0:
320,192,40285,1,0,0:0:0:0:
192,192,40435,1,0,0:0:0:0:
64,192,40435,1,0,0:0:0:0:
448,192,40435,1,0,0:0:0:0:
320,192,40585,1,0,0:0:0:0:
192,192,40735,1,0,0:0:0:0:
64,192,40735,1,0,0:0:0:0:
320,192,40885,1,0,0:0:0:0:
192,192,41035,1,0,0:0:0:0:
448,192,41035,1,0,0:0:0:0:
64,192,41185,1,0,0:0:0:0:
320,192,41335,1,0,0:0:0:0:
448,192,41335,1,0,0:0:0:0:
192,192,41485,1,0,0:0:0:0:
320,192,41485,1,0,0:0:0:0:
64,192,41635,1,0,0:0:0:0:
192,192,41635,1,0,0:0:0:0:
448,192,41635,1,0,0:0:0:0:
320,192,41935,1,0,0:0:0:0:
448,192,41935,1,0,0:0:0:0:
192,192,42010,1,0,0:0:0:0:
64,192,42085,1,0,0:0:0:0:
448,192,42160,1,0,0:0:0:0:
320,192,42235,1,0,0:0:0:0:
192,192,42235,1,0,0:0:0:0:
64,192,42310,1,0,0:0:0:0:
448,192,42385,1,0,0:0:0:0:
320,192,42460,1,0,0:0:0:0:
192,192,42535,1,0,0:0:0:0:
64,192,42535,1,0,0:0:0:0:
320,192,42610,1,0,0:0:0:0:
448,192,42685,1,0,0:0:0:0:
64,192,42685,1,0,0:0:0:0:
192,192,42760,1,0,0:0:0:0:
320,192,42835,1,0,0:0:0:0:
448,192,42835,1,0,0:0:0:0:
64,192,42910,1,0,0:0:0:0:
192,192,42985,1,0,0:0:0:0:
320,192,42985,1,0,0:0:0:0:
448,192,43060,1,0,0:0:0:0:
64,192,43135,1,0,0:0:0:0:
320,192,43135,1,0,0:0:0:0:
192,192,43210,1,0,0:0:0:0:
64,192,43285,1,0,0:0:0:0:
448,192,43285,1,0,0:0:0:0:
320,192,43360,1,0,0:0:0:0:
192,192,43435,1,0,0:0:0:0:
448,192,43435,1,0,0:0:0:0:
64,192,43510,1,0,0:0:0:0:
448,192,43585,1,0,0:0:0:0:
320,192,43622,1,0,0:0:0:0:
192,192,43660,1,0,0:0:0:0:
64,192,43697,1,0,0:0:0:0:
448,192,43735,1,0,0:0:0:0:
320,192,43772,1,0,0:0:0:0:
192,192,43810,1,0,0:0:0:0:
64,192,43847,1,0,0:0:0:0:
448,192,43885,1,0,0:0:0:0:
320,192,43922,1,0,0:0:0:0:
64,192,43960,1,0,0:0:0:0:
192,192,43997,1,0,0:0:0:0:
320,192,44035,1,0,0:0:0:0:
448,192,44072,1,0,0:0:0:0:
192,192,44110,1,0,0:0:0:0:
64,192,44147,1,0,0:0:0:0:
448,192,44185,1,0,0:0:0:0:
320,192,44260,1,0,0:0:0:0:
64,192,44335,1,0,0:0:0:0:
192,192,44335,1,0,0:0:0:0:
448,192,44410,1,0,0:0:0:0:
320,192,44485,1,0,0:0:0:0:
192,192,44560,1,0,0:0:0:0:
320,192,44635,1,0,0:0:0:0:
448,192,44635,1,0,0:0:0:0:
64,192,44710,1,0,0:0:0:0:
192,192,44785,1,0,0:0:0:0:
320,192,44860,1,0,0:0:0:0:
64,192,44935,1,0,0:0:0:0:
448,192,44935,1,0,0:0:0:0:
192,192,45010,1,0,0:0:0:0:
448,192,45085,1,0,0:0:0:0:
320,192,45085,1,0,0:0:0:0:
320,192,45235,1,0,0:0:0:0:
448,192,45235,1,0,0:0:0:0:
192,192,45310,1,0,0:0:0:0:
64,192,45385,1,0,0:0:0:0:
320,192,45385,1,0,0:0:0:0:
448,192,45385,1,0,0:0:0:0:
192,192,45535,1,0,0:0:0:0:
320,192,45535,1,0,0:0:0:0:
64,192,45685,1,0,0:0:0:0:
192,192,45685,1,0,0:0:0:0:
448,192,45685,1,0,0:0:0:0:
64,192,45835,1,0,0:0:0:0:
320,192,45835,1,0,0:0:0:0:
448,192,45985,1,0,0:0:0:0:
320,192,46022,1,0,0:0:0:0:
64,192,46060,1,0,0:0:0:0:
192,192,46097,1,0,0:0:0:0:
320,192,46135,1,0,0:0:0:0:
448,192,46172,1,0,0:0:0:0:
64,192,46210,1,0,0:0:0:0:
192,192,46247,1,0,0:0:0:0:
320,192,46285,1,0,0:0:0:0:
448,192,46322,1,0,0:0:0:0:
64,192,46360,1,0,0:0:0:0:
192,192,46397,1,0,0:0:0:0:
448,192,46435,1,0,0:0:0:0:
320,192,46472,1,0,0:0:0:0:
192,192,46510,1,0,0:0:0:0:
64,192,46547,1,0,0:0:0:0:
448,192,46585,1,0,0:0:0:0:
320,192,46585,1,0,0:0:0:0:
64,192,46885,1,0,0:0:0:0:
192,192,46885,1,0,0:0:0:0:
192,192,47035,1,0,0:0:0:0:
320,192,47035,1,0,0:0:0:0:
448,192,47035,1,0,0:0:0:0:
320,192,47335,1,0,0:0:0:0:
448,192,47335,1,0,0:0:0:0:
320,192,47485,1,0,0:0:0:0:
192,192,47485,1,0,0:0:0:0:
64,192,47635,1,0,0:0:0:0:
192,192,47635,1,0,0:0:0:0:
448,192,47635,1,0,0:0:0:0:
192,192,47935,1,0,0:0:0:0:
320,192,47935,1,0,0:0:0:0:
192,192,48085,1,0,0:0:0:0:
448,192,48085,1,0,0:0:0:0:
320,192,48235,1,0,0:0:0:0:
64,192,48235,1,0,0:0:0:0:
448,192,48235,1,0,0:0:0:0:
320,192,48535,1,0,0:0:0:0:
448,192,48535,1,0,0:0:0:0:
448,192,48685,1,0,0:0:0:0:
320,192,48685,1,0,0:0:0:0:
320,192,48835,1,0,0:0:0:0:
448,192,48835,1,0,0:0:0:0:
448,192,48985,1,0,0:0:0:0:
320,192,48985,1,0,0:0:0:0:
192,192,48985,1,0,0:0:0:0:
64,192,49285,1,0,0:0:0:0:
192,192,49285,1,0,0:0:0:0:
64,192,49435,1,0,0:0:0:0:
320,192,49435,1,0,0:0:0:0:
448,192,49435,1,0,0:0:0:0:
192,192,49735,1,0,0:0:0:0:
448,192,49735,1,0,0:0:0:0:
64,192,49885,1,0,0:0:0:0:
320,192,49885,1,0,0:0:0:0:
64,192,50035,1,0,0:0:0:0:
448,192,50035,1,0,0:0:0:0:
192,192,50035,1,0,0:0:0:0:
320,192,50335,1,0,0:0:0:0:
448,192,50335,1,0,0:0:0:0:
192,192,50485,1,0,0:0:0:0:
64,192,50485,1,0,0:0:0:0:
320,192,50485,1,0,0:0:0:0:
448,192,50635,1,0,0:0:0:0:
192,192,50635,1,0,0:0:0:0:
64,192,50635,1,0,0:0:0:0:
320,192,50785,1,0,0:0:0:0:
448,192,50785,1,0,0:0:0:0:
192,192,50860,1,0,0:0:0:0:
64,192,50860,1,0,0:0:0:0:
320,192,50935,1,0,0:0:0:0:
448,192,50935,1,0,0:0:0:0:
64,192,51047,1,0,0:0:0:0:
192,192,51197,1,0,0:0:0:0:
320,192,51347,1,0,0:0:0:0:
448,192,51347,1,0,0:0:0:0:
64,192,51347,1,0,0:0:0:0:
320,192,51685,1,0,0:0:0:0:
192,192,51835,1,0,0:0:0:0:
64,192,51835,1,0,0:0:0:0:
448,192,51835,1,0,0:0:0:0:
448,192,52135,1,0,0:0:0:0:
320,192,52285,1,0,0:0:0:0:
192,192,52435,1,0,0:0:0:0:
64,192,52435,1,0,0:0:0:0:
320,192,52735,1,0,0:0:0:0:
448,192,52735,1,0,0:0:0:0:
192,192,52885,1,0,0:0:0:0:
64,192,53035,1,0,0:0:0:0:
320,192,53035,1,0,0:0:0:0:
448,192,53035,1,0,0:0:0:0:
192,192,53185,1,0,0:0:0:0:
448,192,53335,1,0,0:0:0:0:
320,192,53485,1,0,0:0:0:0:
64,192,53635,1,0,0:0:0:0:
192,192,53635,1,0,0:0:0:0:
448,192,53635,1,0,0:0:0:0:
192,192,53785,1,0,0:0:0:0:
64,192,53935,1,0,0:0:0:0:
320,192,53935,1,0,0:0:0:0:
448,192,53935,1,0,0:0:0:0:
320,192,54085,1,0,0:0:0:0:
192,192,54235,1,0,0:0:0:0:
64,192,54235,1,0,0:0:0:0:
448,192,54385,1,0,0:0:0:0:
320,192,54460,1,0,0:0:0:0:
448,192,54535,1,0,0:0:0:0:
64,192,54685,1,0,0:0:0:0:
192,192,54835,1,0,0:0:0:0:
320,192,54985,1,0,0:0:0:0:
448,192,54985,1,0,0:0:0:0:
64,192,54985,1,0,0:0:0:0:
448,192,55285,1,0,0:0:0:0:
192,192,55435,1,0,0:0:0:0:
64,192,55435,1,0,0:0:0:0:
320,192,55435,1,0,0:0:0:0:
448,192,55735,128,0,55885:0:0:0:0:
320,192,55735,1,0,0:0:0:0:
320,192,55885,128,0,56035:0:0:0:0:
192,192,56035,128,0,56185:0:0:0:0:
64,192,56185,128,0,56335:0:0:0:0:
192,192,56335,1,0,0:0:0:0:
320,192,56335,1,0,0:0:0:0:
448,192,56335,1,0,0:0:0:0:
64,192,56410,1,0,0:0:0:0:
192,192,56485,1,0,0:0:0:0:
320,192,56560,1,0,0:0:0:0:
64,192,56635,1,0,0:0:0:0:
192,192,56635,1,0,0:0:0:0:
448,192,56635,1,0,0:0:0:0:
320,192,56710,1,0,0:0:0:0:
64,192,56785,1,0,0:0:0:0:
192,192,56860,1,0,0:0:0:0:
64,192,56935,1,0,0:0:0:0:
320,192,56935,1,0,0:0:0:0:
448,192,57010,1,0,0:0:0:0:
320,192,57085,1,0,0:0:0:0:
192,192,57085,1,0,0:0:0:0:
64,192,57160,1,0,0:0:0:0:
192,192,57235,1,0,0:0:0:0:
320,192,57235,1,0,0:0:0:0:
448,192,57235,1,0,0:0:0:0:
64,192,57310,1,0,0:0:0:0:
448,192,57385,1,0,0:0:0:0:
320,192,57460,1,0,0:0:0:0:
192,192,57535,1,0,0:0:0:0:
64,192,57535,1,0,0:0:0:0:
448,192,57610,1,0,0:0:0:0:
64,192,57685,1,0,0:0:0:0:
192,192,57760,1,0,0:0:0:0:
320,192,57835,1,0,0:0:0:0:
64,192,57835,1,0,0:0:0:0:
448,192,57835,1,0,0:0:0:0:
192,192,57910,1,0,0:0:0:0:
320,192,57985,1,0,0:0:0:0:
448,192,58060,1,0,0:0:0:0:
192,192,58135,1,0,0:0:0:0:
64,192,58135,1,0,0:0:0:0:
320,192,58210,1,0,0:0:0:0:
192,192,58285,1,0,0:0:0:0:
448,192,58285,1,0,0:0:0:0:
64,192,58360,1,0,0:0:0:0:
192,192,58435,1,0,0:0:0:0:
320,192,58435,1,0,0:0:0:0:
448,192,58435,1,0,0:0:0:0:
64,192,58510,1,0,0:0:0:0:
320,192,58585,1,0,0:0:0:0:
192,192,58660,1,0,0:0:0:0:
64,192,58735,1,0,0:0:0:0:
448,192,58735,1,0,0:0:0:0:
192,192,58810,1,0,0:0:0:0:
320,192,58885,1,0,0:0:0:0:
448,192,58960,1,0,0:0:0:0:
64,192,59035,1,0,0:0:0:0:
192,192,59035,1,0,0:0:0:0:
320,192,59035,1,0,0:0:0:0:
448,192,59110,1,0,0:0:0:0:
320,192,59185,1,0,0:0:0:0:
64,192,59260,1,0,0:0:0:0:
192,192,59335,1,0,0:0:0:0:
448,192,59335,1,0,0:0:0:0:
320,192,59410,1,0,0:0:0:0:
192,192,59485,1,0,0:0:0:0:
64,192,59485,1,0,0:0:0:0:
320,192,59560,1,0,0:0:0:0:
192,192,59635,1,0,0:0:0:0:
64,192,59635,1,0,0:0:0:0:
448,192,59635,1,0,0:0:0:0:
320,192,59710,1,0,0:0:0:0:
448,192,59785,1,0,0:0:0:0:
64,192,59860,1,0,0:0:0:0:
192,192,59935,1,0,0:0:0:0:
320,192,59935,1,0,0:0:0:0:
448,192,60010,1,0,0:0:0:0:
64,192,60085,1,0,0:0:0:0:
192,192,60160,1,0,0:0:0:0:
320,192,60235,1,0,0:0:0:0:
64,192,60235,1,0,0:0:0:0:
448,192,60235,1,0,0:0:0:0:
192,192,60310,1,0,0:0:0:0:
448,192,60385,1,0,0:0:0:0:
320,192,60460,1,0,0:0:0:0:
192,192,60535,1,0,0:0:0:0:
64,192,60535,1,0,0:0:0:0:
448,192,60610,1,0,0:0:0:0:
320,192,60685,1,0,0:0:0:0:
64,192,60760,1,0,0:0:0:0:
320,192,60835,1,0,0:0:0:0:
448,192,60835,1,0,0:0:0:0:
192,192,60835,1,0,0:0:0:0:
64,192,60910,1,0,0:0:0:0:
192,192,60985,1,0,0:0:0:0:
448,192,61060,1,0,0:0:0:0:
64,192,61135,1,0,0:0:0:0:
320,192,61135,1,0,0:0:0:0:
192,192,61210,1,0,0:0:0:0:
448,192,61285,1,0,0:0:0:0:
320,192,61360,1,0,0:0:0:0:
64,192,61435,1,0,0:0:0:0:
192,192,61435,1,0,0:0:0:0:
448,192,61435,1,0,0:0:0:0:
320,192,61510,1,0,0:0:0:0:
64,192,61585,1,0,0:0:0:0:
192,192,61660,1,0,0:0:0:0:
320,192,61735,1,0,0:0:0:0:
448,192,61735,1,0,0:0:0:0:
64,192,61810,1,0,0:0:0:0:
192,192,61885,1,0,0:0:0:0:
320,192,61885,1,0,0:0:0:0:
448,192,61960,1,0,0:0:0:0:
192,192,62035,1,0,0:0:0:0:
64,192,62035,1,0,0:0:0:0:
320,192,62035,1,0,0:0:0:0:
448,192,62110,1,0,0:0:0:0:
192,192,62185,1,0,0:0:0:0:
64,192,62260,1,0,0:0:0:0:
320,192,62335,1,0,0:0:0:0:
448,192,62335,1,0,0:0:0:0:
192,192,62410,1,0,0:0:0:0:
64,192,62485,1,0,0:0:0:0:
192,192,62560,1,0,0:0:0:0:
64,192,62635,1,0,0:0:0:0:
448,192,62635,1,0,0:0:0:0:
320,192,62635,1,0,0:0:0:0:
192,192,62710,1,0,0:0:0:0:
448,192,62785,1,0,0:0:0:0:
320,192,62860,1,0,0:0:0:0:
64,192,62935,1,0,0:0:0:0:
448,192,62935,1,0,0:0:0:0:
192,192,63010,1,0,0:0:0:0:
64,192,63085,5,0,0:0:0:0:
320,192,63085,1,0,0:0:0:0:
448,192,63160,1,0,0:0:0:0:
192,192,63235,1,0,0:0:0:0:
64,192,63235,1,0,0:0:0:0:
320,192,63235,1,0,0:0:0:0:
192,192,63385,1,0,0:0:0:0:
320,192,63535,5,0,0:0:0:0:
448,192,63535,1,0,0:0:0:0:
64,192,63535,1,0,0:0:0:0:
320,192,63835,1,0,0:0:0:0:
448,192,63835,1,0,0:0:0:0:
192,192,63835,1,0,0:0:0:0:
64,192,63835,1,0,0:0:0:0:
64,192,63985,1,0,0:0:0:0:
192,192,63985,1,0,0:0:0:0:
320,192,64022,1,0,0:0:0:0:
448,192,64022,1,0,0:0:0:0:
192,192,64060,1,0,0:0:0:0:
64,192,64060,1,0,0:0:0:0:
320,192,64135,1,0,0:0:0:0:
448,192,64135,1,0,0:0:0:0:
320,192,64285,1,0,0:0:0:0:
448,192,64285,1,0,0:0:0:0:
320,192,64435,1,0,0:0:0:0:
448,192,64435,1,0,0:0:0:0:
192,192,64585,1,0,0:0:0:0:
64,192,64585,1,0,0:0:0:0:
448,192,64585,128,0,64885:0:0:0:0:
320,192,64585,128,0,64885:0:0:0:0:
64,192,64885,1,0,0:0:0:0:
192,192,64885,1,0,0:0:0:0:
64,192,65035,1,0,0:0:0:0:
320,192,65035,1,0,0:0:0:0:
192,192,65035,1,0,0:0:0:0:
320,192,65185,1,0,0:0:0:0:
448,192,65185,1,0,0:0:0:0:
192,192,65260,1,0,0:0:0:0:
64,192,65260,1,0,0:0:0:0:
320,192,65335,1,0,0:0:0:0:
448,192,65335,1,0,0:0:0:0:
320,192,65485,1,0,0:0:0:0:
448,192,65485,1,0,0:0:0:0:
448,192,65635,1,0,0:0:0:0:
320,192,65635,1,0,0:0:0:0:
448,192,65785,1,0,0:0:0:0:
320,192,65785,1,0,0:0:0:0:
320,192,65935,1,0,0:0:0:0:
448,192,65935,1,0,0:0:0:0:
192,192,65935,1,0,0:0:0:0:
64,192,66010,1,0,0:0:0:0:
192,192,66085,1,0,0:0:0:0:
448,192,66160,1,0,0:0:0:0:
64,192,66235,1,0,0:0:0:0:
192,192,66235,1,0,0:0:0:0:
320,192,66235,1,0,0:0:0:0:
448,192,66310,1,0,0:0:0:0:
320,192,66385,1,0,0:0:0:0:
192,192,66460,1,0,0:0:0:0:
448,192,66535,1,0,0:0:0:0:
64,192,66535,1,0,0:0:0:0:
320,192,66610,1,0,0:0:0:0:
64,192,66685,1,0,0:0:0:0:
192,192,66685,1,0,0:0:0:0:
448,192,66760,1,0,0:0:0:0:
64,192,66835,1,0,0:0:0:0:
192,192,66835,1,0,0:0:0:0:
320,192,66835,1,0,0:0:0:0:
448,192,66910,1,0,0:0:0:0:
192,192,66985,1,0,0:0:0:0:
320,192,67060,1,0,0:0:0:0:
64,192,67135,1,0,0:0:0:0:
448,192,67135,1,0,0:0:0:0:
320,192,67210,1,0,0:0:0:0:
192,192,67285,1,0,0:0:0:0:
64,192,67360,1,0,0:0:0:0:
192,192,67435,1,0,0:0:0:0:
320,192,67435,1,0,0:0:0:0:
448,192,67435,1,0,0:0:0:0:
64,192,67510,1,0,0:0:0:0:
192,192,67585,1,0,0:0:0:0:
448,192,67660,1,0,0:0:0:0:
64,192,67735,1,0,0:0:0:0:
320,192,67735,1,0,0:0:0:0:
192,192,67810,1,0,0:0:0:0:
448,192,67885,1,0,0:0:0:0:
320,192,67885,1,0,0:0:0:0:
192,192,67960,1,0,0:0:0:0:
64,192,68035,1,0,0:0:0:0:
448,192,68035,1,0,0:0:0:0:
320,192,68035,1,0,0:0:0:0:
192,192,68110,1,0,0:0:0:0:
64,192,68185,1,0,0:0:0:0:
448,192,68185,1,0,0:0:0:0:
320,192,68260,1,0,0:0:0:0:
192,192,68335,1,0,0:0:0:0:
64,192,68335,1,0,0:0:0:0:
448,192,68335,1,0,0:0:0:0:
192,192,68485,1,0,0:0:0:0:
64,192,68485,1,0,0:0:0:0:
320,192,68635,1,0,0:0:0:0:
448,192,68635,1,0,0:0:0:0:
192,192,68635,1,0,0:0:0:0:
192,192,68860,1,0,0:0:0:0:
64,192,68860,1,0,0:0:0:0:
320,192,68935,1,0,0:0:0:0:
448,192,68935,1,0,0:0:0:0:
192,192,69085,1,0,0:0:0:0:
64,192,69085,1,0,0:0:0:0:
320,192,69235,1,0,0:0:0:0:
448,192,69235,1,0,0:0:0:0:
320,192,69385,1,0,0:0:0:0:
448,192,69385,1,0,0:0:0:0:
64,192,69385,128,0,69685:0:0:0:0:
192,192,69385,128,0,69685:0:0:0:0:
320,192,69685,1,0,0:0:0:0:
448,192,69685,1,0,0:0:0:0:
192,192,69835,1,0,0:0:0:0:
64,192,69835,1,0,0:0:0:0:
320,192,69835,1,0,0:0:0:0:
448,192,70135,1,0,0:0:0:0:
320,192,70135,1,0,0:0:0:0:
64,192,70285,1,0,0:0:0:0:
192,192,70285,1,0,0:0:0:0:
320,192,70435,1,0,0:0:0:0:
448,192,70435,1,0,0:0:0:0:
192,192,70435,1,0,0:0:0:0:
64,192,70735,1,0,0:0:0:0:
192,192,70735,1,0,0:0:0:0:
448,192,70735,1,0,0:0:0:0:
320,192,71035,1,0,0:0:0:0:
192,192,71035,1,0,0:0:0:0:
64,192,71335,1,0,0:0:0:0:
192,192,71335,1,0,0:0:0:0:
64,192,71485,1,0,0:0:0:0:
320,192,71485,1,0,0:0:0:0:
192,192,71635,1,0,0:0:0:0:
320,192,71635,1,0,0:0:0:0:
448,192,71635,1,0,0:0:0:0:
192,192,71935,1,0,0:0:0:0:
64,192,71935,1,0,0:0:0:0:
448,192,71935,1,0,0:0:0:0:
64,192,72235,1,0,0:0:0:0:
320,192,72235,1,0,0:0:0:0:
192,192,72535,1,0,0:0:0:0:
448,192,72535,1,0,0:0:0:0:
320,192,72685,1,0,0:0:0:0:
192,192,72685,1,0,0:0:0:0:
64,192,72835,1,0,0:0:0:0:
192,192,72835,1,0,0:0:0:0:
320,192,72835,1,0,0:0:0:0:
448,192,73135,1,0,0:0:0:0:
320,192,73135,1,0,0:0:0:0:
64,192,73135,1,0,0:0:0:0:
64,192,73285,1,0,0:0:0:0:
192,192,73285,1,0,0:0:0:0:
192,192,73435,1,0,0:0:0:0:
448,192,73435,1,0,0:0:0:0:
320,192,73585,1,0,0:0:0:0:
192,192,73660,1,0,0:0:0:0:
64,192,73660,1,0,0:0:0:0:
320,192,73735,1,0,0:0:0:0:
448,192,73735,1,0,0:0:0:0:
192,192,73885,1,0,0:0:0:0:
64,192,73885,1,0,0:0:0:0:
320,192,74035,1,0,0:0:0:0:
448,192,74035,1,0,0:0:0:0:
320,192,74185,1,0,0:0:0:0:
192,192,74185,128,0,74485:0:0:0:0:
64,192,74185,128,0,74485:0:0:0:0:
320,192,74485,128,0,74635:0:0:0:0:
448,192,74485,1,0,0:0:0:0:
192,192,74635,1,0,0:0:0:0:
64,192,74635,1,0,0:0:0:0:
448,192,74635,128,0,75535:0:0:0:0:
64,192,74860,1,0,0:0:0:0:
320,192,74935,1,0,0:0:0:0:
192,192,74935,1,0,0:0:0:0:
64,192,75085,1,0,0:0:0:0:
320,192,75085,1,0,0:0:0:0:
192,192,75235,1,0,0:0:0:0:
64,192,75235,1,0,0:0:0:0:
320,192,75385,1,0,0:0:0:0:
192,192,75385,1,0,0:0:0:0:
320,192,75535,1,0,0:0:0:0:
192,192,75535,1,0,0:0:0:0:
64,192,75535,1,0,0:0:0:0:
64,192,75835,1,0,0:0:0:0:
192,192,75985,1,0,0:0:0:0:
320,192,75985,1,0,0:0:0:0:
448,192,76135,1,0,0:0:0:0:
64,192,76285,1,0,0:0:0:0:
192,192,76285,1,0,0:0:0:0:
192,192,76435,1,0,0:0:0:0:
64,192,76435,1,0,0:0:0:0:
320,192,76435,1,0,0:0:0:0:
64,192,76735,1,0,0:0:0:0:
192,192,76735,1,0,0:0:0:0:
320,192,76735,1,0,0:0:0:0:
448,192,76735,1,0,0:0:0:0:
448,192,77035,1,0,0:0:0:0:
320,192,77035,1,0,0:0:0:0:
192,192,77035,1,0,0:0:0:0:
64,192,77035,1,0,0:0:0:0:
320,192,77935,1,0,0:0:0:0:
192,192,77935,1,0,0:0:0:0:
64,192,77935,1,0,0:0:0:0:
448,192,77935,128,0,78385:0:0:0:0:
192,192,78385,128,0,78797:0:0:0:0:
320,192,78385,1,0,0:0:0:0:
64,192,78385,1,0,0:0:0:0:
320,192,78797,1,0,0:0:0:0:
448,192,78797,1,0,0:0:0:0:
64,192,78797,128,0,79222:0:0:0:0:
192,192,79222,1,0,0:0:0:0:
320,192,79222,1,0,0:0:0:0:
448,192,79222,128,0,79672:0:0:0:0:
320,192,79672,128,0,79990:0:0:0:0:
192,192,79672,1,0,0:0:0:0:
64,192,79672,1,0,0:0:0:0:
192,192,79990,1,0,0:0:0:0:
64,192,79990,1,0,0:0:0:0:
448,192,79990,128,0,80290:0:0:0:0:
320,192,80290,128,0,80721:0:0:0:0:
192,192,80290,1,0,0:0:0:0:
64,192,80290,1,0,0:0:0:0:
448,192,80721,128,0,81171:0:0:0:0:
192,192,80721,1,0,0:0:0:0:
64,192,80721,1,0,0:0:0:0:
320,192,81171,128,0,81621:0:0:0:0:
192,192,81171,1,0,0:0:0:0:
64,192,81171,1,0,0:0:0:0:
192,192,81621,128,0,82052:0:0:0:0:
64,192,81621,1,0,0:0:0:0:
448,192,81621,1,0,0:0:0:0:
320,192,82052,1,0,0:0:0:0:
448,192,82052,1,0,0:0:0:0:
64,192,82052,128,0,82370:0:0:0:0:
192,192,82370,128,0,82695:0:0:0:0:
320,192,82370,1,0,0:0:0:0:
448,192,82370,1,0,0:0:0:0:
448,192,82695,1,0,0:0:0:0:
320,192,82695,1,0,0:0:0:0:
64,192,82695,1,0,0:0:0:0:
