osu file format v14

[General]
AudioFilename: audio_1.4.mp3
AudioLeadIn: 0
PreviewTime: 39703
Countdown: 0
SampleSet: None
StackLeniency: 0.7
Mode: 3
LetterboxInBreaks: 0
SpecialStyle: 0
WidescreenStoryboard: 1

[Editor]
DistanceSpacing: 2
BeatDivisor: 4
GridSize: 32
TimelineZoom: 2.299999

[Metadata]
Title:Kawaranai Sora (TV-version)
TitleUnicode:Kawaranai Sora (TV-version)
Artist:Luck Life
ArtistUnicode:Luck Life
Creator:booty
Version:booty x1.4
Source:
Tags:junjou romantica 3 ending rock anime japanese
BeatmapID:1924601
BeatmapSetID:921612

[Difficulty]
HPDrainRate:7
CircleSize:4
OverallDifficulty:7
ApproachRate:9.3
SliderMultiplier:1.4
SliderTickRate:1

[Events]
//Background and Video events
0,0,"65254592db0d24e1a2517bd4cbd6f29f.jpg",0,0
//Break Periods
//Storyboard Layer 0 (Background)
//Storyboard Layer 1 (Fail)
//Storyboard Layer 2 (Pass)
//Storyboard Layer 3 (Foreground)
//Storyboard Sound Samples

[TimingPoints]
2525,214.285714285714,4,2,0,15,1,0
36462,214.285714285714,4,2,0,15,1,0
36689,229.182582123759,4,2,0,15,1,0
36917,214.285714285714,4,2,0,15,1,0
37667,214.285714285714,4,2,0,15,1,0
56283,214.285714285714,4,2,0,15,1,0
56587,214.285714285714,4,2,0,15,1,0
57135,214.285714285714,4,2,0,15,1,0
57657,214.285714285714,4,2,0,15,1,0
58608,214.285714285714,4,2,0,15,1,0
58835,214.285714285714,4,2,0,15,1,0
59067,214.285714285714,4,2,0,15,1,0

[Colours]
Combo1 : 26,104,46
Combo2 : 155,28,21
Combo3 : 20,97,78
Combo4 : 139,57,27

[HitObjects]
448,192,810,128,0,917:0:0:0:0:
320,192,917,128,0,1025:0:0:0:0:
448,192,1025,128,0,1132:0:0:0:0:
320,192,1132,128,0,1346:0:0:0:0:
448,192,1346,128,0,1560:0:0:0:0:
320,192,1560,128,0,1775:0:0:0:0:
448,192,1775,128,0,1989:0:0:0:0:
320,192,1989,128,0,2203:0:0:0:0:
64,192,2203,1,0,0:0:0:0:
192,192,2203,1,0,0:0:0:0:
320,192,2257,1,0,0:0:0:0:
448,192,2257,1,0,0:0:0:0:
192,192,2310,1,0,0:0:0:0:
64,192,2310,1,0,0:0:0:0:
448,192,2310,1,0,0:0:0:0:
320,192,2525,1,0,0:0:0:0:
448,192,2525,1,0,0:0:0:0:
192,192,2739,1,0,0:0:0:0:
320,192,2739,1,0,0:0:0:0:
448,192,2739,1,0,0:0:0:0:
448,192,2953,1,0,0:0:0:0:
320,192,2953,1,0,0:0:0:0:
192,192,2953,1,0,0:0:0:0:
64,192,2953,1,0,0:0:0:0:
320,192,3167,1,0,0:0:0:0:
64,192,3167,1,0,0:0:0:0:
192,192,3167,1,0,0:0:0:0:
448,192,3167,1,0,0:0:0:0:
192,192,3382,1,0,0:0:0:0:
448,192,3382,1,0,0:0:0:0:
320,192,3382,1,0,0:0:0:0:
64,192,3382,1,0,0:0:0:0:
320,192,3596,1,0,0:0:0:0:
64,192,3596,1,0,0:0:0:0:
192,192,3596,1,0,0:0:0:0:
448,192,3596,1,0,0:0:0:0:
192,192,3810,1,0,0:0:0:0:
448,192,3810,1,0,0:0:0:0:
320,192,3810,1,0,0:0:0:0:
64,192,3810,1,0,0:0:0:0:
320,192,3917,1,0,0:0:0:0:
64,192,3917,1,0,0:0:0:0:
192,192,3917,1,0,0:0:0:0:
448,192,3917,1,0,0:0:0:0:
64,192,4239,128,0,4346:0:0:0:0:
320,192,4239,1,0,0:0:0:0:
448,192,4239,1,0,0:0:0:0:
192,192,4239,1,0,0:0:0:0:
192,192,4346,128,0,4453:0:0:0:0:
320,192,4453,128,0,4560:0:0:0:0:
448,192,4560,128,0,4775:0:0:0:0:
320,192,4775,128,0,4989:0:0:0:0:
64,192,4989,128,0,5203:0:0:0:0:
192,192,5203,128,0,5310:0:0:0:0:
320,192,5310,128,0,5525:0:0:0:0:
448,192,5525,128,0,5632:0:0:0:0:
320,192,5632,128,0,5739:0:0:0:0:
192,192,5739,128,0,5846:0:0:0:0:
64,192,5846,128,0,5953:0:0:0:0:
448,192,5953,128,0,6060:0:0:0:0:
320,192,6060,128,0,6167:0:0:0:0:
192,192,6167,128,0,6275:0:0:0:0:
64,192,6275,128,0,6489:0:0:0:0:
192,192,6489,128,0,6596:0:0:0:0:
192,192,6703,128,0,6810:0:0:0:0:
320,192,6810,128,0,6917:0:0:0:0:
448,192,6917,128,0,7025:0:0:0:0:
192,192,7025,128,0,7132:0:0:0:0:
320,192,7132,128,0,7239:0:0:0:0:
64,192,7239,128,0,7346:0:0:0:0:
192,192,7346,128,0,7453:0:0:0:0:
64,192,7453,128,0,7667:0:0:0:0:
192,192,7667,128,0,7775:0:0:0:0:
320,192,7667,1,0,0:0:0:0:
448,192,7667,1,0,0:0:0:0:
320,192,7775,128,0,7882:0:0:0:0:
448,192,7882,128,0,7989:0:0:0:0:
320,192,7989,128,0,8203:0:0:0:0:
192,192,8203,128,0,8417:0:0:0:0:
64,192,8417,128,0,8632:0:0:0:0:
192,192,8632,128,0,8739:0:0:0:0:
320,192,8739,128,0,8953:0:0:0:0:
448,192,8953,128,0,9060:0:0:0:0:
320,192,9060,128,0,9167:0:0:0:0:
192,192,9167,128,0,9382:0:0:0:0:
64,192,9275,128,0,9382:0:0:0:0:
320,192,9382,1,0,0:0:0:0:
448,192,9382,1,0,0:0:0:0:
448,192,9596,1,0,0:0:0:0:
320,192,9596,1,0,0:0:0:0:
320,192,9739,1,0,0:0:0:0:
192,192,9775,1,0,0:0:0:0:
64,192,9810,1,0,0:0:0:0:
448,192,9810,1,0,0:0:0:0:
320,192,9917,1,0,0:0:0:0:
192,192,10025,1,0,0:0:0:0:
64,192,10025,1,0,0:0:0:0:
192,192,10132,1,0,0:0:0:0:
448,192,10132,128,0,10453:0:0:0:0:
320,192,10132,128,0,10453:0:0:0:0:
64,192,10346,1,0,0:0:0:0:
192,192,10453,1,0,0:0:0:0:
64,192,10453,1,0,0:0:0:0:
192,192,10614,1,0,0:0:0:0:
64,192,10614,1,0,0:0:0:0:
320,192,10667,1,0,0:0:0:0:
448,192,10667,1,0,0:0:0:0:
320,192,10775,1,0,0:0:0:0:
448,192,10775,1,0,0:0:0:0:
320,192,10882,1,0,0:0:0:0:
448,192,10882,1,0,0:0:0:0:
448,192,10989,1,0,0:0:0:0:
320,192,10989,1,0,0:0:0:0:
64,192,11096,1,0,0:0:0:0:
192,192,11096,1,0,0:0:0:0:
320,192,11150,1,0,0:0:0:0:
448,192,11203,1,0,0:0:0:0:
64,192,11203,1,0,0:0:0:0:
192,192,11257,1,0,0:0:0:0:
320,192,11310,1,0,0:0:0:0:
448,192,11310,1,0,0:0:0:0:
192,192,11364,1,0,0:0:0:0:
64,192,11417,1,0,0:0:0:0:
448,192,11417,1,0,0:0:0:0:
320,192,11471,1,0,0:0:0:0:
192,192,11525,1,0,0:0:0:0:
64,192,11525,1,0,0:0:0:0:
448,192,11578,1,0,0:0:0:0:
320,192,11632,1,0,0:0:0:0:
64,192,11632,1,0,0:0:0:0:
192,192,11685,1,0,0:0:0:0:
320,192,11739,1,0,0:0:0:0:
448,192,11739,1,0,0:0:0:0:
64,192,11792,1,0,0:0:0:0:
192,192,11846,1,0,0:0:0:0:
320,192,11846,1,0,0:0:0:0:
448,192,11900,1,0,0:0:0:0:
192,192,11953,1,0,0:0:0:0:
64,192,11953,1,0,0:0:0:0:
320,192,12007,1,0,0:0:0:0:
448,192,12060,1,0,0:0:0:0:
192,192,12060,1,0,0:0:0:0:
64,192,12114,1,0,0:0:0:0:
320,192,12167,1,0,0:0:0:0:
448,192,12167,1,0,0:0:0:0:
192,192,12221,1,0,0:0:0:0:
64,192,12275,1,0,0:0:0:0:
320,192,12275,1,0,0:0:0:0:
192,192,12328,1,0,0:0:0:0:
320,192,12382,1,0,0:0:0:0:
448,192,12382,1,0,0:0:0:0:
64,192,12435,1,0,0:0:0:0:
192,192,12489,1,0,0:0:0:0:
448,192,12489,1,0,0:0:0:0:
320,192,12542,1,0,0:0:0:0:
192,192,12596,1,0,0:0:0:0:
64,192,12596,1,0,0:0:0:0:
448,192,12650,1,0,0:0:0:0:
320,192,12703,1,0,0:0:0:0:
64,192,12703,1,0,0:0:0:0:
192,192,12757,1,0,0:0:0:0:
448,192,12810,1,0,0:0:0:0:
320,192,12810,1,0,0:0:0:0:
64,192,12810,1,0,0:0:0:0:
320,192,12917,1,0,0:0:0:0:
320,192,13025,1,0,0:0:0:0:
448,192,13025,1,0,0:0:0:0:
192,192,13025,1,0,0:0:0:0:
64,192,13167,1,0,0:0:0:0:
192,192,13167,1,0,0:0:0:0:
320,192,13239,1,0,0:0:0:0:
448,192,13239,1,0,0:0:0:0:
320,192,13346,1,0,0:0:0:0:
448,192,13346,1,0,0:0:0:0:
320,192,13417,1,0,0:0:0:0:
448,192,13417,1,0,0:0:0:0:
64,192,13560,1,0,0:0:0:0:
192,192,13560,1,0,0:0:0:0:
320,192,13560,1,0,0:0:0:0:
448,192,13560,1,0,0:0:0:0:
192,192,13775,1,0,0:0:0:0:
320,192,13882,1,0,0:0:0:0:
192,192,13882,1,0,0:0:0:0:
448,192,13882,1,0,0:0:0:0:
320,192,14096,1,0,0:0:0:0:
320,192,14203,1,0,0:0:0:0:
448,192,14310,1,0,0:0:0:0:
192,192,14310,1,0,0:0:0:0:
64,192,14310,1,0,0:0:0:0:
64,192,14525,1,0,0:0:0:0:
192,192,14525,128,0,14739:0:0:0:0:
320,192,14525,1,0,0:0:0:0:
320,192,14739,128,0,14846:0:0:0:0:
64,192,14739,1,0,0:0:0:0:
448,192,14739,1,0,0:0:0:0:
448,192,14846,128,0,14953:0:0:0:0:
192,192,14846,1,0,0:0:0:0:
320,192,14953,128,0,15060:0:0:0:0:
64,192,15060,128,0,15114:0:0:0:0:
192,192,15167,1,0,0:0:0:0:
448,192,15167,128,0,16239:0:0:0:0:
320,192,15167,128,0,16239:0:0:0:0:
64,192,15382,1,0,0:0:0:0:
192,192,15471,1,0,0:0:0:0:
64,192,15471,1,0,0:0:0:0:
192,192,15578,1,0,0:0:0:0:
64,192,15578,1,0,0:0:0:0:
192,192,15685,1,0,0:0:0:0:
64,192,15685,1,0,0:0:0:0:
64,192,15792,1,0,0:0:0:0:
192,192,15792,1,0,0:0:0:0:
192,192,15900,1,0,0:0:0:0:
64,192,15900,1,0,0:0:0:0:
192,192,16007,1,0,0:0:0:0:
64,192,16007,1,0,0:0:0:0:
192,192,16239,1,0,0:0:0:0:
64,192,16239,1,0,0:0:0:0:
320,192,16292,1,0,0:0:0:0:
448,192,16346,1,0,0:0:0:0:
64,192,16400,1,0,0:0:0:0:
192,192,16453,1,0,0:0:0:0:
320,192,16453,1,0,0:0:0:0:
448,192,16507,1,0,0:0:0:0:
64,192,16560,1,0,0:0:0:0:
192,192,16614,1,0,0:0:0:0:
320,192,16667,1,0,0:0:0:0:
448,192,16667,1,0,0:0:0:0:
192,192,16721,1,0,0:0:0:0:
64,192,16775,1,0,0:0:0:0:
448,192,16775,1,0,0:0:0:0:
320,192,16828,1,0,0:0:0:0:
192,192,16882,1,0,0:0:0:0:
64,192,16882,1,0,0:0:0:0:
448,192,16935,1,0,0:0:0:0:
320,192,16989,1,0,0:0:0:0:
192,192,17042,1,0,0:0:0:0:
64,192,17096,1,0,0:0:0:0:
448,192,17096,1,0,0:0:0:0:
320,192,17150,1,0,0:0:0:0:
192,192,17203,1,0,0:0:0:0:
320,192,17257,1,0,0:0:0:0:
448,192,17310,1,0,0:0:0:0:
64,192,17310,1,0,0:0:0:0:
192,192,17364,1,0,0:0:0:0:
448,192,17417,1,0,0:0:0:0:
320,192,17444,1,0,0:0:0:0:
64,192,17471,1,0,0:0:0:0:
192,192,17497,1,0,0:0:0:0:
320,192,17525,1,0,0:0:0:0:
448,192,17551,1,0,0:0:0:0:
64,192,17578,1,0,0:0:0:0:
192,192,17605,1,0,0:0:0:0:
320,192,17632,1,0,0:0:0:0:
448,192,17658,1,0,0:0:0:0:
64,192,17685,1,0,0:0:0:0:
192,192,17712,1,0,0:0:0:0:
448,192,17739,1,0,0:0:0:0:
320,192,17765,1,0,0:0:0:0:
192,192,17792,1,0,0:0:0:0:
64,192,17819,1,0,0:0:0:0:
448,192,17846,1,0,0:0:0:0:
320,192,17900,1,0,0:0:0:0:
192,192,17953,1,0,0:0:0:0:
64,192,17953,1,0,0:0:0:0:
448,192,18007,1,0,0:0:0:0:
320,192,18060,1,0,0:0:0:0:
64,192,18060,1,0,0:0:0:0:
192,192,18114,1,0,0:0:0:0:
320,192,18167,1,0,0:0:0:0:
448,192,18167,1,0,0:0:0:0:
64,192,18221,1,0,0:0:0:0:
192,192,18275,1,0,0:0:0:0:
320,192,18275,1,0,0:0:0:0:
448,192,18328,1,0,0:0:0:0:
192,192,18382,1,0,0:0:0:0:
64,192,18382,1,0,0:0:0:0:
320,192,18435,1,0,0:0:0:0:
448,192,18489,1,0,0:0:0:0:
192,192,18489,1,0,0:0:0:0:
64,192,18542,1,0,0:0:0:0:
320,192,18596,1,0,0:0:0:0:
448,192,18596,1,0,0:0:0:0:
192,192,18650,1,0,0:0:0:0:
64,192,18703,1,0,0:0:0:0:
320,192,18703,1,0,0:0:0:0:
448,192,18703,1,0,0:0:0:0:
192,192,18810,1,0,0:0:0:0:
192,192,18917,1,0,0:0:0:0:
64,192,18917,1,0,0:0:0:0:
448,192,18917,1,0,0:0:0:0:
320,192,19025,1,0,0:0:0:0:
448,192,19025,1,0,0:0:0:0:
64,192,19132,1,0,0:0:0:0:
192,192,19158,1,0,0:0:0:0:
320,192,19185,1,0,0:0:0:0:
448,192,19212,1,0,0:0:0:0:
64,192,19239,1,0,0:0:0:0:
192,192,19265,1,0,0:0:0:0:
448,192,19292,1,0,0:0:0:0:
320,192,19319,1,0,0:0:0:0:
64,192,19346,1,0,0:0:0:0:
192,192,19372,1,0,0:0:0:0:
320,192,19400,1,0,0:0:0:0:
448,192,19426,1,0,0:0:0:0:
64,192,19453,1,0,0:0:0:0:
192,192,19480,1,0,0:0:0:0:
448,192,19507,1,0,0:0:0:0:
320,192,19533,1,0,0:0:0:0:
64,192,19560,1,0,0:0:0:0:
192,192,19587,1,0,0:0:0:0:
320,192,19614,1,0,0:0:0:0:
448,192,19640,1,0,0:0:0:0:
64,192,19667,1,0,0:0:0:0:
192,192,19667,1,0,0:0:0:0:
448,192,19775,1,0,0:0:0:0:
64,192,19882,1,0,0:0:0:0:
320,192,19882,1,0,0:0:0:0:
192,192,19989,1,0,0:0:0:0:
320,192,20096,1,0,0:0:0:0:
448,192,20096,1,0,0:0:0:0:
192,192,20203,1,0,0:0:0:0:
64,192,20203,1,0,0:0:0:0:
64,192,20310,1,0,0:0:0:0:
320,192,20310,1,0,0:0:0:0:
192,192,20310,1,0,0:0:0:0:
448,192,20417,1,0,0:0:0:0:
192,192,20525,1,0,0:0:0:0:
64,192,20525,1,0,0:0:0:0:
320,192,20632,1,0,0:0:0:0:
192,192,20739,1,0,0:0:0:0:
448,192,20739,1,0,0:0:0:0:
64,192,20846,1,0,0:0:0:0:
448,192,20953,1,0,0:0:0:0:
192,192,20953,1,0,0:0:0:0:
448,192,21060,1,0,0:0:0:0:
320,192,21060,1,0,0:0:0:0:
64,192,21167,1,0,0:0:0:0:
320,192,21167,1,0,0:0:0:0:
192,192,21167,1,0,0:0:0:0:
192,192,21275,1,0,0:0:0:0:
64,192,21382,1,0,0:0:0:0:
448,192,21382,1,0,0:0:0:0:
320,192,21489,1,0,0:0:0:0:
192,192,21596,1,0,0:0:0:0:
64,192,21596,1,0,0:0:0:0:
320,192,21703,1,0,0:0:0:0:
64,192,21810,1,0,0:0:0:0:
448,192,21810,1,0,0:0:0:0:
192,192,21917,1,0,0:0:0:0:
320,192,21917,1,0,0:0:0:0:
448,192,22025,1,0,0:0:0:0:
192,192,22025,1,0,0:0:0:0:
320,192,22025,1,0,0:0:0:0:
64,192,22132,1,0,0:0:0:0:
320,192,22239,1,0,0:0:0:0:
448,192,22239,1,0,0:0:0:0:
192,192,22346,1,0,0:0:0:0:
320,192,22453,1,0,0:0:0:0:
64,192,22453,1,0,0:0:0:0:
448,192,22560,1,0,0:0:0:0:
64,192,22667,1,0,0:0:0:0:
320,192,22667,1,0,0:0:0:0:
64,192,22775,1,0,0:0:0:0:
192,192,22775,1,0,0:0:0:0:
448,192,22882,1,0,0:0:0:0:
192,192,22882,1,0,0:0:0:0:
320,192,22882,1,0,0:0:0:0:
320,192,22989,1,0,0:0:0:0:
448,192,23096,1,0,0:0:0:0:
64,192,23096,1,0,0:0:0:0:
192,192,23203,1,0,0:0:0:0:
320,192,23310,1,0,0:0:0:0:
448,192,23310,1,0,0:0:0:0:
64,192,23417,1,0,0:0:0:0:
448,192,23525,1,0,0:0:0:0:
192,192,23525,1,0,0:0:0:0:
320,192,23632,1,0,0:0:0:0:
64,192,23632,1,0,0:0:0:0:
64,192,23739,1,0,0:0:0:0:
320,192,23739,1,0,0:0:0:0:
192,192,23739,1,0,0:0:0:0:
448,192,23846,1,0,0:0:0:0:
320,192,23953,1,0,0:0:0:0:
192,192,23953,1,0,0:0:0:0:
64,192,24060,1,0,0:0:0:0:
192,192,24167,1,0,0:0:0:0:
448,192,24167,1,0,0:0:0:0:
320,192,24275,1,0,0:0:0:0:
192,192,24382,1,0,0:0:0:0:
64,192,24382,1,0,0:0:0:0:
320,192,24489,1,0,0:0:0:0:
192,192,24489,1,0,0:0:0:0:
320,192,24596,1,0,0:0:0:0:
448,192,24596,1,0,0:0:0:0:
64,192,24596,1,0,0:0:0:0:
192,192,24703,1,0,0:0:0:0:
448,192,24810,1,0,0:0:0:0:
64,192,24810,1,0,0:0:0:0:
320,192,24917,1,0,0:0:0:0:
192,192,25025,1,0,0:0:0:0:
64,192,25025,1,0,0:0:0:0:
320,192,25132,1,0,0:0:0:0:
448,192,25239,1,0,0:0:0:0:
192,192,25239,1,0,0:0:0:0:
64,192,25346,1,0,0:0:0:0:
192,192,25346,1,0,0:0:0:0:
320,192,25453,1,0,0:0:0:0:
448,192,25453,1,0,0:0:0:0:
64,192,25453,1,0,0:0:0:0:
192,192,25560,1,0,0:0:0:0:
320,192,25667,1,0,0:0:0:0:
448,192,25667,1,0,0:0:0:0:
192,192,25775,1,0,0:0:0:0:
320,192,25882,1,0,0:0:0:0:
64,192,25882,1,0,0:0:0:0:
192,192,25989,1,0,0:0:0:0:
320,192,26096,1,0,0:0:0:0:
448,192,26096,1,0,0:0:0:0:
192,192,26203,1,0,0:0:0:0:
64,192,26203,1,0,0:0:0:0:
448,192,26310,1,0,0:0:0:0:
64,192,26310,1,0,0:0:0:0:
320,192,26310,1,0,0:0:0:0:
192,192,26417,1,0,0:0:0:0:
320,192,26525,1,0,0:0:0:0:
448,192,26525,1,0,0:0:0:0:
192,192,26632,1,0,0:0:0:0:
320,192,26739,1,0,0:0:0:0:
64,192,26739,1,0,0:0:0:0:
448,192,26846,1,0,0:0:0:0:
64,192,26953,1,0,0:0:0:0:
320,192,26953,1,0,0:0:0:0:
64,192,27060,1,0,0:0:0:0:
192,192,27060,1,0,0:0:0:0:
448,192,27167,1,0,0:0:0:0:
192,192,27167,1,0,0:0:0:0:
320,192,27167,1,0,0:0:0:0:
64,192,27275,1,0,0:0:0:0:
192,192,27382,1,0,0:0:0:0:
320,192,27382,1,0,0:0:0:0:
448,192,27489,1,0,0:0:0:0:
320,192,27596,1,0,0:0:0:0:
64,192,27596,1,0,0:0:0:0:
192,192,27703,1,0,0:0:0:0:
320,192,27810,1,0,0:0:0:0:
448,192,27810,1,0,0:0:0:0:
192,192,27917,1,0,0:0:0:0:
320,192,27917,1,0,0:0:0:0:
192,192,28025,1,0,0:0:0:0:
64,192,28025,1,0,0:0:0:0:
448,192,28025,1,0,0:0:0:0:
320,192,28132,1,0,0:0:0:0:
64,192,28239,1,0,0:0:0:0:
448,192,28239,1,0,0:0:0:0:
192,192,28346,1,0,0:0:0:0:
320,192,28453,1,0,0:0:0:0:
448,192,28453,1,0,0:0:0:0:
192,192,28560,1,0,0:0:0:0:
64,192,28667,1,0,0:0:0:0:
320,192,28667,1,0,0:0:0:0:
448,192,28775,1,0,0:0:0:0:
320,192,28775,1,0,0:0:0:0:
192,192,28882,1,0,0:0:0:0:
64,192,28882,1,0,0:0:0:0:
448,192,28882,1,0,0:0:0:0:
320,192,28989,1,0,0:0:0:0:
192,192,29096,1,0,0:0:0:0:
64,192,29096,1,0,0:0:0:0:
320,192,29203,1,0,0:0:0:0:
192,192,29310,1,0,0:0:0:0:
448,192,29310,1,0,0:0:0:0:
64,192,29417,1,0,0:0:0:0:
320,192,29525,1,0,0:0:0:0:
448,192,29525,1,0,0:0:0:0:
192,192,29632,1,0,0:0:0:0:
320,192,29632,1,0,0:0:0:0:
64,192,29739,1,0,0:0:0:0:
192,192,29739,1,0,0:0:0:0:
448,192,29739,1,0,0:0:0:0:
320,192,29953,1,0,0:0:0:0:
448,192,29953,1,0,0:0:0:0:
192,192,30007,1,0,0:0:0:0:
64,192,30060,1,0,0:0:0:0:
448,192,30114,1,0,0:0:0:0:
320,192,30167,1,0,0:0:0:0:
192,192,30167,1,0,0:0:0:0:
64,192,30221,1,0,0:0:0:0:
448,192,30275,1,0,0:0:0:0:
320,192,30328,1,0,0:0:0:0:
192,192,30382,1,0,0:0:0:0:
64,192,30382,1,0,0:0:0:0:
320,192,30435,1,0,0:0:0:0:
448,192,30489,1,0,0:0:0:0:
64,192,30489,1,0,0:0:0:0:
192,192,30542,1,0,0:0:0:0:
320,192,30596,1,0,0:0:0:0:
448,192,30596,1,0,0:0:0:0:
64,192,30650,1,0,0:0:0:0:
192,192,30703,1,0,0:0:0:0:
320,192,30703,1,0,0:0:0:0:
448,192,30757,1,0,0:0:0:0:
64,192,30810,1,0,0:0:0:0:
320,192,30810,1,0,0:0:0:0:
192,192,30864,1,0,0:0:0:0:
64,192,30917,1,0,0:0:0:0:
448,192,30917,1,0,0:0:0:0:
320,192,30971,1,0,0:0:0:0:
192,192,31025,1,0,0:0:0:0:
448,192,31025,1,0,0:0:0:0:
64,192,31078,1,0,0:0:0:0:
448,192,31132,1,0,0:0:0:0:
320,192,31158,1,0,0:0:0:0:
192,192,31185,1,0,0:0:0:0:
64,192,31212,1,0,0:0:0:0:
448,192,31239,1,0,0:0:0:0:
320,192,31265,1,0,0:0:0:0:
192,192,31292,1,0,0:0:0:0:
64,192,31319,1,0,0:0:0:0:
448,192,31346,1,0,0:0:0:0:
320,192,31372,1,0,0:0:0:0:
64,192,31400,1,0,0:0:0:0:
192,192,31426,1,0,0:0:0:0:
320,192,31453,1,0,0:0:0:0:
448,192,31480,1,0,0:0:0:0:
192,192,31507,1,0,0:0:0:0:
64,192,31533,1,0,0:0:0:0:
448,192,31560,1,0,0:0:0:0:
320,192,31614,1,0,0:0:0:0:
64,192,31667,1,0,0:0:0:0:
192,192,31667,1,0,0:0:0:0:
448,192,31721,1,0,0:0:0:0:
320,192,31775,1,0,0:0:0:0:
192,192,31828,1,0,0:0:0:0:
320,192,31882,1,0,0:0:0:0:
448,192,31882,1,0,0:0:0:0:
64,192,31935,1,0,0:0:0:0:
192,192,31989,1,0,0:0:0:0:
320,192,32042,1,0,0:0:0:0:
64,192,32096,1,0,0:0:0:0:
448,192,32096,1,0,0:0:0:0:
192,192,32150,1,0,0:0:0:0:
448,192,32203,1,0,0:0:0:0:
320,192,32203,1,0,0:0:0:0:
320,192,32310,1,0,0:0:0:0:
448,192,32310,1,0,0:0:0:0:
192,192,32364,1,0,0:0:0:0:
64,192,32417,1,0,0:0:0:0:
320,192,32417,1,0,0:0:0:0:
448,192,32417,1,0,0:0:0:0:
192,192,32525,1,0,0:0:0:0:
320,192,32525,1,0,0:0:0:0:
64,192,32632,1,0,0:0:0:0:
192,192,32632,1,0,0:0:0:0:
448,192,32632,1,0,0:0:0:0:
64,192,32739,1,0,0:0:0:0:
320,192,32739,1,0,0:0:0:0:
448,192,32846,1,0,0:0:0:0:
320,192,32872,1,0,0:0:0:0:
64,192,32900,1,0,0:0:0:0:
192,192,32926,1,0,0:0:0:0:
320,192,32953,1,0,0:0:0:0:
448,192,32980,1,0,0:0:0:0:
64,192,33007,1,0,0:0:0:0:
192,192,33033,1,0,0:0:0:0:
320,192,33060,1,0,0:0:0:0:
448,192,33087,1,0,0:0:0:0:
64,192,33114,1,0,0:0:0:0:
192,192,33140,1,0,0:0:0:0:
448,192,33167,1,0,0:0:0:0:
320,192,33194,1,0,0:0:0:0:
192,192,33221,1,0,0:0:0:0:
64,192,33247,1,0,0:0:0:0:
448,192,33275,1,0,0:0:0:0:
320,192,33275,1,0,0:0:0:0:
64,192,33489,1,0,0:0:0:0:
192,192,33489,1,0,0:0:0:0:
192,192,33596,1,0,0:0:0:0:
320,192,33596,1,0,0:0:0:0:
448,192,33596,1,0,0:0:0:0:
320,192,33810,1,0,0:0:0:0:
448,192,33810,1,0,0:0:0:0:
320,192,33917,1,0,0:0:0:0:
192,192,33917,1,0,0:0:0:0:
64,192,34025,1,0,0:0:0:0:
192,192,34025,1,0,0:0:0:0:
448,192,34025,1,0,0:0:0:0:
192,192,34239,1,0,0:0:0:0:
320,192,34239,1,0,0:0:0:0:
192,192,34346,1,0,0:0:0:0:
448,192,34346,1,0,0:0:0:0:
320,192,34453,1,0,0:0:0:0:
64,192,34453,1,0,0:0:0:0:
448,192,34453,1,0,0:0:0:0:
320,192,34667,1,0,0:0:0:0:
448,192,34667,1,0,0:0:0:0:
448,192,34775,1,0,0:0:0:0:
320,192,34775,1,0,0:0:0:0:
320,192,34882,1,0,0:0:0:0:
448,192,34882,1,0,0:0:0:0:
448,192,34989,1,0,0:0:0:0:
320,192,34989,1,0,0:0:0:0:
192,192,34989,1,0,0:0:0:0:
64,192,35203,1,0,0:0:0:0:
192,192,35203,1,0,0:0:0:0:
64,192,35310,1,0,0:0:0:0:
320,192,35310,1,0,0:0:0:0:
448,192,35310,1,0,0:0:0:0:
192,192,35525,1,0,0:0:0:0:
448,192,35525,1,0,0:0:0:0:
64,192,35632,1,0,0:0:0:0:
320,192,35632,1,0,0:0:0:0:
64,192,35739,1,0,0:0:0:0:
448,192,35739,1,0,0:0:0:0:
192,192,35739,1,0,0:0:0:0:
320,192,35953,1,0,0:0:0:0:
448,192,35953,1,0,0:0:0:0:
192,192,36060,1,0,0:0:0:0:
64,192,36060,1,0,0:0:0:0:
320,192,36060,1,0,0:0:0:0:
448,192,36167,1,0,0:0:0:0:
192,192,36167,1,0,0:0:0:0:
64,192,36167,1,0,0:0:0:0:
320,192,36275,1,0,0:0:0:0:
448,192,36275,1,0,0:0:0:0:
192,192,36328,1,0,0:0:0:0:
64,192,36328,1,0,0:0:0:0:
320,192,36382,1,0,0:0:0:0:
448,192,36382,1,0,0:0:0:0:
64,192,36462,1,0,0:0:0:0:
192,192,36569,1,0,0:0:0:0:
320,192,36676,1,0,0:0:0:0:
448,192,36676,1,0,0:0:0:0:
64,192,36676,1,0,0:0:0:0:
320,192,36917,1,0,0:0:0:0:
192,192,37025,1,0,0:0:0:0:
64,192,37025,1,0,0:0:0:0:
448,192,37025,1,0,0:0:0:0:
448,192,37239,1,0,0:0:0:0:
320,192,37346,1,0,0:0:0:0:
192,192,37453,1,0,0:0:0:0:
64,192,37453,1,0,0:0:0:0:
320,192,37667,1,0,0:0:0:0:
448,192,37667,1,0,0:0:0:0:
192,192,37775,1,0,0:0:0:0:
64,192,37882,1,0,0:0:0:0:
320,192,37882,1,0,0:0:0:0:
448,192,37882,1,0,0:0:0:0:
192,192,37989,1,0,0:0:0:0:
448,192,38096,1,0,0:0:0:0:
320,192,38203,1,0,0:0:0:0:
64,192,38310,1,0,0:0:0:0:
192,192,38310,1,0,0:0:0:0:
448,192,38310,1,0,0:0:0:0:
192,192,38417,1,0,0:0:0:0:
64,192,38525,1,0,0:0:0:0:
320,192,38525,1,0,0:0:0:0:
448,192,38525,1,0,0:0:0:0:
320,192,38632,1,0,0:0:0:0:
192,192,38739,1,0,0:0:0:0:
64,192,38739,1,0,0:0:0:0:
448,192,38846,1,0,0:0:0:0:
320,192,38900,1,0,0:0:0:0:
448,192,38953,1,0,0:0:0:0:
64,192,39060,1,0,0:0:0:0:
192,192,39167,1,0,0:0:0:0:
320,192,39275,1,0,0:0:0:0:
448,192,39275,1,0,0:0:0:0:
64,192,39275,1,0,0:0:0:0:
448,192,39489,1,0,0:0:0:0:
192,192,39596,1,0,0:0:0:0:
64,192,39596,1,0,0:0:0:0:
320,192,39596,1,0,0:0:0:0:
448,192,39810,128,0,39917:0:0:0:0:
320,192,39810,1,0,0:0:0:0:
320,192,39917,128,0,40025:0:0:0:0:
192,192,40025,128,0,40132:0:0:0:0:
64,192,40132,128,0,40239:0:0:0:0:
192,192,40239,1,0,0:0:0:0:
320,192,40239,1,0,0:0:0:0:
448,192,40239,1,0,0:0:0:0:
64,192,40292,1,0,0:0:0:0:
192,192,40346,1,0,0:0:0:0:
320,192,40400,1,0,0:0:0:0:
64,192,40453,1,0,0:0:0:0:
192,192,40453,1,0,0:0:0:0:
448,192,40453,1,0,0:0:0:0:
320,192,40507,1,0,0:0:0:0:
64,192,40560,1,0,0:0:0:0:
192,192,40614,1,0,0:0:0:0:
64,192,40667,1,0,0:0:0:0:
320,192,40667,1,0,0:0:0:0:
448,192,40721,1,0,0:0:0:0:
320,192,40775,1,0,0:0:0:0:
192,192,40775,1,0,0:0:0:0:
64,192,40828,1,0,0:0:0:0:
192,192,40882,1,0,0:0:0:0:
320,192,40882,1,0,0:0:0:0:
448,192,40882,1,0,0:0:0:0:
64,192,40935,1,0,0:0:0:0:
448,192,40989,1,0,0:0:0:0:
320,192,41042,1,0,0:0:0:0:
192,192,41096,1,0,0:0:0:0:
64,192,41096,1,0,0:0:0:0:
448,192,41150,1,0,0:0:0:0:
64,192,41203,1,0,0:0:0:0:
192,192,41257,1,0,0:0:0:0:
320,192,41310,1,0,0:0:0:0:
64,192,41310,1,0,0:0:0:0:
448,192,41310,1,0,0:0:0:0:
192,192,41364,1,0,0:0:0:0:
320,192,41417,1,0,0:0:0:0:
448,192,41471,1,0,0:0:0:0:
192,192,41525,1,0,0:0:0:0:
64,192,41525,1,0,0:0:0:0:
320,192,41578,1,0,0:0:0:0:
192,192,41632,1,0,0:0:0:0:
448,192,41632,1,0,0:0:0:0:
64,192,41685,1,0,0:0:0:0:
192,192,41739,1,0,0:0:0:0:
320,192,41739,1,0,0:0:0:0:
448,192,41739,1,0,0:0:0:0:
64,192,41792,1,0,0:0:0:0:
320,192,41846,1,0,0:0:0:0:
192,192,41900,1,0,0:0:0:0:
64,192,41953,1,0,0:0:0:0:
448,192,41953,1,0,0:0:0:0:
192,192,42007,1,0,0:0:0:0:
320,192,42060,1,0,0:0:0:0:
448,192,42114,1,0,0:0:0:0:
64,192,42167,1,0,0:0:0:0:
192,192,42167,1,0,0:0:0:0:
320,192,42167,1,0,0:0:0:0:
448,192,42221,1,0,0:0:0:0:
320,192,42275,1,0,0:0:0:0:
64,192,42328,1,0,0:0:0:0:
192,192,42382,1,0,0:0:0:0:
448,192,42382,1,0,0:0:0:0:
320,192,42435,1,0,0:0:0:0:
192,192,42489,1,0,0:0:0:0:
64,192,42489,1,0,0:0:0:0:
320,192,42542,1,0,0:0:0:0:
192,192,42596,1,0,0:0:0:0:
64,192,42596,1,0,0:0:0:0:
448,192,42596,1,0,0:0:0:0:
320,192,42650,1,0,0:0:0:0:
448,192,42703,1,0,0:0:0:0:
64,192,42757,1,0,0:0:0:0:
192,192,42810,1,0,0:0:0:0:
320,192,42810,1,0,0:0:0:0:
448,192,42864,1,0,0:0:0:0:
64,192,42917,1,0,0:0:0:0:
192,192,42971,1,0,0:0:0:0:
320,192,43025,1,0,0:0:0:0:
64,192,43025,1,0,0:0:0:0:
448,192,43025,1,0,0:0:0:0:
192,192,43078,1,0,0:0:0:0:
448,192,43132,1,0,0:0:0:0:
320,192,43185,1,0,0:0:0:0:
192,192,43239,1,0,0:0:0:0:
64,192,43239,1,0,0:0:0:0:
448,192,43292,1,0,0:0:0:0:
320,192,43346,1,0,0:0:0:0:
64,192,43400,1,0,0:0:0:0:
320,192,43453,1,0,0:0:0:0:
448,192,43453,1,0,0:0:0:0:
192,192,43453,1,0,0:0:0:0:
64,192,43507,1,0,0:0:0:0:
192,192,43560,1,0,0:0:0:0:
448,192,43614,1,0,0:0:0:0:
64,192,43667,1,0,0:0:0:0:
320,192,43667,1,0,0:0:0:0:
192,192,43721,1,0,0:0:0:0:
448,192,43775,1,0,0:0:0:0:
320,192,43828,1,0,0:0:0:0:
64,192,43882,1,0,0:0:0:0:
192,192,43882,1,0,0:0:0:0:
448,192,43882,1,0,0:0:0:0:
320,192,43935,1,0,0:0:0:0:
64,192,43989,1,0,0:0:0:0:
192,192,44042,1,0,0:0:0:0:
320,192,44096,1,0,0:0:0:0:
448,192,44096,1,0,0:0:0:0:
64,192,44150,1,0,0:0:0:0:
192,192,44203,1,0,0:0:0:0:
320,192,44203,1,0,0:0:0:0:
448,192,44257,1,0,0:0:0:0:
192,192,44310,1,0,0:0:0:0:
64,192,44310,1,0,0:0:0:0:
320,192,44310,1,0,0:0:0:0:
448,192,44364,1,0,0:0:0:0:
192,192,44417,1,0,0:0:0:0:
64,192,44471,1,0,0:0:0:0:
320,192,44525,1,0,0:0:0:0:
448,192,44525,1,0,0:0:0:0:
192,192,44578,1,0,0:0:0:0:
64,192,44632,1,0,0:0:0:0:
192,192,44685,1,0,0:0:0:0:
64,192,44739,1,0,0:0:0:0:
448,192,44739,1,0,0:0:0:0:
320,192,44739,1,0,0:0:0:0:
192,192,44792,1,0,0:0:0:0:
448,192,44846,1,0,0:0:0:0:
320,192,44900,1,0,0:0:0:0:
64,192,44953,1,0,0:0:0:0:
448,192,44953,1,0,0:0:0:0:
192,192,45007,1,0,0:0:0:0:
64,192,45060,5,0,0:0:0:0:
320,192,45060,1,0,0:0:0:0:
448,192,45114,1,0,0:0:0:0:
192,192,45167,1,0,0:0:0:0:
64,192,45167,1,0,0:0:0:0:
320,192,45167,1,0,0:0:0:0:
192,192,45275,1,0,0:0:0:0:
320,192,45382,5,0,0:0:0:0:
448,192,45382,1,0,0:0:0:0:
64,192,45382,1,0,0:0:0:0:
320,192,45596,1,0,0:0:0:0:
448,192,45596,1,0,0:0:0:0:
192,192,45596,1,0,0:0:0:0:
64,192,45596,1,0,0:0:0:0:
64,192,45703,1,0,0:0:0:0:
192,192,45703,1,0,0:0:0:0:
320,192,45730,1,0,0:0:0:0:
448,192,45730,1,0,0:0:0:0:
192,192,45757,1,0,0:0:0:0:
64,192,45757,1,0,0:0:0:0:
320,192,45810,1,0,0:0:0:0:
448,192,45810,1,0,0:0:0:0:
320,192,45917,1,0,0:0:0:0:
448,192,45917,1,0,0:0:0:0:
320,192,46025,1,0,0:0:0:0:
448,192,46025,1,0,0:0:0:0:
192,192,46132,1,0,0:0:0:0:
64,192,46132,1,0,0:0:0:0:
448,192,46132,128,0,46346:0:0:0:0:
320,192,46132,128,0,46346:0:0:0:0:
64,192,46346,1,0,0:0:0:0:
192,192,46346,1,0,0:0:0:0:
64,192,46453,1,0,0:0:0:0:
320,192,46453,1,0,0:0:0:0:
192,192,46453,1,0,0:0:0:0:
320,192,46560,1,0,0:0:0:0:
448,192,46560,1,0,0:0:0:0:
192,192,46614,1,0,0:0:0:0:
64,192,46614,1,0,0:0:0:0:
320,192,46667,1,0,0:0:0:0:
448,192,46667,1,0,0:0:0:0:
320,192,46775,1,0,0:0:0:0:
448,192,46775,1,0,0:0:0:0:
448,192,46882,1,0,0:0:0:0:
320,192,46882,1,0,0:0:0:0:
448,192,46989,1,0,0:0:0:0:
320,192,46989,1,0,0:0:0:0:
320,192,47096,1,0,0:0:0:0:
448,192,47096,1,0,0:0:0:0:
192,192,47096,1,0,0:0:0:0:
64,192,47150,1,0,0:0:0:0:
192,192,47203,1,0,0:0:0:0:
448,192,47257,1,0,0:0:0:0:
64,192,47310,1,0,0:0:0:0:
192,192,47310,1,0,0:0:0:0:
320,192,47310,1,0,0:0:0:0:
448,192,47364,1,0,0:0:0:0:
320,192,47417,1,0,0:0:0:0:
192,192,47471,1,0,0:0:0:0:
448,192,47525,1,0,0:0:0:0:
64,192,47525,1,0,0:0:0:0:
320,192,47578,1,0,0:0:0:0:
64,192,47632,1,0,0:0:0:0:
192,192,47632,1,0,0:0:0:0:
448,192,47685,1,0,0:0:0:0:
64,192,47739,1,0,0:0:0:0:
192,192,47739,1,0,0:0:0:0:
320,192,47739,1,0,0:0:0:0:
448,192,47792,1,0,0:0:0:0:
192,192,47846,1,0,0:0:0:0:
320,192,47900,1,0,0:0:0:0:
64,192,47953,1,0,0:0:0:0:
448,192,47953,1,0,0:0:0:0:
320,192,48007,1,0,0:0:0:0:
192,192,48060,1,0,0:0:0:0:
64,192,48114,1,0,0:0:0:0:
192,192,48167,1,0,0:0:0:0:
320,192,48167,1,0,0:0:0:0:
448,192,48167,1,0,0:0:0:0:
64,192,48221,1,0,0:0:0:0:
192,192,48275,1,0,0:0:0:0:
448,192,48328,1,0,0:0:0:0:
64,192,48382,1,0,0:0:0:0:
320,192,48382,1,0,0:0:0:0:
192,192,48435,1,0,0:0:0:0:
448,192,48489,1,0,0:0:0:0:
320,192,48489,1,0,0:0:0:0:
192,192,48542,1,0,0:0:0:0:
64,192,48596,1,0,0:0:0:0:
448,192,48596,1,0,0:0:0:0:
320,192,48596,1,0,0:0:0:0:
192,192,48650,1,0,0:0:0:0:
64,192,48703,1,0,0:0:0:0:
448,192,48703,1,0,0:0:0:0:
320,192,48757,1,0,0:0:0:0:
192,192,48810,1,0,0:0:0:0:
64,192,48810,1,0,0:0:0:0:
448,192,48810,1,0,0:0:0:0:
192,192,48917,1,0,0:0:0:0:
64,192,48917,1,0,0:0:0:0:
320,192,49025,1,0,0:0:0:0:
448,192,49025,1,0,0:0:0:0:
192,192,49025,1,0,0:0:0:0:
192,192,49185,1,0,0:0:0:0:
64,192,49185,1,0,0:0:0:0:
320,192,49239,1,0,0:0:0:0:
448,192,49239,1,0,0:0:0:0:
192,192,49346,1,0,0:0:0:0:
64,192,49346,1,0,0:0:0:0:
320,192,49453,1,0,0:0:0:0:
448,192,49453,1,0,0:0:0:0:
320,192,49560,1,0,0:0:0:0:
448,192,49560,1,0,0:0:0:0:
64,192,49560,128,0,49775:0:0:0:0:
192,192,49560,128,0,49775:0:0:0:0:
320,192,49775,1,0,0:0:0:0:
448,192,49775,1,0,0:0:0:0:
192,192,49882,1,0,0:0:0:0:
64,192,49882,1,0,0:0:0:0:
320,192,49882,1,0,0:0:0:0:
448,192,50096,1,0,0:0:0:0:
320,192,50096,1,0,0:0:0:0:
64,192,50203,1,0,0:0:0:0:
192,192,50203,1,0,0:0:0:0:
320,192,50310,1,0,0:0:0:0:
448,192,50310,1,0,0:0:0:0:
192,192,50310,1,0,0:0:0:0:
64,192,50525,1,0,0:0:0:0:
192,192,50525,1,0,0:0:0:0:
448,192,50525,1,0,0:0:0:0:
320,192,50739,1,0,0:0:0:0:
192,192,50739,1,0,0:0:0:0:
64,192,50953,1,0,0:0:0:0:
192,192,50953,1,0,0:0:0:0:
64,192,51060,1,0,0:0:0:0:
320,192,51060,1,0,0:0:0:0:
192,192,51167,1,0,0:0:0:0:
320,192,51167,1,0,0:0:0:0:
448,192,51167,1,0,0:0:0:0:
192,192,51382,1,0,0:0:0:0:
64,192,51382,1,0,0:0:0:0:
448,192,51382,1,0,0:0:0:0:
64,192,51596,1,0,0:0:0:0:
320,192,51596,1,0,0:0:0:0:
192,192,51810,1,0,0:0:0:0:
448,192,51810,1,0,0:0:0:0:
320,192,51917,1,0,0:0:0:0:
192,192,51917,1,0,0:0:0:0:
64,192,52025,1,0,0:0:0:0:
192,192,52025,1,0,0:0:0:0:
320,192,52025,1,0,0:0:0:0:
448,192,52239,1,0,0:0:0:0:
320,192,52239,1,0,0:0:0:0:
64,192,52239,1,0,0:0:0:0:
64,192,52346,1,0,0:0:0:0:
192,192,52346,1,0,0:0:0:0:
192,192,52453,1,0,0:0:0:0:
448,192,52453,1,0,0:0:0:0:
320,192,52560,1,0,0:0:0:0:
192,192,52614,1,0,0:0:0:0:
64,192,52614,1,0,0:0:0:0:
320,192,52667,1,0,0:0:0:0:
448,192,52667,1,0,0:0:0:0:
192,192,52775,1,0,0:0:0:0:
64,192,52775,1,0,0:0:0:0:
320,192,52882,1,0,0:0:0:0:
448,192,52882,1,0,0:0:0:0:
320,192,52989,1,0,0:0:0:0:
192,192,52989,128,0,53203:0:0:0:0:
64,192,52989,128,0,53203:0:0:0:0:
320,192,53203,128,0,53310:0:0:0:0:
448,192,53203,1,0,0:0:0:0:
192,192,53310,1,0,0:0:0:0:
64,192,53310,1,0,0:0:0:0:
448,192,53310,128,0,53953:0:0:0:0:
64,192,53471,1,0,0:0:0:0:
320,192,53525,1,0,0:0:0:0:
192,192,53525,1,0,0:0:0:0:
64,192,53632,1,0,0:0:0:0:
320,192,53632,1,0,0:0:0:0:
192,192,53739,1,0,0:0:0:0:
64,192,53739,1,0,0:0:0:0:
320,192,53846,1,0,0:0:0:0:
192,192,53846,1,0,0:0:0:0:
320,192,53953,1,0,0:0:0:0:
192,192,53953,1,0,0:0:0:0:
64,192,53953,1,0,0:0:0:0:
64,192,54167,1,0,0:0:0:0:
192,192,54275,1,0,0:0:0:0:
320,192,54275,1,0,0:0:0:0:
448,192,54382,1,0,0:0:0:0:
64,192,54489,1,0,0:0:0:0:
192,192,54489,1,0,0:0:0:0:
192,192,54596,1,0,0:0:0:0:
64,192,54596,1,0,0:0:0:0:
320,192,54596,1,0,0:0:0:0:
64,192,54810,1,0,0:0:0:0:
192,192,54810,1,0,0:0:0:0:
320,192,54810,1,0,0:0:0:0:
448,192,54810,1,0,0:0:0:0:
448,192,55025,1,0,0:0:0:0:
320,192,55025,1,0,0:0:0:0:
192,192,55025,1,0,0:0:0:0:
64,192,55025,1,0,0:0:0:0:
320,192,55667,1,0,0:0:0:0:
192,192,55667,1,0,0:0:0:0:
64,192,55667,1,0,0:0:0:0:
448,192,55667,128,0,55989:0:0:0:0:
192,192,55989,128,0,56283:0:0:0:0:
320,192,55989,1,0,0:0:0:0:
64,192,55989,1,0,0:0:0:0:
320,192,56283,1,0,0:0:0:0:
448,192,56283,1,0,0:0:0:0:
64,192,56283,128,0,56587:0:0:0:0:
192,192,56587,1,0,0:0:0:0:
320,192,56587,1,0,0:0:0:0:
448,192,56587,128,0,56908:0:0:0:0:
320,192,56908,128,0,57135:0:0:0:0:
192,192,56908,1,0,0:0:0:0:
64,192,56908,1,0,0:0:0:0:
192,192,57135,1,0,0:0:0:0:
64,192,57135,1,0,0:0:0:0:
448,192,57135,128,0,57350:0:0:0:0:
320,192,57350,128,0,57657:0:0:0:0:
192,192,57350,1,0,0:0:0:0:
64,192,57350,1,0,0:0:0:0:
448,192,57657,128,0,57979:0:0:0:0:
192,192,57657,1,0,0:0:0:0:
64,192,57657,1,0,0:0:0:0:
320,192,57979,128,0,58300:0:0:0:0:
192,192,57979,1,0,0:0:0:0:
64,192,57979,1,0,0:0:0:0:
192,192,58300,128,0,58608:0:0:0:0:
64,192,58300,1,0,0:0:0:0:
448,192,58300,1,0,0:0:0:0:
320,192,58608,1,0,0:0:0:0:
448,192,58608,1,0,0:0:0:0:
64,192,58608,128,0,58835:0:0:0:0:
192,192,58835,128,0,59067:0:0:0:0:
320,192,58835,1,0,0:0:0:0:
448,192,58835,1,0,0:0:0:0:
448,192,59067,1,0,0:0:0:0:
320,192,59067,1,0,0:0:0:0:
64,192,59067,1,0,0:0:0:0:
