osu file format v14

[General]
AudioFilename: audio_1.3.mp3
AudioLeadIn: 0
PreviewTime: 42757
Countdown: 0
SampleSet: None
StackLeniency: 0.7
Mode: 3
LetterboxInBreaks: 0
SpecialStyle: 0
WidescreenStoryboard: 1

[Editor]
DistanceSpacing: 2
BeatDivisor: 4
GridSize: 32
TimelineZoom: 2.299999

[Metadata]
Title:Kawaranai Sora (TV-version)
TitleUnicode:Kawaranai Sora (TV-version)
Artist:Luck Life
ArtistUnicode:Luck Life
Creator:booty
Version:booty x1.3
Source:
Tags:junjou romantica 3 ending rock anime japanese
BeatmapID:1924600
BeatmapSetID:921612

[Difficulty]
HPDrainRate:7
CircleSize:4
OverallDifficulty:7
ApproachRate:9.3
SliderMultiplier:1.4
SliderTickRate:1

[Events]
//Background and Video events
0,0,"65254592db0d24e1a2517bd4cbd6f29f.jpg",0,0
//Break Periods
//Storyboard Layer 0 (Background)
//Storyboard Layer 1 (Fail)
//Storyboard Layer 2 (Pass)
//Storyboard Layer 3 (Foreground)
//Storyboard Sound Samples

[TimingPoints]
2719,230.769230769231,4,2,0,15,1,0
39266,230.769230769231,4,2,0,15,1,0
39511,246.812011517894,4,2,0,15,1,0
39757,230.769230769231,4,2,0,15,1,0
40565,230.769230769231,4,2,0,15,1,0
60613,230.769230769231,4,2,0,15,1,0
60940,230.769230769231,4,2,0,15,1,0
61530,230.769230769231,4,2,0,15,1,0
62093,230.769230769231,4,2,0,15,1,0
63116,230.769230769231,4,2,0,15,1,0
63361,230.769230769231,4,2,0,15,1,0
63611,230.769230769231,4,2,0,15,1,0

[Colours]
Combo1 : 26,104,46
Combo2 : 155,28,21
Combo3 : 20,97,78
Combo4 : 139,57,27

[HitObjects]
448,192,873,128,0,988:0:0:0:0:
320,192,988,128,0,1103:0:0:0:0:
448,192,1103,128,0,1219:0:0:0:0:
320,192,1219,128,0,1450:0:0:0:0:
448,192,1450,128,0,1680:0:0:0:0:
320,192,1680,128,0,1911:0:0:0:0:
448,192,1911,128,0,2142:0:0:0:0:
320,192,2142,128,0,2373:0:0:0:0:
64,192,2373,1,0,0:0:0:0:
192,192,2373,1,0,0:0:0:0:
320,192,2430,1,0,0:0:0:0:
448,192,2430,1,0,0:0:0:0:
192,192,2488,1,0,0:0:0:0:
64,192,2488,1,0,0:0:0:0:
448,192,2488,1,0,0:0:0:0:
320,192,2719,1,0,0:0:0:0:
448,192,2719,1,0,0:0:0:0:
192,192,2950,1,0,0:0:0:0:
320,192,2950,1,0,0:0:0:0:
448,192,2950,1,0,0:0:0:0:
448,192,3180,1,0,0:0:0:0:
320,192,3180,1,0,0:0:0:0:
192,192,3180,1,0,0:0:0:0:
64,192,3180,1,0,0:0:0:0:
320,192,3411,1,0,0:0:0:0:
64,192,3411,1,0,0:0:0:0:
192,192,3411,1,0,0:0:0:0:
448,192,3411,1,0,0:0:0:0:
192,192,3642,1,0,0:0:0:0:
448,192,3642,1,0,0:0:0:0:
320,192,3642,1,0,0:0:0:0:
64,192,3642,1,0,0:0:0:0:
320,192,3873,1,0,0:0:0:0:
64,192,3873,1,0,0:0:0:0:
192,192,3873,1,0,0:0:0:0:
448,192,3873,1,0,0:0:0:0:
192,192,4103,1,0,0:0:0:0:
448,192,4103,1,0,0:0:0:0:
320,192,4103,1,0,0:0:0:0:
64,192,4103,1,0,0:0:0:0:
320,192,4219,1,0,0:0:0:0:
64,192,4219,1,0,0:0:0:0:
192,192,4219,1,0,0:0:0:0:
448,192,4219,1,0,0:0:0:0:
64,192,4565,128,0,4680:0:0:0:0:
320,192,4565,1,0,0:0:0:0:
448,192,4565,1,0,0:0:0:0:
192,192,4565,1,0,0:0:0:0:
192,192,4680,128,0,4796:0:0:0:0:
320,192,4796,128,0,4911:0:0:0:0:
448,192,4911,128,0,5142:0:0:0:0:
320,192,5142,128,0,5373:0:0:0:0:
64,192,5373,128,0,5603:0:0:0:0:
192,192,5603,128,0,5719:0:0:0:0:
320,192,5719,128,0,5950:0:0:0:0:
448,192,5950,128,0,6065:0:0:0:0:
320,192,6065,128,0,6180:0:0:0:0:
192,192,6180,128,0,6296:0:0:0:0:
64,192,6296,128,0,6411:0:0:0:0:
448,192,6411,128,0,6526:0:0:0:0:
320,192,6526,128,0,6642:0:0:0:0:
192,192,6642,128,0,6757:0:0:0:0:
64,192,6757,128,0,6988:0:0:0:0:
192,192,6988,128,0,7103:0:0:0:0:
192,192,7219,128,0,7334:0:0:0:0:
320,192,7334,128,0,7450:0:0:0:0:
448,192,7450,128,0,7565:0:0:0:0:
192,192,7565,128,0,7680:0:0:0:0:
320,192,7680,128,0,7796:0:0:0:0:
64,192,7796,128,0,7911:0:0:0:0:
192,192,7911,128,0,8026:0:0:0:0:
64,192,8026,128,0,8257:0:0:0:0:
192,192,8257,128,0,8373:0:0:0:0:
320,192,8257,1,0,0:0:0:0:
448,192,8257,1,0,0:0:0:0:
320,192,8373,128,0,8488:0:0:0:0:
448,192,8488,128,0,8603:0:0:0:0:
320,192,8603,128,0,8834:0:0:0:0:
192,192,8834,128,0,9065:0:0:0:0:
64,192,9065,128,0,9296:0:0:0:0:
192,192,9296,128,0,9411:0:0:0:0:
320,192,9411,128,0,9642:0:0:0:0:
448,192,9642,128,0,9757:0:0:0:0:
320,192,9757,128,0,9873:0:0:0:0:
192,192,9873,128,0,10103:0:0:0:0:
64,192,9988,128,0,10103:0:0:0:0:
320,192,10103,1,0,0:0:0:0:
448,192,10103,1,0,0:0:0:0:
448,192,10334,1,0,0:0:0:0:
320,192,10334,1,0,0:0:0:0:
320,192,10488,1,0,0:0:0:0:
192,192,10526,1,0,0:0:0:0:
64,192,10565,1,0,0:0:0:0:
448,192,10565,1,0,0:0:0:0:
320,192,10680,1,0,0:0:0:0:
192,192,10796,1,0,0:0:0:0:
64,192,10796,1,0,0:0:0:0:
192,192,10911,1,0,0:0:0:0:
448,192,10911,128,0,11257:0:0:0:0:
320,192,10911,128,0,11257:0:0:0:0:
64,192,11142,1,0,0:0:0:0:
192,192,11257,1,0,0:0:0:0:
64,192,11257,1,0,0:0:0:0:
192,192,11430,1,0,0:0:0:0:
64,192,11430,1,0,0:0:0:0:
320,192,11488,1,0,0:0:0:0:
448,192,11488,1,0,0:0:0:0:
320,192,11603,1,0,0:0:0:0:
448,192,11603,1,0,0:0:0:0:
320,192,11719,1,0,0:0:0:0:
448,192,11719,1,0,0:0:0:0:
448,192,11834,1,0,0:0:0:0:
320,192,11834,1,0,0:0:0:0:
64,192,11950,1,0,0:0:0:0:
192,192,11950,1,0,0:0:0:0:
320,192,12007,1,0,0:0:0:0:
448,192,12065,1,0,0:0:0:0:
64,192,12065,1,0,0:0:0:0:
192,192,12123,1,0,0:0:0:0:
320,192,12180,1,0,0:0:0:0:
448,192,12180,1,0,0:0:0:0:
192,192,12238,1,0,0:0:0:0:
64,192,12296,1,0,0:0:0:0:
448,192,12296,1,0,0:0:0:0:
320,192,12353,1,0,0:0:0:0:
192,192,12411,1,0,0:0:0:0:
64,192,12411,1,0,0:0:0:0:
448,192,12469,1,0,0:0:0:0:
320,192,12526,1,0,0:0:0:0:
64,192,12526,1,0,0:0:0:0:
192,192,12584,1,0,0:0:0:0:
320,192,12642,1,0,0:0:0:0:
448,192,12642,1,0,0:0:0:0:
64,192,12700,1,0,0:0:0:0:
192,192,12757,1,0,0:0:0:0:
320,192,12757,1,0,0:0:0:0:
448,192,12815,1,0,0:0:0:0:
192,192,12873,1,0,0:0:0:0:
64,192,12873,1,0,0:0:0:0:
320,192,12930,1,0,0:0:0:0:
448,192,12988,1,0,0:0:0:0:
192,192,12988,1,0,0:0:0:0:
64,192,13046,1,0,0:0:0:0:
320,192,13103,1,0,0:0:0:0:
448,192,13103,1,0,0:0:0:0:
192,192,13161,1,0,0:0:0:0:
64,192,13219,1,0,0:0:0:0:
320,192,13219,1,0,0:0:0:0:
192,192,13276,1,0,0:0:0:0:
320,192,13334,1,0,0:0:0:0:
448,192,13334,1,0,0:0:0:0:
64,192,13392,1,0,0:0:0:0:
192,192,13450,1,0,0:0:0:0:
448,192,13450,1,0,0:0:0:0:
320,192,13507,1,0,0:0:0:0:
192,192,13565,1,0,0:0:0:0:
64,192,13565,1,0,0:0:0:0:
448,192,13623,1,0,0:0:0:0:
320,192,13680,1,0,0:0:0:0:
64,192,13680,1,0,0:0:0:0:
192,192,13738,1,0,0:0:0:0:
448,192,13796,1,0,0:0:0:0:
320,192,13796,1,0,0:0:0:0:
64,192,13796,1,0,0:0:0:0:
320,192,13911,1,0,0:0:0:0:
320,192,14026,1,0,0:0:0:0:
448,192,14026,1,0,0:0:0:0:
192,192,14026,1,0,0:0:0:0:
64,192,14180,1,0,0:0:0:0:
192,192,14180,1,0,0:0:0:0:
320,192,14257,1,0,0:0:0:0:
448,192,14257,1,0,0:0:0:0:
320,192,14373,1,0,0:0:0:0:
448,192,14373,1,0,0:0:0:0:
320,192,14450,1,0,0:0:0:0:
448,192,14450,1,0,0:0:0:0:
64,192,14603,1,0,0:0:0:0:
192,192,14603,1,0,0:0:0:0:
320,192,14603,1,0,0:0:0:0:
448,192,14603,1,0,0:0:0:0:
192,192,14834,1,0,0:0:0:0:
320,192,14950,1,0,0:0:0:0:
192,192,14950,1,0,0:0:0:0:
448,192,14950,1,0,0:0:0:0:
320,192,15180,1,0,0:0:0:0:
320,192,15296,1,0,0:0:0:0:
448,192,15411,1,0,0:0:0:0:
192,192,15411,1,0,0:0:0:0:
64,192,15411,1,0,0:0:0:0:
64,192,15642,1,0,0:0:0:0:
192,192,15642,128,0,15873:0:0:0:0:
320,192,15642,1,0,0:0:0:0:
320,192,15873,128,0,15988:0:0:0:0:
64,192,15873,1,0,0:0:0:0:
448,192,15873,1,0,0:0:0:0:
448,192,15988,128,0,16103:0:0:0:0:
192,192,15988,1,0,0:0:0:0:
320,192,16103,128,0,16219:0:0:0:0:
64,192,16219,128,0,16276:0:0:0:0:
192,192,16334,1,0,0:0:0:0:
448,192,16334,128,0,17488:0:0:0:0:
320,192,16334,128,0,17488:0:0:0:0:
64,192,16565,1,0,0:0:0:0:
192,192,16661,1,0,0:0:0:0:
64,192,16661,1,0,0:0:0:0:
192,192,16776,1,0,0:0:0:0:
64,192,16776,1,0,0:0:0:0:
192,192,16892,1,0,0:0:0:0:
64,192,16892,1,0,0:0:0:0:
64,192,17007,1,0,0:0:0:0:
192,192,17007,1,0,0:0:0:0:
192,192,17123,1,0,0:0:0:0:
64,192,17123,1,0,0:0:0:0:
192,192,17238,1,0,0:0:0:0:
64,192,17238,1,0,0:0:0:0:
192,192,17488,1,0,0:0:0:0:
64,192,17488,1,0,0:0:0:0:
320,192,17546,1,0,0:0:0:0:
448,192,17603,1,0,0:0:0:0:
64,192,17661,1,0,0:0:0:0:
192,192,17719,1,0,0:0:0:0:
320,192,17719,1,0,0:0:0:0:
448,192,17776,1,0,0:0:0:0:
64,192,17834,1,0,0:0:0:0:
192,192,17892,1,0,0:0:0:0:
320,192,17950,1,0,0:0:0:0:
448,192,17950,1,0,0:0:0:0:
192,192,18007,1,0,0:0:0:0:
64,192,18065,1,0,0:0:0:0:
448,192,18065,1,0,0:0:0:0:
320,192,18123,1,0,0:0:0:0:
192,192,18180,1,0,0:0:0:0:
64,192,18180,1,0,0:0:0:0:
448,192,18238,1,0,0:0:0:0:
320,192,18296,1,0,0:0:0:0:
192,192,18353,1,0,0:0:0:0:
64,192,18411,1,0,0:0:0:0:
448,192,18411,1,0,0:0:0:0:
320,192,18469,1,0,0:0:0:0:
192,192,18526,1,0,0:0:0:0:
320,192,18584,1,0,0:0:0:0:
448,192,18642,1,0,0:0:0:0:
64,192,18642,1,0,0:0:0:0:
192,192,18700,1,0,0:0:0:0:
448,192,18757,1,0,0:0:0:0:
320,192,18786,1,0,0:0:0:0:
64,192,18815,1,0,0:0:0:0:
192,192,18843,1,0,0:0:0:0:
320,192,18873,1,0,0:0:0:0:
448,192,18901,1,0,0:0:0:0:
64,192,18930,1,0,0:0:0:0:
192,192,18959,1,0,0:0:0:0:
320,192,18988,1,0,0:0:0:0:
448,192,19016,1,0,0:0:0:0:
64,192,19046,1,0,0:0:0:0:
192,192,19074,1,0,0:0:0:0:
448,192,19103,1,0,0:0:0:0:
320,192,19132,1,0,0:0:0:0:
192,192,19161,1,0,0:0:0:0:
64,192,19190,1,0,0:0:0:0:
448,192,19219,1,0,0:0:0:0:
320,192,19276,1,0,0:0:0:0:
192,192,19334,1,0,0:0:0:0:
64,192,19334,1,0,0:0:0:0:
448,192,19392,1,0,0:0:0:0:
320,192,19450,1,0,0:0:0:0:
64,192,19450,1,0,0:0:0:0:
192,192,19507,1,0,0:0:0:0:
320,192,19565,1,0,0:0:0:0:
448,192,19565,1,0,0:0:0:0:
64,192,19623,1,0,0:0:0:0:
192,192,19680,1,0,0:0:0:0:
320,192,19680,1,0,0:0:0:0:
448,192,19738,1,0,0:0:0:0:
192,192,19796,1,0,0:0:0:0:
64,192,19796,1,0,0:0:0:0:
320,192,19853,1,0,0:0:0:0:
448,192,19911,1,0,0:0:0:0:
192,192,19911,1,0,0:0:0:0:
64,192,19969,1,0,0:0:0:0:
320,192,20026,1,0,0:0:0:0:
448,192,20026,1,0,0:0:0:0:
192,192,20084,1,0,0:0:0:0:
64,192,20142,1,0,0:0:0:0:
320,192,20142,1,0,0:0:0:0:
448,192,20142,1,0,0:0:0:0:
192,192,20257,1,0,0:0:0:0:
192,192,20373,1,0,0:0:0:0:
64,192,20373,1,0,0:0:0:0:
448,192,20373,1,0,0:0:0:0:
320,192,20488,1,0,0:0:0:0:
448,192,20488,1,0,0:0:0:0:
64,192,20603,1,0,0:0:0:0:
192,192,20632,1,0,0:0:0:0:
320,192,20661,1,0,0:0:0:0:
448,192,20690,1,0,0:0:0:0:
64,192,20719,1,0,0:0:0:0:
192,192,20747,1,0,0:0:0:0:
448,192,20776,1,0,0:0:0:0:
320,192,20805,1,0,0:0:0:0:
64,192,20834,1,0,0:0:0:0:
192,192,20863,1,0,0:0:0:0:
320,192,20892,1,0,0:0:0:0:
448,192,20920,1,0,0:0:0:0:
64,192,20950,1,0,0:0:0:0:
192,192,20978,1,0,0:0:0:0:
448,192,21007,1,0,0:0:0:0:
320,192,21036,1,0,0:0:0:0:
64,192,21065,1,0,0:0:0:0:
192,192,21093,1,0,0:0:0:0:
320,192,21123,1,0,0:0:0:0:
448,192,21151,1,0,0:0:0:0:
64,192,21180,1,0,0:0:0:0:
192,192,21180,1,0,0:0:0:0:
448,192,21296,1,0,0:0:0:0:
64,192,21411,1,0,0:0:0:0:
320,192,21411,1,0,0:0:0:0:
192,192,21526,1,0,0:0:0:0:
320,192,21642,1,0,0:0:0:0:
448,192,21642,1,0,0:0:0:0:
192,192,21757,1,0,0:0:0:0:
64,192,21757,1,0,0:0:0:0:
64,192,21873,1,0,0:0:0:0:
320,192,21873,1,0,0:0:0:0:
192,192,21873,1,0,0:0:0:0:
448,192,21988,1,0,0:0:0:0:
192,192,22103,1,0,0:0:0:0:
64,192,22103,1,0,0:0:0:0:
320,192,22219,1,0,0:0:0:0:
192,192,22334,1,0,0:0:0:0:
448,192,22334,1,0,0:0:0:0:
64,192,22450,1,0,0:0:0:0:
448,192,22565,1,0,0:0:0:0:
192,192,22565,1,0,0:0:0:0:
448,192,22680,1,0,0:0:0:0:
320,192,22680,1,0,0:0:0:0:
64,192,22796,1,0,0:0:0:0:
320,192,22796,1,0,0:0:0:0:
192,192,22796,1,0,0:0:0:0:
192,192,22911,1,0,0:0:0:0:
64,192,23026,1,0,0:0:0:0:
448,192,23026,1,0,0:0:0:0:
320,192,23142,1,0,0:0:0:0:
192,192,23257,1,0,0:0:0:0:
64,192,23257,1,0,0:0:0:0:
320,192,23373,1,0,0:0:0:0:
64,192,23488,1,0,0:0:0:0:
448,192,23488,1,0,0:0:0:0:
192,192,23603,1,0,0:0:0:0:
320,192,23603,1,0,0:0:0:0:
448,192,23719,1,0,0:0:0:0:
192,192,23719,1,0,0:0:0:0:
320,192,23719,1,0,0:0:0:0:
64,192,23834,1,0,0:0:0:0:
320,192,23950,1,0,0:0:0:0:
448,192,23950,1,0,0:0:0:0:
192,192,24065,1,0,0:0:0:0:
320,192,24180,1,0,0:0:0:0:
64,192,24180,1,0,0:0:0:0:
448,192,24296,1,0,0:0:0:0:
64,192,24411,1,0,0:0:0:0:
320,192,24411,1,0,0:0:0:0:
64,192,24526,1,0,0:0:0:0:
192,192,24526,1,0,0:0:0:0:
448,192,24642,1,0,0:0:0:0:
192,192,24642,1,0,0:0:0:0:
320,192,24642,1,0,0:0:0:0:
320,192,24757,1,0,0:0:0:0:
448,192,24873,1,0,0:0:0:0:
64,192,24873,1,0,0:0:0:0:
192,192,24988,1,0,0:0:0:0:
320,192,25103,1,0,0:0:0:0:
448,192,25103,1,0,0:0:0:0:
64,192,25219,1,0,0:0:0:0:
448,192,25334,1,0,0:0:0:0:
192,192,25334,1,0,0:0:0:0:
320,192,25450,1,0,0:0:0:0:
64,192,25450,1,0,0:0:0:0:
64,192,25565,1,0,0:0:0:0:
320,192,25565,1,0,0:0:0:0:
192,192,25565,1,0,0:0:0:0:
448,192,25680,1,0,0:0:0:0:
320,192,25796,1,0,0:0:0:0:
192,192,25796,1,0,0:0:0:0:
64,192,25911,1,0,0:0:0:0:
192,192,26026,1,0,0:0:0:0:
448,192,26026,1,0,0:0:0:0:
320,192,26142,1,0,0:0:0:0:
192,192,26257,1,0,0:0:0:0:
64,192,26257,1,0,0:0:0:0:
320,192,26373,1,0,0:0:0:0:
192,192,26373,1,0,0:0:0:0:
320,192,26488,1,0,0:0:0:0:
448,192,26488,1,0,0:0:0:0:
64,192,26488,1,0,0:0:0:0:
192,192,26603,1,0,0:0:0:0:
448,192,26719,1,0,0:0:0:0:
64,192,26719,1,0,0:0:0:0:
320,192,26834,1,0,0:0:0:0:
192,192,26950,1,0,0:0:0:0:
64,192,26950,1,0,0:0:0:0:
320,192,27065,1,0,0:0:0:0:
448,192,27180,1,0,0:0:0:0:
192,192,27180,1,0,0:0:0:0:
64,192,27296,1,0,0:0:0:0:
192,192,27296,1,0,0:0:0:0:
320,192,27411,1,0,0:0:0:0:
448,192,27411,1,0,0:0:0:0:
64,192,27411,1,0,0:0:0:0:
192,192,27526,1,0,0:0:0:0:
320,192,27642,1,0,0:0:0:0:
448,192,27642,1,0,0:0:0:0:
192,192,27757,1,0,0:0:0:0:
320,192,27873,1,0,0:0:0:0:
64,192,27873,1,0,0:0:0:0:
192,192,27988,1,0,0:0:0:0:
320,192,28103,1,0,0:0:0:0:
448,192,28103,1,0,0:0:0:0:
192,192,28219,1,0,0:0:0:0:
64,192,28219,1,0,0:0:0:0:
448,192,28334,1,0,0:0:0:0:
64,192,28334,1,0,0:0:0:0:
320,192,28334,1,0,0:0:0:0:
192,192,28450,1,0,0:0:0:0:
320,192,28565,1,0,0:0:0:0:
448,192,28565,1,0,0:0:0:0:
192,192,28680,1,0,0:0:0:0:
320,192,28796,1,0,0:0:0:0:
64,192,28796,1,0,0:0:0:0:
448,192,28911,1,0,0:0:0:0:
64,192,29026,1,0,0:0:0:0:
320,192,29026,1,0,0:0:0:0:
64,192,29142,1,0,0:0:0:0:
192,192,29142,1,0,0:0:0:0:
448,192,29257,1,0,0:0:0:0:
192,192,29257,1,0,0:0:0:0:
320,192,29257,1,0,0:0:0:0:
64,192,29373,1,0,0:0:0:0:
192,192,29488,1,0,0:0:0:0:
320,192,29488,1,0,0:0:0:0:
448,192,29603,1,0,0:0:0:0:
320,192,29719,1,0,0:0:0:0:
64,192,29719,1,0,0:0:0:0:
192,192,29834,1,0,0:0:0:0:
320,192,29950,1,0,0:0:0:0:
448,192,29950,1,0,0:0:0:0:
192,192,30065,1,0,0:0:0:0:
320,192,30065,1,0,0:0:0:0:
192,192,30180,1,0,0:0:0:0:
64,192,30180,1,0,0:0:0:0:
448,192,30180,1,0,0:0:0:0:
320,192,30296,1,0,0:0:0:0:
64,192,30411,1,0,0:0:0:0:
448,192,30411,1,0,0:0:0:0:
192,192,30526,1,0,0:0:0:0:
320,192,30642,1,0,0:0:0:0:
448,192,30642,1,0,0:0:0:0:
192,192,30757,1,0,0:0:0:0:
64,192,30873,1,0,0:0:0:0:
320,192,30873,1,0,0:0:0:0:
448,192,30988,1,0,0:0:0:0:
320,192,30988,1,0,0:0:0:0:
192,192,31103,1,0,0:0:0:0:
64,192,31103,1,0,0:0:0:0:
448,192,31103,1,0,0:0:0:0:
320,192,31219,1,0,0:0:0:0:
192,192,31334,1,0,0:0:0:0:
64,192,31334,1,0,0:0:0:0:
320,192,31450,1,0,0:0:0:0:
192,192,31565,1,0,0:0:0:0:
448,192,31565,1,0,0:0:0:0:
64,192,31680,1,0,0:0:0:0:
320,192,31796,1,0,0:0:0:0:
448,192,31796,1,0,0:0:0:0:
192,192,31911,1,0,0:0:0:0:
320,192,31911,1,0,0:0:0:0:
64,192,32026,1,0,0:0:0:0:
192,192,32026,1,0,0:0:0:0:
448,192,32026,1,0,0:0:0:0:
320,192,32257,1,0,0:0:0:0:
448,192,32257,1,0,0:0:0:0:
192,192,32315,1,0,0:0:0:0:
64,192,32373,1,0,0:0:0:0:
448,192,32430,1,0,0:0:0:0:
320,192,32488,1,0,0:0:0:0:
192,192,32488,1,0,0:0:0:0:
64,192,32546,1,0,0:0:0:0:
448,192,32603,1,0,0:0:0:0:
320,192,32661,1,0,0:0:0:0:
192,192,32719,1,0,0:0:0:0:
64,192,32719,1,0,0:0:0:0:
320,192,32776,1,0,0:0:0:0:
448,192,32834,1,0,0:0:0:0:
64,192,32834,1,0,0:0:0:0:
192,192,32892,1,0,0:0:0:0:
320,192,32950,1,0,0:0:0:0:
448,192,32950,1,0,0:0:0:0:
64,192,33007,1,0,0:0:0:0:
192,192,33065,1,0,0:0:0:0:
320,192,33065,1,0,0:0:0:0:
448,192,33123,1,0,0:0:0:0:
64,192,33180,1,0,0:0:0:0:
320,192,33180,1,0,0:0:0:0:
192,192,33238,1,0,0:0:0:0:
64,192,33296,1,0,0:0:0:0:
448,192,33296,1,0,0:0:0:0:
320,192,33353,1,0,0:0:0:0:
192,192,33411,1,0,0:0:0:0:
448,192,33411,1,0,0:0:0:0:
64,192,33469,1,0,0:0:0:0:
448,192,33526,1,0,0:0:0:0:
320,192,33555,1,0,0:0:0:0:
192,192,33584,1,0,0:0:0:0:
64,192,33613,1,0,0:0:0:0:
448,192,33642,1,0,0:0:0:0:
320,192,33670,1,0,0:0:0:0:
192,192,33700,1,0,0:0:0:0:
64,192,33728,1,0,0:0:0:0:
448,192,33757,1,0,0:0:0:0:
320,192,33786,1,0,0:0:0:0:
64,192,33815,1,0,0:0:0:0:
192,192,33843,1,0,0:0:0:0:
320,192,33873,1,0,0:0:0:0:
448,192,33901,1,0,0:0:0:0:
192,192,33930,1,0,0:0:0:0:
64,192,33959,1,0,0:0:0:0:
448,192,33988,1,0,0:0:0:0:
320,192,34046,1,0,0:0:0:0:
64,192,34103,1,0,0:0:0:0:
192,192,34103,1,0,0:0:0:0:
448,192,34161,1,0,0:0:0:0:
320,192,34219,1,0,0:0:0:0:
192,192,34276,1,0,0:0:0:0:
320,192,34334,1,0,0:0:0:0:
448,192,34334,1,0,0:0:0:0:
64,192,34392,1,0,0:0:0:0:
192,192,34450,1,0,0:0:0:0:
320,192,34507,1,0,0:0:0:0:
64,192,34565,1,0,0:0:0:0:
448,192,34565,1,0,0:0:0:0:
192,192,34623,1,0,0:0:0:0:
448,192,34680,1,0,0:0:0:0:
320,192,34680,1,0,0:0:0:0:
320,192,34796,1,0,0:0:0:0:
448,192,34796,1,0,0:0:0:0:
192,192,34853,1,0,0:0:0:0:
64,192,34911,1,0,0:0:0:0:
320,192,34911,1,0,0:0:0:0:
448,192,34911,1,0,0:0:0:0:
192,192,35026,1,0,0:0:0:0:
320,192,35026,1,0,0:0:0:0:
64,192,35142,1,0,0:0:0:0:
192,192,35142,1,0,0:0:0:0:
448,192,35142,1,0,0:0:0:0:
64,192,35257,1,0,0:0:0:0:
320,192,35257,1,0,0:0:0:0:
448,192,35373,1,0,0:0:0:0:
320,192,35401,1,0,0:0:0:0:
64,192,35430,1,0,0:0:0:0:
192,192,35459,1,0,0:0:0:0:
320,192,35488,1,0,0:0:0:0:
448,192,35516,1,0,0:0:0:0:
64,192,35546,1,0,0:0:0:0:
192,192,35574,1,0,0:0:0:0:
320,192,35603,1,0,0:0:0:0:
448,192,35632,1,0,0:0:0:0:
64,192,35661,1,0,0:0:0:0:
192,192,35690,1,0,0:0:0:0:
448,192,35719,1,0,0:0:0:0:
320,192,35747,1,0,0:0:0:0:
192,192,35776,1,0,0:0:0:0:
64,192,35805,1,0,0:0:0:0:
448,192,35834,1,0,0:0:0:0:
320,192,35834,1,0,0:0:0:0:
64,192,36065,1,0,0:0:0:0:
192,192,36065,1,0,0:0:0:0:
192,192,36180,1,0,0:0:0:0:
320,192,36180,1,0,0:0:0:0:
448,192,36180,1,0,0:0:0:0:
320,192,36411,1,0,0:0:0:0:
448,192,36411,1,0,0:0:0:0:
320,192,36526,1,0,0:0:0:0:
192,192,36526,1,0,0:0:0:0:
64,192,36642,1,0,0:0:0:0:
192,192,36642,1,0,0:0:0:0:
448,192,36642,1,0,0:0:0:0:
192,192,36873,1,0,0:0:0:0:
320,192,36873,1,0,0:0:0:0:
192,192,36988,1,0,0:0:0:0:
448,192,36988,1,0,0:0:0:0:
320,192,37103,1,0,0:0:0:0:
64,192,37103,1,0,0:0:0:0:
448,192,37103,1,0,0:0:0:0:
320,192,37334,1,0,0:0:0:0:
448,192,37334,1,0,0:0:0:0:
448,192,37450,1,0,0:0:0:0:
320,192,37450,1,0,0:0:0:0:
320,192,37565,1,0,0:0:0:0:
448,192,37565,1,0,0:0:0:0:
448,192,37680,1,0,0:0:0:0:
320,192,37680,1,0,0:0:0:0:
192,192,37680,1,0,0:0:0:0:
64,192,37911,1,0,0:0:0:0:
192,192,37911,1,0,0:0:0:0:
64,192,38026,1,0,0:0:0:0:
320,192,38026,1,0,0:0:0:0:
448,192,38026,1,0,0:0:0:0:
192,192,38257,1,0,0:0:0:0:
448,192,38257,1,0,0:0:0:0:
64,192,38373,1,0,0:0:0:0:
320,192,38373,1,0,0:0:0:0:
64,192,38488,1,0,0:0:0:0:
448,192,38488,1,0,0:0:0:0:
192,192,38488,1,0,0:0:0:0:
320,192,38719,1,0,0:0:0:0:
448,192,38719,1,0,0:0:0:0:
192,192,38834,1,0,0:0:0:0:
64,192,38834,1,0,0:0:0:0:
320,192,38834,1,0,0:0:0:0:
448,192,38950,1,0,0:0:0:0:
192,192,38950,1,0,0:0:0:0:
64,192,38950,1,0,0:0:0:0:
320,192,39065,1,0,0:0:0:0:
448,192,39065,1,0,0:0:0:0:
192,192,39123,1,0,0:0:0:0:
64,192,39123,1,0,0:0:0:0:
320,192,39180,1,0,0:0:0:0:
448,192,39180,1,0,0:0:0:0:
64,192,39266,1,0,0:0:0:0:
192,192,39382,1,0,0:0:0:0:
320,192,39497,1,0,0:0:0:0:
448,192,39497,1,0,0:0:0:0:
64,192,39497,1,0,0:0:0:0:
320,192,39757,1,0,0:0:0:0:
192,192,39873,1,0,0:0:0:0:
64,192,39873,1,0,0:0:0:0:
448,192,39873,1,0,0:0:0:0:
448,192,40103,1,0,0:0:0:0:
320,192,40219,1,0,0:0:0:0:
192,192,40334,1,0,0:0:0:0:
64,192,40334,1,0,0:0:0:0:
320,192,40565,1,0,0:0:0:0:
448,192,40565,1,0,0:0:0:0:
192,192,40680,1,0,0:0:0:0:
64,192,40796,1,0,0:0:0:0:
320,192,40796,1,0,0:0:0:0:
448,192,40796,1,0,0:0:0:0:
192,192,40911,1,0,0:0:0:0:
448,192,41026,1,0,0:0:0:0:
320,192,41142,1,0,0:0:0:0:
64,192,41257,1,0,0:0:0:0:
192,192,41257,1,0,0:0:0:0:
448,192,41257,1,0,0:0:0:0:
192,192,41373,1,0,0:0:0:0:
64,192,41488,1,0,0:0:0:0:
320,192,41488,1,0,0:0:0:0:
448,192,41488,1,0,0:0:0:0:
320,192,41603,1,0,0:0:0:0:
192,192,41719,1,0,0:0:0:0:
64,192,41719,1,0,0:0:0:0:
448,192,41834,1,0,0:0:0:0:
320,192,41892,1,0,0:0:0:0:
448,192,41950,1,0,0:0:0:0:
64,192,42065,1,0,0:0:0:0:
192,192,42180,1,0,0:0:0:0:
320,192,42296,1,0,0:0:0:0:
448,192,42296,1,0,0:0:0:0:
64,192,42296,1,0,0:0:0:0:
448,192,42526,1,0,0:0:0:0:
192,192,42642,1,0,0:0:0:0:
64,192,42642,1,0,0:0:0:0:
320,192,42642,1,0,0:0:0:0:
448,192,42873,128,0,42988:0:0:0:0:
320,192,42873,1,0,0:0:0:0:
320,192,42988,128,0,43103:0:0:0:0:
192,192,43103,128,0,43219:0:0:0:0:
64,192,43219,128,0,43334:0:0:0:0:
192,192,43334,1,0,0:0:0:0:
320,192,43334,1,0,0:0:0:0:
448,192,43334,1,0,0:0:0:0:
64,192,43392,1,0,0:0:0:0:
192,192,43450,1,0,0:0:0:0:
320,192,43507,1,0,0:0:0:0:
64,192,43565,1,0,0:0:0:0:
192,192,43565,1,0,0:0:0:0:
448,192,43565,1,0,0:0:0:0:
320,192,43623,1,0,0:0:0:0:
64,192,43680,1,0,0:0:0:0:
192,192,43738,1,0,0:0:0:0:
64,192,43796,1,0,0:0:0:0:
320,192,43796,1,0,0:0:0:0:
448,192,43853,1,0,0:0:0:0:
320,192,43911,1,0,0:0:0:0:
192,192,43911,1,0,0:0:0:0:
64,192,43969,1,0,0:0:0:0:
192,192,44026,1,0,0:0:0:0:
320,192,44026,1,0,0:0:0:0:
448,192,44026,1,0,0:0:0:0:
64,192,44084,1,0,0:0:0:0:
448,192,44142,1,0,0:0:0:0:
320,192,44200,1,0,0:0:0:0:
192,192,44257,1,0,0:0:0:0:
64,192,44257,1,0,0:0:0:0:
448,192,44315,1,0,0:0:0:0:
64,192,44373,1,0,0:0:0:0:
192,192,44430,1,0,0:0:0:0:
320,192,44488,1,0,0:0:0:0:
64,192,44488,1,0,0:0:0:0:
448,192,44488,1,0,0:0:0:0:
192,192,44546,1,0,0:0:0:0:
320,192,44603,1,0,0:0:0:0:
448,192,44661,1,0,0:0:0:0:
192,192,44719,1,0,0:0:0:0:
64,192,44719,1,0,0:0:0:0:
320,192,44776,1,0,0:0:0:0:
192,192,44834,1,0,0:0:0:0:
448,192,44834,1,0,0:0:0:0:
64,192,44892,1,0,0:0:0:0:
192,192,44950,1,0,0:0:0:0:
320,192,44950,1,0,0:0:0:0:
448,192,44950,1,0,0:0:0:0:
64,192,45007,1,0,0:0:0:0:
320,192,45065,1,0,0:0:0:0:
192,192,45123,1,0,0:0:0:0:
64,192,45180,1,0,0:0:0:0:
448,192,45180,1,0,0:0:0:0:
192,192,45238,1,0,0:0:0:0:
320,192,45296,1,0,0:0:0:0:
448,192,45353,1,0,0:0:0:0:
64,192,45411,1,0,0:0:0:0:
192,192,45411,1,0,0:0:0:0:
320,192,45411,1,0,0:0:0:0:
448,192,45469,1,0,0:0:0:0:
320,192,45526,1,0,0:0:0:0:
64,192,45584,1,0,0:0:0:0:
192,192,45642,1,0,0:0:0:0:
448,192,45642,1,0,0:0:0:0:
320,192,45700,1,0,0:0:0:0:
192,192,45757,1,0,0:0:0:0:
64,192,45757,1,0,0:0:0:0:
320,192,45815,1,0,0:0:0:0:
192,192,45873,1,0,0:0:0:0:
64,192,45873,1,0,0:0:0:0:
448,192,45873,1,0,0:0:0:0:
320,192,45930,1,0,0:0:0:0:
448,192,45988,1,0,0:0:0:0:
64,192,46046,1,0,0:0:0:0:
192,192,46103,1,0,0:0:0:0:
320,192,46103,1,0,0:0:0:0:
448,192,46161,1,0,0:0:0:0:
64,192,46219,1,0,0:0:0:0:
192,192,46276,1,0,0:0:0:0:
320,192,46334,1,0,0:0:0:0:
64,192,46334,1,0,0:0:0:0:
448,192,46334,1,0,0:0:0:0:
192,192,46392,1,0,0:0:0:0:
448,192,46450,1,0,0:0:0:0:
320,192,46507,1,0,0:0:0:0:
192,192,46565,1,0,0:0:0:0:
64,192,46565,1,0,0:0:0:0:
448,192,46623,1,0,0:0:0:0:
320,192,46680,1,0,0:0:0:0:
64,192,46738,1,0,0:0:0:0:
320,192,46796,1,0,0:0:0:0:
448,192,46796,1,0,0:0:0:0:
192,192,46796,1,0,0:0:0:0:
64,192,46853,1,0,0:0:0:0:
192,192,46911,1,0,0:0:0:0:
448,192,46969,1,0,0:0:0:0:
64,192,47026,1,0,0:0:0:0:
320,192,47026,1,0,0:0:0:0:
192,192,47084,1,0,0:0:0:0:
448,192,47142,1,0,0:0:0:0:
320,192,47200,1,0,0:0:0:0:
64,192,47257,1,0,0:0:0:0:
192,192,47257,1,0,0:0:0:0:
448,192,47257,1,0,0:0:0:0:
320,192,47315,1,0,0:0:0:0:
64,192,47373,1,0,0:0:0:0:
192,192,47430,1,0,0:0:0:0:
320,192,47488,1,0,0:0:0:0:
448,192,47488,1,0,0:0:0:0:
64,192,47546,1,0,0:0:0:0:
192,192,47603,1,0,0:0:0:0:
320,192,47603,1,0,0:0:0:0:
448,192,47661,1,0,0:0:0:0:
192,192,47719,1,0,0:0:0:0:
64,192,47719,1,0,0:0:0:0:
320,192,47719,1,0,0:0:0:0:
448,192,47776,1,0,0:0:0:0:
192,192,47834,1,0,0:0:0:0:
64,192,47892,1,0,0:0:0:0:
320,192,47950,1,0,0:0:0:0:
448,192,47950,1,0,0:0:0:0:
192,192,48007,1,0,0:0:0:0:
64,192,48065,1,0,0:0:0:0:
192,192,48123,1,0,0:0:0:0:
64,192,48180,1,0,0:0:0:0:
448,192,48180,1,0,0:0:0:0:
320,192,48180,1,0,0:0:0:0:
192,192,48238,1,0,0:0:0:0:
448,192,48296,1,0,0:0:0:0:
320,192,48353,1,0,0:0:0:0:
64,192,48411,1,0,0:0:0:0:
448,192,48411,1,0,0:0:0:0:
192,192,48469,1,0,0:0:0:0:
64,192,48526,5,0,0:0:0:0:
320,192,48526,1,0,0:0:0:0:
448,192,48584,1,0,0:0:0:0:
192,192,48642,1,0,0:0:0:0:
64,192,48642,1,0,0:0:0:0:
320,192,48642,1,0,0:0:0:0:
192,192,48757,1,0,0:0:0:0:
320,192,48873,5,0,0:0:0:0:
448,192,48873,1,0,0:0:0:0:
64,192,48873,1,0,0:0:0:0:
320,192,49103,1,0,0:0:0:0:
448,192,49103,1,0,0:0:0:0:
192,192,49103,1,0,0:0:0:0:
64,192,49103,1,0,0:0:0:0:
64,192,49219,1,0,0:0:0:0:
192,192,49219,1,0,0:0:0:0:
320,192,49247,1,0,0:0:0:0:
448,192,49247,1,0,0:0:0:0:
192,192,49276,1,0,0:0:0:0:
64,192,49276,1,0,0:0:0:0:
320,192,49334,1,0,0:0:0:0:
448,192,49334,1,0,0:0:0:0:
320,192,49450,1,0,0:0:0:0:
448,192,49450,1,0,0:0:0:0:
320,192,49565,1,0,0:0:0:0:
448,192,49565,1,0,0:0:0:0:
192,192,49680,1,0,0:0:0:0:
64,192,49680,1,0,0:0:0:0:
448,192,49680,128,0,49911:0:0:0:0:
320,192,49680,128,0,49911:0:0:0:0:
64,192,49911,1,0,0:0:0:0:
192,192,49911,1,0,0:0:0:0:
64,192,50026,1,0,0:0:0:0:
320,192,50026,1,0,0:0:0:0:
192,192,50026,1,0,0:0:0:0:
320,192,50142,1,0,0:0:0:0:
448,192,50142,1,0,0:0:0:0:
192,192,50200,1,0,0:0:0:0:
64,192,50200,1,0,0:0:0:0:
320,192,50257,1,0,0:0:0:0:
448,192,50257,1,0,0:0:0:0:
320,192,50373,1,0,0:0:0:0:
448,192,50373,1,0,0:0:0:0:
448,192,50488,1,0,0:0:0:0:
320,192,50488,1,0,0:0:0:0:
448,192,50603,1,0,0:0:0:0:
320,192,50603,1,0,0:0:0:0:
320,192,50719,1,0,0:0:0:0:
448,192,50719,1,0,0:0:0:0:
192,192,50719,1,0,0:0:0:0:
64,192,50776,1,0,0:0:0:0:
192,192,50834,1,0,0:0:0:0:
448,192,50892,1,0,0:0:0:0:
64,192,50950,1,0,0:0:0:0:
192,192,50950,1,0,0:0:0:0:
320,192,50950,1,0,0:0:0:0:
448,192,51007,1,0,0:0:0:0:
320,192,51065,1,0,0:0:0:0:
192,192,51123,1,0,0:0:0:0:
448,192,51180,1,0,0:0:0:0:
64,192,51180,1,0,0:0:0:0:
320,192,51238,1,0,0:0:0:0:
64,192,51296,1,0,0:0:0:0:
192,192,51296,1,0,0:0:0:0:
448,192,51353,1,0,0:0:0:0:
64,192,51411,1,0,0:0:0:0:
192,192,51411,1,0,0:0:0:0:
320,192,51411,1,0,0:0:0:0:
448,192,51469,1,0,0:0:0:0:
192,192,51526,1,0,0:0:0:0:
320,192,51584,1,0,0:0:0:0:
64,192,51642,1,0,0:0:0:0:
448,192,51642,1,0,0:0:0:0:
320,192,51700,1,0,0:0:0:0:
192,192,51757,1,0,0:0:0:0:
64,192,51815,1,0,0:0:0:0:
192,192,51873,1,0,0:0:0:0:
320,192,51873,1,0,0:0:0:0:
448,192,51873,1,0,0:0:0:0:
64,192,51930,1,0,0:0:0:0:
192,192,51988,1,0,0:0:0:0:
448,192,52046,1,0,0:0:0:0:
64,192,52103,1,0,0:0:0:0:
320,192,52103,1,0,0:0:0:0:
192,192,52161,1,0,0:0:0:0:
448,192,52219,1,0,0:0:0:0:
320,192,52219,1,0,0:0:0:0:
192,192,52276,1,0,0:0:0:0:
64,192,52334,1,0,0:0:0:0:
448,192,52334,1,0,0:0:0:0:
320,192,52334,1,0,0:0:0:0:
192,192,52392,1,0,0:0:0:0:
64,192,52450,1,0,0:0:0:0:
448,192,52450,1,0,0:0:0:0:
320,192,52507,1,0,0:0:0:0:
192,192,52565,1,0,0:0:0:0:
64,192,52565,1,0,0:0:0:0:
448,192,52565,1,0,0:0:0:0:
192,192,52680,1,0,0:0:0:0:
64,192,52680,1,0,0:0:0:0:
320,192,52796,1,0,0:0:0:0:
448,192,52796,1,0,0:0:0:0:
192,192,52796,1,0,0:0:0:0:
192,192,52969,1,0,0:0:0:0:
64,192,52969,1,0,0:0:0:0:
320,192,53026,1,0,0:0:0:0:
448,192,53026,1,0,0:0:0:0:
192,192,53142,1,0,0:0:0:0:
64,192,53142,1,0,0:0:0:0:
320,192,53257,1,0,0:0:0:0:
448,192,53257,1,0,0:0:0:0:
320,192,53373,1,0,0:0:0:0:
448,192,53373,1,0,0:0:0:0:
64,192,53373,128,0,53603:0:0:0:0:
192,192,53373,128,0,53603:0:0:0:0:
320,192,53603,1,0,0:0:0:0:
448,192,53603,1,0,0:0:0:0:
192,192,53719,1,0,0:0:0:0:
64,192,53719,1,0,0:0:0:0:
320,192,53719,1,0,0:0:0:0:
448,192,53950,1,0,0:0:0:0:
320,192,53950,1,0,0:0:0:0:
64,192,54065,1,0,0:0:0:0:
192,192,54065,1,0,0:0:0:0:
320,192,54180,1,0,0:0:0:0:
448,192,54180,1,0,0:0:0:0:
192,192,54180,1,0,0:0:0:0:
64,192,54411,1,0,0:0:0:0:
192,192,54411,1,0,0:0:0:0:
448,192,54411,1,0,0:0:0:0:
320,192,54642,1,0,0:0:0:0:
192,192,54642,1,0,0:0:0:0:
64,192,54873,1,0,0:0:0:0:
192,192,54873,1,0,0:0:0:0:
64,192,54988,1,0,0:0:0:0:
320,192,54988,1,0,0:0:0:0:
192,192,55103,1,0,0:0:0:0:
320,192,55103,1,0,0:0:0:0:
448,192,55103,1,0,0:0:0:0:
192,192,55334,1,0,0:0:0:0:
64,192,55334,1,0,0:0:0:0:
448,192,55334,1,0,0:0:0:0:
64,192,55565,1,0,0:0:0:0:
320,192,55565,1,0,0:0:0:0:
192,192,55796,1,0,0:0:0:0:
448,192,55796,1,0,0:0:0:0:
320,192,55911,1,0,0:0:0:0:
192,192,55911,1,0,0:0:0:0:
64,192,56026,1,0,0:0:0:0:
192,192,56026,1,0,0:0:0:0:
320,192,56026,1,0,0:0:0:0:
448,192,56257,1,0,0:0:0:0:
320,192,56257,1,0,0:0:0:0:
64,192,56257,1,0,0:0:0:0:
64,192,56373,1,0,0:0:0:0:
192,192,56373,1,0,0:0:0:0:
192,192,56488,1,0,0:0:0:0:
448,192,56488,1,0,0:0:0:0:
320,192,56603,1,0,0:0:0:0:
192,192,56661,1,0,0:0:0:0:
64,192,56661,1,0,0:0:0:0:
320,192,56719,1,0,0:0:0:0:
448,192,56719,1,0,0:0:0:0:
192,192,56834,1,0,0:0:0:0:
64,192,56834,1,0,0:0:0:0:
320,192,56950,1,0,0:0:0:0:
448,192,56950,1,0,0:0:0:0:
320,192,57065,1,0,0:0:0:0:
192,192,57065,128,0,57296:0:0:0:0:
64,192,57065,128,0,57296:0:0:0:0:
320,192,57296,128,0,57411:0:0:0:0:
448,192,57296,1,0,0:0:0:0:
192,192,57411,1,0,0:0:0:0:
64,192,57411,1,0,0:0:0:0:
448,192,57411,128,0,58103:0:0:0:0:
64,192,57584,1,0,0:0:0:0:
320,192,57642,1,0,0:0:0:0:
192,192,57642,1,0,0:0:0:0:
64,192,57757,1,0,0:0:0:0:
320,192,57757,1,0,0:0:0:0:
192,192,57873,1,0,0:0:0:0:
64,192,57873,1,0,0:0:0:0:
320,192,57988,1,0,0:0:0:0:
192,192,57988,1,0,0:0:0:0:
320,192,58103,1,0,0:0:0:0:
192,192,58103,1,0,0:0:0:0:
64,192,58103,1,0,0:0:0:0:
64,192,58334,1,0,0:0:0:0:
192,192,58450,1,0,0:0:0:0:
320,192,58450,1,0,0:0:0:0:
448,192,58565,1,0,0:0:0:0:
64,192,58680,1,0,0:0:0:0:
192,192,58680,1,0,0:0:0:0:
192,192,58796,1,0,0:0:0:0:
64,192,58796,1,0,0:0:0:0:
320,192,58796,1,0,0:0:0:0:
64,192,59026,1,0,0:0:0:0:
192,192,59026,1,0,0:0:0:0:
320,192,59026,1,0,0:0:0:0:
448,192,59026,1,0,0:0:0:0:
448,192,59257,1,0,0:0:0:0:
320,192,59257,1,0,0:0:0:0:
192,192,59257,1,0,0:0:0:0:
64,192,59257,1,0,0:0:0:0:
320,192,59950,1,0,0:0:0:0:
192,192,59950,1,0,0:0:0:0:
64,192,59950,1,0,0:0:0:0:
448,192,59950,128,0,60296:0:0:0:0:
192,192,60296,128,0,60613:0:0:0:0:
320,192,60296,1,0,0:0:0:0:
64,192,60296,1,0,0:0:0:0:
320,192,60613,1,0,0:0:0:0:
448,192,60613,1,0,0:0:0:0:
64,192,60613,128,0,60940:0:0:0:0:
192,192,60940,1,0,0:0:0:0:
320,192,60940,1,0,0:0:0:0:
448,192,60940,128,0,61286:0:0:0:0:
320,192,61286,128,0,61530:0:0:0:0:
192,192,61286,1,0,0:0:0:0:
64,192,61286,1,0,0:0:0:0:
192,192,61530,1,0,0:0:0:0:
64,192,61530,1,0,0:0:0:0:
448,192,61530,128,0,61761:0:0:0:0:
320,192,61761,128,0,62093:0:0:0:0:
192,192,61761,1,0,0:0:0:0:
64,192,61761,1,0,0:0:0:0:
448,192,62093,128,0,62439:0:0:0:0:
192,192,62093,1,0,0:0:0:0:
64,192,62093,1,0,0:0:0:0:
320,192,62439,128,0,62785:0:0:0:0:
192,192,62439,1,0,0:0:0:0:
64,192,62439,1,0,0:0:0:0:
192,192,62785,128,0,63116:0:0:0:0:
64,192,62785,1,0,0:0:0:0:
448,192,62785,1,0,0:0:0:0:
320,192,63116,1,0,0:0:0:0:
448,192,63116,1,0,0:0:0:0:
64,192,63116,128,0,63361:0:0:0:0:
192,192,63361,128,0,63611:0:0:0:0:
320,192,63361,1,0,0:0:0:0:
448,192,63361,1,0,0:0:0:0:
448,192,63611,1,0,0:0:0:0:
320,192,63611,1,0,0:0:0:0:
64,192,63611,1,0,0:0:0:0:
